#TITLE:Dagomba;
#SUBTITLE:;
#ARTIST:Sorcerer;
#TITLETRANSLIT:;
#SUBTITLETRANSLIT:;
#ARTISTTRANSLIT:;
#GENRE:Techno;
#CREDIT:;
#BANNER:;
#BACKGROUND:;
#LYRICSPATH:;
#CDTITLE:;
#MUSIC:Dagomba.ogg;
#OFFSET:-0.032000;
#SAMPLESTART:18.648003;
#SAMPLELENGTH:12.000000;
#SELECTABLE:YES;
#BPMS:0.000000=145.000000
;
#STOPS:
;
#BGCHANGES:;
#KEYSOUNDS:;
#ATTACKS:;

//---------------dance-single - ----------------
#NOTES:
     dance-single:
     :
     Hard:
     13:
     0.563026,0.531706,0.102062,0.141317,0.502461,502.000000,489.000000,13.000000,18.000000,0.000000,0.000000,0.563026,0.531706,0.102062,0.141317,0.502461,502.000000,489.000000,13.000000,18.000000,0.000000,0.000000:
0000
0000
0000
0000
,
0000
0000
0000
0000
,
0000
0000
0000
0000
,
0001
0000
0000
0100
0000
0000
0010
0000
1000
0000
0000
0000
0000
0000
0000
0000
,
1000
0000
0000
1000
0100
0000
0000
1000
0100
0000
0000
1000
0010
0000
0000
1000
,
0010
0000
0000
0100
0001
0000
1000
0000
0001
0000
0100
0000
0001
0000
1000
0000
,
0001
0000
0000
0001
0100
0000
0000
0001
0010
0000
0000
0001
0100
0000
0000
0001
,
0010
0000
0000
0100
1000
0000
0010
0000
0100
0000
0001
0000
0010
0000
0100
0000
,
1000
0000
0000
0010
0100
0000
0000
0001
1000
0000
0000
0010
0100
0000
0000
0001
,
1000
0000
0010
1000
0001
0100
0010
1000
,
0001
0000
0000
0100
0010
0000
0000
1000
0001
0000
0000
0100
0010
0000
0000
1000
,
0001
0000
0100
0010
0100
1000
0100
0010
,
0100
0000
0000
0100
0001
0000
0000
0100
0001
0000
0000
0100
0010
0000
0000
0100
,
0010
0000
0000
1000
0001
0000
0010
0000
0100
0000
1000
0000
0010
0000
0100
0000
,
0010
0000
0000
0010
1000
0000
0000
0010
0100
0000
0000
0010
1000
0000
0000
0010
,
0100
0000
0000
0001
0010
0000
0100
0000
1000
0000
0010
0000
0100
0000
0001
0000
,
1000
0000
0000
0001
0010
0000
0000
0100
1000
0000
0000
0001
0010
0000
0000
0100
,
1000
0000
0000
0010
0100
0000
0001
0000
1000
0000
0010
0000
0100
0000
0001
0000
,
1000
0000
0000
0010
1000
0000
0000
0001
0100
0000
0000
0010
1000
0000
0000
0001
,
0100
0000
0000
0100
0000
0000
0100
0000
0100
0000
0000
0000
0000
0000
0000
0000
,
0010
0000
0000
1000
0000
0010
1000
0000
0001
0000
0000
0000
0000
0000
0000
0000
,
0000
0000
0000
0100
0000
0001
1000
0000
0001
0000
0000
0000
0000
0000
0000
0000
,
0000
0000
0000
0010
0000
0100
0010
0000
0001
0000
0000
0000
0000
0000
0000
0000
,
0000
0000
0000
0100
0000
0010
1000
0000
0010
0000
0000
0000
1010
0000
0000
0000
,
1000
0000
0000
0100
0000
0010
0001
0000
1000
0000
0000
0000
0000
0000
0000
0000
,
0000
0000
0000
0001
0000
0010
0100
0000
1000
0000
0000
0000
0000
0000
0000
0000
,
0000
0000
0000
0010
0000
0100
0001
0000
1000
0000
0000
0000
0000
0000
0000
0000
,
0000
0000
0000
0100
0000
0001
1000
0000
0010
0000
0100
0000
0101
0000
0000
0000
,
0011
0000
0000
0010
0000
0100
1000
0000
0001
0000
1000
0000
1001
0000
0000
0000
,
0000
0000
0000
1000
0000
0010
0100
0000
0001
0000
1000
0000
0001
0000
0000
0000
,
0000
0000
0000
0010
0000
0100
1000
0000
0010
0000
0100
0000
0010
0000
0000
0000
,
0000
0000
0000
0100
0000
0001
1000
0000
0001
0000
0010
0000
1100
0000
0000
0000
,
0100
0000
1000
0100
0000
1000
0001
0000
0100
0000
0010
0000
0100
0000
0000
0000
,
0001
0000
0010
0001
0000
1000
0010
0000
0100
0000
0010
0000
1000
0000
0000
0000
,
0001
0000
0100
0001
0000
0100
0001
0000
1000
0000
0010
0000
0100
0000
0000
0000
,
0001
0000
0000
1000
0000
0000
0010
0000
0100
0000
0000
0000
0000
0000
0000
0000
,
0001
0000
0000
0001
0010
0000
0000
0001
0010
0000
0000
0001
0100
0000
0000
0001
,
0100
0000
0000
0010
1000
0000
0100
0000
0010
0000
0001
0000
0100
0000
0010
0000
,
1000
0000
0000
1000
0010
0000
0000
1000
0100
0000
0000
1000
0010
0000
0000
1000
,
0100
0000
0000
0010
0001
0000
1000
0000
0010
0000
0100
0000
0001
0000
1000
0000
,
0001
0000
0000
0100
0001
0000
0000
1000
0010
0000
0000
0100
0001
0000
0000
1000
,
0010
0000
0000
0100
0010
0000
1000
0000
0001
0000
0100
0000
0010
0000
0100
0000
,
0001
0000
0000
0010
0100
0000
0000
1000
0001
0000
0000
0010
0100
0000
0000
1000
,
0001
0000
0000
0001
0000
0000
0001
0000
0001
0000
0000
0000
0000
0000
0000
0000
,
0202
0000
0303
0010
1000
0100
0010
0001
,
2000
0000
0020
0000
3030
0000
0010
0000
0100
0000
0001
0000
1000
0010
1000
0000
,
2020
0000
3030
0001
0010
0100
1000
0001
,
0200
0000
0002
0000
0303
0000
0001
0000
1000
0000
0001
0000
0000
0010
0000
0000
,
0022
0000
0033
0100
1000
0010
0100
0001
,
2000
0000
0020
0000
3030
0000
0010
0000
0100
0000
0010
0000
1000
0001
1000
0000
,
2002
0000
3003
0010
0100
0001
0010
0100
,
0010
0000
0000
0001
0000
0000
1000
0000
0100
0000
0000
0000
0000
0000
0000
0000
,
1100
0000
0000
0100
1000
0000
0010
0000
0100
0000
0001
0000
0010
0000
0001
0000
,
0100
0020
0000
0130
0001
0010
0100
1000
,
1001
0000
0000
1000
0001
0000
0100
0000
0001
0000
1000
0000
0010
0000
0100
0000
,
0010
2000
0000
3001
0100
0010
1000
0100
,
0011
0000
0000
0001
0010
0000
0100
0000
1000
0000
0001
0000
0010
0000
0001
0000
,
0100
0020
0000
1030
0001
0010
0001
0100
,
0110
0000
0000
0100
0001
0000
0100
0000
0010
0000
1000
0000
0001
0000
0010
0000
,
0100
0000
0000
1000
0000
0000
0001
0000
0010
0000
0000
0000
0000
0000
0000
0000
,
0001
0100
1000
0010
,
0001
0100
1000
0010
,
0001
0000
0000
0100
0010
0000
0000
1000
0010
0000
0000
0100
0001
0000
0000
0010
,
0001
0000
0000
0100
0010
0000
1000
0000
0001
0000
0010
0000
0100
0000
1000
0000
,
0001
0000
0000
1000
0100
0000
0000
0010
0001
0000
0000
1000
0100
0000
0000
0010
,
0001
0000
0000
0100
0010
0000
1000
0000
0001
0000
0100
0000
0010
0000
1000
0000
,
0001
0000
0000
0010
0100
0000
0000
1000
0001
0000
0000
0010
0100
0000
0000
1000
,
0001
0000
0000
0100
0001
0000
1000
0000
0010
0000
0100
0000
0010
0000
1000
0000
,
0010
0000
0000
0010
0100
0000
0000
0010
0100
0000
0000
0010
1000
0000
0000
0010
,
1000
0000
0000
0100
0010
0000
0001
0000
1000
0000
0010
0000
0100
0000
0001
0000
,
0100
0000
0000
0100
0010
0000
0000
0100
0001
0000
0000
0100
0010
0000
0000
0100
,
0001
0000
0000
0010
0100
0000
1000
0000
0010
0000
0100
0000
0010
0000
1000
0000
,
0001
0000
0000
0001
0010
0000
0000
0010
0100
0000
0000
0100
1000
0000
0000
1000
,
0001
0000
0100
0010
0100
0001
1000
0010
,
0100
0010
0200
0000
,
0000
0300
0000
0000
;

//---------------dance-single - ----------------
#NOTES:
     dance-single:
     :
     Challenge:
     15:
     0.799676,0.797559,0.376846,0.117764,0.847903,713.000000,665.000000,48.000000,15.000000,0.000000,0.000000,0.799676,0.797559,0.376846,0.117764,0.847903,713.000000,665.000000,48.000000,15.000000,0.000000,0.000000:
0000
0000
0000
0000
,
0000
0000
0000
0000
,
0000
0000
0000
0000
,
1001
0000
0000
0101
0000
0000
1001
0000
1100
0000
0000
0000
0000
0000
0000
0000
,
0010
0000
0000
1000
0100
0000
1000
0010
1000
0000
0000
0100
1000
0000
0000
0010
,
0100
0000
0000
0001
0010
0000
0001
0000
0100
0000
0010
0000
1000
0000
0010
0000
,
0100
0000
0001
0010
0001
0000
0100
0001
0100
0000
0001
0010
0001
0000
0100
0001
,
0100
0000
0000
0010
1000
0000
0010
0000
0100
0000
0001
0000
0010
0000
0100
0000
,
1000
0000
1000
0010
0100
0000
0100
0001
0010
0000
0010
0100
1000
0000
1000
0010
,
0100
0000
0000
0100
0001
0000
1000
0000
0010
0000
0100
0000
0010
0000
1000
0000
,
0001
0000
0001
0010
0100
0000
0100
1000
0010
0000
0010
0100
0001
0000
0001
1000
,
0010
0000
0000
0100
0010
0000
1000
0000
0001
0000
0010
0000
0100
0000
1000
0000
,
0010
0000
0000
1000
0010
0000
0100
0001
0100
0000
0000
0010
1000
0000
0000
1000
,
0001
0000
0000
0001
0100
0000
0010
0100
0010
0000
1000
0000
0100
0000
1000
0000
,
0010
0000
1000
0100
1000
0000
0010
0100
0010
0000
1000
0100
1000
0000
0010
0100
,
0010
0000
0000
0100
0001
0000
0100
0000
0010
0000
1000
0000
0001
0000
0010
0000
,
0100
0000
0100
1000
0001
0000
0001
0100
0010
0000
0010
1000
0001
0000
0001
0100
,
0010
0000
0000
0010
0100
0000
0001
0000
1000
0000
0010
0000
0100
0000
0001
0000
,
1000
0000
1000
0100
0010
0000
0010
0100
1000
0000
1000
0001
0100
0000
0100
0001
,
0010
0000
0000
1100
0000
0000
0010
0000
0100
0001
1000
0000
0011
0000
0000
0000
,
0101
0000
0000
0001
0000
1000
0010
0100
0001
0000
1000
0000
1001
0000
0000
0000
,
1010
0000
0000
0010
0000
1000
0001
0100
0010
0000
0100
0000
0101
0000
0000
0000
,
0110
0000
0000
0010
0000
1000
0100
0010
0001
0000
0100
0000
1010
0000
0000
0000
,
1100
0000
0000
1000
0000
0001
0010
0100
1000
0000
0001
0000
0220
0000
0330
0000
,
0101
0000
1000
0010
0000
0100
0010
1000
0100
0010
0100
0000
1000
0000
0000
0000
,
0101
0000
0010
1000
0000
0010
0100
0001
0010
0001
1000
0000
0010
0000
0000
0000
,
0110
0000
0100
0001
0000
0010
0100
1000
0010
0100
0001
0000
0011
0000
0000
0000
,
1001
0000
0010
1000
0000
0010
0100
0001
0010
0001
1000
0100
0010
0000
0100
0000
,
1001
0000
0010
0100
0000
1000
0010
0100
0001
0010
0001
0100
0010
0000
1000
0000
,
0001
0000
0100
0001
0000
1000
0010
0100
0010
1000
0100
0010
0001
0000
0100
0000
,
0010
0000
0100
0001
0000
0010
0100
1000
0010
0100
0010
1000
0001
0000
1000
0000
,
0010
0000
0100
0001
0000
1000
0010
0100
0001
0010
0100
0000
1000
0000
0100
0000
,
1100
0000
0010
0001
0000
0100
1000
0100
0001
0100
0010
0000
1010
0000
0000
0000
,
1001
0000
0010
0001
0000
0010
0100
0010
1000
0010
0001
0000
0101
0000
0000
0000
,
0011
0000
1000
0001
0000
0100
1000
0100
0001
0010
1000
0010
0001
0000
0000
0000
,
0101
0000
0000
1010
0000
0000
1100
0000
0011
0000
0000
0000
0000
0000
0000
0000
,
1001
0000
0000
1000
0100
0000
0010
0001
0010
0000
0000
0100
1000
0000
0001
0010
,
0001
0000
0000
1000
0100
0000
0010
0001
0010
0000
0001
0000
0100
0000
0010
0000
,
1100
0000
0000
1000
0010
0000
0000
0001
0010
0000
0000
1000
0100
0001
0100
1000
,
0100
0000
0000
0010
0001
0000
0100
0000
0110
0000
1000
0000
0001
0000
0100
0000
,
1010
0000
0000
0100
0001
0000
1000
0010
1000
0000
0000
0001
0100
0000
0010
1000
,
0010
0000
0000
0100
0001
0000
1000
0000
0100
0000
0010
0000
0001
0000
0100
0000
,
0010
0000
0000
1000
0010
0000
0000
0100
0001
0000
0001
0100
1000
0000
1000
0100
,
0001
0000
0000
0101
0000
0000
1010
0000
1001
0000
0000
0000
0000
0000
0000
0000
,
2020
0000
0000
0000
3030
0000
0100
0000
0001
0010
0100
0000
1000
0000
0001
0000
,
0102
0000
2000
0000
0003
0000
3010
0100
0001
0000
1000
0000
0010
0100
0010
0100
,
0020
0000
0000
0000
0030
0000
0100
0001
0100
0000
0001
0000
0010
0000
0100
0000
,
2100
0000
0002
0000
3000
0000
0103
0001
1000
0000
0010
0100
0000
0010
0100
0010
,
0200
0000
0000
0000
0300
0000
0001
0000
0010
0000
0100
1000
0001
0000
0100
0000
,
1020
0000
0200
0000
0030
0000
0301
0010
0100
0000
0010
0000
0001
0100
1000
0100
,
0002
0000
0000
0000
0003
0000
0100
0010
0001
0000
0010
0000
1000
0000
0100
0000
,
1100
0000
0000
0110
0000
0000
0011
0000
1001
0000
0000
0000
0000
0000
0000
0010
,
0100
0000
0000
0010
0001
0000
0000
0010
0100
0000
0000
0010
1000
0000
0000
0010
,
0100
0000
0010
0001
0010
0100
0010
1000
0010
0000
0100
0001
0100
0000
0010
0000
,
1000
0000
0000
0100
1000
0000
0000
0100
0010
0000
0000
0100
0001
0000
0000
0100
,
0010
0000
0100
1000
0100
0010
0100
0001
0100
0000
0010
0001
1000
0000
0001
0000
,
1000
0000
0000
0010
0001
0000
0000
0010
1000
0000
0000
0100
0001
0000
0000
0100
,
1000
0000
0010
0100
0010
0001
0010
1000
0010
0000
0100
0001
1000
0000
0001
0000
,
1001
0000
0000
0001
0100
0000
0000
1000
0100
0000
0000
0001
0010
0000
0000
1000
,
0010
0000
0000
0101
0000
0000
0010
0000
1100
0000
0000
0000
0000
0000
0000
0000
,
0001
0000
0100
1000
0100
0000
0001
0010
0001
0000
0100
1000
0100
0000
0001
0010
,
0001
0000
1000
0010
1000
0000
0100
0001
0100
0000
1000
0010
1000
0000
0100
0001
,
0100
0000
0000
1000
0010
0000
0100
0001
0100
0010
0100
0000
0001
0000
1000
0010
,
0100
0000
0000
0001
1000
0000
0010
0000
0100
0000
0001
1000
0100
0000
0010
0000
,
0011
0000
0100
0001
1000
0000
0010
1000
0001
0000
0100
0001
1000
0000
0010
1000
,
0001
0000
0000
0100
0010
0000
1000
0000
0001
0000
0100
0010
0001
0000
0010
0000
,
0100
0000
0010
1000
0001
0000
0001
0100
0010
0000
0010
1000
0100
0000
0100
0010
,
0001
0000
0000
1000
0010
0000
0100
0000
0001
1000
0010
0000
1000
0000
1000
0000
,
0100
0000
1000
0010
0100
0000
0000
0001
0010
0000
0001
0100
0010
0000
0000
1000
,
0100
0000
0000
1000
0010
0100
0010
0001
0010
0000
1000
0000
0001
0000
0001
0000
,
0100
0000
0000
0001
0010
0000
0100
1000
0100
0000
0000
1000
0010
0000
0100
0001
,
0100
0000
0000
0001
1000
0000
0100
0010
0001
0000
0010
0000
0100
0000
1000
0000
,
0001
0000
0000
0001
0010
0000
0001
0100
0010
0000
1000
0010
0100
0000
0001
0000
,
0100
0000
0000
0100
0001
0000
1000
0000
0010
0000
0100
0000
0001
0000
1000
0000
,
0010
0000
0000
0100
0000
0000
0002
0000
2000
0000
0000
0000
0000
0000
0000
0000
,
0000
3003
0000
0000
;

//---------------dance-double - ----------------
#NOTES:
     dance-double:
     :
     Challenge:
     15:
     0.736868,0.708941,0.321889,0.109913,0.663406,657.000000,616.000000,41.000000,14.000000,0.000000,0.000000,0.736868,0.708941,0.321889,0.109913,0.663406,657.000000,616.000000,41.000000,14.000000,0.000000,0.000000:
00000000
00000000
00000000
00000000
,
00000000
00000000
00000000
00000000
,
00000000
00000000
00000000
00000000
,
10000000
00000000
00000000
00010000
00000000
00000000
00001000
00000000
00000001
00000000
00000000
00000000
00000000
00000000
00000000
00000000
,
00000101
00000000
00000010
00001000
00000010
00000000
00000100
00000001
00000100
00000000
00000010
00001000
00000010
00000000
00000100
00000000
,
00000101
00000000
00000000
00000001
00000100
00000000
00001000
00000000
00010000
00000000
01000000
00000000
10000000
00000000
00010000
00000000
,
01010000
00000000
00100000
10000000
00100000
00000000
01000000
00010000
01000000
00000000
00100000
10000000
00100000
10000000
00100000
00000000
,
01010000
00000000
00000000
00100000
10000000
00000000
01000000
00000000
00010000
00000000
00001000
00000000
00000010
00000000
00000001
00000000
,
00001001
00000000
00000000
00001000
00000010
00000000
00000000
00000100
00000001
00000000
00000000
00001000
00000010
00000000
00000000
00000100
,
00000001
00000000
00000000
00000010
00001000
00000000
00010000
00000000
00100000
00000000
10000000
00000000
01000000
00000000
00100000
00000000
,
00110000
00000000
00000000
00010000
00100000
00000000
00000000
01000000
10000000
00000000
00000000
00010000
00100000
00000000
00000000
01000000
,
10000000
00000000
00000000
00010000
01000000
00000000
00100000
00000000
00010000
00000000
00001000
00000000
00100000
00000000
00001000
00000000
,
00011000
00000000
00001000
00100000
00010000
00000000
00010000
00100000
00001000
00000000
00001000
00010000
00000100
00000000
00000100
00010000
,
00001000
00000000
00000000
00010000
01000000
00000000
10000000
00000000
00100000
00000000
00010000
00000000
00001000
00000000
00000100
00000000
,
00011000
00000000
00010000
00000100
00001000
00000000
00001000
00000100
00010000
00000000
00010000
00001000
00100000
00000000
00100000
00001000
,
00010000
00000000
00000000
00001000
00000100
00000000
00000001
00000000
00000010
00000000
00000100
00001000
00000001
00000000
00000010
00000000
,
00001000
00000000
00010000
00100000
00010000
00000000
00001000
00000100
00001000
00000000
00010000
00100000
00010000
00000000
00001000
00000100
,
00001000
00000000
00000000
00010000
00100000
00000000
10000000
00000000
01000000
00000000
00100000
00000000
00001000
00000000
00010000
00000000
,
00011000
00000000
00000000
00001000
00100000
00000000
00010000
00000000
00001000
00000000
00000010
00000000
00000001
00000000
00000100
00000000
,
00001010
00000000
00000000
00010100
00000000
00000000
00101000
00000000
01010000
00000000
00000000
00000000
00000000
00000000
00000000
00000000
,
10000000
00000000
00010000
01000000
00000000
00010000
10000000
00010000
01000000
00000000
00100000
00000000
10000000
00000000
00000000
00000000
,
00010000
00000000
10000000
01000000
00000000
10000000
00010000
10000000
01000000
00000000
00100000
00000000
00010000
00000000
00000000
00000000
,
01000000
00000000
00010000
00100000
00000000
00010000
01000000
00010000
01000000
00000000
00100000
00000000
10000000
00000000
00000000
00000000
,
01000000
00000000
00010000
00001000
00000000
00000100
00000001
00000100
00000001
00000000
00001000
00000000
00001001
00000000
00000000
00000000
,
00001000
00000000
00000001
00000010
00000000
00000001
00001000
00000001
00000010
00000000
00000001
00000000
00001000
00000000
00000000
00000000
,
00000001
00000000
00001000
00000010
00000000
00001000
00000001
00001000
00000010
00000000
00001000
00000000
00000001
00000000
00000000
00000000
,
00000010
00000000
00000001
00000100
00000000
00000001
00000010
00000001
00000010
00000000
00000100
00000000
00001000
00000000
00000000
00000000
,
00000010
00000000
00000100
00001000
00000000
00010000
01000000
00010000
01000000
00000000
10000000
00000000
11000000
00000000
00000000
00000000
,
00100000
00000000
00010000
10000000
00000000
01000000
00100000
00010000
01000000
00100000
10000000
00000000
10010000
00000000
00000000
00000000
,
01000000
00000000
00010000
10000000
00000000
00100000
01000000
00100000
00010000
00001000
00000100
00000000
00000001
00000000
00000000
00000000
,
00000100
00000000
00000001
00001000
00000000
00000010
00000100
00000001
00000010
00000100
00001000
00000000
00001001
00000000
00000000
00000000
,
00000010
00000000
00001000
00000001
00000000
00000100
00000010
00000100
00001000
00010000
01000000
10000000
01000000
00000000
10000000
00000000
,
00010000
00000000
00100000
00010000
00000000
01000000
00010000
10000000
00100000
01000000
00010000
00000000
10000000
00000000
00010000
00000000
,
01000000
00000000
00100000
10000000
00000000
00100000
01000000
00100000
00010000
00001000
00000100
00000000
00000001
00000000
00001000
00000000
,
00000010
00000000
00000100
00000001
00000000
00001000
00000010
00000100
00000001
00000010
00000100
00000000
00001000
00000000
00000001
00000000
,
00000010
00000000
00000000
00001000
00000000
00000000
00010000
00000000
00100000
00000000
00000000
00000000
00000000
00000000
00000000
00000000
,
10010000
00000000
00000000
00010000
01000000
00000000
00100000
10000000
00100000
00000000
00000000
01000000
00010000
00000000
10000000
00100000
,
10000000
00000000
00000000
00010000
01000000
00000000
00100000
00000000
00010000
00000000
00001000
00000000
00000100
00000000
00000001
00000000
,
00001000
00000000
00001000
00000010
00000100
00000000
00000100
00000001
00000010
00000000
00000010
00000100
00001000
00000000
00001000
00000001
,
00000100
00000000
00000000
00000010
00001000
00000000
00000001
00000000
00000100
00000000
00000010
00000000
00000001
00000000
00000010
00000000
,
00001010
00000000
00000000
00000100
00000010
00000000
00000100
00000000
00001000
00000000
00010000
00000000
00100000
00000000
10000000
00000000
,
10100000
00000000
00000000
01000000
00010000
00000000
10000000
00000000
00100000
00000000
01000000
00000000
00010000
00000000
00100000
00000000
,
01000000
00000000
00000000
01000000
10000000
00000000
00000000
10000000
00100000
00000000
00000000
00100000
01000000
00000000
00000000
01000000
,
00001000
00000000
00000000
00101000
00000000
00000000
00011000
00000000
00010010
00000000
00000000
00000000
00000000
00000000
00000000
00000000
,
00000202
00000000
00000000
00000000
00000303
00000000
00000010
00001000
00000001
00000000
00000100
00000000
00000010
00000000
00001000
00000000
,
00000201
00000000
00000020
00000000
00000300
00000000
00010030
00001000
00000100
00000000
00001000
00000000
00010000
00100000
10000000
00100000
,
02000000
00000000
00000000
00000000
03000000
00000000
00010000
00100000
01000000
00000000
10000000
00000000
00100000
00000000
01000000
00000000
,
10020000
00000000
02000000
00000000
00030000
00000000
03100000
00010000
00001000
00000000
00000100
00000000
00000000
00000001
00000000
00000000
,
00000202
00000000
00000000
00000000
00000303
00000000
00001000
00000010
00000100
00000000
00000001
00000000
00000010
00000000
00000100
00000000
,
00001200
00000000
00020000
00000000
00000300
00000000
00031000
00000100
00000010
00000000
00001000
00000000
00010000
00001000
00010000
00100000
,
20000000
00000000
00000000
00000000
30000000
00000000
00010000
01000000
00100000
00000000
10000000
00000000
00010000
00000000
01000000
00000000
,
01010000
00000000
00000000
00101000
00000000
00000000
00010100
00000000
00001010
00000000
00000000
00000000
00000000
00000000
00000000
00000000
,
00010100
00000000
00000000
00010000
00001000
00000000
00000100
00000001
00000100
00000000
00000001
00000000
00001000
00000000
00000010
00001000
,
00000010
00000000
00000100
00000010
00000100
00000001
00000100
00000000
00000001
00000000
00000100
00000000
00001000
00000000
00010000
00000000
,
00110000
00000000
00000000
00100000
10000000
00000000
00010000
01000000
00010000
00000000
10000000
00000000
00100000
00000000
10000000
01000000
,
10000000
00000000
00100000
01000000
00100000
00010000
00100000
00000000
10000000
00000000
00100000
00000000
00010000
00000000
00001000
00000000
,
00001010
00000000
00000000
00000010
00000001
00000000
00000100
00000001
00000100
00000000
00000010
00000000
00001000
00000000
00000001
00000010
,
00000001
00000000
00000100
00001000
00010000
00001000
00000100
00000000
00001000
00000000
00010000
00000000
00100000
00000000
10000000
00000000
,
10010000
00000000
00000000
01000000
00100000
00000000
10000000
00010000
01000000
00000000
00100000
00000000
00010000
00000000
00001000
00000000
,
00010000
00000000
00000000
00010100
00000000
00000000
00011000
00000000
01001000
00000000
00000000
00000000
00000000
00000000
00000000
00000000
,
10000000
00010000
00001000
00000001
,
00001000
00010000
10000000
00010000
,
00011000
00000000
00000000
00100000
00010000
00000000
01000000
00010000
01000000
00000000
00100000
10000000
00100000
00000000
01000000
00010000
,
01000000
00000000
00000000
00100000
10000000
00000000
00010000
00000000
01000000
00000000
00100000
00000000
00010000
00000000
00001000
00000000
,
00000100
00000000
00000000
00000100
00000001
00000000
00000000
00000001
00000010
00000000
00000000
00000010
00001000
00000000
00010000
00000000
,
00100000
00000000
00000000
10000000
00010000
00000000
01000000
00100000
10000000
00000000
01000000
00000000
00010000
00000000
01000000
00000000
,
00100000
00000000
00000000
00100000
00010000
00000000
00000000
00010000
00001000
00000000
00000000
00001000
01000000
00000000
00100000
00000000
,
10000000
00000000
00000000
00010000
01000000
00000000
00100000
10000000
01000000
00000000
00100000
00000000
00010000
00000000
10000000
00000000
,
10010000
00000000
00000000
01000000
00010000
00000000
10000000
00100000
10000000
00000000
00000000
00010000
01000000
00000000
00100000
10000000
,
00100000
00000000
00000000
01000000
00010000
00000000
01000000
00000000
00100000
00000000
00010000
00000000
00001000
00000000
00000100
00000000
,
00000001
00000000
00000001
00001000
00000100
00000000
00000100
00010000
00001000
00000000
00001000
00000100
00000001
00000000
00000001
00000010
,
00000100
00000000
00000000
00001000
00010000
00000000
00100000
00000000
10000000
00000000
01000000
00000000
00010000
00000000
00001000
00000000
,
00000100
00000000
00000000
00000100
00000001
00000000
00000000
00001000
00000010
00000000
00000100
00000000
00000001
00000000
00000010
00000000
,
00001000
00000000
00000000
00001000
00010000
00000000
00100000
00000000
10000000
00000000
00010000
00000000
01000000
00000000
00100000
00000000
,
10000000
00000000
00000000
01000000
00000000
00000000
00020000
00000000
00002000
00000000
00000000
00000000
00000000
00000000
00000000
00000000
,
00000000
00033000
00000000
00000000
;

//---------------dance-single - ----------------
#NOTES:
     dance-single:
     :
     Medium:
     7:
     0.339834,0.412175,0.062808,0.211976,0.000000,303.000000,295.000000,8.000000,27.000000,0.000000,0.000000,0.339834,0.412175,0.062808,0.211976,0.000000,303.000000,295.000000,8.000000,27.000000,0.000000,0.000000:
0000
0000
0000
0000
,
0000
0000
0000
0000
,
0000
0000
0000
0000
,
2002
0000
3003
0000
,
0010
1000
0010
0010
,
0100
0000
0001
0010
0001
0000
0100
0000
,
0001
0010
0001
0001
,
1000
0000
0100
0010
0100
0000
1000
0000
,
0001
0100
1000
0100
,
0001
1000
0100
0001
,
0100
1000
0001
1000
,
1001
0000
0010
0100
0001
1000
0010
0000
,
1000
0100
1000
1000
,
0010
0000
0100
0001
0100
0000
0010
0000
,
0100
0001
0100
0100
,
0001
0000
0010
0100
0010
0000
0001
0000
,
1000
0100
0001
0100
,
1000
0001
0100
1000
,
0100
0001
1000
0001
,
0200
0000
0300
0000
,
0010
0000
0000
0000
1000
0001
0100
0000
,
0000
0000
0010
1000
0001
1000
0010
0000
,
0000
0000
0100
0001
0010
0001
0100
0000
,
0000
0000
0010
1000
0100
1000
1100
0000
,
0100
0000
0010
0001
1000
0100
0010
0000
,
0000
0000
0100
1000
0001
0010
0100
0000
,
0000
0000
0010
0001
1000
0010
0100
0000
,
0000
0000
0010
1000
0001
0100
0110
0000
,
0010
0000
1000
0100
1000
0010
1000
0000
,
0010
0000
0100
0001
0100
0010
0100
0000
,
0001
0000
0010
0100
0010
0001
0010
0000
,
0000
0000
0001
0010
0001
1000
0001
0000
,
0100
0000
0010
0100
0010
1000
0010
0000
,
1000
0000
0100
0010
0100
1000
0100
0000
,
0000
0000
1000
0010
1000
0100
1000
0000
,
2020
0000
3030
0000
,
1000
0100
0010
0010
,
0100
0000
1000
0001
1000
0000
0010
0000
,
0100
0001
1000
1000
,
0001
0000
0100
0010
0100
0000
0010
0000
,
1000
0100
0001
0100
,
1000
0001
0100
1000
,
0100
0001
1000
0001
,
2002
0000
3003
0000
,
0020
0000
1030
0001
,
0200
0020
0000
0330
1000
0000
0200
0000
,
0320
0000
0130
1000
,
0002
2000
0000
3003
0020
0000
0000
0000
,
0230
0300
0001
1000
,
0020
2000
0000
3030
0100
0000
0002
0000
,
0023
0000
0031
1000
,
2002
0000
3003
0000
,
1000
0100
0010
0001
,
0001
0010
0100
0100
,
1000
0001
0100
0010
,
0010
0100
0001
0001
,
0100
0001
1000
0010
,
0010
1000
0001
0001
,
2000
0000
3100
0010
,
0022
0000
0033
0000
,
0001
0100
1000
0100
,
0001
0010
1000
0010
,
0001
0100
0001
0001
,
1000
0000
0010
0100
0001
0000
1000
0000
,
0001
0010
1000
0010
,
0001
1000
0010
0001
,
0010
0000
1000
0000
0001
0100
0010
1000
,
0001
0100
0010
1000
,
0001
0010
0001
0001
,
1000
0000
0100
0001
0100
0000
1000
0000
,
0001
0100
0001
0001
,
0010
0000
1000
0010
1000
0000
0010
0000
,
0001
0010
0100
1000
,
0010
1000
0100
0010
,
0002
2000
0000
0000
,
3003
0000
0000
0000
;

//---------------dance-single - ----------------
#NOTES:
     dance-single:
     :
     Easy:
     5:
     0.231042,0.294411,0.070659,0.321889,0.000000,206.000000,197.000000,9.000000,41.000000,0.000000,0.000000,0.231042,0.294411,0.070659,0.321889,0.000000,206.000000,197.000000,9.000000,41.000000,0.000000,0.000000:
0000
0000
0000
0000
,
0000
0000
0000
0000
,
0000
0000
0000
0000
,
2002
0000
3003
0000
,
0001
0100
0002
0000
,
0003
0001
0100
0010
,
2000
0000
3020
0000
,
0030
0000
1000
0100
,
1000
0010
1000
0000
,
0000
0000
0002
0000
,
0013
0001
0020
0000
,
0030
0100
0100
0100
,
1000
0001
1000
0001
,
0000
0100
0100
0100
,
0001
1000
0001
1000
,
0000
0000
0010
0010
,
1000
0100
1000
0100
,
0000
0000
0000
0000
,
0010
0001
0010
0001
,
0022
0000
0033
0000
,
0200
0000
0310
0000
,
2000
0000
3010
0000
,
0200
0000
0301
0000
,
0002
0000
0013
0011
,
0200
0000
1300
0001
,
0200
0000
0301
1000
,
0020
0000
1030
0100
,
0020
0000
0031
1001
,
1000
0001
0001
0100
,
0001
1000
1000
0100
,
1000
0001
0001
0010
,
0100
1000
1000
0001
,
0010
0001
1000
0001
,
0010
0100
1000
0100
,
0010
0001
1000
0001
,
0200
0000
0300
0000
,
1000
0100
1000
0100
,
0000
0010
0010
0010
,
0001
0100
0001
0100
,
0000
0010
0010
0010
,
1000
0001
1000
0001
,
0000
0000
0000
0000
,
0100
0010
0100
0010
,
0220
0000
0330
0000
,
2000
0000
3002
0000
,
2003
0000
3002
0103
,
0200
0000
0320
0000
,
0230
0000
0000
0000
0000
0302
0000
0000
,
0023
0000
0032
0000
,
0023
0000
0030
0100
,
0200
0000
2300
3000
,
1100
0000
0000
0000
,
1000
0010
1000
0000
,
0001
0100
0001
0000
,
1000
0100
1000
0000
,
0001
0010
0001
0000
,
0100
0001
0100
0000
,
0010
1000
0010
0000
,
0100
0010
0100
0000
,
0220
0000
0330
0000
,
2020
0000
0000
3030
,
0000
0202
0000
0303
,
0001
1000
0001
1000
,
0000
0010
0010
0010
,
1000
0100
0010
0001
,
0000
0000
0000
0000
,
0001
0010
0100
1000
,
0000
0001
0001
0001
,
1000
0010
0100
0010
,
0000
1000
1000
1000
,
0001
0010
0100
0010
,
0000
0001
0001
0001
,
0100
0001
1000
0010
,
0000
0010
1000
0001
,
0200
0000
0020
0000
,
0330
0000
0000
0000
;

//---------------dance-single - ----------------
#NOTES:
     dance-single:
     :
     Beginner:
     2:
     0.087482,0.176647,0.015702,0.125615,0.000000,78.000000,76.000000,2.000000,16.000000,0.000000,0.000000,0.087482,0.176647,0.015702,0.125615,0.000000,78.000000,76.000000,2.000000,16.000000,0.000000,0.000000:
0000
0000
0000
0000
,
0000
0000
0000
0000
,
0000
0000
0000
0000
,
1001
0000
0000
0000
,
2000
0000
0000
0000
,
3000
0000
0000
0000
,
0002
0000
0000
0000
,
0003
0000
0000
0000
,
2000
0000
0000
0000
,
3000
0000
0000
0000
,
0002
0000
0000
0000
,
0003
0000
0000
0000
,
0100
0100
0100
0000
,
0000
0000
0000
0000
,
0010
0010
0010
0000
,
0000
0000
0000
0000
,
0100
0000
0100
0000
,
0000
0000
0000
0000
,
0010
0000
0010
0000
,
0000
0000
0000
0000
,
0001
0000
0000
0000
,
0001
0000
0000
0000
,
1000
0000
0000
0000
,
1000
0000
0000
0000
,
0001
0000
0000
0000
,
0001
0000
0000
0000
,
1000
0000
0000
0000
,
1000
0000
0000
0000
,
0001
0000
1000
0000
,
0000
0001
0000
0000
,
0000
1000
0000
0000
,
0000
0001
0000
0000
,
0100
0000
0010
0000
,
0000
0100
0000
0000
,
0000
0010
0000
0000
,
0110
0000
0000
0000
,
0200
0000
0000
0000
,
0300
0000
0000
0000
,
0002
0000
0000
0000
,
0003
0000
0000
0000
,
0200
0000
0000
0000
,
0300
0000
0000
0000
,
0020
0000
0000
0000
,
0030
0000
0000
0000
,
2000
0000
3000
0000
,
0002
0000
0003
0000
,
2000
0000
3000
0000
,
0001
0000
1000
0000
,
0020
0000
0030
0000
,
0200
0000
0300
0000
,
0020
0000
0030
0000
,
0100
0000
0000
0000
,
0001
0000
0000
0000
,
0010
0000
0000
0000
,
0001
0000
0000
0000
,
0010
0000
0000
0000
,
0100
0000
0000
0000
,
1000
0000
0000
0000
,
0100
0000
0000
0000
,
0000
0000
0000
0000
,
2000
0000
0000
0000
,
3000
0000
0000
0000
,
0001
0001
0001
0001
,
0001
0000
0000
0000
,
0100
0000
0010
0000
,
0100
0000
0000
0000
,
0001
0000
1000
0000
,
0001
0000
0000
0000
,
0100
0100
0100
0000
,
0000
0000
0000
0000
,
0001
0001
0001
0000
,
0000
0000
0000
0000
,
1000
1000
1000
0000
,
0000
0000
0000
0000
,
0010
0000
0200
0000
,
0300
0000
0000
0000
;

//---------------dance-double - ----------------
#NOTES:
     dance-double:
     :
     Hard:
     13:
     0.558540,0.590785,0.227678,0.149168,0.314038,498.000000,469.000000,29.000000,19.000000,0.000000,0.000000,0.558540,0.590785,0.227678,0.149168,0.314038,498.000000,469.000000,29.000000,19.000000,0.000000,0.000000:
00000000
00000000
00000000
00000000
,
00000000
00000000
00000000
00000000
,
00000000
00000000
00000000
00000000
,
00010000
00000000
00000000
00001000
00000000
00000000
00010000
00000000
00001000
00000000
00000000
00000000
00000000
00000000
00000000
00000000
,
01010000
00000000
00000000
10000000
00010000
00000000
00000000
10000000
00010000
00000000
00000000
01000000
00010000
00000000
00000000
01000000
,
00010000
00000000
00000000
00100000
00001000
00000000
00010000
00000000
00000100
00000000
00001000
00000000
00000100
00000000
00000010
00000000
,
00000011
00000000
00000000
00001000
00000001
00000000
00000000
00001000
00000001
00000000
00000000
00000100
00000001
00000000
00000000
00000100
,
00000001
00000000
00000000
00000010
00000100
00000000
00001000
00000000
00000010
00000000
00000100
00000000
00001000
00000000
00010000
00000000
,
00100000
10000000
01000000
00010000
,
00011000
00000000
00001000
00000010
00000001
00000100
00001000
00010000
,
00011000
00001000
00000100
00000001
,
00000010
00000000
00000000
00001000
00010000
00000000
00100000
00000000
10000000
00000000
00010000
00000000
01000000
00000000
00100000
00000000
,
10100000
00000000
00000000
00100000
10000000
00000000
00000000
00100000
10000000
00000000
00000000
00010000
10000000
00000000
00000000
00010000
,
10000000
00000000
00000000
01000000
00010000
00000000
00001000
00000000
00000100
00000000
00000001
00000000
00001000
00000000
00000010
00000000
,
00001010
00000000
00000000
00000010
00001000
00000000
00000000
00000010
00001000
00000000
00000000
00000100
00001000
00000000
00000000
00000100
,
00001000
00000000
00000000
00000010
00000100
00000000
00000001
00000000
00001000
00000000
00000100
00000000
00001000
00000000
00000010
00000000
,
00000100
00000001
00000010
00001000
,
00011000
00000000
00010000
00000000
00100000
00000000
10000000
01000000
,
00010000
00001000
00010000
01000000
,
10000000
00000000
00000000
00010000
00000000
00000000
01000000
00000000
00100000
10000000
00010000
00000000
00100000
00000000
00000000
00000000
,
00110000
00000000
00000000
00010000
00000000
00000000
10000000
00000000
00100000
00000000
01000000
00000000
00010000
00000000
00000000
00000000
,
00100000
00000000
00000000
01000000
00000000
00000000
00010000
00000000
00001000
00000000
00000100
00000000
00000001
00000000
00000000
00000000
,
00001000
00000000
00000000
00000010
00000000
00000000
00000100
00000000
00000001
00000000
00001000
00000000
00000100
00000000
00000000
00000000
,
00000010
00000000
00000000
00001000
00000000
00000000
00010000
00000000
00100000
00000000
10000000
00000000
10010000
00000000
00000000
00000000
,
01000000
00000000
00010000
01000000
00000000
00000000
00100000
00000000
10000000
00000000
00010000
00000000
01000000
00000000
00000000
00000000
,
00100000
00000000
01000000
00100000
00000000
00000000
00010000
00000000
00001000
00000000
00000100
00000000
00000001
00000000
00000000
00000000
,
00001000
00000000
00000010
00001000
00000000
00000000
00000010
00000000
00000100
00000000
00000001
00000000
00001000
00000000
00000000
00000000
,
00000001
00000000
00000010
00000001
00000000
00000000
00000100
00000000
00001000
00000000
00010000
00000000
00110000
00000000
00000000
00000000
,
10000000
00000000
00010000
01000000
00000000
00000000
00010000
00000000
10000000
00000000
01000000
00000000
00110000
00000000
00000000
00000000
,
00100000
00000000
00001000
00010000
00000000
00000000
00001000
00000000
00000100
00000000
00000001
00000000
00001001
00000000
00000000
00000000
,
00000010
00000000
00001000
00000100
00000000
00000000
00001000
00000000
00000010
00000000
00000100
00000000
00000011
00000000
00000000
00000000
,
00000100
00000000
00010000
00001000
00000000
00000000
00010000
00000000
01000000
00000000
10000000
00000000
10010000
00000000
00000000
00000000
,
00100000
00000000
01000000
00010000
00000000
00010000
01000000
00000000
00100000
00000000
10000000
00000000
01010000
00000000
00000000
00000000
,
00100000
00000000
10000000
00010000
00000000
10000000
01000000
00000000
00010000
00000000
00001000
00000000
00001100
00000000
00000000
00000000
,
00000001
00000000
00001000
00000010
00000000
00000010
00001000
00000000
00000001
00000000
00000100
00000000
00001010
00000000
00000000
00000000
,
00000100
00000000
00000000
00010000
00000000
00000000
00001000
00000000
01000000
00000000
00000000
00000000
00000000
00000000
00000000
00000000
,
01010000
00000000
00000000
00100000
10000000
00000000
00000000
00100000
10000000
00000000
00000000
01000000
10000000
00000000
00000000
01000000
,
10000000
00000000
00000000
00100000
01000000
00000000
00100000
00000000
00010000
00000000
00001000
00000000
00000100
00000000
00000001
00000000
,
00001000
00000000
00000000
00001000
00000010
00000000
00000000
00000010
00000100
00000000
00000000
00000100
00000001
00000000
00000000
00000001
,
00001000
00000000
00000000
00000010
00000100
00000000
00000001
00000000
00001000
00000000
00000001
00000000
00000100
00000000
00000010
00000000
,
00000100
00000001
00000010
00001000
,
00011000
00000000
00010000
00000000
00100000
00000000
10000000
01000000
,
00010000
00001000
00010000
01000000
,
10000000
00000000
00000000
00010000
00000000
00000000
00001000
00000000
00000001
00000000
00000000
00000000
00000000
00000000
00000000
00000000
,
00000220
00000000
00000330
00000010
00001000
00000001
00000100
00000010
,
00002000
00000000
00000200
00000000
00003000
00000000
00010300
00000000
00001000
00000000
00010000
00000000
00001000
00010000
00001000
00010000
,
00002000
00000000
00003000
01000000
00010000
10000000
00100000
10000000
,
00020000
00000000
00200000
00000000
00030000
00000000
00310000
00000000
01000000
00000000
00001000
00000000
00000000
00010000
00000000
00000000
,
00002000
00000000
00003000
00010000
00000100
00001000
00000010
00000100
,
00000002
00000000
00000020
00000000
00000003
00000000
00000130
00000000
00010000
00000000
00000010
00000000
00010000
00001000
00010000
00001000
,
00020000
00000000
00030000
00001000
01000000
00100000
10000000
00010000
,
01000000
00000000
00000000
00001000
00000000
00000000
00010000
00000000
00000100
00000000
00000000
00000000
00000000
00000000
00000000
00000000
,
00001100
00000000
00000010
00000100
00000001
00000010
00000100
00001000
,
00000200
00020000
00000300
00031000
01000000
00100000
10000000
00010000
,
10010000
00000000
01000000
00010000
00100000
00010000
10000000
01000000
,
00200000
00002000
00300000
00013000
00001000
00000100
00000001
00001000
,
00001001
00000000
00000010
00000100
00000001
00000010
00000001
00001000
,
00000200
00020000
00000300
00031000
00010000
01000000
10000000
00010000
,
10010000
00000000
01000000
00010000
10000000
00100000
01000000
00010000
,
00100000
00000000
00000000
00001000
00000000
00000000
00010000
00000000
00000010
00000000
00000000
00000000
00000000
00000000
00000000
00000000
,
00010000
00001000
00010000
00001000
,
00010000
00001000
00010000
00001000
,
00011000
00000000
00000000
00000010
00001000
00000000
00000000
00000100
00001000
00000000
00000000
00000010
00001000
00000000
00010000
00000000
,
00100000
00000000
00000000
10000000
00100000
00000000
01000000
00000000
00010000
00000000
10000000
00000000
00100000
00000000
01000000
00000000
,
00100000
00010000
00001000
00000101
,
00000001
00000000
00000010
00000000
00001000
00010000
00100000
00000000
,
10000000
00000000
01000000
00000000
00010000
00000000
11000000
00100000
,
01000000
00000000
00010000
10000000
00100000
01000000
00001000
00010000
,
00011000
00000000
00000000
00010000
00000100
00000000
00000000
00010000
00000100
00000000
00000000
00000010
00000001
00000000
00000000
00000010
,
00000001
00000000
00000000
00000100
00000010
00000000
00000100
00000000
00000001
00000000
00001000
00000000
00000010
00000000
00010000
00000000
,
00011000
00000000
00000000
00001000
01000000
00000000
00000000
00001000
01000000
00000000
00000000
00100000
10000000
00000000
00000000
00100000
,
10000000
00000000
00000000
00010000
01000000
00000000
00100000
00000000
10000000
00000000
01000000
00000000
00100000
00000000
00010000
00000000
,
10000000
00000000
00000000
10000000
00010000
00000000
00000000
00010000
01000000
00000000
00000000
01000000
00100000
00000000
00000000
00100000
,
00010000
00000000
00001000
00000100
00000001
00000010
00000100
00010000
,
00001000
00000000
00000000
01000000
00000000
00000000
00020000
00000000
20000000
00000000
00000000
00000000
00000000
00000000
00000000
00000000
,
00000000
30030000
00000000
00000000
;

//---------------dance-double - ----------------
#NOTES:
     dance-double:
     :
     Easy:
     5:
     0.190666,0.236314,0.047106,0.282634,0.000000,170.000000,164.000000,6.000000,36.000000,0.000000,0.000000,0.190666,0.236314,0.047106,0.282634,0.000000,170.000000,164.000000,6.000000,36.000000,0.000000,0.000000:
00000000
00000000
00000000
00000000
,
00000000
00000000
00000000
00000000
,
00000000
00000000
00000000
00000000
,
02200000
00000000
03300000
00000000
,
10000000
01000000
20000000
00000000
,
30000000
00010000
01000000
00010000
,
00200000
00000000
00302000
00000000
,
00003000
00000000
00010000
00010000
,
00000010
00000100
00000001
00000000
,
00000000
00000000
00000100
00000010
,
00001000
00000000
00000000
00000000
,
00000000
00000010
00000100
00000010
,
00001000
00000001
00002000
00000000
,
00003000
00000010
00000100
00000010
,
00020000
00000000
00032000
00000000
,
00003000
00000000
01000000
01000000
,
00010000
00100000
01000000
00000000
,
00000000
10000000
01000000
00100000
,
00020000
20000000
00000000
30030000
,
10010000
00000000
00000000
00000000
,
01000000
00000000
00010000
00000000
,
01000000
00000000
00100000
00000000
,
01000000
00000000
00010000
00000000
,
00100000
00000000
00001000
00010000
,
00000100
00000000
00001000
00000000
,
00000100
00000000
00000010
00000000
,
00000100
00000000
00001000
00000000
,
00000100
00000000
00000010
00000001
,
00001000
00000100
00010000
00000000
,
00001000
01000000
00010000
00000000
,
00100000
00010000
01000000
00000000
,
00100000
10000000
01000000
00000000
,
00100000
00001000
00010000
00000000
,
00000100
00001000
00000010
00000000
,
00000100
00000001
00001000
00000000
,
00002002
00000000
00003003
00000000
,
00000010
00000010
00002000
00000000
,
00003000
00000001
00000100
00000001
,
00001000
00001000
00000200
00000000
,
00000300
00000000
00010000
00001000
,
02000000
00000000
00000000
03000000
,
00000000
00100000
10000000
00010000
,
02000000
00000000
00000000
03000000
,
01100000
00000000
00000000
00000000
,
20000000
00000000
30000000
00000000
,
00020000
00000000
00030000
00100000
,
00200000
00000000
00300000
00000000
,
00002000
00000000
00000000
00000000
00000000
00023000
00000000
00000000
,
00032000
00000000
00003000
00000000
,
00020000
00000000
00030000
00000010
,
00000020
00000000
00000030
00000000
,
00000220
00000000
00000330
00000000
,
00001000
00000100
00000010
00000000
,
00000001
00001000
00000001
00000000
,
00000100
00000010
00010000
00000000
,
00001000
00010000
00001000
00000000
,
00100000
00010000
10000000
00000000
,
01000000
10000000
01000000
00000000
,
00200000
00000000
00020000
00330000
,
00220000
00000000
00330000
00000000
,
10000000
00000000
00010000
00000000
,
00001000
00000000
00000001
00000000
,
00000100
00000100
00000010
00000000
,
00000000
00000000
00010000
00001000
,
00020000
00000000
00032000
00000000
,
00003000
00100000
00010000
00100000
,
00010000
01000000
00000000
00000000
,
00000000
00100000
00100000
00100000
,
10000000
00010000
10000000
00000000
,
00000000
00010000
01000000
00010000
,
10000000
10000000
10000000
00000000
,
00000000
00000000
01000000
00010000
,
00002000
00000000
00003200
00000000
,
00000300
00000000
00000001
00001000
,
00000020
00000000
00000230
00000000
,
00000000
00000300
00000000
00000000
;

//---------------dance-double - ----------------
#NOTES:
     dance-double:
     :
     Medium:
     11:
     0.478908,0.531706,0.133466,0.251231,0.259082,427.000000,410.000000,17.000000,32.000000,0.000000,0.000000,0.478908,0.531706,0.133466,0.251231,0.259082,427.000000,410.000000,17.000000,32.000000,0.000000,0.000000:
// measure 0
00000000
00000000
00000000
00000000
,  // measure 1
00000000
00000000
00000000
00000000
,  // measure 2
00000000
00000000
00000000
00000000
,  // measure 3
00000100
00000000
00000000
00010000
00000000
00000000
00001000
00000000
01000000
00000000
00000000
00000000
00000000
00000000
00000000
00000000
,  // measure 4
00100000
00000000
00000000
00100000
10000000
00000000
00000000
10000000
00100000
00000000
00000000
00100000
10000000
00000000
00000000
10000000
,  // measure 5
00100000
00000000
01000000
00010000
00100000
00010000
01000000
00010000
,  // measure 6
00100000
00000000
00000000
00100000
00001000
00000000
00000000
00001000
00100000
00000000
00000000
00100000
00001000
00000000
00000000
00001000
,  // measure 7
00100000
00000000
00001000
00010000
00000100
00010000
00001000
00010000
,  // measure 8
00000020
00000000
00000230
00000000
,  // measure 9
00000300
00000000
00000001
00001000
00000100
00001000
00000001
00001000
,  // measure 10
00000200
00000000
00000000
00000300
,  // measure 11
00000000
00010000
00000010
00000100
,  // measure 12
00000001
00000000
00000000
00000001
00000010
00000000
00000000
00000010
00000001
00000000
00000000
00000001
00000010
00000000
00000000
00000010
,  // measure 13
00000001
00000000
00001000
00000100
00000010
00000100
00001000
00000100
,  // measure 14
00000010
00000000
00000000
00000010
00000100
00000000
00000000
00000100
00000010
00000000
00000000
00000010
00000100
00000000
00000000
00000100
,  // measure 15
00000010
00000000
00000100
00010000
00001000
00010000
00000100
00010000
,  // measure 16
00002000
00000000
00023000
00000000
,  // measure 17
00030000
00001000
01000000
00100000
,  // measure 18
20000000
00000000
00000000
00000000
,  // measure 19
00020000
00000000
00000000
30030000
,  // measure 20
10010000
00000000
00000000
00000000
,  // measure 21
01001000
00000000
00000000
00000000
,  // measure 22
00101000
00000000
00000000
00000000
,  // measure 23
00010010
00000000
00000000
00000101
,  // measure 24
00001001
00000000
00000010
00001000
00000001
00000100
00000010
00000000
,  // measure 25
00001100
00000000
00001000
00000010
00000100
00000001
00000010
00000000
,  // measure 26
00010100
00000000
00010000
00001000
00100000
00010000
01000000
00000000
,  // measure 27
01010000
00000000
00100000
00010000
10000000
00100000
01100000
00000000
,  // measure 28
01010000
00000000
00000000
00010000
10000000
00000000
00000000
00100000
10000000
00000000
00100000
00000000
01000000
00000000
00000000
00000000
,  // measure 29
01010000
00000000
00000000
00010000
00100000
00000000
00000000
00010000
01000000
00000000
00010000
00000000
10000000
00000000
00000000
00000000
,  // measure 30
10010000
00000000
00100000
00001000
00010000
00000100
00001000
00000000
,  // measure 31
00001010
00000000
00000010
00000100
00000001
00001000
00000100
00000000
,  // measure 32
00001100
00000000
00000000
00001000
00000010
00000000
00000000
00001000
00000100
00000000
00001000
00000000
00000010
00000000
00000100
00000000
,  // measure 33
00000001
00000000
00000000
00000001
00000010
00000000
00000000
00000001
00000100
00000000
00000010
00000000
00001000
00000000
00000100
00000000
,  // measure 34
00001000
00000000
00000000
00001000
00000010
00000000
00000000
00000100
00000010
00000000
00010000
00000000
00000100
00000000
00010000
00000000
,  // measure 35
00002000
00000000
00003000
00000000
,  // measure 36
00100000
00000000
00000000
00100000
00010000
00000000
00000000
00010000
00100000
00000000
00000000
00100000
00010000
00000000
00000000
00010000
,  // measure 37
00100000
00000000
01000000
10000000
00010000
10000000
01000000
10000000
,  // measure 38
00010000
00000000
00000000
00010000
01000000
00000000
00000000
01000000
00010000
00000000
00000000
00010000
01000000
00000000
00000000
01000000
,  // measure 39
00100000
00000000
10000000
00010000
01000000
00000000
00100000
00000000
,  // measure 40
10000000
00000000
00000000
10000000
01000000
00000000
00000000
01000000
00100000
00000000
00000000
00100000
00001000
00000000
00000000
00001000
,  // measure 41
00010000
00000000
00000000
00010000
00000100
00000000
00000000
00000100
00000010
00000000
00000000
00000010
00000001
00000000
00000000
00000001
,  // measure 42
00001000
00000100
00000010
00000001
,  // measure 43
00002000
00000000
00003000
00000000
,  // measure 44
00000200
00000000
00000000
00010300
00001000
00010000
00010000
00001000
,  // measure 45
02000000
00200000
03000000
01300000
00010000
10000000
00010000
10000000
,  // measure 46
00200000
00000000
00000000
01300000
00010000
10000000
10000000
00010000
,  // measure 47
02000000
00000000
00200000
00000000
03000000
00000000
10300000
00000000
00010000
00000000
01000000
00000000
00000000
01000000
00000000
00000000
,  // measure 48
02000000
00000000
00000000
03001000
00010000
00001000
00001000
00100000
,  // measure 49
00020000
00200000
00030000
00301000
00010000
00000100
00001000
00000100
,  // measure 50
00000020
00000000
00000030
00000001
00001000
00000100
00000100
00000010
,  // measure 51
00000100
00000000
00000000
00000100
00000000
00000000
00000100
00000000
00000100
00000000
00000000
00000000
00000000
00000000
00000000
00000000
,  // measure 52
00022000
00000000
00033000
00100000
00010000
01000000
00010000
10000000
,  // measure 53
00200000
02000000
00300000
03010000
10000000
00100000
00100000
10000000
,  // measure 54
02000000
00000000
03000000
00100000
01000000
10000000
00010000
01000000
,  // measure 55
00002000
00020000
00003000
00030100
00001000
00000010
00000010
00001000
,  // measure 56
00000200
00000000
00000300
00000010
00000001
00001000
00000100
00001000
,  // measure 57
00000020
00000200
00000030
00000301
00000010
00000100
00000100
00000010
,  // measure 58
00000002
00000000
00000003
00001000
00000100
00010000
00001000
01000000
,  // measure 59
00010000
00000000
00000000
00010000
00000000
00000000
00010000
00000000
00010000
00000000
00000000
00000000
00000000
00000000
00000000
00000000
,  // measure 60
10000000
01000000
00010000
00001000
,  // measure 61
00000100
00000001
00000010
00001000
,  // measure 62
00010000
00000000
00001100
00000000
00010000
00001000
00100000
00001000
,  // measure 63
00010000
00000000
00001000
01000000
00010000
01000000
00001000
01000000
,  // measure 64
00100000
00000000
00000000
00100000
10000000
00000000
00000000
10000000
00100000
00000000
00000000
00100000
10000000
00000000
00000000
10000000
,  // measure 65
00100000
00000000
01000000
00001000
01000000
00100000
01000000
00001000
,  // measure 66
00010000
00000000
00000000
00010000
00000100
00000000
00000000
00000100
00010000
00000000
00000000
00010000
00000100
00000000
00000000
00000100
,  // measure 67
00010000
00000000
00000010
00000100
00000001
00001000
00000010
00000100
,  // measure 68
00000001
00000000
00000000
00000001
00000010
00000000
00000000
00000010
00000001
00000000
00000000
00000001
00000010
00000000
00000000
00000010
,  // measure 69
00000001
00000000
00000000
00000001
00000100
00000000
00000010
00000000
00010000
00000000
00001000
00000000
01000000
00000000
00010000
00000000
,  // measure 70
00100000
00000000
00000000
00100000
00010000
00000000
00000000
00010000
00100000
00000000
00000000
00100000
00010000
00000000
00000000
00010000
,  // measure 71
01000000
00000000
00000000
01000000
00100000
00000000
10000000
00000000
00010000
00000000
01000000
00000000
00100000
00000000
10000000
00000000
,  // measure 72
01000000
00000000
00000000
10000000
00100000
00000000
01000000
00000000
00010000
00000000
00100000
00000000
01000000
00000000
10000000
00000000
,  // measure 73
01000000
00000000
00010000
00000000
00001000
00000100
00000001
00000100
,  // measure 74
00000010
00000000
00000000
00010000
00000000
00000000
00002000
00000000
02000000
00000000
00000000
00000000
00000000
00000000
00000000
00000000
,  // measure 75
00000000
03003000
00000000
00000000
;
