#TITLE:Cruel Summer;
#SUBTITLE:;
#ARTIST:Taylor Swift;
#TITLETRANSLIT:;
#SUBTITLETRANSLIT:;
#ARTISTTRANSLIT:;
#GENRE:Pop;
#CREDIT:;
#BANNER:cruelsummer-bn.png;
#BACKGROUND:cruelsummer-bg.png;
#LYRICSPATH:;
#CDTITLE:;
#MUSIC:Cruel Summer.ogg;
#OFFSET:-0.030000;
#SAMPLESTART:27.709999;
#SAMPLELENGTH:12.000000;
#SELECTABLE:YES;
#BPMS:0.000000=170.000000
;
#STOPS:
;
#BGCHANGES:;
#KEYSOUNDS:;
#ATTACKS:;

//---------------dance-single - ----------------
#NOTES:
     dance-single:
     :
     Hard:
     10:
     0.486752,0.635034,0.463199,0.486752,0.000000,434.000000,375.000000,59.000000,62.000000,0.000000,0.000000,0.486752,0.635034,0.463199,0.486752,0.000000,434.000000,375.000000,59.000000,62.000000,0.000000,0.000000:
0000
0000
0000
0000
,
0000
0000
0000
0000
,
0000
0000
0000
0000
,
0000
0000
0000
0000
,
1000
0100
1000
0000
0011
0000
1000
0100
,
1000
0000
0001
0010
0001
0000
0100
0010
,
0000
0010
0100
0000
0001
1000
0000
0000
,
0000
0000
0000
0000
,
0001
0000
0100
0000
1100
0000
0001
0100
,
1000
0000
1000
0100
0001
0000
1000
0001
,
0000
0001
1000
0000
0010
0100
0000
0000
,
0000
0000
0000
0000
0100
0010
0100
0000
,
0101
0000
0000
0000
0010
1000
0010
0000
,
1010
0000
0000
1000
0100
1000
0010
1000
,
0001
0001
0100
0001
0010
0001
1000
1000
,
0000
0000
0000
0000
0010
0100
0001
0100
,
0020
0000
0030
0000
0100
0010
1000
0010
,
0200
0000
0300
0001
1000
0010
0000
0200
,
0000
0310
1000
0001
0010
0100
0000
1200
,
0000
0020
0000
0330
0000
0010
0100
0000
,
2002
0000
0000
0000
3003
0000
1000
0100
,
0000
0010
0010
0000
0001
0100
0010
0000
,
2002
0000
0000
0000
3003
0000
0010
1000
,
0000
0001
0001
0000
0100
0001
0010
0000
,
0100
1000
0200
0000
0000
0000
0002
0000
,
0003
0000
2000
0000
3300
0000
1000
0001
,
0100
0001
0200
0000
0000
0000
2000
0000
,
3000
0002
0303
0010
,
2200
0000
0000
0000
3300
0000
0000
1000
,
0000
0100
0100
0000
0010
0001
1000
0000
,
0202
0000
0000
0000
0303
0000
0001
0100
,
0000
0010
0010
0000
1000
0001
0100
0000
,
0100
0001
0200
0000
0000
0000
2000
0000
,
3000
0000
0002
0000
0303
0000
0001
0010
,
0100
1000
0200
0000
0000
0000
0002
0000
,
0003
0000
2000
0000
3300
0000
1000
0001
,
1001
0000
0101
0000
1001
0000
1000
0010
,
1000
0001
1000
0010
1000
0000
0010
1000
,
1010
0000
0001
0010
0001
1000
0001
0010
,
0001
0100
0001
1000
0001
0000
0100
0010
,
1000
0100
1000
0000
0110
0000
0001
0100
,
0001
1000
0000
2002
0000
3003
0110
0010
,
0100
0010
0100
0000
1001
0000
0110
0010
,
0000
0110
0100
0000
1001
0000
1000
0100
,
1100
0000
0110
0000
0011
0000
0001
0100
,
0010
1000
0000
1001
0000
0000
0010
0100
,
0101
0000
0110
0000
1010
1000
0100
0010
,
0001
0100
0000
0202
0000
0303
0001
1000
,
0000
1000
0010
0000
0110
0000
0010
1000
,
0001
0100
0010
2000
0000
3000
0000
1000
,
1010
0000
0101
0000
0011
0000
1100
1000
,
0010
0000
1010
0000
0010
0010
0010
0010
,
0000
0000
0000
0000
,
0000
0000
0000
0100
,
2020
0000
0000
0000
3030
0000
1000
0001
,
0000
0001
0010
0000
0100
1000
0100
0000
,
0022
0000
0000
0000
0033
0000
0001
1000
,
0000
0010
0100
0000
0010
1000
0001
0000
,
1000
0100
0002
0000
0000
0000
0203
0000
,
0000
0000
2300
0000
0000
0000
3001
1000
,
0001
0100
2000
0000
0000
0000
3200
0000
,
0000
0302
0000
1003
,
0202
0000
0000
0000
0303
0000
0010
1000
,
0000
1000
0100
0000
1000
0001
0010
0000
,
2200
0000
0000
0000
3300
0000
1000
0001
,
0000
0100
0010
0000
0100
0001
1000
0000
,
0001
0010
2000
0000
0000
0000
3020
0000
,
0000
0000
0032
0000
0000
0000
1003
0001
,
1000
0010
0002
0000
0000
0000
0023
0000
,
0000
0000
2030
0000
0000
0000
3001
1000
,
0001
0000
1100
0000
0101
0000
1000
0100
,
0010
0100
1000
0100
0010
0000
0010
0001
,
0101
0000
0010
0100
0001
0100
0010
0100
,
0001
0010
0100
2000
0000
3000
1000
0001
,
0000
0010
0100
0000
0011
0000
1000
0001
,
0100
0010
0000
2200
0000
3300
1001
1000
,
0001
1000
0001
0000
0110
0000
1001
1000
,
0000
1001
0001
0000
0110
0000
0100
0010
,
0100
0000
1100
0000
0101
0000
0001
0010
,
0100
1000
0000
2002
0000
3003
1000
0010
,
0100
0000
0101
0000
0001
0010
0100
1000
,
0010
0100
0000
0220
0000
0330
1000
0001
,
0000
0100
0010
0000
0110
0000
0100
0001
,
1000
0010
0100
0020
0000
0030
0000
0010
,
1010
0000
1100
0000
0011
0000
0001
1000
,
1010
0000
0101
0000
0001
0001
0001
0001
,
0000
0000
2000
3000
,
0000
0000
0002
0003
,
0000
0000
0200
0300
,
0000
0000
0000
0000
0020
0000
0000
0030
;

//---------------dance-double - ----------------
#NOTES:
     dance-double:
     :
     Hard:
     12:
     0.565260,0.635034,0.486752,0.384691,0.000000,504.000000,442.000000,62.000000,49.000000,0.000000,0.000000,0.565260,0.635034,0.486752,0.384691,0.000000,504.000000,442.000000,62.000000,49.000000,0.000000,0.000000:
00000000
00000000
00000000
00000000
,
00000000
00000000
00000000
00000000
,
00000000
00000000
00000000
00000000
,
00000000
00000000
00000000
00000000
,
00010000
00100000
01000000
00000000
10100000
00000000
10000000
01000000
,
00010000
00001000
00010000
00100000
00010000
00000000
00001000
00000010
,
00000000
00000010
00000010
00000000
00000010
00000002
00000100
00000003
,
00002000
00000000
00003100
00000000
00000002
00000100
00000000
00000003
,
00000101
00000000
00001100
00000000
00000101
00000000
00001000
00000010
,
00000100
00000000
00001000
00010000
01000000
00000000
00010000
00001000
,
00000000
00001000
00001000
00000000
00010000
02000000
10000000
03000000
,
00020000
00000000
00130000
00000000
20000000
00100000
31000000
00000000
,
01010000
00000000
00000000
00000000
00001000
00010000
00000100
00000000
,
00001010
00000000
00000000
00000010
00000100
00000100
00000001
00001000
,
00000010
00000100
00001000
00001000
00010000
00100000
01000000
00002000
,
00000000
00003000
00000000
00000000
00010000
00000010
00001000
00000010
,
00020000
00000000
00030000
00000000
00001000
00100000
00010000
00100000
,
00002000
00000000
00003000
00010000
00000100
00001000
00000000
00010010
,
00000000
00000100
00001000
00000010
00000100
00000100
00000000
00000012
,
00000000
00002000
00000000
00003003
00000000
00000010
00000100
00000000
,
00000102
00000000
00001000
00000000
00000103
00000000
00000001
00000001
,
00000000
00000100
00001000
00000000
00010000
01000000
10000000
00000000
,
20100000
00000000
00010000
00000000
30100000
00000000
10000000
10000000
,
00000000
01000000
00010000
00000000
00001000
00000100
00000001
00000000
,
00001000
00000010
00000100
00000001
00000010
00000100
00001000
00000100
,
00000001
00000100
00002000
00000000
00003000
00000000
00000001
00001000
,
00000010
00000100
00001000
00010000
00100000
10000000
02000000
00000000
,
00000000
03200000
00000000
00310000
,
21000000
00000000
00010000
00000000
31000000
00000000
10000000
10000000
,
00000000
01000000
00010000
00000000
00001000
00000100
00000001
00000000
,
00000012
00000000
00001000
00000000
00000013
00000000
00000001
00000001
,
00000000
00000100
00001000
00000000
00010000
01000000
10000000
00000000
,
00010000
00100000
01000000
10000000
01000000
00100000
00010000
01000000
,
10000000
01000000
00020000
00000000
00030000
00000000
10000000
00010000
,
01000000
00100000
00010000
00001000
00000100
00000001
00000020
00000000
,
00000000
00000000
00000230
00000000
00000000
00000000
00001300
00000001
,
00000101
00000000
00001100
00000000
00011000
00000000
00010000
00100000
,
10000000
10000000
00100000
00020000
00000000
00030000
00001000
00010000
,
00011000
00000000
00001000
00000010
00000001
00000001
00000010
00001000
,
00010000
00001000
00000100
00001000
00010000
00000000
00100000
00010000
,
00001000
00010000
00011000
00000000
01100000
00000000
10000000
00010000
,
01000000
00100000
00000000
02200000
00000000
03300000
11000000
10000000
,
01000000
00010000
00001000
00000000
00011000
00000000
00001000
00000010
,
00000000
00000001
00000010
00000000
00001000
00010000
00100000
00010000
,
00001000
00000000
00011000
00000000
00110000
00000000
00010000
00001000
,
00000100
00000001
00000000
00000202
00000000
00000303
00001000
00000010
,
00000110
00000000
00000100
00001000
00010000
01000000
10000000
10000000
,
01000000
00010000
00000000
00022000
00000000
00033000
00100000
01000000
,
00100000
00001000
00010000
00000000
00010100
00000000
00001000
00000010
,
00000100
00000010
00000001
00000010
00001000
00000000
00000001
00000100
,
00000010
00000000
00000110
00000000
00010010
00000000
00011000
00001000
,
00100000
00000000
01100000
00000000
01000000
01000000
01000000
01000000
,
00000000
00000000
00000000
00000000
,
00000000
00000000
00000000
00000010
,
00001002
00000000
00000100
00000000
00000013
00000000
00000001
00000001
,
00000000
00000100
00001000
00000000
00010000
00100000
10000000
00000000
,
20010000
00000000
00100000
00000000
31000000
00000000
10000000
10000000
,
00000000
00100000
00010000
00000000
00001000
00000100
00000001
00000000
,
00001000
00000010
00000100
00001000
00010000
00100000
01000000
00010000
,
00001000
00000100
00000002
00000000
00000003
00000000
00000001
00001000
,
00000010
00000100
00001000
00010000
00100000
01000000
00020000
00000000
,
00000000
20030000
00000000
30100000
,
01200000
00000000
10000000
00000000
00310000
00000000
10000000
10000000
,
00000000
00100000
00010000
00000000
00001000
00000100
00000001
00000000
,
00000210
00000000
00000001
00000000
00001300
00000000
00000001
00000001
,
00000000
00000100
00001000
00000000
00010000
00100000
10000000
00000000
,
00010000
01000000
00100000
00010000
00001000
00000010
00000100
00001000
,
00010000
00100000
20000000
00000000
30000000
00000000
10000000
00010000
,
01000000
00100000
00010000
00001000
00000100
00000010
00002000
00000000
,
00000000
00000000
00003002
00000000
00000000
00000000
00000103
00000010
,
00001000
00000000
00000101
00000000
00001010
00000000
00000001
00000100
,
00000010
00001000
00000100
00000010
00001000
00000000
00010000
00100000
,
10000000
00000000
01000000
00010000
00001000
00010000
01000000
10000000
,
00100000
00010000
00001000
00000020
00000000
00000000
00000031
00001000
,
00000000
00000010
00000010
00000000
00001100
00000000
00000010
00000010
,
00000100
00000001
00000000
00000202
00000000
00000303
00001010
00001000
,
00000100
00001000
00000010
00000000
00010100
00000000
00011000
00001000
,
00000000
00010000
00011000
00000000
00101000
00000000
01000000
10000000
,
10010000
00000000
00101000
00000000
01010000
00000000
01000000
00100000
,
00010000
00001000
00000000
00022000
00000000
00033000
00010000
00000010
,
00000110
00000000
00000101
00000000
00001010
00001000
00000010
00000100
,
00001000
00010000
00000000
00220000
00000000
00330000
10000000
00010000
,
00000000
01000000
00100000
00000000
01010000
00000000
00100000
10000000
,
00100000
01000000
00100000
00010000
00100000
00000000
00000000
10000000
,
10010000
00000000
00101000
00000000
00011000
00000000
00010100
00000100
,
00001000
00000000
00001010
00000000
00000001
00001000
00010000
10000000
,
00000000
00000000
00120000
00000000
,
00030000
00000000
00002010
00000000
,
00003000
00000000
01020000
00000000
,
00030000
00000000
00000000
00000000
00002100
00000000
00000000
00003000
;

//---------------dance-double - ----------------
#NOTES:
     dance-double:
     :
     Medium:
     7:
     0.334221,0.459274,0.062807,0.376840,0.000000,298.000000,290.000000,8.000000,48.000000,0.000000,0.000000,0.334221,0.459274,0.062807,0.376840,0.000000,298.000000,290.000000,8.000000,48.000000,0.000000,0.000000:
00000000
00000000
00000000
00000000
,
00000000
00000000
00000000
00000000
,
00000000
00000000
00000000
00000000
,
00000000
00000000
00000000
00000000
,
10000000
01000000
10000000
00000000
00100000
00000000
00000000
00000000
,
10000000
00000000
01000000
00000000
00100000
00000000
00001000
00010000
,
00000000
00001000
00010000
00000000
00000010
00000000
00000000
00000000
,
00000000
00000000
00000000
00000000
,
00001000
00000000
00001000
00000000
00000001
00000000
00000100
00000010
,
00000100
00000000
00000010
00000100
00000010
00000000
00010000
00001000
,
00000000
00010000
00001000
00000000
01000000
00000000
00000000
00000000
,
00000000
00000000
00100000
10000000
,
01000000
00000000
00100000
00010000
,
01000000
00000000
00000000
00000000
00100000
01000000
00010000
10000000
,
00100000
00100000
01000000
01000000
,
00000000
00000000
00000000
00000000
00001000
00010000
00001000
00010000
,
00002000
00000000
00003000
00000000
00010000
00001000
00010000
00001000
,
00020000
00000000
00030000
00000100
00001000
00000100
00000000
00000010
,
00000000
00000001
00000100
00000001
00000100
00000001
00000000
00002000
,
00000000
00003020
00000000
00000030
00000000
00000000
00000000
00000000
,
00002020
00000000
00000000
00000000
00003030
00000000
00000000
00001000
,
00000000
00001000
00000100
00000000
00010000
00000000
00000000
00000000
,
00022000
00000000
00000000
00000000
00033000
00000000
00000000
00100000
,
00000000
00100000
00010000
00000000
01000000
00000000
00000000
00000000
,
00100000
01000000
00200000
00000000
00000000
00000000
20300000
00000000
,
00000000
00000000
30020000
00000000
00000000
00000000
01030000
00100000
,
01000000
00100000
02000000
00000000
00000000
00000000
03020000
00000000
,
00000000
20000000
30030000
00000000
,
22000000
00000000
00000000
00000000
33000000
00000000
00000000
00100000
,
00000000
00100000
00001000
00000000
00010000
00000000
00000000
00000000
,
00022000
00000000
00000000
00000000
00033000
00000000
00000000
00000100
,
00000000
00000100
00001000
00000000
00000010
00000000
00000000
00000000
,
00000100
00000010
00000200
00000000
00000000
00000000
00000302
00000000
,
00000000
00000000
00002003
00000000
00000000
00000000
00003010
00000100
,
00000010
00000100
00000020
00000000
00000000
00000000
00002030
00000000
,
00000000
00003002
00000000
00000003
,
00000000
00001000
00000100
00001000
,
00000010
00000000
00001000
00000000
00000000
00000000
00000100
00010000
,
00000100
00010000
00001000
01000000
,
00100000
00000000
01000000
00000000
00000000
00000000
00010000
10000000
,
00000000
10000000
00100000
00000000
00100000
00000000
01000000
00000000
,
01000000
00000000
00100000
00000000
01000000
00000000
00001000
00010000
,
00001000
00000000
00010000
00000000
00001000
00000000
00010000
00001000
,
00000000
00001000
00010000
00000000
00001000
00000000
00010000
00000100
,
00000000
00001000
00000010
00001000
,
00000100
00001000
00000000
00000100
,
00000100
00010000
00001000
01000000
,
00100000
00000000
01000000
00000000
00000000
00000000
00010000
10000000
,
00000000
10000000
01000000
00000000
01000000
00000000
00100000
00000000
,
01000000
00000000
01000000
00000000
00100000
00000000
00000000
00001000
,
00010000
00000000
00010000
00000000
00001000
00000000
00010000
00001000
,
00010000
00000000
00001000
00000000
00010000
00001000
00010000
00001000
,
00000000
00000000
00000000
00000000
,
00000000
00000000
00000000
00000000
,
00002020
00000000
00000000
00000000
00003030
00000000
00000000
00000001
,
00000000
00000001
00000100
00000000
00000010
00000000
00000000
00000000
,
00002200
00000000
00000000
00000000
00003300
00000000
00000000
00010000
,
00000000
00010000
00001000
00000000
01000000
00000000
00100000
00000000
,
01000000
00010000
02000000
00000000
00000000
00000000
03020000
00000000
,
00000000
00000000
20030000
00000000
00000000
00000000
30100000
01000000
,
00100000
01000000
00200000
00000000
00000000
00000000
20300000
00000000
,
00000000
00020000
30030000
00000000
,
02200000
00000000
00000000
00000000
03300000
00000000
00000000
01000000
,
00000000
01000000
00010000
00000000
00100000
00000000
00000000
00000000
,
00022000
00000000
00000000
00000000
00033000
00000000
00000000
00001000
,
00000000
00001000
00010000
00000000
00000010
00000000
00000100
00000000
,
00000001
00001000
00000002
00000000
00000000
00000000
00000203
00000000
,
00000000
00000000
00000320
00000000
00000000
00000000
00001030
00000001
,
00001000
00000001
00002000
00000000
00000000
00000000
00003020
00000000
,
00000000
00000230
00000000
00000300
,
00000000
00000010
00001000
00000100
,
00000010
00000000
00000001
00000000
00000000
00000000
00001000
00000100
,
00001000
00000100
00010000
00001000
,
00100000
00000000
01000000
00000000
00000000
00000000
10000000
00010000
,
00000000
00010000
01000000
00000000
01000000
00000000
00010000
00000000
,
00100000
00000000
00010000
00000000
01000000
00000000
00001000
00010000
,
00001000
00000000
00010000
00000000
00001000
00000000
00010000
00001000
,
00000000
00001000
00010000
00000000
00001000
00000000
00010000
00000100
,
00000000
00001000
00000010
00001000
,
00000100
00000000
00010000
00000000
00000000
00000000
00001000
00100000
,
00001000
00100000
01000000
10000000
,
00010000
10000000
00000000
00100000
00000000
00000000
01000000
00100000
,
00000000
01000000
00001000
00010000
,
00000100
00000000
00010000
00000000
00001000
00000000
00000000
00001000
,
00010000
00000000
00010000
00000000
00001000
00000000
00010000
00001000
,
00010000
00000000
00001000
00000000
00010000
00001000
00010000
00001000
,
00000000
00000000
00200000
00000000
,
00300000
00000000
00200000
00000000
,
00300000
00000000
00000020
00000000
,
00000030
00000000
00000020
00000000
,
00000030
00000000
00000000
00000000
;

//---------------dance-double - ----------------
#NOTES:
     dance-double:
     :
     Easy:
     5:
     0.238890,0.282237,0.062807,0.329735,0.000000,213.000000,205.000000,8.000000,42.000000,0.000000,0.000000,0.238890,0.282237,0.062807,0.329735,0.000000,213.000000,205.000000,8.000000,42.000000,0.000000,0.000000:
00000000
00000000
00000000
00000000
,
00000000
00000000
00000000
00000000
,
00000000
00000000
00000000
00000000
,
00000000
00000000
00000000
00000000
,
00000100
00001000
00000100
00000000
,
00001000
00000100
00001000
00000000
,
00000001
00001000
00000100
00000000
,
00000000
00000000
00000000
00000000
,
00010000
00010000
00001000
00000000
,
00001000
00001000
00010000
00000000
,
00001000
00100000
01000000
00000000
,
00000000
00000000
10000000
01000000
,
10000000
00000000
00010000
01000000
,
00010000
00000000
10000000
00100000
,
01000000
00010000
00100000
01000000
,
10000000
00000000
00010000
00100000
,
00001000
00000000
00001000
00010000
,
00000010
00000000
00000100
00000000
,
00000010
00000000
00001000
00000000
,
00000001
00000000
00000000
00000000
,
00002002
00000000
00003003
00000000
,
00000010
00000100
00000001
00000000
,
00002002
00000000
00003003
00000000
,
00000100
00000010
00001000
00000000
,
00000100
00000200
00000000
00020300
,
00000000
00032000
00000000
00003000
,
00010000
00020000
00000000
00032000
,
00000000
01003000
00000000
00000000
,
20020000
00000000
30030000
00000000
,
01000000
00010000
10000000
00000000
,
20020000
00000000
30030000
00000000
,
00100000
10000000
00010000
00000000
,
01000000
02000000
00000000
03002000
,
00000000
00023000
00000000
00030000
,
00001000
00002000
00000000
00023000
,
00000000
00030200
00000000
00000300
,
00000000
00000010
00000100
00000000
,
00000100
00001000
00000010
00000000
,
00000100
00000001
00001000
00000001
,
00000100
00000001
00001000
00000000
,
00000000
00000100
00000100
00010000
,
00001000
00000000
00000000
01000000
,
00100000
01000000
00100000
00100000
,
01000000
00100000
01000000
00000000
,
00000000
00010000
10000000
00000000
,
10000000
00100000
01000000
00000000
,
01000000
00001000
00010000
00000100
,
00001000
00000100
00000000
00000000
,
00000000
00000010
00000001
00000000
,
00000001
00001000
00000010
00000000
,
00000010
00000100
00000010
00000100
,
00000100
00000010
00000100
00000010
,
00000000
00000000
00000000
00000000
,
00000000
00000000
00000000
00000000
,
00000220
00000000
00000330
00000000
,
00001000
00000001
00000100
00000000
,
00000220
00000000
00000330
00000000
,
00000001
00001000
00000100
00000000
,
00000100
00000200
00000000
00020300
,
00000000
00032000
00000000
00003000
,
00010000
00020000
00000000
00032000
,
00000000
01003000
00000000
00000000
,
02200000
00000000
03300000
00000000
,
10000000
01000000
00100000
00000000
,
02200000
00000000
03300000
00000000
,
00010000
00100000
01000000
00000000
,
10000000
00020000
00000000
00230000
,
00000000
00302000
00000000
00003000
,
00010000
00000200
00000000
00002300
,
00000000
00003020
00000000
00000030
,
00000000
00000100
00000001
00000000
,
00000001
00001000
00000100
00000000
,
00000010
00000100
00010000
00001000
,
01000000
00010000
00000000
00000000
,
00000000
00100000
00010000
00000000
,
00010000
10000000
00000000
00100000
,
01000000
00100000
01000000
01000000
,
00100000
01000000
00100000
00000000
,
00000000
01000000
00010000
00000000
,
00010000
00100000
00001000
00000000
,
00001000
00010000
00000100
00001000
,
00000010
00000100
00000001
00000000
,
00000000
00000010
00001000
00000000
,
00001000
00000001
00000100
00000000
,
00000010
00000100
00000010
00000100
,
00000100
00000010
00000100
00000010
,
00000000
00000000
00020000
00030000
,
00000000
00000000
00002000
00003000
,
00000000
00000000
00020000
00030000
,
00000000
00000000
00000000
00000000
00002000
00000000
00000000
00003000
;

//---------------dance-single - ----------------
#NOTES:
     dance-single:
     :
     Beginner:
     2:
     0.098696,0.140922,0.000000,0.094210,0.000000,88.000000,88.000000,0.000000,12.000000,0.000000,0.000000,0.098696,0.140922,0.000000,0.094210,0.000000,88.000000,88.000000,0.000000,12.000000,0.000000,0.000000:
// measure 0
0000
0000
0000
0000
,  // measure 1
0000
0000
0000
0000
,  // measure 2
0000
0000
0000
0000
,  // measure 3
0000
0000
0000
0000
,  // measure 4
1000
0000
0000
0000
,  // measure 5
0100
0000
0000
0000
,  // measure 6
1000
0000
0000
0000
,  // measure 7
0000
0000
0000
0000
,  // measure 8
0001
0000
0000
0000
,  // measure 9
0100
0000
0000
0000
,  // measure 10
0001
0000
0000
0000
,  // measure 11
0000
0000
0100
0000
,  // measure 12
0100
0000
0100
0000
,  // measure 13
0100
0000
0000
0000
,  // measure 14
0010
0000
0000
0000
,  // measure 15
0100
0000
0000
0000
,  // measure 16
0001
0000
0000
0000
,  // measure 17
1000
0000
0000
0000
,  // measure 18
1000
0000
0000
0000
,  // measure 19
0001
0000
0000
0000
,  // measure 20
0200
0000
0300
0000
,  // measure 21
0000
0000
0000
0000
,  // measure 22
0020
0000
0030
0000
,  // measure 23
0000
0000
0000
0000
,  // measure 24
1000
0000
0000
1000
,  // measure 25
0000
1000
0000
0000
,  // measure 26
0001
0000
0000
0001
,  // measure 27
0000
0001
0000
0000
,  // measure 28
2000
0000
3000
0000
,  // measure 29
0000
0000
0000
0000
,  // measure 30
0002
0000
0003
0000
,  // measure 31
0000
0000
0000
0000
,  // measure 32
0100
0000
0000
0100
,  // measure 33
0000
0100
0000
0000
,  // measure 34
0010
0000
0000
0010
,  // measure 35
0000
0010
0000
0000
,  // measure 36
0000
1000
0000
0000
,  // measure 37
0000
0000
0000
0000
,  // measure 38
0001
0000
0000
0000
,  // measure 39
0000
0000
0000
0100
,  // measure 40
0000
0100
0000
0000
,  // measure 41
0000
0000
0000
0000
,  // measure 42
0010
0000
0010
0000
,  // measure 43
0010
0000
0010
0000
,  // measure 44
0000
1000
0000
0000
,  // measure 45
0000
0000
0000
0000
,  // measure 46
0100
0000
0000
0000
,  // measure 47
0010
0000
0000
0000
,  // measure 48
0000
0001
0000
0000
,  // measure 49
0000
0000
0000
0000
,  // measure 50
0100
0000
0100
0000
,  // measure 51
0100
0000
0100
0000
,  // measure 52
0000
0000
0000
0000
,  // measure 53
0000
0000
0000
0000
,  // measure 54
2000
0000
3000
0000
,  // measure 55
0000
0000
0000
0000
,  // measure 56
0002
0000
0003
0000
,  // measure 57
0000
0000
0000
0000
,  // measure 58
0010
0000
0000
0010
,  // measure 59
0000
0010
0000
0000
,  // measure 60
0100
0000
0000
0100
,  // measure 61
0000
0100
0000
0000
,  // measure 62
0200
0000
0300
0000
,  // measure 63
0000
0000
0000
0000
,  // measure 64
0020
0000
0030
0000
,  // measure 65
0000
0000
0000
0000
,  // measure 66
0001
0000
0000
0001
,  // measure 67
0000
0001
0000
0000
,  // measure 68
1000
0000
0000
1000
,  // measure 69
0000
1000
0000
0000
,  // measure 70
0000
1000
0000
0000
,  // measure 71
0001
0000
0000
0000
,  // measure 72
0100
0000
0000
0000
,  // measure 73
0010
0000
0000
0000
,  // measure 74
0000
0100
0000
0000
,  // measure 75
0001
0000
0000
0000
,  // measure 76
1000
0000
1000
0000
,  // measure 77
1000
0000
1000
0000
,  // measure 78
0000
0001
0000
0000
,  // measure 79
0010
0000
0000
0000
,  // measure 80
0100
0000
0000
0000
,  // measure 81
1000
0000
0000
0000
,  // measure 82
0000
0010
0000
0000
,  // measure 83
0100
0000
0000
0000
,  // measure 84
0001
0000
0001
0000
,  // measure 85
0001
0000
0001
0000
,  // measure 86
0000
0000
2000
3000
,  // measure 87
0000
0000
0002
0003
,  // measure 88
0000
0000
2000
3000
,  // measure 89
0000
0000
0002
0003
;

//---------------dance-single - ----------------
#NOTES:
     dance-single:
     :
     Easy:
     4:
     0.180569,0.281845,0.000000,0.172718,0.000000,161.000000,161.000000,0.000000,22.000000,0.000000,0.000000,0.180569,0.281845,0.000000,0.172718,0.000000,161.000000,161.000000,0.000000,22.000000,0.000000,0.000000:
0000
0000
0000
0000
,
0000
0000
0000
0000
,
0000
0000
0000
0000
,
0000
0000
0000
0000
,
1000
0000
0100
0000
,
1000
0000
0100
0000
,
0010
0000
0000
0000
,
0000
0000
0000
0000
,
0001
0000
0100
0000
,
0001
0000
0100
0000
,
0010
0000
0000
0000
,
0000
0000
0200
0000
,
0310
0000
0020
0000
,
0130
0000
0001
0000
,
1000
0000
0000
0100
,
0000
0000
1000
0001
,
1000
0000
0001
1000
,
0001
0000
0000
0000
,
0100
0000
0010
0000
,
0100
0000
0000
0000
,
0002
0000
0003
0000
,
0001
0010
0100
0000
,
2000
0000
3000
0000
,
1000
0100
0010
0000
,
0002
0000
0000
0100
,
0000
0103
0000
0000
,
2000
0000
0000
0100
,
0000
3100
0000
0000
,
0020
0000
0030
0000
,
0001
1000
0010
0000
,
0200
0000
0300
0000
,
0010
1000
0001
0000
,
0200
0000
0000
0001
,
0000
0301
0000
0000
,
2000
0000
0000
0010
,
0000
3010
0000
0000
,
0000
1000
0100
0000
,
1000
0000
0000
0000
,
0001
0000
0100
0000
,
0010
0010
0000
0000
,
0000
0100
0001
0000
,
1000
0000
0000
0000
,
0010
1000
0010
0010
,
0100
0001
0100
0100
,
0000
0001
0010
0000
,
0100
0000
0000
1000
,
0010
0000
0100
0000
,
0001
0000
0000
0000
,
0000
0001
1000
0000
,
0010
0000
0100
0000
,
0001
0010
0001
0001
,
1000
0100
1000
1000
,
0000
0000
0000
0000
,
0000
0000
0000
0000
,
2000
0000
3000
0000
,
1000
0100
0010
0000
,
0002
0000
0003
0000
,
0001
0010
0100
0000
,
2000
0000
0000
0010
,
0000
3010
0000
0000
,
0002
0000
0000
0010
,
0000
0013
0000
0000
,
0200
0000
0300
0000
,
1000
0010
0100
0000
,
0020
0000
0030
0000
,
0100
0001
0010
0000
,
0200
0000
0000
1000
,
0000
1300
0000
0000
,
0020
0000
0000
0001
,
0000
0031
0000
0000
,
0000
1000
0100
0000
,
1000
0010
0000
0000
,
0100
0000
0000
0000
,
0001
0010
0000
0000
,
0000
0100
1000
0000
,
1000
0001
0000
0000
,
1000
0001
1000
1000
,
0010
0100
0010
0010
,
0000
0100
0001
0000
,
1000
0000
0000
0100
,
0010
0000
0000
0000
,
0001
1000
0000
0000
,
0000
0010
0100
0000
,
0100
0001
0000
0000
,
0100
0010
0100
0100
,
0001
1000
0001
0001
,
0000
0000
2000
3000
,
0000
0000
2000
3000
,
0000
0000
0002
0003
,
0000
0000
0002
0003
;

//---------------dance-single - ----------------
#NOTES:
     dance-single:
     :
     Medium:
     6:
     0.310669,0.423945,0.078508,0.251227,0.000000,277.000000,267.000000,10.000000,32.000000,0.000000,0.000000,0.310669,0.423945,0.078508,0.251227,0.000000,277.000000,267.000000,10.000000,32.000000,0.000000,0.000000:
0000
0000
0000
0000
,
0000
0000
0000
0000
,
0000
0000
0000
0000
,
0000
0000
0000
0000
,
1000
0100
0010
0100
,
0010
0000
0001
0000
0100
0000
0010
0100
,
0000
0100
0010
0000
1001
0000
0000
0000
,
0000
0000
0000
0000
,
1000
1000
0100
0000
,
1000
0000
0001
0000
0010
0000
0100
1000
,
0000
1000
0100
0000
1100
0000
0000
0000
,
0000
0000
2000
0010
,
3100
0000
0002
0100
,
0013
0000
0000
1000
0100
0000
0100
0000
,
0010
0010
0001
0001
,
0000
0000
0000
0000
0001
0100
0001
0100
,
0001
0000
0000
0000
1000
0100
1000
0100
,
1000
0000
0000
0000
0010
0100
0000
0100
,
0000
0001
1000
0001
0100
0010
0000
2000
,
0000
0002
0000
3003
0000
0000
0000
0000
,
2200
0000
0000
0000
3300
0000
0000
1000
,
0000
1000
0001
0000
0001
0000
0000
0000
,
0202
0000
0000
0000
0303
0000
0000
0001
,
0000
0001
1000
0000
1000
0000
0000
0000
,
0010
1000
0020
0000
0000
0000
0100
0000
,
0000
0130
0000
0000
,
0100
0001
0200
0000
0000
0000
0010
0000
,
0000
0310
0000
0000
,
2020
0000
0000
0000
3030
0000
0000
0010
,
0000
0010
0100
0000
0100
0000
0000
0000
,
0202
0000
0000
0000
0303
0000
0000
0100
,
0000
0100
0010
0000
0010
0000
0000
0000
,
1000
0100
2000
0000
0000
0000
0010
0000
,
0000
3010
0000
0000
,
0001
0100
0002
0000
0000
0000
0010
0000
,
0000
0013
0000
0000
,
0000
0100
1000
0100
,
1000
0100
1000
0100
0000
0000
0000
0000
,
0010
0001
0010
0001
,
0010
0001
0010
0001
0000
0000
0000
0000
,
0000
0100
0001
0100
,
0001
1000
0000
0100
0000
0000
0010
0000
,
0010
0000
0100
0000
0100
0000
0010
0010
,
0000
0100
0100
0000
0010
0000
0000
0000
,
0000
0001
0100
0001
,
0100
0001
0000
0001
0000
0000
1000
0000
,
0010
1000
0010
1000
,
0010
1000
0000
1000
0000
0000
0000
0000
,
0000
0010
0100
0001
,
1000
0001
1000
0001
0000
0000
0000
0100
,
0100
0000
0010
0000
0100
0000
0010
0100
,
0010
0000
0100
0000
0010
0100
0010
0100
,
0000
0000
0000
0000
,
0000
0000
0000
0000
,
0202
0000
0000
0000
0303
0000
0000
0010
,
0000
0010
1000
0000
1000
0000
0000
0000
,
2200
0000
0000
0000
3300
0000
0000
1000
,
0000
1000
0100
0000
0100
0000
0000
0000
,
0010
0001
0020
0000
0000
0000
0001
0000
,
0000
0031
0000
0000
,
0001
0100
0002
0000
0000
0000
0100
0000
,
0000
0103
0000
0000
,
2020
0000
0000
0000
3030
0000
0000
1000
,
0000
1000
0100
0000
0100
0000
0000
0000
,
0022
0000
0000
0000
0033
0000
0000
0010
,
0000
0010
0001
0000
0001
0000
0000
0000
,
0100
0010
0200
0000
0000
0000
0010
0000
,
0000
0310
0000
0000
,
0010
1000
0020
0000
0000
0000
1000
0000
,
0000
1030
0000
0000
,
0000
0100
0010
0100
,
0010
0100
0010
0100
0000
0000
0010
0000
,
0001
0010
0001
0010
,
0001
0010
0001
0010
0000
0000
0000
0000
,
0000
0100
1000
0100
,
1000
0100
0000
0010
0000
0000
0001
0000
,
0001
0000
1000
0000
1000
0000
0001
0001
,
0000
1000
1000
0000
0001
0000
0000
0000
,
0000
0100
0010
0100
,
0010
0100
0000
0100
0000
0000
0010
0000
,
1000
0010
1000
0010
,
1000
0010
0000
0100
0000
0000
0000
0000
,
0000
0001
1000
0010
,
0100
0010
0100
0010
0000
0000
0000
1000
,
1000
0000
0001
0000
1000
0000
0001
1000
,
0001
0000
1000
0000
0001
1000
0001
1000
,
0000
0000
0020
0030
,
0000
0000
0020
0030
,
0000
0000
0020
0030
,
0000
0000
0020
0000
,
0030
0000
0000
0000
;
