#VERSION:0.83;
#TITLE:Coconut;
#SUBTITLE:;
#ARTIST:Smile.dk;
#TITLETRANSLIT:;
#SUBTITLETRANSLIT:;
#ARTISTTRANSLIT:;
#GENRE:House;
#ORIGIN:;
#CREDIT:;
#BANNER:coconut-bn.png;
#BACKGROUND:coconut-bg.png;
#PREVIEWVID:;
#JACKET:;
#CDIMAGE:;
#DISCIMAGE:;
#LYRICSPATH:;
#CDTITLE:;
#MUSIC:Coconut.ogg;
#OFFSET:-1.060000;
#SAMPLESTART:43.889999;
#SAMPLELENGTH:13.000000;
#SELECTABLE:YES;
#BPMS:0.000=112.000;
#STOPS:;
#DELAYS:;
#WARPS:;
#TIMESIGNATURES:0.000=4=4;
#TICKCOUNTS:0.000=4;
#COMBOS:0.000=1;
#SPEEDS:0.000=1.000=0.000=0;
#SCROLLS:0.000=1.000;
#FAKES:;
#LABELS:0.000=Song Start;
#BGCHANGES:;
#KEYSOUNDS:;
#ATTACKS:
;

//---------------dance-single - ----------------
#NOTEDATA:;
#CHARTNAME:;
#STEPSTYPE:dance-single;
#DESCRIPTION:;
#CHARTSTYLE:;
#DIFFICULTY:Challenge;
#METER:15;
#RADARVALUES:0.647624,0.664955,0.670712,0.331316,0.533338,561.000000,478.000000,83.000000,41.000000,0.000000,0.000000,0.000000,0.000000,0.000000,0.647624,0.664955,0.670712,0.331316,0.533338,561.000000,478.000000,83.000000,41.000000,0.000000,0.000000,0.000000,0.000000,0.000000;
#CREDIT:;
#NOTES:
0000
0000
0000
0000
,
0000
0000
0000
0000
,
0000
0000
0000
0000
,
0000
0000
0000
0000
0000
0000
0000
0000
0000
0000
0000
0000
0000
0000
0000
0000
0000
0000
0000
0000
0000
0000
0000
0000
0000
0000
0000
0000
0001
0000
1000
0000
0000
0001
0000
0000
1000
0000
0000
0000
0000
0000
1001
0000
0000
0000
0000
0000
,
0100
0010
0100
0001
0100
0000
0100
0010
0100
0001
0100
0000
0101
0000
0010
0000
,
1000
0000
0100
0001
0000
0100
0010
0100
1000
0000
0001
0000
0200
0000
0310
0000
,
0100
0010
0100
0001
0100
0000
0100
0010
0200
0000
0301
0000
2000
0000
3010
0000
,
1010
0000
0100
0001
0000
0000
0101
0000
1001
0000
0000
0000
0110
0000
0000
0000
,
0010
1000
0010
0100
0010
0000
0010
1000
0010
0100
0010
0000
1010
0000
0100
0000
,
0001
0000
0010
1000
0000
0010
0100
0010
0001
0000
1000
0000
0020
0000
0130
0000
,
0010
1000
0010
0100
0010
0000
0010
1000
0020
0000
1030
0000
0002
0000
0103
0000
,
0101
0000
0011
0100
1010
0000
1001
0000
,
1001
0000
1000
0100
0001
0000
0001
0100
0010
0100
1000
0100
0010
0000
0001
0000
,
1000
0000
0010
0100
0000
0010
0001
0010
1000
0000
0001
0000
0110
0000
1000
0000
,
0001
0100
1000
0100
0001
0000
0001
0100
1000
0100
0001
0000
1001
0000
0000
0000
,
1010
0000
0000
0100
0000
0000
0001
0000
0011
0000
0000
0000
1100
0000
0000
0000
,
1001
0000
0001
0100
1000
0000
1000
0100
0010
0100
0001
0100
0010
0000
1000
0000
,
0001
0000
0100
0010
0000
0100
1000
0100
0001
0000
1000
0000
0110
0000
0001
0000
,
1000
0100
0001
0100
1000
0000
1000
0100
0001
0000
0100
0000
2000
0000
3010
0000
,
0101
0000
0000
0010
0000
0000
1000
0000
1100
0000
0000
0000
0011
0000
0000
0000
,
1200
0000
0000
0010
0000
0000
0001
0000
0300
1000
0000
1000
0100
0000
0010
0000
,
0011
0000
0100
0000
0010
0000
1000
0000
1002
0000
0000
0020
0000
0000
0033
0000
,
1200
0000
0000
0010
0000
0000
0001
0000
0300
1000
0000
1000
0010
0000
0100
0000
,
0101
0000
0010
0000
0100
0000
1000
0000
2001
0000
0000
0100
0000
0000
3000
0000
,
0201
0000
0000
0010
0000
0000
1000
0000
0300
0001
0000
1000
0001
0000
1001
0000
,
0000
0010
0010
0010
0100
0100
0100
1002
,
0013
0100
2001
3010
0100
0010
1002
0100
,
0010
0000
0100
0000
1000
0000
0100
0000
0013
0001
0010
0001
0010
0100
1000
0100
,
1100
0000
0000
0000
0000
0000
0010
0000
0000
1000
0000
0000
0000
0000
0000
0001
0000
0000
0100
0000
0000
0000
0000
0000
0010
0000
1000
0000
0010
0000
1000
0000
0010
0000
1000
0000
0010
0000
1000
0000
0010
0000
1000
0000
0000
0000
0000
0000
,
0000
0000
1000
0000
0001
0000
0100
0000
0020
0000
0000
0100
0000
0000
0130
0000
,
0010
0000
0000
0000
0000
0000
0000
0000
0000
1000
0000
0000
0000
0000
0000
0000
0000
0000
0100
0000
0000
0000
0000
0000
0010
0000
0001
0000
0010
0000
0001
0000
0010
0000
0001
0000
0010
0000
0001
0000
0010
0000
0001
0000
0000
0000
0000
0000
,
0000
0000
0100
0000
0010
0000
1000
0000
1001
0000
0000
0000
0010
0100
0001
1000
,
0001
0010
0100
0010
1000
0000
1000
0010
0100
0010
0001
0000
1000
0000
0001
0000
,
1000
0010
0100
0010
0001
0000
0001
0010
0100
0010
1000
0000
0001
0000
1001
0000
,
1000
0010
0001
0010
0100
0000
0100
0010
0001
0010
1000
0000
0001
0000
1000
0000
,
1001
0000
0001
0100
1000
0000
1000
0100
0001
0100
1000
0100
0001
0010
0100
1000
,
0001
0010
1000
0010
0100
0000
0100
0010
1000
0010
0001
0000
0100
0000
0010
0000
,
0100
0010
0001
0010
1000
0000
1000
0010
0100
1000
0100
0000
0001
0000
1000
0000
,
0100
0010
1000
0010
0001
0000
0001
0100
0010
0001
0010
0000
1000
0000
0001
0000
,
1001
0000
0000
0010
0000
0000
0100
0000
1001
0000
0000
0000
0110
0000
0000
0000
,
1100
0000
1000
0100
0000
0010
0001
0000
0000
0100
0000
0010
0100
0000
0010
0000
,
1001
0000
0100
0000
0010
0000
0100
0000
2002
0000
3003
0020
0000
0000
0030
0000
,
0101
0000
0001
0100
0000
0010
1000
0000
0000
0010
0000
0100
0010
0000
0100
0000
,
1001
0000
0010
0000
0100
0000
0010
0000
2002
0000
3003
0200
0000
0000
0300
0000
,
1010
0000
1000
0010
0000
0100
0001
0000
0000
0010
0000
0100
1000
0000
1001
0000
,
0000
2000
3020
0032
0023
2030
3002
2003
,
3002
0003
0120
1000
0030
0000
0210
0001
,
0000
0000
0010
0000
1000
0000
0010
0000
0301
1000
0010
0100
0001
0010
0100
1000
,
1100
1010
0101
1010
0101
0101
0101
1010
,
0000
1002
0000
0100
0010
0010
0010
0103
,
0000
1100
0011
1100
0011
0011
0011
1100
,
0010
0000
0100
0000
0002
0000
1000
0000
0103
0000
0020
0000
0001
0000
1030
0001
,
1001
0101
1010
0101
1010
1010
1010
0101
,
0000
2001
0000
0010
0100
0100
0100
3010
,
0000
0011
1100
0011
1100
1100
1100
0011
,
0100
0000
0010
0000
2000
0000
0001
0000
3100
0000
0020
0000
0001
0000
1030
0001
,
2002
0000
0000
0000
0000
0000
0000
0000
0000
0000
0000
0000
0000
0000
0000
0000
0000
0000
0000
0000
0000
0000
0000
0000
3003
0000
0000
0000
0100
0000
0010
0000
0000
0100
0000
0000
0010
0000
0000
0000
0000
0000
0000
0000
0000
0000
0000
0000
;

//---------------dance-single - ----------------
#NOTEDATA:;
#CHARTNAME:;
#STEPSTYPE:dance-single;
#DESCRIPTION:;
#CHARTSTYLE:;
#DIFFICULTY:Hard;
#METER:13;
#RADARVALUES:0.531029,0.596166,0.355558,0.218184,0.391922,460.000000,416.000000,44.000000,27.000000,0.000000,0.000000,0.000000,0.000000,0.000000,0.531029,0.596166,0.355558,0.218184,0.391922,460.000000,416.000000,44.000000,27.000000,0.000000,0.000000,0.000000,0.000000,0.000000;
#CREDIT:;
#NOTES:
0000
0000
0000
0000
,
0000
0000
0000
0000
,
0000
0000
0000
0000
,
0000
0000
0000
0000
0000
0000
0000
0000
0000
1000
0001
1000
0001
0000
0100
0000
,
0001
0010
0001
0010
0001
0000
0010
0001
0010
0001
0010
0000
0100
0000
1000
0000
,
0001
0000
1000
0001
0000
1000
0001
0000
0100
0000
0010
0000
0110
0000
0000
0000
,
1000
0100
1000
0100
1000
0000
0100
1000
0100
0000
1000
0000
0200
0000
0000
0000
,
1300
0000
0001
1000
0000
0000
0010
0000
0100
0000
0000
0000
1001
0000
0000
0000
,
1000
0010
1000
0010
1000
0000
0010
1000
0010
1000
0010
0000
0100
0000
0001
0000
,
1000
0000
0001
1000
0000
0001
1000
0000
0010
0000
0100
0000
0110
0000
0000
0000
,
0001
0100
0001
0100
0001
0000
0100
0001
0100
0000
0001
0000
0200
0000
0000
0000
,
0301
1000
0010
0100
0110
0000
1001
0000
,
0010
0000
0100
0001
1000
0000
0100
0001
1000
0001
1000
0001
1000
0000
0010
0000
,
0100
0000
0001
0100
0000
0001
0100
0000
0010
0000
1000
0000
1010
0000
0000
0000
,
0010
1000
0010
1000
0010
0000
1000
0010
1000
0010
1000
0000
0002
0000
0000
0000
,
1003
0000
0100
0010
0000
0000
0001
0000
0011
0000
0000
0000
1001
0000
0000
0000
,
0100
0000
0010
1000
0001
0000
0010
1000
0001
1000
0001
1000
0001
0000
0100
0000
,
0010
0000
1000
0010
0000
1000
0010
0000
0100
0000
0001
0000
0101
0000
0000
0000
,
0100
0001
0100
0001
0100
0000
0001
0100
0001
0000
1000
0000
0200
0000
0000
0000
,
1300
0000
0000
0100
0000
0000
0010
0000
0100
0000
0000
0000
1100
0000
0000
0000
,
1000
0000
0000
0010
0000
0000
1010
0000
0000
0100
0000
0001
0100
0000
0001
0000
,
0100
0000
0010
0000
0100
0000
0010
0000
0200
0000
0000
0002
0000
0000
0303
0000
,
0001
0000
0000
0010
0000
0000
0011
0000
0000
0100
0000
1000
0100
0000
1000
0000
,
0010
0000
0100
0000
0001
0000
0100
0000
0002
0000
0000
2000
0000
0000
3003
0000
,
0010
0000
0000
0100
0000
0000
0110
0000
0000
0001
0000
1000
0001
0000
1000
0000
,
0000
0010
0001
0010
1000
0100
0001
0100
,
1000
0000
0010
0020
0000
0030
0100
0200
,
0000
0301
0100
1000
0100
0001
0000
0000
,
1000
0000
0010
1000
0000
0010
1000
0000
2020
0000
0000
0000
0000
0000
3030
0000
,
0000
0000
0100
0000
0001
0000
1000
0000
0010
0000
0000
0100
0000
0000
0001
0000
,
0010
0000
0000
0001
0000
0000
0010
0000
0022
0000
0000
0000
0000
0000
0033
0000
,
0000
0100
1000
0100
1100
0000
0000
0000
,
1000
0100
1000
0100
1000
0000
0001
0100
0001
0100
0001
0000
1000
0000
0100
0000
,
1000
0010
1000
0010
1000
0000
0001
0010
0001
0000
0010
0000
0100
0000
1000
0000
,
0001
0100
0001
0100
0001
0000
1000
0100
1000
0100
1000
0000
0001
0000
0100
0000
,
0001
0000
0100
0010
1000
0000
0100
0010
1000
0010
1000
0010
1000
0000
0001
0000
,
0010
0001
0010
0001
0010
0000
0100
1000
0100
1000
0100
0000
1000
0000
0010
0000
,
0100
0001
0100
0001
0100
0000
0010
1000
0010
0000
1000
0000
0010
0000
0100
0000
,
0001
1000
0001
1000
0001
0000
1000
0001
1000
0001
1000
0000
0010
0000
0100
0000
,
0001
0000
0000
1000
0000
0000
0010
0000
0100
0000
0000
0000
1001
0000
0000
0000
,
1100
0000
0000
0110
0000
0000
0011
0000
0000
0001
0000
1000
0001
0000
0100
0000
,
0010
0000
1000
0000
0100
0000
0010
0000
0002
0000
0000
2000
0000
0000
3003
0000
,
0101
0000
0000
0110
0000
0000
1010
0000
0000
1000
0000
0001
1000
0000
0010
0000
,
0100
0000
0001
0000
0010
0000
0100
0000
2000
0000
0000
0002
0000
0000
3003
0000
,
1010
0000
0000
0110
0000
0000
0101
0000
0000
0001
0000
1000
0010
0000
0100
0000
,
0000
0010
0001
0010
1000
0100
0001
0100
,
1000
0000
0010
0020
0000
0030
0100
0200
,
0000
0301
0010
1000
0010
0001
1000
0010
,
0100
0001
0010
0100
1100
1100
1100
1000
,
0000
1020
0000
0130
0001
0100
0001
0100
,
0001
1000
0100
0010
0011
0011
0011
0001
,
0000
0000
1000
0102
0003
0001
2100
3000
,
0010
0100
0001
1000
1010
1010
1010
0010
,
0000
0201
0000
0310
1000
0010
1000
0010
,
1000
0100
0010
0001
0101
0101
0101
0100
,
0010
0000
1000
0012
0003
0001
2010
0000
,
0002
0000
0000
0000
0000
0000
0000
0000
3003
0001
1000
0001
1000
0000
0000
0000
;

//---------------dance-single - ----------------
#NOTEDATA:;
#CHARTNAME:;
#STEPSTYPE:dance-single;
#DESCRIPTION:;
#CHARTSTYLE:;
#DIFFICULTY:Medium;
#METER:9;
#RADARVALUES:0.376338,0.389801,0.048485,0.202022,0.092930,326.000000,320.000000,6.000000,25.000000,0.000000,0.000000,0.000000,0.000000,0.000000,0.376338,0.389801,0.048485,0.202022,0.092930,326.000000,320.000000,6.000000,25.000000,0.000000,0.000000,0.000000,0.000000,0.000000;
#CREDIT:;
#NOTES:
0000
0000
0000
0000
,
0000
0000
0000
0000
,
0000
0000
0000
0000
,
0000
0000
0000
0000
0000
0000
0000
0000
0000
0001
1000
0001
1000
0000
0010
0000
,
1000
0100
0010
0000
0001
0100
0010
0000
,
1000
0000
0000
1000
0000
0000
1000
0000
0010
0000
0100
0000
0001
0000
0000
0000
,
0001
0010
0100
0000
1000
0010
0100
0000
,
0001
0000
0000
1000
0000
0000
0001
0000
1000
0000
0000
0000
0110
0000
0000
0000
,
0010
0100
0001
0000
1000
0010
0100
0000
,
0001
0000
0000
0001
0000
0000
0001
0000
0100
0000
0010
0000
1000
0000
0000
0000
,
1000
0010
0100
0000
0001
0010
0100
0000
,
2000
0000
3001
1000
0002
0000
1003
0000
,
0010
1000
0010
0100
0001
0100
0101
0000
,
0010
0000
0000
0010
0000
0000
0010
0000
0100
0000
0001
0000
1000
0000
0000
0000
,
0001
0010
0001
1000
0100
1000
1100
0000
,
0010
0000
0000
0100
0000
0000
0010
0000
0200
0000
0000
0000
0310
0000
0000
0000
,
1000
0001
1000
0010
0100
0010
0110
0000
,
0100
0000
0000
0100
0000
0000
0100
0000
0001
0000
1000
0000
0010
0000
0000
0000
,
0100
0001
0100
0010
1000
0010
1010
0000
,
0001
0000
0000
0010
0000
0000
0100
0000
1000
0000
0000
0000
1100
0000
0000
0000
,
1000
0000
0000
0010
0000
0000
2000
0000
0000
0000
0001
0000
0001
0000
3001
0000
,
0100
0000
0010
0000
1000
0000
0001
0000
1000
0000
0000
0001
0000
0000
0000
0000
,
0001
0000
0000
0010
0000
0000
0002
0000
0000
0000
1000
0000
1000
0000
1003
0000
,
0010
0000
0100
0000
0001
0000
1000
0000
0001
0000
0000
1000
0000
0000
0000
0000
,
1000
0000
0000
0010
0000
0000
2000
0000
0000
0000
0001
0000
3001
0000
0000
0000
,
0000
0100
0010
0100
0001
1000
0001
2000
,
0000
3000
1000
0020
0000
0030
0010
0200
,
0000
0301
0100
0001
0100
0001
0000
0000
,
0010
0000
0000
0001
0000
0000
0010
0000
0002
0000
0000
0000
0000
0000
0003
0000
,
0000
0000
1000
0000
0010
0000
0100
0000
0001
0000
0000
1000
0000
0000
0001
0000
,
1000
0000
0000
0010
0000
0000
1000
0000
0020
0000
0000
0000
0000
0000
0030
0000
,
0000
1000
0001
0100
0010
0000
0000
0000
,
1000
0100
1000
0010
1000
0100
1000
0001
,
0001
0010
0001
0100
0001
0010
0001
1000
,
1000
0100
1000
0010
1000
0100
1000
0001
,
0001
0100
0001
0100
0010
1000
0020
0000
,
0130
0001
0100
0010
0100
0001
0100
0010
,
0010
1000
0010
0100
0010
1000
0010
0100
,
0100
0001
0100
0010
0100
0001
0100
0010
,
0020
0000
1030
0001
0100
0000
0200
0000
,
0301
0000
0000
0010
0000
0000
0001
0000
0000
0000
0100
0000
0010
0000
1000
0000
,
0010
0000
0100
0000
0001
0000
1000
0000
0001
0000
0000
1000
0000
0000
0000
0000
,
1000
0000
0000
0010
0000
0000
1000
0000
0000
0000
0010
0000
0100
0000
0001
0000
,
0100
0000
0010
0000
1000
0000
0010
0000
1000
0000
0000
0001
0000
0000
0000
0000
,
0100
0000
0000
0001
0000
0000
1000
0000
0000
0010
0000
0000
0100
0000
0000
0000
,
0000
0010
0100
0010
0100
0010
0100
0020
,
0000
0030
1000
0002
0000
0003
0100
0020
,
0000
1030
0001
0100
0010
2000
0000
3000
,
0000
0001
0010
0001
0010
0010
0010
0010
,
0000
0200
0000
1300
0100
1000
0100
1000
,
0000
1000
0010
1000
0010
0010
0010
0010
,
0000
0000
0100
0002
0000
0103
0002
0000
,
0003
1000
0100
1000
0100
0100
0100
0200
,
0000
0310
0000
0010
0001
0010
0001
0010
,
0000
0001
0100
0001
0100
0100
0100
0100
,
0000
0000
0010
2000
0000
3010
2000
0000
,
3002
0000
0000
0000
0000
1000
1003
0000
;

//---------------dance-single - ----------------
#NOTEDATA:;
#CHARTNAME:;
#STEPSTYPE:dance-single;
#DESCRIPTION:;
#CHARTSTYLE:;
#DIFFICULTY:Easy;
#METER:7;
#RADARVALUES:0.290911,0.343942,0.032323,0.129294,0.036364,252.000000,248.000000,4.000000,16.000000,0.000000,0.000000,0.000000,0.000000,0.000000,0.290911,0.343942,0.032323,0.129294,0.036364,252.000000,248.000000,4.000000,16.000000,0.000000,0.000000,0.000000,0.000000,0.000000;
#CREDIT:;
#NOTES:
0000
0000
0000
0000
,
0000
0000
0000
0000
,
0000
0000
0000
0000
,
0000
0000
0000
0000
0000
0001
0100
0100
,
0010
0000
0010
0000
0010
1000
0010
0000
,
1000
0100
0010
0001
,
0100
0001
0100
0000
0100
0000
0100
0000
,
0001
0010
0100
1000
,
0010
0000
0010
0000
0010
1000
0010
0000
,
1000
0100
0010
0001
,
0100
0000
0100
0000
0100
0001
0100
0000
,
0002
0000
1003
0010
0100
0000
0002
0000
,
1003
0000
0100
1000
0100
0000
1000
0100
,
1000
1000
0001
0001
,
0001
0010
0001
0000
0010
0001
0010
0000
,
0002
2003
3020
0230
,
0310
0000
1000
0010
1000
0000
0010
1000
,
0010
0100
0001
1000
,
0100
0010
0100
0000
1000
0000
0001
0000
,
0100
0000
0000
0001
0000
0000
0100
0000
0001
0000
0000
0000
0100
0000
0000
0000
,
0010
0000
0000
0010
0000
0000
0010
0000
0000
0000
0000
0000
0000
0000
0000
0000
,
0000
0000
1000
0000
0001
0000
1000
0000
0001
0000
0000
1000
0000
0000
0000
0000
,
0010
0000
0000
0010
0000
0000
0010
0000
0000
0000
0000
0000
0000
0000
0000
0000
,
0000
0000
1000
0000
0001
0000
1000
0000
0001
0000
0000
1000
0000
0000
0000
0000
,
0010
0000
0000
0100
0000
0000
0010
0000
0000
0000
0000
0000
0000
0000
0000
0000
,
0000
0100
0001
1000
0010
0100
0001
1000
,
0000
0000
0010
0010
0000
0000
0100
0200
,
0000
0310
0100
0000
,
0001
0010
0200
0000
,
0300
1000
0001
1000
,
1000
0010
0200
0000
,
0301
1000
0001
0000
,
1000
0100
1000
0100
1000
0100
1000
0000
,
0001
0100
0001
0100
0001
0100
0001
0000
,
1000
0100
1000
0100
1000
0100
1000
0000
,
0001
1000
0001
1000
0001
1000
0001
0000
,
1000
0010
1000
0010
1000
0010
1000
0000
,
0001
0010
0001
0010
0001
0010
0001
0000
,
1000
0010
1000
0010
1000
0010
1000
0000
,
0010
0000
0000
0100
0000
0000
0001
0000
1000
0000
0000
0000
0010
0000
0000
0000
,
0200
0000
0000
0000
0300
0010
1000
0010
,
1000
0000
0000
0000
0001
0000
0000
0000
1000
0000
0000
0001
0000
0000
0000
0000
,
0200
0000
0000
0000
0300
0001
0010
0001
,
0010
0000
0000
0000
0001
0000
0000
0000
1000
0000
0000
0001
0000
0000
0000
0000
,
0200
0000
0000
0000
0300
0010
1000
0000
,
0000
0100
0001
0100
,
0000
0000
1000
0002
0000
0003
0001
2000
,
0000
0010
3010
0000
,
0000
0010
0100
0010
0100
0100
0100
0100
,
0000
0001
0000
0000
1000
0000
0001
0000
,
0000
0100
0010
0100
0010
0010
0010
0010
,
0000
0000
1001
0000
0000
1001
0000
0000
,
0000
1000
0001
1000
0001
0001
0001
0001
,
0000
0100
0000
0000
0010
0000
0010
0000
,
0000
1000
0100
0010
0001
0001
0001
0001
,
0000
0000
0001
2000
0000
3010
0200
0000
,
0300
0000
0000
0000
0000
1001
0110
0000
;

//---------------dance-single - ----------------
#NOTEDATA:;
#CHARTNAME:;
#STEPSTYPE:dance-single;
#DESCRIPTION:;
#CHARTSTYLE:;
#DIFFICULTY:Beginner;
#METER:1;
#RADARVALUES:0.080809,0.137577,0.064647,0.088890,0.000000,70.000000,62.000000,8.000000,11.000000,0.000000,0.000000,0.000000,0.000000,0.000000,0.080809,0.137577,0.064647,0.088890,0.000000,70.000000,62.000000,8.000000,11.000000,0.000000,0.000000,0.000000,0.000000,0.000000;
#CREDIT:;
#NOTES:
0000
0000
0000
0000
,
0000
0000
0000
0000
,
0000
0000
0000
0000
,
0000
0000
1001
0000
,
1000
0000
0000
0000
,
0020
0000
0030
0000
,
1000
0000
0000
0000
,
0200
0000
0300
0000
,
0001
0000
0000
0000
,
0020
0000
0030
0000
,
0001
0000
0000
0000
,
0100
0000
0000
0000
,
0100
0000
0000
0000
,
0002
0000
0003
0000
,
0100
0000
0000
0000
,
0020
0000
0030
0000
,
0010
0000
0000
0000
,
2000
0000
3000
0000
,
0010
0000
0000
0000
,
0100
0000
0000
0000
,
0110
0000
0000
1000
,
1000
0000
0000
0000
,
0110
0000
0000
0001
,
0001
0000
0000
0000
,
0110
0000
0000
1000
,
0000
0000
0001
0000
,
0000
0100
0000
0100
,
0000
0000
0000
0000
,
0010
0000
0020
0030
,
0000
0000
0000
0000
,
0100
0000
0200
0300
,
0000
0000
0000
0000
,
0001
0000
0000
0000
,
0001
0000
0000
0000
,
1000
0000
0000
0000
,
1000
0000
0000
0000
,
0001
0000
0000
0000
,
0001
0000
0000
0000
,
1000
0000
0000
0000
,
1000
0000
0000
0000
,
1001
0000
0000
0100
,
0100
0000
0000
0000
,
1001
0000
0000
0010
,
0010
0000
0000
0000
,
1001
0000
0000
0100
,
0000
0000
0010
0000
,
0000
0001
0000
0002
,
0000
0003
0000
0000
,
0000
1000
1000
0000
,
0000
0000
0001
0000
,
0000
0001
0001
0000
,
0000
0000
0000
0000
,
0000
0100
0100
0000
,
0000
0000
0010
0000
,
0000
0100
0100
0000
,
0000
0000
0000
0000
,
2002
0000
0000
3003
;

//---------------dance-double - ----------------
#NOTEDATA:;
#CHARTNAME:;
#STEPSTYPE:dance-double;
#DESCRIPTION:;
#CHARTSTYLE:;
#DIFFICULTY:Challenge;
#METER:15;
#RADARVALUES:0.596830,0.642025,0.525257,0.202022,0.496974,517.000000,452.000000,65.000000,25.000000,0.000000,0.000000,0.000000,0.000000,0.000000,0.596830,0.642025,0.525257,0.202022,0.496974,517.000000,452.000000,65.000000,25.000000,0.000000,0.000000,0.000000,0.000000,0.000000;
#CREDIT:;
#NOTES:
00000000
00000000
00000000
00000000
,
00000000
00000000
00000000
00000000
,
00000000
00000000
00000000
00000000
,
00000000
00000000
00000000
00000000
00000000
00000000
00000000
00000000
00000000
00000000
00000000
00000000
00000000
00000000
00000000
00000000
00000000
00000000
00000000
00000000
00000000
00000000
00000000
00000000
00000000
00000000
00000000
00000000
01000000
00000000
00010000
00000000
00000000
01000000
00000000
00000000
00010000
00000000
00000000
00000000
00000000
00000000
10100000
00000000
00000000
00000000
00000000
00000000
,
10000000
01000000
00010000
01000000
00100000
00000000
00010000
00001000
00000100
00000010
00000100
00000000
00000001
00000000
00001000
00000000
,
00000110
00000000
00001000
00000001
00000000
00000001
00000100
00000010
00001000
00000000
00001000
00000000
00000020
00000000
00000130
00000000
,
00000001
00000010
00000100
00000010
00001000
00000000
00010000
00100000
01000000
00100000
10000000
00000000
00020000
00000000
00130000
00000000
,
21000000
00000000
00000000
00010000
00000000
00000000
00100000
00000000
00010000
00000000
30000000
00000000
10010000
00000000
00000000
00000000
,
00010000
01000000
00100000
01000000
10000000
00000000
01000000
00100000
00010000
00001000
00000010
00000000
00000001
00000000
00001000
00000000
,
00000101
00000000
00001000
00000010
00000000
00000100
00001000
00000100
00000010
00000000
00000100
00000000
00000001
00000000
00001000
00000000
,
00001000
00000100
00000010
00000100
00000001
00000000
00000100
00000010
00001000
00010000
00100000
00000000
20000000
00000000
30010000
00000000
,
02100000
00000000
00010000
10000000
03010000
00000000
01100000
00000000
,
10010000
00000000
00100000
10000000
00010000
00000000
01000000
00010000
10000000
00100000
00010000
00001000
00000010
00000000
00000001
00000000
,
00001000
00000000
00000010
00000100
00000000
00000001
00000010
00000100
00001000
00000000
00000001
00000000
00000100
00000000
00000010
00000000
,
00001000
00000100
00000001
00000100
00001000
00000000
00000001
00000100
00001000
00000100
00000001
00000000
00001001
00000000
00000000
00000000
,
00001200
00000000
00000000
00000010
00000000
00000000
00000001
00000000
00001300
00000000
00000000
00000000
00000101
00000000
00000000
00000000
,
00000110
00000000
00001000
00000001
00000100
00000000
00000010
00001000
00000001
00000100
00001000
00010000
00100000
00000000
10000000
00000000
,
00010000
00000000
01000000
00100000
00000000
10000000
01000000
00100000
00010000
00000000
10000000
00000000
00100000
00000000
01000000
00000000
,
00010000
00100000
10000000
00100000
00010000
00000000
10000000
00100000
00010000
00100000
10000000
00000000
00020000
00000000
10030000
00000000
,
01100000
00000000
00000000
10000000
00000000
00000000
00010000
00000000
01100000
00000000
00000000
00000000
10010000
00000000
00000000
00000000
,
11000000
00000000
00000000
01100000
00000000
00000000
00110000
00000000
00000000
10000000
00000000
01000000
00010000
00000000
00001000
00000000
,
00000100
00000000
00000001
00000000
00000100
00000000
00000001
00000000
00000101
00000000
00000000
00002020
00000000
00000000
00003030
00000000
,
00000101
00000000
00000000
00000110
00000000
00000000
00001010
00000000
00000000
00000001
00000000
00000100
00001000
00000000
00010000
00000000
,
01000000
00000000
10000000
00000000
01000000
00000000
10000000
00000000
10100000
00000000
00000000
02020000
00000000
00000000
03030000
00000000
,
10010000
00000000
00000000
01100000
00000000
00000000
10010000
00000000
00000000
01000000
00000000
00100000
10000000
00000000
00010000
00000000
,
00000000
10000000
01000000
10000000
01000000
00010000
00001000
00000200
,
00000301
00000000
00001000
00000020
00000030
00000000
00000001
00000020
,
00000000
00000000
00001030
00000000
00010000
00000000
00001000
00000000
00010000
00100000
00010000
00100000
10000000
00100000
10000000
00100000
,
10100000
00000000
00000000
00000000
00000000
00000000
10000000
00000000
00000000
00010000
00000000
00000000
00000000
00000000
00000000
01000000
00000000
00000000
00100000
00000000
00000000
00000000
00000000
00000000
10000000
00000000
00010000
00000000
10000000
00000000
00010000
00000000
10000000
00000000
00010000
00000000
10000000
00000000
00010000
00000000
10000000
00000000
00010000
00000000
00000000
00000000
00000000
00000000
,
00000000
00000000
10000000
00000000
01000000
00000000
00010000
00000000
00001000
00000000
00000000
00000010
00000000
00000000
00000001
00000000
,
00000100
00000000
00000000
00000000
00000000
00000000
00000000
00000000
00000000
00000010
00000000
00000000
00000000
00000000
00000000
00000000
00000000
00000000
00001000
00000000
00000000
00000000
00000000
00000000
00000001
00000000
00001000
00000000
00000001
00000000
00001000
00000000
00000001
00000000
00001000
00000000
00000001
00000000
00001000
00000000
00000001
00000000
00001000
00000000
00000000
00000000
00000000
00000000
,
00000000
00000010
00000100
00000001
00001000
00000000
00000000
00000000
,
00000001
00000100
00001000
00000100
00000010
00000000
00000100
00001000
00010000
00100000
00010000
00000000
00100000
00000000
10000000
00000000
,
00010000
01000000
00100000
00010000
00100000
00000000
00010000
00001000
00000100
00000000
00001000
00000000
00010000
00000000
00000010
00000000
,
00000100
00001000
00010000
00001000
00000100
00000000
00000001
00000010
00001000
00000010
00000100
00000000
00001000
00000000
00010000
00000000
,
00100000
00000000
10000000
00010000
01000000
00000000
10000000
00010000
01000000
00100000
00010000
00001000
00000100
00000000
00000001
00000000
,
00000010
00001000
00010000
00001000
00000010
00000000
00001000
00010000
00000100
00000010
00001000
00000000
00010000
00000000
00100000
00000000
,
10000000
01000000
00100000
01000000
00010000
00000000
01000000
00010000
00001000
00000000
00000100
00000000
00000001
00000000
00001000
00000000
,
00000010
00000100
00001000
00000100
00000001
00000000
00000010
00001000
00010000
00100000
10000000
00000000
00010000
00000000
01000000
00000000
,
10100000
00000000
00000000
01000000
00000000
00000000
00100000
00000000
01010000
00000000
00000000
00000000
10010000
00000000
00000000
00000000
,
10000000
00000000
00010000
01000000
00000000
00100000
10000000
00000000
00000000
00100000
00000000
00010000
00001000
00000000
00000010
00000000
,
00000001
00000000
00001000
00000000
00000100
00000000
00000001
00000000
00000101
00000000
00000000
00002200
00000000
00000000
00003300
00000000
,
00000001
00000000
00001000
00000001
00000000
00000100
00000010
00000000
00000000
00000100
00000000
00001000
00010000
00000000
00100000
00000000
,
10000000
00000000
01000000
00000000
00010000
00000000
01000000
00000000
11000000
00000000
00000000
02020000
00000000
00000000
03030000
00000000
,
10000000
00000000
00100000
01000000
00000000
00010000
10000000
00000000
00000000
00100000
00000000
00010000
00001000
00000000
00000010
00000000
,
00000000
00000001
00001000
00000010
00000100
00000100
00000010
00001020
,
00000000
00000030
00000100
00000201
00000000
00000300
00000010
00001010
,
00000000
00000100
00001000
00010000
00100000
10000000
00000000
00000000
,
00000000
00010000
10000000
00100000
11000000
11000000
01010000
00011000
,
00000000
00001200
00000000
00000301
00001001
00000110
00001100
00000011
,
00000000
00000001
00001000
00000010
00000101
00000101
00001100
00011000
,
00000000
00000000
00100000
00020000
00000000
00031000
00000010
00001000
,
00010000
00000010
00000100
00000001
00000011
00000011
00001010
00011000
,
00000000
00210000
00000000
10300000
10010000
01010000
10100000
11000000
,
00000000
00010000
10000000
00100000
10100000
10100000
00110000
00011000
,
00000000
00000000
00000010
00002000
00000000
00013000
00100000
00010000
,
00002000
00000000
00000000
00000000
00000000
00000000
00000000
00000000
00000000
00000000
00000000
00000000
00000000
00000000
00000000
00000000
00000000
00000000
00003000
00000000
00000000
00000000
00000000
00000000
00000000
00000000
00000000
00000000
00000010
00000000
00000001
00000000
00000000
00000010
00000000
00000000
00000001
00000000
00000000
00000000
00000000
00000000
00000000
00000000
00000000
00000000
00000000
00000000
;

//---------------dance-double - ----------------
#NOTEDATA:;
#CHARTNAME:;
#STEPSTYPE:dance-double;
#DESCRIPTION:;
#CHARTSTYLE:;
#DIFFICULTY:Hard;
#METER:13;
#RADARVALUES:0.455992,0.481519,0.169698,0.137375,0.278790,395.000000,374.000000,21.000000,17.000000,0.000000,0.000000,0.000000,0.000000,0.000000,0.455992,0.481519,0.169698,0.137375,0.278790,395.000000,374.000000,21.000000,17.000000,0.000000,0.000000,0.000000,0.000000,0.000000;
#CREDIT:;
#NOTES:
00000000
00000000
00000000
00000000
,
00000000
00000000
00000000
00000000
,
00000000
00000000
00000000
00000000
,
00000000
00000000
00000000
00000000
00000000
00000000
00000000
00000000
00000000
10000000
00010000
10000000
00010000
00000000
01000000
00000000
,
00010000
00100000
00010000
00100000
00010000
00000000
00100000
00010000
00100000
00010000
00100000
00000000
00010000
00000000
01000000
00000000
,
00100000
00000000
00000000
00010000
00000000
00000000
00001000
00000000
00000010
00000000
00000001
00000000
00000010
00000000
00000001
00000000
,
00001000
00000100
00001000
00000100
00001000
00000000
00000100
00001000
00000100
00001000
00000100
00000000
00001000
00000000
00000010
00000000
,
00000100
00000000
00000000
00001000
00000000
00000000
00010000
00000000
01000000
00000000
00000000
00000000
11000000
00000000
00000000
00000000
,
00100000
10000000
00100000
10000000
00100000
00000000
01000000
00010000
01000000
00010000
01000000
00000000
00100000
00000000
00010000
00000000
,
00001000
00000000
00000000
00000010
00000000
00000000
00000001
00000000
00001000
00000000
00000010
00000000
00001000
00000000
00000010
00000000
,
00000100
00000001
00000100
00000001
00000100
00000000
00000010
00001000
00000010
00001000
00000010
00000000
00000100
00000000
00001000
00000000
,
00010000
00000000
00100000
10000000
10100000
00000000
10010000
00000000
,
10000000
00000000
00010000
10000000
00010000
00000000
10000000
00100000
10000000
00100000
10000000
00100000
10000000
00000000
01000000
00000000
,
00010000
00000000
00000000
00001000
00000000
00000000
00000100
00000000
00000001
00000000
00000010
00000000
00000001
00000000
00000010
00000000
,
00000100
00001000
00000100
00001000
00000100
00000000
00001000
00000100
00001000
00000100
00001000
00000000
00000010
00000000
00000000
00000000
,
00000100
00000000
00000000
00001000
00000000
00000000
00010000
00000000
00100000
00000000
00000000
00000000
10100000
00000000
00000000
00000000
,
01000000
00000000
00010000
10000000
00010000
00000000
10000000
00010000
10000000
00010000
10000000
00010000
10000000
00000000
00100000
00000000
,
01000000
00000000
00000000
00100000
00000000
00000000
00010000
00000000
00001000
00000000
00000100
00000000
00000001
00000000
00000000
00000000
,
00001000
00000010
00001000
00000010
00001000
00000000
00000001
00000100
00000001
00000000
00001000
00000000
00000020
00000000
00000000
00000000
,
00000130
00000000
00000000
00001000
00000000
00000000
00010000
00000000
00100000
00000000
00000000
00000000
11000000
00000000
00000000
00000000
,
00010000
00000000
00000000
00100000
00000000
00000000
00010000
00000000
00000000
10000000
00000000
10000000
00010000
00000000
01000000
00000000
,
00100000
00000000
00010000
00000000
00001000
00000000
00000100
00000000
00000001
00000000
00000000
00001000
00000000
00000000
00000000
00000000
,
00001000
00000000
00000000
00000010
00000000
00000000
00001000
00000000
00000000
00000001
00000000
00000001
00001000
00000000
00000010
00000000
,
00000100
00000000
00001000
00000000
00010000
00000000
00100000
00000000
10000000
00000000
00000000
00010000
00000000
00000000
00000000
00000000
,
10000000
00000000
00000000
01000000
00000000
00000000
10000000
00000000
00000000
00010000
00000000
00010000
10000000
00000000
00100000
00000000
,
00000000
01000000
00010000
01000000
00010000
00100000
00010000
00200000
,
00000000
00300000
00001000
00020000
00000000
00030000
00010000
00000200
,
00000000
00000310
00000001
00000010
00000001
00000010
00000000
00000000
,
00000001
00000000
00001000
00000010
00000000
00000010
00001000
00000000
00000002
00000000
00000000
00000000
00000000
00000000
00000003
00000000
,
00000000
00000000
00000100
00000000
00000010
00000000
00001000
00000000
00000010
00000000
00000000
00000100
00000000
00000000
00000001
00000000
,
00000100
00000000
00000000
00001000
00000000
00000000
00010000
00000000
02000000
00000000
00000000
00000000
00000000
00000000
03000000
00000000
,
00000000
10000000
00100000
10000000
00010000
00000000
00000000
00000000
,
01000000
00010000
10000000
00100000
01000000
00010000
10000000
00100000
,
10000000
01000000
00010000
00000000
00001000
00000100
00000001
00000000
,
00000010
00000001
00001000
00000100
00000010
00000001
00001000
00000100
,
00000010
00000100
00001001
00000000
00000010
00000100
00001001
00001001
,
00000010
00001000
00000001
00000100
00000010
00001000
00000001
00000100
,
00000001
00000010
00001000
00000000
00010000
00100000
10000000
00000000
,
00100000
10000000
00010000
01000000
00100000
10000000
00010000
01000000
,
00100000
00000000
00000000
10000000
00000000
00000000
00010000
00000000
00100000
00000000
00000000
00000000
00110000
00000000
00000000
00000000
,
00010000
00000000
00000000
10000000
00000000
00000000
00010000
00000000
00000000
10000000
00000000
00100000
10000000
00000000
01000000
00000000
,
10000000
00000000
00100000
00000000
00010000
00000000
00001000
00000000
00000010
00000000
00000000
00000001
00000000
00000000
00000000
00000000
,
00001000
00000000
00000000
00000001
00000000
00000000
00001000
00000000
00000000
00000001
00000000
00000010
00000001
00000000
00000100
00000000
,
00000001
00000000
00000010
00000000
00001000
00000000
00010000
00000000
00100000
00000000
00000000
10000000
00000000
00000000
00000000
00000000
,
00010000
00000000
00000000
10000000
00000000
00000000
00010000
00000000
00000000
01000000
00000000
00100000
01000000
00000000
10010000
00000000
,
00000000
00100000
10000000
00100000
01000000
00010000
01000000
00200000
,
00000000
00300000
00010000
00002000
00000000
00003000
00000010
00000002
,
00000000
00001000
00001000
00000100
00000100
00000013
00000000
00000000
,
00000000
00000001
00000010
00000001
00001001
00001001
00001000
00000020
,
00000000
00000230
00000000
00000310
00010000
00011000
00001000
01000000
,
00000000
00010000
10000000
00100000
10100000
10100000
10000000
00010000
,
00000000
00000000
01000000
00200000
00000000
01300000
00200000
01000000
,
00300000
01000000
00010000
10000000
10010000
10010000
00010000
00100000
,
00000000
02000000
00000000
03100000
00001000
00011000
00010000
00000100
,
00000000
00000010
00000001
00001000
00001010
00001010
00000010
00000100
,
00000000
00000000
00000001
00002000
00000000
00003001
00001000
00000001
,
00020200
00000000
00000000
00000000
00000000
00000000
00030300
00000000
00000000
00010000
00001000
00010000
00001000
00000000
00000000
00000000
;

//---------------dance-double - ----------------
#NOTEDATA:;
#CHARTNAME:;
#STEPSTYPE:dance-double;
#DESCRIPTION:;
#CHARTSTYLE:;
#DIFFICULTY:Medium;
#METER:9;
#RADARVALUES:0.322081,0.366872,0.096970,0.129294,0.076768,279.000000,267.000000,12.000000,16.000000,0.000000,0.000000,0.000000,0.000000,0.000000,0.322081,0.366872,0.096970,0.129294,0.076768,279.000000,267.000000,12.000000,16.000000,0.000000,0.000000,0.000000,0.000000,0.000000;
#CREDIT:;
#NOTES:
00000000
00000000
00000000
00000000
,
00000000
00000000
00000000
00000000
,
00000000
00000000
00000000
00000000
,
00000000
00000000
00000000
00000000
00000000
00100000
00100000
00100000
,
00010000
10000000
00010000
00000000
01000000
00100000
10000000
00100000
,
01000000
00000000
00000000
00010000
00000000
00000000
01000000
00000000
00010000
00000000
00000000
00000000
01000000
00000000
00000000
00000000
,
00010000
00100000
00010000
00000000
01000000
00100000
10000000
00000000
,
01000000
00000000
00000000
00010000
00000000
00000000
00001000
00000000
00000100
00000000
00000000
00000000
00000001
00000000
00000000
00000000
,
00001000
00000001
00001000
00000000
00000010
00000100
00000001
00000000
,
00001000
00000000
00000000
00000010
00000000
00000000
00001000
00000000
00000010
00000000
00000100
00000000
00000001
00000000
00000000
00000000
,
00001000
00000001
00001000
00000000
00000010
00000100
00000001
00000000
,
00000010
00000000
00000000
00001000
00000000
00000000
00010000
00000000
00100000
00000000
00000000
00000000
10000000
00000000
00000000
00000000
,
01010000
00000000
00010000
01000000
01010000
00000000
00010000
01000000
,
00100000
00000000
00000000
10000000
00000000
00000000
00100000
00000000
10000000
00000000
00000000
00000000
11000000
00000000
00000000
00000000
,
10000000
00100000
10100000
00000000
10000000
00100000
10100000
00000000
,
10000000
00000000
00000000
01000000
00000000
00000000
00010000
00000000
00001000
00000000
00000000
00000000
00000100
00000000
00000000
00000000
,
00001001
00000000
00000001
00001000
00001001
00000000
00000010
00000100
,
00000001
00000000
00000000
00000010
00000000
00000000
00001000
00000000
00010000
00000000
00100000
00000000
10000000
00000000
00000000
00000000
,
00010000
01000000
01010000
00000000
00010000
01000000
01010000
00000000
,
10000000
00000000
00000000
00010000
00000000
00000000
10000000
00000000
00010000
00000000
00000000
00000000
10000000
00000000
00000000
00000000
,
00200000
00000000
00000000
00000000
00300000
00000000
01000000
00010000
,
10000000
00000000
00100000
00000000
10000000
00000000
00100000
00000000
01000000
00000000
00000000
00001000
00000000
00000000
00000000
00000000
,
00020000
00000000
00000000
00000000
00030000
00000000
00000100
00010000
,
00000010
00000000
00000100
00000000
00000010
00000000
00000100
00000000
00000001
00000000
00000000
00001000
00000000
00000000
00000000
00000000
,
00000020
00000000
00000000
00000000
00000000
00000000
00000000
00000000
00000030
00001000
00000000
00000001
00001000
00000000
00000001
00000000
,
00000000
00000100
00000010
00000100
00000010
00001000
00000100
00001000
,
00000000
00000000
00000100
00010000
00000000
00000000
00010000
00002000
,
00000000
01000000
01003000
00000000
,
00100000
10000000
10010000
00000000
,
00000000
01000000
01000000
00010000
,
00100000
00001000
00101000
00000000
,
00000000
00001000
00010000
00000200
,
00001300
00001000
00001000
00001000
,
00000010
00000010
00000010
00000010
,
00010000
00010000
00010000
00010000
,
00001000
01000000
00001000
01000000
,
00100000
00100000
00100000
00100000
,
10000000
10000000
10000000
10000000
,
00010000
00010000
00010000
00010000
,
00100000
00000000
00000000
00001000
00000000
00000000
00010000
00000000
00000010
00000000
00000000
00000000
00011000
00000000
00000000
00000000
,
00000200
00000000
00000000
00000000
00000300
00000000
00001000
00000010
,
00000100
00000000
00000001
00000000
00000100
00000000
00000001
00000000
00001000
00000000
00000000
00000010
00000000
00000000
00000000
00000000
,
00020000
00000000
00000000
00000000
00030000
00000000
00001000
01000000
,
00100000
00000000
10000000
00000000
00100000
00000000
10000000
00000000
00010000
00000000
00000000
00100000
00000000
00000000
00000000
00000000
,
02000000
00000000
00000000
00000000
00000000
00000000
00000000
00000000
03000000
10000000
00000000
00010000
10000000
00000000
00010000
00000000
,
00000000
01000000
00010000
01000000
00010000
00100000
00010000
00200000
,
00000000
00300000
00001000
00020000
00000000
00030000
00010000
00000200
,
00000000
00001300
00000010
00000100
00000001
00000010
00000000
00000000
,
00000000
00000100
00010000
00001000
00010000
00010000
00010000
00010000
,
00000000
00002000
00000000
00103000
00010000
01000000
00010000
10000000
,
00000000
00100000
01000000
00010000
10000000
10000000
10000000
10000000
,
00000000
00000000
01000000
00020000
00000000
00031000
00000100
00000001
,
00000000
00001000
00000010
00001000
00000001
00000001
00000001
00000001
,
00000000
00000200
00000000
00000310
00001000
00000001
00001000
00000010
,
00000000
00000100
00000010
00010000
00001000
00001000
00001000
00001000
,
00000000
00000000
01000000
00200000
00000000
01300000
00200000
00000000
,
00300000
00000000
00000000
00000000
00000000
00000000
00000000
00000000
00000000
10000000
00010000
01000000
00100000
00000000
00000000
00000000
;

//---------------dance-double - ----------------
#NOTEDATA:;
#CHARTNAME:;
#STEPSTYPE:dance-double;
#DESCRIPTION:;
#CHARTSTYLE:;
#DIFFICULTY:Easy;
#METER:3;
#RADARVALUES:0.106206,0.137577,0.008081,0.088890,0.000000,92.000000,91.000000,1.000000,11.000000,0.000000,0.000000,0.000000,0.000000,0.000000,0.106206,0.137577,0.008081,0.088890,0.000000,92.000000,91.000000,1.000000,11.000000,0.000000,0.000000,0.000000,0.000000,0.000000;
#CREDIT:;
#NOTES:
// measure 0
00000000
00000000
00000000
00000000
,  // measure 1
00000000
00000000
00000000
00000000
,  // measure 2
00000000
00000000
00000000
00000000
,  // measure 3
00000000
00000000
00000000
00000000
,  // measure 4
10000000
00000000
10000000
00000000
,  // measure 5
00010000
00000000
00010000
00000000
,  // measure 6
10000000
00000000
10000000
00000000
,  // measure 7
00010000
00000000
00010000
00000000
,  // measure 8
00100000
00000000
00100000
00000000
,  // measure 9
00001000
00000000
00001000
00000000
,  // measure 10
00100000
00000000
00100000
00000000
,  // measure 11
00002000
00000000
00003000
00000000
,  // measure 12
00010000
00000000
00010000
00000000
,  // measure 13
00000100
00000000
00000100
00000000
,  // measure 14
00010000
00000000
00010000
00000000
,  // measure 15
00000100
00000000
00000100
00000000
,  // measure 16
00001000
00000000
00001000
00000000
,  // measure 17
00000001
00000000
00000001
00000000
,  // measure 18
00001000
00000000
00001000
00000000
,  // measure 19
00000002
00000000
00000003
00000000
,  // measure 20
00000200
00000000
00000300
00000000
,  // measure 21
00000010
00000000
00000010
00000000
,  // measure 22
00000200
00000000
00000300
00000000
,  // measure 23
00000010
00000000
00000010
00000000
,  // measure 24
00020000
00000000
00030000
00001000
,  // measure 25
00000000
00000000
00001000
00001000
,  // measure 26
00000000
00010000
00000000
00001000
,  // measure 27
00000000
00000000
00000000
00000000
,  // measure 28
01000000
00000000
02000000
00000000
,  // measure 29
03000000
00000000
00000000
00000000
,  // measure 30
00001000
00000000
00002000
00000000
,  // measure 31
00003000
00000000
00000000
00000000
,  // measure 32
00010000
00000000
00010000
00000000
,  // measure 33
00000100
00000000
00000100
00000000
,  // measure 34
00000010
00000000
00000010
00000000
,  // measure 35
00000001
00000000
00000001
00000000
,  // measure 36
00001000
00000000
00001000
00000000
,  // measure 37
00000100
00000000
00000100
00000000
,  // measure 38
00010000
00000000
00010000
00000000
,  // measure 39
00002000
00000000
00000000
00003000
,  // measure 40
00200000
00000000
00300000
00000000
,  // measure 41
00000000
00010000
00010000
00000000
,  // measure 42
20000000
00000000
00000000
30000000
,  // measure 43
00000000
01000000
01000000
00000000
,  // measure 44
00200000
00000000
00000000
00300000
,  // measure 45
00000000
00001000
00010000
00000000
,  // measure 46
00000000
00010000
00000000
00000100
,  // measure 47
00000000
00000000
00000000
00000000
,  // measure 48
00000000
00001000
00001000
00001000
,  // measure 49
00000000
00000000
00000001
00000000
,  // measure 50
00000000
00000100
00000100
00000100
,  // measure 51
00000000
00000010
00000000
00010000
,  // measure 52
00000000
00001000
00001000
00001000
,  // measure 53
00000000
00000000
01000000
00000000
,  // measure 54
00000000
00100000
00100000
00100000
,  // measure 55
00000000
10000000
00000000
00010000
,  // measure 56
00000000
00000000
00000000
10010000
;
