#TITLE:Brazilian Fire;
#SUBTITLE:;
#ARTIST:Ben Franklin;
#TITLETRANSLIT:;
#SUBTITLETRANSLIT:;
#ARTISTTRANSLIT:;
#GENRE:House;
#CREDIT:;
#BANNER:brazilianfire-bn.png;
#BACKGROUND:brazilianfire-bg.png;
#LYRICSPATH:;
#CDTITLE:;
#MUSIC:Brazilian Fire.ogg;
#OFFSET:-0.030000;
#SAMPLESTART:81.239998;
#SAMPLELENGTH:12.000000;
#SELECTABLE:YES;
#BPMS:0.000000=130.000000
;
#STOPS:
;
#BGCHANGES:;
#KEYSOUNDS:;
#ATTACKS:;

//---------------dance-single - ----------------
#NOTES:
     dance-single:
     :
     Challenge:
     14:
     0.636984,0.695470,0.196979,0.053722,0.864022,498.000000,476.000000,22.000000,6.000000,0.000000,0.000000,0.636984,0.695470,0.196979,0.053722,0.864022,498.000000,476.000000,22.000000,6.000000,0.000000,0.000000:
// measure 0
0000
0000
0000
0000
,  // measure 1
0000
0000
0000
0000
,  // measure 2
0000
0000
0000
0000
,  // measure 3
0000
0000
0000
0000
,  // measure 4
1000
0000
0000
1000
0100
0000
0000
0000
0000
0000
0100
0000
0000
0010
0000
0000
,  // measure 5
0001
0000
0000
0001
0100
0000
0000
0000
0000
0000
0100
0000
0000
0010
0000
0000
,  // measure 6
1000
0000
0000
1000
0001
0000
0000
0000
0000
0000
0001
0000
0000
0100
0000
0000
,  // measure 7
0010
1000
0110
0000
0100
0001
0110
0000
,  // measure 8
0001
0000
0000
0100
0010
0000
1000
0000
0100
0000
0000
0010
0000
0001
0000
0000
,  // measure 9
0100
0000
0000
0010
1000
0000
0100
0000
0010
0000
0000
0001
0000
1000
0000
0000
,  // measure 10
0001
0000
0000
0100
0001
1000
0010
0000
0000
0010
0100
0000
0001
0000
0010
0000
,  // measure 11
0100
1000
0100
1000
0100
0000
0000
0000
0000
0000
0000
0000
0000
0000
0000
0000
,  // measure 12
1100
0000
0000
1000
0100
0010
0000
0010
0001
0010
0001
0000
0100
0000
0010
1000
,  // measure 13
0001
0000
0000
0001
1000
0000
0000
0000
1000
0000
0010
0000
0000
0100
0000
0000
,  // measure 14
0101
0000
0001
0010
0100
1000
0000
0100
1000
0100
1000
0000
0010
0000
0100
0001
,  // measure 15
1000
1000
0101
0000
0001
0001
1100
0000
,  // measure 16
0011
0000
0000
0001
0010
0100
0000
0100
1000
0100
1000
0000
0010
0000
0100
0010
,  // measure 17
0100
0000
0000
0100
0001
0000
0000
0000
1000
0000
0001
0000
0000
0010
0000
0000
,  // measure 18
1100
0000
0101
0000
0011
0010
1000
0010
,  // measure 19
0001
0001
1000
1000
0001
0001
1000
0000
,  // measure 20
0001
0000
1000
0100
0000
0010
0000
0001
0000
0010
0000
0100
1000
0000
0001
0000
,  // measure 21
1000
0000
0001
0010
0000
0100
0000
1000
0000
0100
0000
0010
0001
0000
1000
0000
,  // measure 22
0001
0000
1000
0100
0000
0010
0000
0001
0000
0010
0000
0100
1000
0000
0001
0000
,  // measure 23
1000
0000
0020
0002
0000
0033
1010
0000
,  // measure 24
0001
0100
0001
0100
0000
0010
0000
1000
0000
0010
0000
0100
0001
0000
0001
0000
,  // measure 25
1000
0100
1000
0100
0000
0010
0000
0001
0000
0010
0000
0100
1000
0000
1000
0000
,  // measure 26
0010
1000
0010
1000
0000
0001
0000
0100
0000
0001
0000
1000
0010
0000
0010
0000
,  // measure 27
0200
0002
0000
0000
0303
0010
1000
0000
,  // measure 28
0001
0000
0100
0010
0000
0001
0000
0010
0000
1000
0000
0010
0100
0000
0010
0000
,  // measure 29
1000
0000
0001
0010
0000
0100
0000
0010
0000
1000
0000
0010
0001
0000
1000
0000
,  // measure 30
0100
0000
0010
1000
0000
0010
0000
0100
0000
0010
0000
0001
1000
0000
0001
0000
,  // measure 31
1001
0000
0000
0000
0010
0100
0001
0010
0000
1100
0000
0010
0001
0000
1000
0000
,  // measure 32
0001
0000
1000
0100
0000
0010
0000
0100
0000
0001
0000
0100
0010
0000
0100
0000
,  // measure 33
1000
0000
0010
0100
0000
1000
0000
0100
0000
0001
0000
0100
0010
0000
0100
0000
,  // measure 34
0001
0000
1000
0010
0000
0100
0000
0010
0000
0001
0000
0010
1000
0000
0001
0000
,  // measure 35
1001
0000
0010
0100
1000
0000
0000
0010
0000
0101
0000
0010
1000
0000
0001
1000
,  // measure 36
0001
0000
0100
0010
1000
0000
0100
0010
0001
0010
0000
0000
0100
0000
1000
0100
,  // measure 37
1000
0000
0010
0100
0001
0000
0100
0010
1000
0000
0010
0100
0001
0000
0010
0000
,  // measure 38
0100
0000
0010
0001
1000
0000
0010
1000
0010
0100
0000
0000
0001
0000
0010
0001
,  // measure 39
0100
0000
0000
0000
0110
1000
1000
0000
,  // measure 40
0001
0000
0100
0001
0010
0000
0100
1000
0100
0010
0000
0000
0100
0000
1000
0100
,  // measure 41
1000
0000
0001
0100
0010
0000
1000
0100
0010
0000
0001
0100
0010
0000
1000
0000
,  // measure 42
0001
0000
0100
0001
1000
0000
0010
1000
0010
0100
0000
0000
0001
0000
1000
0001
,  // measure 43
0100
0000
0000
0000
0000
0000
0100
0000
0000
0000
0000
0000
0100
0000
0000
0000
0000
0000
0000
0000
0000
0000
0100
0000
0010
0000
0000
0000
0100
0000
0010
0000
0000
0000
0000
0000
1000
0000
0000
0001
0000
0000
0000
0000
0000
0000
0000
0000
,  // measure 44
1001
0000
1000
0001
0000
0010
0000
0001
0100
0000
0010
0000
1000
0010
0000
0100
,  // measure 45
0001
0000
1000
0100
1000
0000
0000
0100
0000
0010
0000
1000
0010
0000
0001
0000
,  // measure 46
0100
0000
0010
0001
0010
0000
0000
1000
0000
0001
0000
0010
0001
0000
1000
0000
,  // measure 47
0010
0000
0000
0000
1001
0000
0010
0000
0010
0100
0001
1000
0000
0010
0000
0000
,  // measure 48
1001
0000
0001
1000
0000
0100
0000
1000
0010
0000
0100
0000
0001
0100
0000
0010
,  // measure 49
1000
0000
0001
0010
0001
0000
0000
0010
0000
0100
0000
0001
0100
0000
1000
0000
,  // measure 50
0010
0000
0100
1000
0100
0000
0000
0001
0000
1000
0000
0010
1000
0000
0001
0000
,  // measure 51
0010
0000
0000
0000
1001
0000
0000
0000
1000
0100
0001
0100
0000
1000
0000
0000
,  // measure 52
0001
0000
0100
0010
1000
0000
0100
0010
0001
1000
0000
0001
0000
0100
0000
0010
,  // measure 53
1000
0001
0100
0010
1000
0001
0000
0000
1000
0010
0000
0100
0000
0001
0000
0000
,  // measure 54
0001
0010
0100
2000
0000
0000
0000
0000
0010
0000
0000
0000
3001
0000
0000
0000
,  // measure 55
1000
0100
0010
0002
0000
0000
0000
0000
0010
0000
0000
0000
1003
0000
0001
0000
,  // measure 56
1000
0000
0001
0100
0010
0000
0010
1000
0100
0000
0100
0010
0001
0000
0001
0100
,  // measure 57
0010
0000
0010
1000
0100
0000
0100
0010
0001
0000
0001
0100
0010
0000
0010
1000
,  // measure 58
0100
0010
0001
0000
1000
0000
0000
0000
0101
0000
0000
0000
1100
0000
0000
0000
,  // measure 59
0010
0000
0100
0001
0010
0000
0100
0001
0010
0000
0100
0001
0010
0000
0000
0000
;

//---------------dance-single - ----------------
#NOTES:
     dance-single:
     :
     Hard:
     12:
     0.455354,0.508228,0.152211,0.295469,0.456633,356.000000,339.000000,17.000000,33.000000,0.000000,0.000000,0.455354,0.508228,0.152211,0.295469,0.456633,356.000000,339.000000,17.000000,33.000000,0.000000,0.000000:
0000
0000
0000
0000
,
0000
0000
0000
0000
,
0000
0000
0000
0000
,
0000
0000
0000
0000
,
2000
0000
0000
0000
3100
0000
0000
0000
0000
0000
1000
0000
0000
1000
0000
0000
,
2000
0000
0000
0000
3010
0000
0000
0000
0000
0000
0001
0000
0000
0001
0000
0000
,
0002
0000
0000
0000
0103
0000
0000
0000
0000
0000
0001
0000
0000
0001
0000
0000
,
0002
0010
0013
0000
0100
1000
0100
0000
,
1000
0000
0000
1000
0010
0000
0000
0000
0100
0000
0000
0001
0000
0000
0000
0000
,
0001
0000
0000
0001
0010
0000
0000
0000
0100
0000
0000
1000
0000
0000
0000
0000
,
1000
0000
0001
0100
1000
0100
0001
0000
,
1000
0001
0010
0000
0000
0000
0000
0000
,
1000
0000
0000
1000
0100
0000
0000
0010
0001
0000
0100
0000
0010
0000
1000
0001
,
0000
0000
0000
0000
,
0001
0000
0000
0001
0100
0000
0000
0010
1000
0000
0100
0000
0010
0000
0001
0000
,
0100
0010
0000
0000
0010
0100
1001
0000
,
0100
0000
0000
0100
0001
0000
0000
1000
0010
0000
0100
0000
0001
0000
1000
0001
,
0000
0000
0000
0000
,
0011
0000
1001
0000
1000
0010
0001
0010
,
1000
0001
0100
0010
1000
0001
0100
0000
,
0010
0000
1000
0010
0000
1000
0000
0010
0000
1000
0000
0010
1000
0000
0000
0000
,
0001
0000
0100
0001
0000
0100
0000
0001
0000
0100
0000
0001
0100
0000
0000
0000
,
0001
0000
0010
0001
0000
0010
0000
0001
0000
0010
0000
0001
0010
0000
0100
0000
,
1100
0000
0001
0002
0000
0000
1003
0000
,
1000
0000
0010
0100
0000
0010
0000
0100
0000
0010
0000
0100
0001
0000
0000
0000
,
0001
0000
0010
0100
0000
0010
0000
0100
0000
0010
0000
0100
1000
0000
0000
0000
,
0010
0000
1000
0001
0000
1000
0000
0001
0000
1000
0000
0001
0100
0000
0010
0000
,
2000
0002
0000
0000
0000
3003
1001
0000
,
0001
0000
0100
0001
0000
1000
0000
0010
0000
0100
0000
0001
1000
0000
0001
0000
,
1000
0000
0010
1000
0000
0001
0000
0100
0000
0010
0000
1000
0001
0000
1000
0000
,
0001
0000
0100
0001
0000
1000
0000
0010
0000
0100
0000
0001
1000
0000
0001
0000
,
1000
0000
0000
0000
0000
0000
0000
0001
0000
0001
0000
0010
0100
0000
1000
0000
,
0100
0000
1000
0100
0000
0010
0000
0001
0000
1000
0000
0100
0010
0000
0100
0000
,
0010
0000
0001
0010
0000
0100
0000
1000
0000
0001
0000
0010
0100
0000
0010
0000
,
0100
0000
1000
0100
0000
0010
0000
0001
0000
1000
0000
0100
0010
0000
0001
0000
,
1000
0000
0000
0000
0000
0000
0000
1000
0000
1000
0000
0100
0010
0000
0001
0000
,
2000
3200
0302
0203
,
2300
3020
0032
0023
,
0230
0320
0032
0023
,
1030
0000
0000
0000
0001
1000
0001
0000
,
0002
0203
2300
3200
,
0302
0023
2030
3020
,
0230
0302
0203
2300
,
3001
0000
1000
0000
0001
0000
0000
0000
0100
0000
0010
0000
0100
0010
0000
0000
,
1001
0000
0000
0000
0000
0000
1000
0001
0000
0000
0100
0000
0000
0100
0000
0000
,
0100
0000
1010
0000
0100
0001
0011
0000
,
0101
0001
1000
0000
1100
1000
0001
0000
,
0100
0000
0000
0000
0100
0000
0010
0000
0100
0001
0000
0100
0000
0100
0000
0000
,
0110
0000
0000
0000
0000
0000
0001
1000
0000
0000
0010
0000
0000
0010
0000
0000
,
0010
0000
1100
0000
0010
0100
0101
0000
,
0011
0001
1000
0000
1010
1000
0001
0000
,
1000
0000
0000
0000
1000
0000
0001
0000
1000
0100
0000
1000
0000
1000
0000
0000
,
0001
0000
0100
0000
0010
0000
1000
0000
0100
0010
0000
0001
0000
0010
0000
0000
,
0100
0000
1000
0000
0010
0000
0100
0000
0001
1000
0000
0001
0000
1000
0000
0000
,
0010
0100
0002
0000
0000
0000
0013
0000
,
0100
1000
0020
0000
0000
0000
0130
0100
,
0001
1000
0100
1000
0001
0100
0001
1000
,
0010
1000
0001
0010
0001
1000
0010
1000
,
0001
0100
0010
0000
1000
0000
0000
0000
1100
0000
0000
0000
0011
0000
0000
0000
,
1000
0000
0000
0100
0001
0000
0000
0100
1000
0000
0000
0100
0001
0000
0000
0000
;

//---------------dance-single - ----------------
#NOTES:
     dance-single:
     :
     Medium:
     8:
     0.322329,0.427982,0.071629,0.053722,0.040291,252.000000,244.000000,8.000000,6.000000,0.000000,0.000000,0.322329,0.427982,0.071629,0.053722,0.040291,252.000000,244.000000,8.000000,6.000000,0.000000,0.000000:
0000
0000
0000
0000
,
0000
0000
0000
0000
,
0000
0000
0000
0000
,
0000
0000
0000
0000
,
1000
0000
0000
0000
0100
0000
0000
0000
0000
0000
0100
0000
0000
0100
0000
0000
,
0010
0000
0000
0000
0001
0000
0000
0000
0000
0000
0100
0000
0000
0100
0000
0000
,
0010
0000
0000
0000
1000
0000
0000
0000
0000
0000
0100
0000
0000
0100
0000
0000
,
0010
0010
0000
0000
0001
0001
0000
0000
,
1000
0100
1000
0101
,
0001
0100
0001
1100
,
1000
0100
1000
0101
,
0001
0100
0010
0000
0000
0000
0000
0000
,
1000
0001
0100
0000
0010
1000
0100
0000
,
0010
1100
0000
0000
,
0001
1000
0100
0000
0010
0001
1000
0000
,
0010
0010
0000
0000
0100
0100
0100
0000
,
0001
0100
0010
0000
1000
0100
0010
0000
,
0100
1001
0000
0000
,
0020
0000
2030
0000
3001
0010
0100
1000
,
0001
0001
0001
0001
,
1000
0100
0001
0100
,
1000
0010
0001
0010
,
1000
0100
0001
0100
,
1000
0000
0001
0002
0000
0000
1003
0000
,
0001
0100
1000
0100
,
0001
0010
1000
0010
,
0001
0100
1000
0100
,
0001
0002
0000
0000
0000
0000
1003
0000
,
0010
0100
1000
0100
,
0001
0010
0100
0001
,
0100
1000
0010
0100
,
0001
0000
0000
0000
0000
0000
0000
0010
0000
0100
0000
0000
1000
0000
0000
0000
,
0001
0010
0100
0001
,
0100
1000
0010
0100
,
1000
0100
0001
0010
,
0100
0000
0000
0000
0000
0000
0000
1000
0000
0001
0000
0000
0100
0000
0000
0000
,
0010
1000
0010
0000
0010
0000
0100
0000
,
0100
0001
0100
0000
0100
0010
0100
0000
,
0010
1000
0010
0000
0010
0000
0100
0000
,
1001
0000
0000
0000
0001
1000
0010
0000
,
1000
0100
1000
0000
1000
0000
0001
0000
,
0001
0010
0001
0000
0001
0100
0001
0000
,
1000
0010
1000
0000
1000
0000
0001
0000
,
0100
0010
0010
0000
1000
0000
0001
0000
,
0011
0000
0000
0000
0000
0000
0000
0001
1000
0000
0000
0000
0001
0000
0000
0000
,
1000
0100
0001
0100
,
1000
0000
0001
0000
,
0100
0000
0000
0000
0010
0100
0001
0000
,
0101
0000
0000
0000
0000
0000
0000
1000
0001
0000
0000
0000
0100
0000
0000
0000
,
0001
0010
1000
0010
,
0001
0000
0100
0000
,
0010
0000
0000
0000
1000
0100
0010
0000
,
0001
0100
0010
0000
1000
0000
0001
0000
,
1000
0100
1000
0000
0010
0001
0010
0000
,
1000
0200
0000
0000
0000
0000
0310
0000
,
0001
0200
0000
0000
0000
0000
0310
0010
,
1000
0100
1000
0001
1000
0100
1000
0000
,
0001
0100
0001
1000
0001
0100
0001
0000
,
0100
0010
1000
0000
0010
0000
0010
0000
,
0100
0001
1000
0001
0100
0001
1000
0000
;

//---------------dance-single - ----------------
#NOTES:
     dance-single:
     :
     Easy:
     5:
     0.235352,0.294237,0.062675,0.107443,0.000000,184.000000,177.000000,7.000000,12.000000,0.000000,0.000000,0.235352,0.294237,0.062675,0.107443,0.000000,184.000000,177.000000,7.000000,12.000000,0.000000,0.000000:
0000
0000
0000
0000
,
0000
0000
0000
0000
,
0000
0000
0000
0000
,
0000
0000
0000
0000
,
1000
0100
0000
0000
,
1000
0010
0000
0000
,
1000
0001
0000
0000
,
0001
0001
0000
0000
1000
1000
1000
0000
,
0001
0010
0001
0000
,
0001
0100
0001
0000
,
0001
1000
0001
0000
,
0200
0000
0000
0000
,
0310
1000
0001
0001
,
0100
0010
0000
0000
,
0100
0001
1000
1000
,
0001
0001
0000
0000
1000
1000
1000
0000
,
0010
0100
0001
0001
,
1000
0100
0000
0000
,
0020
0230
2300
3002
,
0103
0100
0100
0100
,
0001
1000
0010
0000
,
1000
0001
0010
0000
,
0001
1000
0010
0100
,
0010
0000
0000
0000
,
1000
0100
0010
0001
,
0001
0010
0100
1000
,
1000
0100
0010
0001
,
1001
0000
0000
0000
,
1000
0100
0010
0100
,
1000
0010
0100
0010
,
1000
0100
0010
0100
,
1000
0000
0001
1000
,
0001
0010
0100
0010
,
0001
0100
0010
0100
,
0001
0010
0100
0010
,
0001
0000
1000
0001
,
0100
0000
0001
1000
,
0100
0000
0000
0000
,
0010
0000
0100
1000
,
0001
0000
0000
0000
,
0100
0100
0100
0001
,
0010
0000
0000
0000
,
0100
0100
0100
1000
,
0010
0000
0000
0000
,
1100
1000
0001
1000
,
0100
0100
0010
0010
,
0011
0000
1001
0000
,
0010
0000
0100
0100
,
0101
0001
1000
0100
,
1000
1000
0001
0001
,
0101
0000
1001
0000
,
0020
0000
0100
0130
,
0001
1000
0100
0010
,
0010
0100
1000
0001
,
0100
0020
0000
1030
,
0001
0200
0000
0300
,
0001
0001
0001
0001
,
0001
0001
0001
0001
,
0020
0230
2300
3002
,
0013
0010
0010
0010
;

//---------------dance-single - ----------------
#NOTES:
     dance-single:
     :
     Beginner:
     2:
     0.113839,0.160493,0.017907,0.080582,0.000000,89.000000,87.000000,2.000000,9.000000,0.000000,0.000000,0.113839,0.160493,0.017907,0.080582,0.000000,89.000000,87.000000,2.000000,9.000000,0.000000,0.000000:
0000
0000
0000
0000
,
0000
0000
0000
0000
,
0000
0000
0000
0000
,
0000
0000
0000
0000
,
1000
1000
0000
0000
,
0001
0001
0000
0000
,
1000
1000
0000
0000
,
0001
0000
1000
0000
,
0001
0001
0000
0000
,
1000
1000
0000
0000
,
0001
0001
0000
0000
,
2000
0000
3000
0000
,
0000
0010
0010
0010
,
0000
0000
0000
0000
,
0000
0100
0100
0100
,
0000
0000
0000
0000
,
0000
0001
0001
0001
,
0000
0000
0000
0000
,
1000
0000
1000
0000
,
1000
0000
0000
0000
,
0010
0000
0000
0000
,
0100
0000
0000
0000
,
0001
0000
0000
0000
,
1000
1000
0000
0000
,
0001
0000
0000
0000
,
1000
0000
0000
0000
,
0010
0000
0000
0000
,
0100
0000
0000
0000
,
0001
0000
0001
0000
,
1000
0000
1000
0000
,
0001
0000
0001
0000
,
1000
0000
0010
0000
,
1000
0000
1000
0000
,
0001
0000
0001
0000
,
1000
0000
1000
0000
,
0001
0000
0010
0000
,
0002
0000
0003
0000
,
2000
0000
3000
0000
,
0002
0000
0003
0000
,
1001
0000
0000
0000
,
0020
0000
0030
0000
,
0200
0000
0300
0000
,
0020
0000
0030
0000
,
0110
0000
0000
0000
,
1000
0000
0100
0000
,
0010
0000
0000
0000
,
0001
0000
0010
0000
,
0100
0000
0000
0000
,
1000
0000
0001
0000
,
0010
0000
0000
0000
,
0001
0000
1000
0000
,
0100
0000
0000
0000
,
1000
0000
1000
0000
,
0010
0000
0010
0000
,
0200
0000
0300
0000
,
0002
0000
0003
0000
,
0001
0000
0001
0000
,
0001
0000
0001
0000
,
0010
0000
0100
0100
,
0100
0000
0000
1000
;

//---------------dance-double - ----------------
#NOTES:
     dance-double:
     :
     Easy:
     5:
     0.207212,0.240740,0.008954,0.196979,0.000000,162.000000,161.000000,1.000000,22.000000,0.000000,0.000000,0.207212,0.240740,0.008954,0.196979,0.000000,162.000000,161.000000,1.000000,22.000000,0.000000,0.000000:
00000000
00000000
00000000
00000000
,
00000000
00000000
00000000
00000000
,
00000000
00000000
00000000
00000000
,
00000000
00000000
00000000
00000000
,
10000000
01000000
00000000
00100000
,
00010000
01000000
00000000
00001000
,
00010000
00000100
00000000
00000010
,
00000001
00000001
00000000
00000000
00001000
00001000
00000000
00000000
,
00000001
00000100
00000001
00000000
,
00000100
00001000
00000100
00000000
,
00001000
00010000
00001000
00000000
,
00010000
02000000
00000000
03000000
,
10000000
00010000
10000000
01000000
,
10000000
00000000
00000000
00000000
,
00010000
00100000
00010000
01000000
,
00010000
00010000
00000000
00000000
10000000
10000000
00000000
00000000
,
00100000
01000000
00100000
10000000
,
00100000
00000000
00000000
00000000
,
20000000
32000000
03010000
00001000
,
00000100
00000000
00000000
00000001
00000000
00000000
00000000
00000000
,
00000100
00000001
00000100
00000000
,
00000010
00001000
00000010
00000000
,
00000100
00000001
00000100
00000000
,
00001010
00000000
00000100
00020000
00000000
00000000
00031000
00000000
,
00100000
00010000
00100000
00000000
,
01000000
10000000
01000000
00000000
,
00100000
00010000
00100000
00000000
,
00001000
00020000
00000000
00000000
00000000
00000000
00030010
00000000
,
00000100
00000001
00001000
00000000
,
00000010
00001000
00000001
00000000
,
00000100
00000001
00001000
00000000
,
00000100
00000000
00010000
00001000
,
01000000
00010000
10000000
00000000
,
00100000
10000000
00010000
00000000
,
01000000
00010000
10000000
00000000
,
01000000
00000000
00010000
00001000
,
00000200
00000000
00000302
00000000
,
00000023
00000000
00002030
00000000
,
00023000
00000000
00230000
00000000
,
00300000
00000000
00000000
00000000
,
20000000
00000000
32000000
00000000
,
03020000
00000000
00032000
00000000
,
00003020
00000000
00000032
00000000
,
00000003
00000000
00000000
00000000
,
00001000
00000100
00000010
00000000
,
00000001
00000100
00000001
00000000
,
00001000
00000000
00000100
00000000
,
00020000
00000000
00001000
00031000
,
00001000
01000000
00100000
00000000
,
10000000
00100000
10000000
00000000
,
00010000
00000000
01000000
00000000
,
00002000
00000000
00010000
00013000
,
00000100
00000010
00000100
00001000
,
00000001
00000100
00000010
00000100
,
00000001
00002000
00000000
00003100
,
00010000
00002000
00000000
00103000
,
01000000
10000000
01000000
10000000
,
00100000
01000000
00100000
01000000
,
00001000
00020000
00030100
00000010
,
00000001
00001000
00000001
00001000
;

//---------------dance-double - ----------------
#NOTES:
     dance-double:
     :
     Medium:
     7:
     0.332562,0.454731,0.143257,0.313376,0.017907,260.000000,244.000000,16.000000,35.000000,0.000000,0.000000,0.332562,0.454731,0.143257,0.313376,0.017907,260.000000,244.000000,16.000000,35.000000,0.000000,0.000000:
00000000
00000000
00000000
00000000
,
00000000
00000000
00000000
00000000
,
00000000
00000000
00000000
00000000
,
00000000
00000000
00000000
00000000
,
00010000
11000000
00000000
00000000
,
01000000
00011000
00000000
00000000
,
00000001
00001100
00000000
00000000
,
00010000
00001000
00000000
00000000
00001000
00010000
00001000
00000000
,
02000000
00000000
03100000
00000000
01000000
00010000
10000000
00000000
,
00200000
00000000
01300000
00000000
00100000
10000000
00010000
00000000
,
02000000
00000000
03001000
00000000
00010000
00000100
00000010
00000000
,
00000001
00000100
00000010
00000000
00000000
00000000
00000000
00000000
,
00001000
00000000
00000100
00000000
00001000
00000010
00001000
00000100
,
00001000
00000000
00000000
00000000
,
00000100
00000000
00010000
00000000
00000100
00000010
00000100
00010000
,
00000100
00000000
00011000
00000000
,
00100000
00000000
00010000
00000000
00100000
01000000
00100000
00010000
,
00100000
00000000
00000000
00000000
,
02000000
00000000
23000000
00000000
30010000
01000000
00100000
10000000
,
01000000
00010000
00001000
00000100
,
00000001
00000100
00000001
00000100
,
00001000
00010000
00001000
00010000
,
01000000
10000000
01000000
10000000
,
11000000
00000000
00100000
00020000
00000000
00000000
10030000
00000000
,
01000000
00010000
01000000
00010000
,
00001000
00000100
00001000
00000100
,
00000001
00000010
00000001
00000010
,
00000001
00000020
00000000
00000000
00000000
00000000
00000130
00000000
,
00001000
00000010
00000100
00000000
00000001
00000010
00000100
00000000
,
00001000
00000010
00000100
00000000
00001000
00000000
00010000
00000000
,
01000000
10000000
00100000
00000000
01000000
00010000
00100000
00000000
,
00020000
00000000
10000000
10030000
,
00100000
10000000
01000000
00000000
00100000
00010000
01000000
00000000
,
00100000
10000000
01000000
00000000
00010000
00000000
00001000
00000000
,
00000010
00000001
00001000
00000000
00000010
00001000
00000001
00000000
,
00002000
00000000
00000001
00003001
,
00000200
00002300
00013000
01000000
,
20000000
30020000
20030000
30020000
,
20030000
30200000
00310000
00001000
,
00000100
00000000
00000000
00000000
00000000
00000001
00000001
00000000
,
00000200
00002300
00023000
02030000
,
23000000
30200000
02300000
03020000
,
20030000
30200000
00320000
00032000
,
00003010
00000001
00000001
00000000
00001000
00001000
00001000
00000000
,
00000101
00000000
00000010
00001000
00000100
00000010
00000001
00000100
,
00000020
00000130
00000200
00000310
,
00000110
00000000
00010010
00000000
,
00011000
00000000
00000000
00000000
00000000
00000000
00000000
00000000
01000000
00000000
00000000
00100000
00000000
01000000
00000000
00000000
,
00010000
00000000
10000000
01000000
00100000
00010000
01000000
00100000
,
20000000
30100000
00200000
10300000
,
10100000
00000000
01001000
00000000
,
00011000
00000000
00000000
00000000
00000000
00000000
00000000
00000000
00000010
00000000
00000000
00000100
00000000
00000010
00000000
00000000
,
00001000
00000100
00001000
00000000
00001000
00000010
00001000
00000000
,
00000001
00000100
00000001
00000000
00000001
00000010
00000001
00000000
,
00000100
00002000
00000000
00000000
00000000
00000000
00013000
00000000
,
01000000
20000000
00000000
00000000
00000000
00000000
30100000
01000000
,
00010000
00100000
00010000
01000000
00001000
00010000
00001000
00000000
,
00010000
00000100
00010000
00000010
00000100
00000001
00000100
00000010
,
00001000
00000100
00001100
00000000
00010100
00000000
00011000
00000000
,
00100000
01000000
00100000
01000000
00100000
00000000
10010000
00000000
;

//---------------dance-double - ----------------
#NOTES:
     dance-double:
     :
     Hard:
     12:
     0.459191,0.534977,0.196979,0.053722,0.398435,359.000000,337.000000,22.000000,6.000000,0.000000,0.000000,0.459191,0.534977,0.196979,0.053722,0.398435,359.000000,337.000000,22.000000,6.000000,0.000000,0.000000:
00000000
00000000
00000000
00000000
,
00000000
00000000
00000000
00000000
,
00000000
00000000
00000000
00000000
,
00000000
00000000
00000000
00000000
,
10000000
00000000
00000000
10000000
01000000
00000000
00000000
00000000
00000000
00000000
00000000
00000000
00000000
00000000
00000000
00000000
,
00010000
00000000
00000000
00010000
00001000
00000000
00000000
00000000
00000000
00000000
00000000
00000000
00000000
00000000
00000000
00000000
,
00000100
00000000
00000000
00000100
00000001
00000000
00000000
00000000
00000000
00000000
00000000
00000000
00000000
00000000
00000000
00000000
,
00000010
00001000
00000000
00000000
00010000
00100000
10000000
00000000
,
10010000
00000000
00000000
10000000
00010000
00000000
00000000
00010000
01000000
00000000
00000000
00100000
00000000
01000000
00000000
00000000
,
00010000
00000000
00000000
00010000
10000000
00000000
00000000
10000000
01000000
00000000
00000000
00010000
00000000
00001000
00000000
00000000
,
00000100
00000000
00000000
00000100
00000001
00000000
00000010
00000000
00000000
00000010
00000100
00000000
00001000
00000000
00000000
00000000
,
00000001
00001000
00000001
00001000
00000001
00000000
00000000
00000000
00000000
00000000
00000000
00000000
00000000
00000000
00000000
00000000
,
00010100
00000000
00000000
00010000
00000100
00000000
00000000
00000000
00010000
00000000
00001000
00000000
01000000
00000000
00100000
01000000
,
00100000
00000000
00000000
00100000
00000000
00000000
00000000
00000000
00000000
00000000
01000000
00000000
00000000
00001000
00000000
00000000
,
01001000
00000000
00000000
01000000
00001000
00000000
00000000
00010000
00000100
00000000
00001000
00000000
00000010
00000000
00000100
00000001
,
00000100
00000100
00000000
00000000
00000010
00000010
00000010
00000000
,
00010010
00000000
00000000
00010000
00000010
00000000
00010000
00000000
00001000
00000000
01000000
00000000
00100000
00000000
10000000
00100000
,
10000000
00000000
00000000
10000000
00000000
00000000
00000000
00000000
00000000
00000000
00010000
00000000
00000000
01000000
00000000
00000000
,
00200000
00000000
00320000
00000000
00031000
00000010
00000001
00000100
,
00000010
00010000
00000010
00010000
00000010
00010000
00000010
00000000
,
00000100
00000000
00000001
00001000
00000000
00000001
00000000
00000100
00000000
00000001
00000000
00001000
00000001
00000000
00000000
00000000
,
00001000
00000000
00000001
00000100
00000000
00000001
00000000
00001000
00000000
00000001
00000000
00000100
00000001
00000000
00000000
00000000
,
00000001
00000100
00001000
00000000
00001000
00010000
01000000
10000000
,
11000000
00000000
00100000
00200000
00000000
00000000
00310000
00000000
,
10000000
00000000
00010000
00100000
00000000
00010000
00000000
10000000
00000000
00010000
00000000
00100000
00010000
00000000
00000000
00000000
,
00010000
00000000
10000000
00100000
00000000
10000000
00000000
00010000
00000000
10000000
00000000
00100000
10000000
00000000
00000000
00000000
,
10000000
01000000
00010000
00000000
00010000
00001000
00000100
00000001
,
00000010
00000200
00000000
00000000
00000000
00000000
00001300
00000000
,
00001100
00000000
00000000
00001000
00000100
00000000
00000000
00000100
00001000
00000000
00000000
00001000
00000010
00000000
00000100
00000000
,
00000101
00000000
00000000
00000001
00000100
00000000
00000000
00000100
00000001
00000000
00000000
00000001
00000010
00000000
00000100
00000000
,
00001100
00000000
00000000
00000100
00010000
00000000
00000000
00010000
00001000
00000000
00000000
00001000
01000000
00000000
00100000
00000000
,
10000000
00000000
00000000
00000000
00000000
00000000
00000000
01000000
00000000
00100000
00000000
00010000
01000000
00000000
00100000
00000000
,
10100000
00000000
00000000
10000000
00100000
00000000
00000000
00100000
10000000
00000000
00000000
10000000
00010000
00000000
01000000
00000000
,
01010000
00000000
00000000
01000000
00010000
00000000
00000000
00010000
01000000
00000000
00000000
01000000
00100000
00000000
10000000
00000000
,
10010000
00000000
00000000
00010000
01000000
00000000
00000000
01000000
00001000
00000000
00000000
00001000
00010000
00000000
00000100
00000000
,
00000010
00000000
00000000
00000000
00000000
00000000
00000000
00000001
00000000
00001000
00000000
00000010
00000100
00000000
00000010
00000000
,
00001000
00000010
00000100
00001000
,
00010000
01000000
10000000
00000000
10000000
01000000
00100000
00000000
,
01000000
00010000
00001000
00000100
,
00000001
00000000
00000000
00000000
00000000
00000000
00000000
00000000
00000000
00001000
00000001
00000000
00001000
00000000
00000000
00000000
,
00000010
00000100
00001000
00010000
,
01000000
10000000
00100000
00000000
00010000
00001000
00000100
00000000
,
00000001
00000010
00001000
00010000
,
00100000
00000000
00100000
00000000
00100000
00000000
00000000
10000000
00010000
00000000
10000000
00000000
00010000
00000000
00000000
00000000
,
11000000
00000000
00000000
00000000
00000000
00000000
00000000
10000000
01000000
00000000
10000000
00000000
00000000
00100000
00000000
00000000
,
01000000
00010000
10000000
00000000
00100000
00010000
00001000
00000000
,
00000011
00000000
00001001
00000000
,
00001100
00000000
00000000
00000000
00000000
00000000
00000000
00000000
00000010
00000001
00000010
00000001
00000000
00000100
00000000
00000000
,
00000110
00000000
00000000
00000000
00000000
00000000
00000000
00000010
00000100
00000000
00000010
00000000
00000000
00000100
00000000
00000000
,
00001000
00010000
01000000
00000000
10000000
00010000
10000000
00000000
,
10100000
00000000
10010000
00000000
,
01010000
00000000
00000000
00000000
00000000
00000000
00000000
00000000
00100000
10000000
00100000
10000000
00000000
01000000
00000000
00000000
,
10000000
00100000
01000000
00010000
00100000
01000000
10000000
00000000
,
00100000
00010000
00001000
00000100
00000001
00000010
00000100
00000000
,
00001000
00000010
00001000
00000010
00002000
00000000
00000000
00000000
00003000
00000000
00000000
00000000
00001001
00000000
00000000
00000000
,
00000001
00000100
00000001
00000100
00000002
00000000
00000000
00000000
00000003
00000000
00000000
00000000
00000100
00000000
00001000
00000000
,
00010000
01000000
00010000
00001000
00000100
00001000
00010000
01000000
,
10000000
00100000
00010000
00001000
00010000
00100000
10000000
00100000
,
00010000
00001000
00000010
00000000
00000011
00000000
00001001
00000000
,
00000100
00000000
00000000
00000010
00000100
00000000
00000000
00000010
00000100
00000000
00000000
00000100
00000001
00000000
00000000
00000000
;

//---------------dance-double - ----------------
#NOTES:
     dance-double:
     :
     Challenge:
     14:
     0.628031,0.695470,0.241747,0.080582,0.828207,491.000000,464.000000,27.000000,9.000000,0.000000,0.000000,0.628031,0.695470,0.241747,0.080582,0.828207,491.000000,464.000000,27.000000,9.000000,0.000000,0.000000:
00000000
00000000
00000000
00000000
,
00000000
00000000
00000000
00000000
,
00000000
00000000
00000000
00000000
,
00000000
00000000
00000000
00000000
,
00000011
00000000
00000000
00000010
00000001
00000000
00000000
00000000
00001000
00000000
00000010
00000100
00000000
00000010
00000000
00001000
,
00000100
00000000
00000000
00000100
00010000
00000000
00000000
00000000
00001000
00000000
01000000
00100000
00000000
01000000
00000000
00010000
,
10000000
00000000
00000000
10000000
00100000
00000000
00000000
00000000
01000000
00000000
00010000
10000000
00000000
00100000
00000000
10000000
,
01000000
00010000
00001000
00000000
00010000
00001000
00000100
00000000
,
00000001
00000000
00000000
00000001
00000010
00000000
00000000
00000010
00000001
00000000
00000000
00000011
00000000
00001001
00000000
00000000
,
00001000
00000000
00000000
00001000
00000010
00000000
00000000
00000010
00001000
00000000
00000000
00001100
00000000
00010100
00000000
00000000
,
00010000
00000000
00000000
00010000
00001000
00000000
01000000
00000000
00000000
00100000
10000000
00000000
01000000
00000000
00000000
00000000
,
00100000
00010000
00100000
00010000
00100000
00000000
00000000
00000000
00000000
00000000
00000000
00000000
00000000
00000000
00000000
00000000
,
01000000
00000000
10000000
00010000
10000000
00010000
00000000
00010000
01000000
00010000
01000000
00000000
00100000
00000000
10000000
01000000
,
10000000
00000000
00000000
01000000
00000000
00000000
00000000
00000000
00000000
00000000
00010000
00000000
00000000
00001000
00000000
00000000
,
00000100
00000000
00000001
00000010
00000001
00000010
00000000
00000100
00001000
00000100
00001000
00000000
00000010
00000000
00000100
00000010
,
00001000
00000010
00000100
00000000
00001000
00010000
01000000
00000000
,
10000000
00000000
00100000
01000000
00100000
01000000
00000000
00010000
10000000
00010000
10000000
00000000
01000000
00000000
10000000
00010000
,
10000000
00000000
00000000
00100000
00000000
00000000
00000000
00000000
00000000
00000000
00010000
00000000
00000000
00001000
00000000
00000000
,
00000010
00000000
00001001
00000000
00000100
00000010
00001001
00000010
,
00001000
00010000
00001000
00010000
00001000
00010000
00100000
00000000
,
10000000
00000000
01000000
00100000
00000000
00010000
00000000
00100000
00000000
01000000
00000000
10000000
00010000
00000000
10000000
00000000
,
00010000
00000000
00100000
01000000
00000000
10000000
00000000
01000000
00000000
00100000
00000000
00010000
10000000
00000000
01000000
00000000
,
00010000
00000000
00001000
00000100
00000000
00000001
00000000
00000010
00000000
00000001
00000000
00000100
00000001
00000000
00000010
00000000
,
00001200
00000000
00000010
00000020
00000000
00000330
00001001
00000000
,
00000001
00000000
00000010
00000100
00000000
00001000
00000000
00000100
00000000
00000010
00000000
00000001
00001000
00000000
00000001
00000000
,
00001000
00000000
00000100
00000010
00000000
00000001
00000000
00000010
00000000
00000100
00000000
00001000
00000001
00000000
00000010
00000000
,
00001000
00000000
00010000
00100000
00000000
10000000
00000000
01000000
00000000
10000000
00000000
00100000
10000000
00000000
01000000
00000000
,
00100000
00020000
10000000
00000000
10030000
00010000
10010000
00000000
,
10000000
00000000
00100000
01000000
00000000
00100000
00000000
00010000
00000000
00100000
00000000
01000000
00100000
00000000
10000000
00000000
,
01000000
00000000
00010000
00001000
00000000
00010000
00000000
01000000
00000000
00010000
00000000
00001000
00000100
00000000
00000001
00000000
,
00001000
00000000
00000010
00000100
00000000
00000010
00000000
00000001
00000000
00000010
00000000
00000100
00000010
00000000
00001000
00000000
,
00001001
00000000
00000000
00000000
00000000
00000000
00000000
00000010
00000000
00000010
00000000
00000100
00000010
00000000
00000100
00000000
,
00000001
00000000
00000100
00000010
00000000
00000100
00000000
00001000
00000000
00000100
00000000
00000010
00000100
00000000
00000001
00000000
,
00000010
00000000
00001000
00010000
00000000
00001000
00000000
00000010
00000000
00001000
00000000
00010000
00100000
00000000
10000000
00000000
,
00010000
00000000
00100000
01000000
00000000
00100000
00000000
10000000
00000000
00100000
00000000
01000000
00100000
00000000
00010000
00000000
,
10010000
00000000
00100000
00000000
10000000
00000000
00000000
10000000
00000000
01000000
00000000
10000000
00100000
00000000
01000000
00000000
,
00010000
00000000
00100000
01000000
00100000
00000000
01000000
10000000
01000000
10000000
00000000
00000000
00100000
00000000
00010000
00001000
,
00000010
00000000
00000001
00000100
00000001
00000000
00001000
00000010
00001000
00000000
00000001
00000100
00000001
00000000
00001000
00000000
,
00000001
00000000
00001000
00000010
00001000
00000000
00000001
00000100
00000001
00000100
00000000
00000000
00001000
00000000
00010000
01000000
,
10000000
00000000
00000000
00000000
00000000
00000000
00000000
00000000
00000000
00100000
01000000
00000000
00100000
00000000
00000000
00000000
,
10000000
00000000
01000000
00100000
00010000
00000000
01000000
00100000
10000000
01000000
00000000
00000000
00010000
00000000
00001000
00000100
,
00000001
00000000
00000100
00000010
00001000
00000000
00000010
00000100
00000001
00000000
00000010
00000100
00001000
00000000
00000001
00000000
,
00001000
00000000
00000001
00000100
00000010
00000000
00001000
00000100
00000010
00000001
00000000
00000000
00000100
00000000
00001000
00010000
,
01000000
00000000
00000000
00000000
00000000
00000000
10000000
00000000
00000000
00000000
00000000
00000000
10000000
00000000
00000000
00000000
00000000
00000000
00000000
00000000
00000000
00000000
01000000
00000000
10000000
00000000
00000000
00000000
01000000
00000000
10000000
00000000
00000000
00000000
00000000
00000000
10000000
00000000
00000000
01000000
00000000
00000000
00000000
00000000
00000000
00000000
00000000
00000000
,
11000000
00000000
10000000
00100000
00000000
01000000
00000000
00010000
00100000
00000000
00100000
00000000
01000000
10000000
00000000
00000000
,
10010000
00000000
10000000
00100000
10000000
00000000
00000000
00010000
00000000
00001000
00000000
00000010
00000001
00000000
00001000
00000000
,
00001001
00000010
00000100
00000000
00001001
00000100
00000010
00000000
,
00001001
00000000
00000000
00000000
00000010
00000000
00000010
00000000
00000100
00000010
00000100
00000020
00000000
00000200
00000000
00000330
,
00000101
00000000
00000001
00000010
00000000
00000100
00000000
00001000
00000010
00000000
00000010
00000000
00000100
00000001
00000000
00000000
,
00001001
00000000
00000001
00000100
00000001
00000000
00000000
00000100
00000000
00001000
00000000
00010000
01000000
00000000
10000000
00000000
,
11000000
00100000
00010000
00000000
01010000
00100000
10000000
00000000
,
11000000
00000000
00000000
00000000
00100000
00000000
00100000
00000000
10000000
00010000
10000000
00020000
00000000
02000000
00000000
03030000
,
10100000
00000000
10000000
00100000
10000000
00000000
00100000
01000000
00100000
01000000
00000000
00010000
00000000
10000000
00000000
01000000
,
00100000
00010000
00100000
00010000
00000000
01000000
00000000
00000000
01000000
00100000
00000000
10000000
00000000
10000000
00000000
00000000
,
01000000
00010000
00001000
00000020
00000000
00000000
00000000
00000000
00000031
00000000
00000000
00000000
00000011
00000000
00000000
00000000
,
00000001
00000100
00000010
00002000
00000000
00000000
00000000
00000000
00003010
00000000
00000000
00000000
00000100
00000000
00000001
00000000
,
00000100
00000000
00000001
00001000
00000001
00000000
00001000
00000001
00001000
00000000
00000001
00001000
00000001
00000000
00000100
00001000
,
00010000
00000000
00001000
00010000
00001000
00000000
00010000
00001000
00010000
00000000
00001000
00010000
01000000
00000000
10000000
00100000
,
01000000
00010000
01000000
00000000
00010000
00000000
00000000
00000000
10100000
00000000
00000000
00000000
10010000
00000000
00000000
00000000
,
01100000
00000000
00000000
01000000
00100000
00000000
00000000
00100000
01000000
00000000
00000000
00010000
00001000
00000000
00000000
00000000
;
