#VERSION:0.83;
#TITLE:Blow;
#SUBTITLE:;
#ARTIST:Kesha;
#TITLETRANSLIT:;
#SUBTITLETRANSLIT:;
#ARTISTTRANSLIT:;
#GENRE:;
#ORIGIN:;
#CREDIT:;
#BANNER:blow-bn.png;
#BACKGROUND:blow-bg.png;
#PREVIEWVID:;
#JACKET:;
#CDIMAGE:;
#DISCIMAGE:;
#LYRICSPATH:;
#CDTITLE:;
#MUSIC:Blow.ogg;
#OFFSET:-3.330000;
#SAMPLESTART:36.419998;
#SAMPLELENGTH:13.000000;
#SELECTABLE:YES;
#BPMS:0.000=126.000;
#STOPS:165.500=0.950;
#DELAYS:;
#WARPS:;
#TIMESIGNATURES:0.000=4=4;
#TICKCOUNTS:0.000=4;
#COMBOS:0.000=1;
#SPEEDS:0.000=1.000=0.000=0;
#SCROLLS:0.000=1.000;
#FAKES:;
#LABELS:0.000=Song Start;
#BGCHANGES:;
#KEYSOUNDS:;
#ATTACKS:
;

//---------------dance-single - ----------------
#NOTEDATA:;
#CHARTNAME:;
#STEPSTYPE:dance-single;
#DESCRIPTION:;
#CHARTSTYLE:;
#DIFFICULTY:Challenge;
#METER:14;
#RADARVALUES:0.562415,0.736569,0.111019,0.162259,0.426996,461.000000,448.000000,13.000000,19.000000,0.000000,0.000000,0.000000,0.000000,0.000000,0.562415,0.736569,0.111019,0.162259,0.426996,461.000000,448.000000,13.000000,19.000000,0.000000,0.000000,0.000000,0.000000,0.000000;
#CREDIT:;
#NOTES:
0000
0000
0000
0000
,
0000
0000
0000
0000
,
1000
0000
0000
0100
0000
0000
0010
0000
0100
0000
0001
0000
0000
0100
0000
0000
,
1000
0000
0000
0010
0000
0000
0100
0000
0010
0000
0001
0000
0000
0010
0000
0000
,
1000
0000
0000
0100
0010
0000
0100
0000
1000
0000
0000
0010
0100
0000
0010
0000
,
1000
0000
0000
1000
0100
0000
0010
0000
0001
0000
0000
0001
1000
0000
1000
0000
,
0001
0000
0000
0100
0000
0000
0010
0000
0100
0000
1000
0000
0000
0100
0000
0000
,
0001
0000
0000
0010
0000
0000
0100
0000
0010
0000
1000
0000
0000
0010
0000
0000
,
0001
0000
0000
0010
0100
0000
0010
0000
0001
0000
0000
0100
0010
0000
0100
0000
,
0001
0000
0000
0001
0010
0000
0100
0000
1000
0000
0000
1000
0001
0000
0001
0000
,
1000
0000
0010
0000
0010
0000
1000
0000
0100
0000
0000
0010
0001
0000
1000
0000
,
0001
0000
0100
0000
0100
0000
0001
0000
0010
0000
0000
0100
1000
0000
0001
0000
,
1000
0000
0010
0000
0010
0000
0100
0000
0001
0000
0000
0100
0010
0000
2000
0000
,
0002
0000
3003
0100
0100
0001
1000
1000
,
0001
0000
0100
0000
0100
0000
0001
0000
0010
0000
0000
0100
1000
0000
0001
0000
,
1000
0000
0010
0000
0010
0000
1000
0000
0100
0000
0000
0010
0001
0000
1000
0000
,
0001
0000
0100
0000
0100
0000
0010
0000
1000
0000
0000
0010
0100
0000
0002
0000
,
2000
0000
3003
0010
0010
0100
1000
0001
,
2001
0000
0010
0010
0000
0010
0010
0010
,
0001
0000
0000
0000
0100
0000
0000
0000
3001
0000
0000
0100
0010
0000
1000
0000
,
1002
0000
0100
0100
0000
0100
0100
0100
,
1000
0000
0013
0100
0001
1000
0001
0100
,
0201
0000
0010
0010
0000
0010
0010
0010
,
0001
0000
0000
0000
1000
0000
0000
0000
0301
0000
0000
0100
0010
0000
1000
0000
,
1020
0000
0000
0000
0100
0000
0200
0000
0000
0000
0300
0100
0000
0000
0100
0000
,
1000
0000
0000
1000
0000
0000
1030
0000
0001
0000
0100
0000
0010
0000
0100
0000
,
0001
0000
1000
0000
0010
0000
1000
0000
0100
0000
0010
0000
0001
0010
0100
1000
,
0010
0000
0100
0000
0010
0000
1000
0000
0100
0000
0010
0000
0001
1000
0010
0100
,
0010
0000
1000
0000
0001
0000
0100
0000
0010
0000
0100
0000
0001
0010
0100
1000
,
0010
0000
0100
0000
0010
0000
1000
0000
0100
0000
0010
0000
0100
1000
0001
0100
,
0010
0000
1000
0000
0100
0000
1000
0000
0010
0000
1000
0000
0100
0010
0001
0100
,
0010
0000
0100
0000
0001
0000
0100
0000
0010
0000
0100
0000
0001
1000
0010
0100
,
0001
0000
0010
0000
1000
0000
0010
0000
0001
0000
0010
0000
0100
1000
0010
0100
,
0001
0100
1000
0100
0001
0100
0010
1000
,
0010
1000
0010
1000
0010
0000
0100
0001
0100
0001
0100
0001
0000
1000
0010
1000
,
0010
1000
0010
1000
0010
0000
1000
0100
1000
0100
1000
0100
0000
0100
0010
0001
,
0010
0001
0010
0001
0010
0000
0001
1000
0001
1000
0001
1000
0000
0010
0100
0010
,
0100
0010
0100
0010
0100
0000
0001
0010
0001
0010
0001
0010
0001
0010
0001
1000
,
0100
1000
0100
1000
0100
0000
1000
0001
1000
0001
1000
0001
0000
0100
0001
0100
,
0001
0100
0001
0100
0001
0000
0010
0100
0010
0100
0010
0100
0000
0100
1000
0100
,
1000
0100
1000
0100
1000
0000
0001
0100
0001
0100
0001
0100
0000
0001
1000
0001
,
1000
0001
1000
0001
1000
0001
1000
0000
1002
0000
0000
0000
0100
0000
0100
0000
,
0000
1000
1000
1000
0100
0000
0010
0000
,
1003
0000
0000
0001
0100
0000
0010
0000
2010
0000
0000
0000
0001
0000
0001
0000
,
0000
0100
0100
0100
0010
0000
3001
1000
,
0010
1000
0001
0100
0201
0000
0010
0010
,
0000
1000
1000
1000
0010
0000
0001
0000
,
1300
0000
0000
0001
0100
0000
0010
0000
1020
0000
0000
0000
0100
0000
0200
0000
,
0000
0000
0300
0001
0000
0000
0001
0000
0100
0000
0000
0100
0000
0000
0130
0000
,
0001
1000
0010
0100
0210
0000
0001
0001
,
0000
0010
0010
0010
0001
0000
1000
0000
,
0310
0000
0000
0100
0010
0000
1000
0000
0120
0000
0000
0000
0100
0000
0100
0000
,
0000
1000
1000
1000
0100
0000
0031
1000
,
0010
0100
0001
1000
2010
0000
0100
0100
,
0000
0001
0001
0001
0100
0000
0010
0000
,
3001
0000
0000
1000
0001
0000
0100
0000
0102
0000
0000
0000
0010
0000
0020
0000
,
0000
0000
0030
1000
0000
0000
1000
0000
0100
0000
0000
0100
0000
0000
0103
0000
,
0010
1000
0001
0010
0101
0000
0000
0000
;

//---------------dance-single - ----------------
#NOTEDATA:;
#CHARTNAME:;
#STEPSTYPE:dance-single;
#DESCRIPTION:;
#CHARTSTYLE:;
#DIFFICULTY:Hard;
#METER:11;
#RADARVALUES:0.429436,0.441941,0.247658,0.298898,0.034160,352.000000,323.000000,29.000000,35.000000,0.000000,0.000000,0.000000,0.000000,0.000000,0.429436,0.441941,0.247658,0.298898,0.034160,352.000000,323.000000,29.000000,35.000000,0.000000,0.000000,0.000000,0.000000,0.000000;
#CREDIT:;
#NOTES:
0000
0000
0000
0000
,
0000
0000
0000
0000
,
1000
0010
1020
0130
,
0001
0010
0100
1000
2100
0000
3001
1000
,
0100
0010
0001
0012
0000
0000
1003
0001
,
0010
0000
0100
0000
1000
0000
1200
0000
0000
0000
0300
1000
0001
0000
0100
0000
,
0001
0010
0021
0130
,
1000
0100
0010
0001
0012
0000
1003
0001
,
0010
0100
1000
2100
0000
0000
3001
1000
,
0100
0000
0010
0000
0001
0000
0021
0000
0000
0000
0030
0001
1000
0000
0010
0000
,
0100
0001
0100
0020
0000
0130
0001
0020
,
0000
0130
1000
0020
0000
0130
0001
1000
,
0010
0100
0010
1000
0000
1100
0000
0022
,
0000
0000
0033
0001
1000
0001
0100
0010
,
0100
0001
0100
0020
0000
1030
0001
0020
,
0000
0130
1000
0020
0000
0130
0001
1000
,
0010
0100
0001
0010
0000
0011
0000
2200
,
0000
0000
3300
1000
0010
0100
0001
1000
,
2001
0000
0001
0001
0000
0100
0100
0100
,
0001
0100
3001
0110
,
0002
0000
1000
1000
0000
0010
0010
0010
,
1000
0000
0013
0100
0001
1000
0100
0010
,
0200
0000
0010
0010
0000
0010
0010
0010
,
1000
0010
1300
1001
,
0020
0000
0000
0000
0100
0000
0100
0000
0000
0000
0000
1000
0000
0000
1000
0000
,
0100
0000
0000
0100
0000
0000
0130
0000
0010
0000
1000
0000
0001
0000
0100
0000
,
0001
0000
0000
1000
0010
0000
0100
0010
,
1000
0100
0000
0100
0010
0000
0100
1000
,
0010
0000
0000
0100
0001
0000
1000
0010
,
0200
0001
0000
0001
0000
0301
1000
0001
,
1000
0000
0100
0001
0100
0000
1000
0100
,
1000
0001
0010
0100
0010
0000
0100
0010
,
0001
0100
0010
1000
0101
0000
1000
1000
,
0010
0100
0001
1000
0011
0000
1001
0000
,
2000
0000
0000
3010
0100
0001
0000
0100
,
0010
1000
0000
0010
0100
0001
0000
0100
,
0002
0000
0000
0103
1000
0100
0000
0001
,
0100
0001
0000
1000
0010
0100
0001
0010
,
2000
0000
0000
3010
0100
0001
0000
0100
,
0010
0001
0000
0100
0010
0001
0000
0010
,
2000
0000
0000
3100
0010
1000
0000
0010
,
0001
0100
0010
1000
2100
0000
0010
0010
,
0000
0100
0100
0100
0010
0000
0100
0000
,
3010
0000
0110
0000
1002
0000
0010
0010
,
0000
1000
1000
1000
0010
0000
1003
0010
,
0100
0001
1000
0010
1020
0000
0100
0100
,
0000
0100
0100
0100
1000
0000
0100
0000
,
1030
0000
0011
0000
0200
0000
1000
1000
,
0000
0000
0000
0010
0000
0000
0010
0000
1000
0000
0000
1000
0000
0000
1300
0000
,
0010
0100
0001
1000
1002
0000
0100
0100
,
0000
0010
0010
0010
0100
0000
1000
0000
,
0013
0000
0101
0000
0020
0000
0100
0100
,
0000
1000
1000
1000
0100
0000
1030
0010
,
0100
0001
0100
0010
0210
0000
0001
0001
,
0000
0010
0010
0010
1000
0000
0010
0000
,
0301
0000
1001
0000
2100
0000
0010
0010
,
0000
0000
0000
0100
0000
0000
0100
0000
0001
0000
0000
0001
0000
0000
3001
0000
,
0100
0010
1000
0001
0101
0000
0000
0000
;

//---------------dance-single - ----------------
#NOTEDATA:;
#CHARTNAME:;
#STEPSTYPE:dance-single;
#DESCRIPTION:;
#CHARTSTYLE:;
#DIFFICULTY:Medium;
#METER:7;
#RADARVALUES:0.330617,0.343732,0.247658,0.341597,0.000000,271.000000,242.000000,29.000000,40.000000,0.000000,0.000000,0.000000,0.000000,0.000000,0.330617,0.343732,0.247658,0.341597,0.000000,271.000000,242.000000,29.000000,40.000000,0.000000,0.000000,0.000000,0.000000,0.000000;
#CREDIT:;
#NOTES:
0000
0000
0000
0000
,
0000
0000
0000
0000
,
0001
1000
0001
1100
,
1000
0001
1000
0002
0000
0000
0003
0000
,
0001
0100
0001
0200
0000
0000
0300
0000
,
0100
0010
0100
0020
0000
0000
1030
0001
,
1000
0001
1000
0101
,
0010
1000
0010
2000
0000
0000
3000
0000
,
1000
0100
1000
0200
0000
0000
0300
0000
,
0100
0010
0100
0020
0000
0000
0031
1000
,
0002
0000
0003
0022
0000
0033
0010
0200
,
0000
0300
1000
0020
0000
0130
0000
0202
,
0000
0303
0001
2000
0000
3001
0000
0022
,
0000
0033
0000
0001
1000
0010
0100
0010
,
2000
0000
3000
2020
0000
3030
0010
0200
,
0000
0300
0001
0010
0000
1100
0000
0020
,
0000
0030
0001
0200
0000
0310
0000
2002
,
0000
3003
0000
1000
0010
0100
0010
1000
,
0002
0100
0100
0100
,
0010
0100
0013
1001
,
2000
0010
0010
0010
,
0100
0000
0010
0000
3100
0000
1000
0001
,
0200
0010
0010
0010
,
0010
1000
0310
1001
,
0020
0000
0100
0000
0100
0000
0000
1000
,
1000
0000
0000
0100
0130
0000
1001
0000
,
0101
0000
0000
0010
0100
0000
0001
0100
,
0001
0000
0000
0100
0010
0000
1000
0010
,
1000
0000
0000
0001
0010
0000
0001
0100
,
0001
0100
0000
0100
0000
0100
0000
0100
,
0010
1000
1001
0100
,
0001
0000
1001
0000
0110
0000
0010
0100
,
0002
0000
2003
0000
3010
0000
0010
1000
,
0010
1000
0002
0000
0203
0000
0310
0000
,
1010
0000
0000
0010
0100
0000
0000
0000
,
0101
0000
0000
0100
0010
0000
0000
0000
,
1100
0000
0000
1000
0001
0000
0000
0000
,
0011
0000
0000
0001
1000
0001
1000
0000
,
0110
0000
0000
0100
0001
0000
0000
0000
,
0011
0000
0000
0010
0100
0000
0000
0000
,
1100
0000
0000
0010
1000
0000
0000
0001
,
0100
0010
1000
0010
0200
0000
0001
0001
,
0000
0001
0001
0000
0010
0000
0001
0000
,
0310
0000
1001
0000
0020
0000
1000
1000
,
0000
1000
1000
0000
0100
0000
1000
0000
,
0130
0000
1001
0000
2000
0000
0001
0001
,
0000
0001
0001
0000
0010
0000
0001
0000
,
3010
0000
1001
0000
0002
0000
1000
1000
,
0000
0000
0000
0100
0100
0000
0000
0010
,
0013
0001
1000
0000
2000
0000
0010
0010
,
0000
0100
0100
0000
0010
0000
0100
0000
,
3001
0000
0110
0000
0020
0000
0100
0100
,
0000
0001
0001
0000
0100
0000
0001
0000
,
1030
0000
1001
0000
0002
0000
0100
0100
,
0000
0010
0010
0000
1000
0000
0010
0000
,
0103
0000
1001
0000
0200
0000
0001
0001
,
0000
0000
0000
0010
0010
0000
0000
1000
,
1300
0001
1100
0000
;

//---------------dance-single - ----------------
#NOTEDATA:;
#CHARTNAME:;
#STEPSTYPE:dance-single;
#DESCRIPTION:;
#CHARTSTYLE:;
#DIFFICULTY:Easy;
#METER:6;
#RADARVALUES:0.279378,0.270075,0.145179,0.153719,0.000000,229.000000,212.000000,17.000000,18.000000,0.000000,0.000000,0.000000,0.000000,0.000000,0.279378,0.270075,0.145179,0.153719,0.000000,229.000000,212.000000,17.000000,18.000000,0.000000,0.000000,0.000000,0.000000,0.000000;
#CREDIT:;
#NOTES:
0000
0000
0000
0000
,
0000
0000
0000
0000
,
0002
0100
0100
0013
,
0100
0010
0100
0010
0000
0000
0000
0000
,
1000
0001
1000
0001
0000
0000
0000
0000
,
1000
0010
1000
0010
0000
0000
0000
0000
,
2000
0010
0010
3100
,
0010
0100
0010
0100
0000
0000
0000
0000
,
0001
1000
0001
1000
0000
0000
0000
0000
,
0001
0010
0001
0010
0000
0000
0001
0000
,
0100
0001
1000
0010
,
1000
0001
0100
0001
,
0010
0100
1000
0001
,
1000
0010
0200
0301
,
0010
1000
0001
0100
,
0001
1000
0010
1000
,
0100
0010
0001
1000
,
0001
0100
0020
0130
,
0002
0100
0100
1000
,
0100
1000
0103
1001
,
0020
0100
0100
0001
,
0100
0001
0130
1001
,
0002
1000
1000
0100
,
0010
0100
1003
1001
,
2000
0001
0001
0010
,
0100
0010
3001
1001
,
1000
0000
0010
0000
,
0100
0000
0001
0000
,
1000
0000
0001
0000
,
0100
0010
0000
0010
0000
0010
1000
0010
,
1000
0100
0010
0000
,
0001
0000
0110
0000
,
1000
0000
0010
0000
0100
0000
0001
1000
,
0001
0100
0010
0000
,
1001
0000
0000
0100
0010
0000
0000
0000
,
1001
0000
0000
0010
0100
0000
0000
0000
,
0110
0000
0000
1000
0001
0000
0000
0000
,
0110
0000
0000
0001
1000
0000
1000
0000
,
0110
0000
0000
0010
1000
0000
0000
0000
,
1001
0000
0000
0001
0100
0000
0000
0000
,
0110
0000
0000
0010
0100
0000
0000
0002
,
2000
0000
0000
3003
2000
0000
0100
0000
,
0100
0010
0001
0010
,
3001
1001
0020
0100
,
0100
1000
0100
1000
,
0130
0000
1000
0001
2000
0000
0001
0000
,
0001
0100
0001
0100
,
3001
1001
0002
1000
,
0000
0000
0000
0100
0100
0000
0000
0010
,
0013
1001
0200
0001
,
0001
0010
0001
0010
,
0301
1001
0002
1000
,
1000
0100
0010
0100
,
1003
0000
0010
0100
0020
0000
1000
0000
,
1000
0100
0001
0100
,
1030
0000
1000
0001
2000
0000
0100
0000
,
0000
0000
0000
0010
0010
0000
0000
0001
,
3001
1000
1100
0000
;

//---------------dance-single - ----------------
#NOTEDATA:;
#CHARTNAME:;
#STEPSTYPE:dance-single;
#DESCRIPTION:;
#CHARTSTYLE:;
#DIFFICULTY:Beginner;
#METER:1;
#RADARVALUES:0.056120,0.098209,0.008540,0.102479,0.000000,46.000000,45.000000,1.000000,12.000000,0.000000,0.000000,0.000000,0.000000,0.000000,0.056120,0.098209,0.008540,0.102479,0.000000,46.000000,45.000000,1.000000,12.000000,0.000000,0.000000,0.000000,0.000000,0.000000;
#CREDIT:;
#NOTES:
0000
0000
0000
0000
,
0000
0000
0000
0000
,
0000
0010
0000
0010
,
0000
1000
0000
0000
,
0000
0001
0000
0000
,
0100
0100
0000
0000
,
0000
0010
0000
0010
,
0000
0100
0000
0000
,
0000
0001
0000
0000
,
1000
1000
0000
0000
,
1000
0000
0000
0000
,
0000
0000
0000
0000
,
0001
0000
0000
0000
,
0000
0000
1000
1000
,
1000
0000
0000
0000
,
0000
0000
0000
0000
,
0010
0000
0000
0000
,
0000
0000
0100
0100
,
0200
0000
0000
0000
,
0000
0000
0300
0000
,
0020
0000
0000
0000
,
0000
0000
0030
0000
,
2000
0000
0000
0000
,
0000
0000
3000
0000
,
0002
0000
0000
0000
,
0000
0000
0003
0000
,
0001
0000
0000
0100
,
0000
0000
0000
0010
,
0000
0000
0000
1000
,
0000
0000
0000
0000
,
1000
0000
0000
0010
,
0000
0000
0000
0100
,
0000
0000
0000
0001
,
0000
0000
0000
0000
,
0100
0000
0000
0000
,
0000
0000
0000
0000
,
0010
0000
0000
0000
,
0000
0000
0000
0000
,
1000
0000
0000
0000
,
0000
0000
0000
0000
,
0001
0000
0000
0000
,
0000
0000
2000
0000
,
0000
0000
0000
0000
,
3000
0000
0200
0000
,
0000
0000
0000
0000
,
0300
0000
0020
0000
,
0000
0000
0000
0000
,
0030
0000
0002
0000
,
0000
0000
0000
0000
,
0003
0000
0002
0000
,
0000
0000
0000
0000
,
0003
0000
0200
0000
,
0000
0000
0000
0000
,
0300
0000
0020
0000
,
0000
0000
0000
0000
,
0030
0000
2000
0000
,
0000
0000
0000
0000
,
3000
0000
0110
0000
;

//---------------dance-double - ----------------
#NOTEDATA:;
#CHARTNAME:;
#STEPSTYPE:dance-double;
#DESCRIPTION:;
#CHARTSTYLE:;
#DIFFICULTY:Challenge;
#METER:14;
#RADARVALUES:0.546555,0.736569,0.051240,0.153719,0.422726,448.000000,442.000000,6.000000,18.000000,0.000000,0.000000,0.000000,0.000000,0.000000,0.546555,0.736569,0.051240,0.153719,0.422726,448.000000,442.000000,6.000000,18.000000,0.000000,0.000000,0.000000,0.000000,0.000000;
#CREDIT:;
#NOTES:
00000000
00000000
00000000
00000000
,
00000000
00000000
00000000
00000000
,
10000000
00000000
00000000
01000000
00000000
00000000
00100000
00000000
01000000
00000000
00010000
00000000
00000000
00001000
00000000
00000000
,
00000100
00000000
00000000
00000001
00000000
00000000
00000100
00000000
00000010
00000000
00000100
00000000
00000000
00001000
00000000
00000000
,
00010000
00000000
00000000
00001000
00010000
00000000
00001000
00000000
01000000
00000000
00000000
00100000
10000000
00000000
00100000
00000000
,
00010000
00000000
00000000
00001000
00000100
00000000
00001000
00000000
00010000
00000000
00000000
00000010
00000100
00000000
00000100
00000000
,
00000001
00000000
00000000
00000100
00000000
00000000
00000010
00000000
00000100
00000000
00001000
00000000
00000000
00010000
00000000
00000000
,
01000000
00000000
00000000
10000000
00000000
00000000
01000000
00000000
00100000
00000000
01000000
00000000
00000000
00010000
00000000
00000000
,
00001000
00000000
00000000
00010000
00001000
00000000
00010000
00000000
00000010
00000000
00000000
00000100
00000001
00000000
00000100
00000000
,
00001000
00000000
00000000
01000000
00100000
00000000
01000000
00000000
00001000
00000000
00000000
00100000
00010000
00100000
00010000
00000000
,
01000000
00000000
00100000
10000000
00100000
00000000
01000000
00000000
00100000
00000000
01000000
00010000
01000000
00000000
00100000
00000000
,
10000000
00000000
01000000
00100000
01000000
00000000
10000000
00000000
00010000
00000000
01000000
00100000
01000000
00000000
00010000
00000000
,
10000000
00100000
00010000
00001000
00000100
00000001
00000000
00002002
,
00000000
00000000
00003003
00001000
00000100
00000001
00000100
00001000
,
00000010
00000000
00000100
00000001
00000100
00000000
00000010
00000000
00000100
00000000
00000010
00001000
00000010
00000000
00000100
00000000
,
00000001
00000000
00000010
00000100
00000010
00000000
00000001
00000000
00001000
00000000
00000010
00000100
00000010
00000000
00001000
00000000
,
00000001
00000010
00001000
00010000
01000000
10000000
00000000
20020000
,
00000000
00000000
30030000
00010000
01000000
10000000
01000000
00010000
,
00200000
00000000
00001000
00001000
00000000
00010000
00010000
00010000
,
01000000
00000000
00000000
00000000
00010000
00000000
00000000
00000000
00301000
00000000
00000000
00001000
00010000
00000000
00000100
00000000
,
00002000
00000000
00000010
00000010
00000000
00010000
00010000
00010000
,
00100000
00000000
00010000
00000000
00003010
00000100
00000001
00001000
,
00000200
00000000
00001000
00001000
00000000
00010000
00010000
00010000
,
01000000
00000000
00000000
00000000
00010000
00000000
00000000
00000000
00001300
00000000
00000000
00000100
00010000
00000000
00001000
00000000
,
02000000
00000000
00000000
00000000
00100000
00000000
00200000
00000000
00000000
00000000
00300000
00010000
00000000
00000000
00010000
00000000
,
00100000
00000000
00000000
00100000
00000000
00000000
03100000
00000000
10000000
00000000
00010000
00000000
01000000
00000000
00100000
00000000
,
10000000
00000000
01000000
00000000
10000000
00000000
01000000
00000000
10000000
00000000
01000000
00000000
00100000
00010000
00100000
00010000
,
00100000
00000000
00001000
00000000
00100000
00000000
00001000
00000000
00100000
00000000
00001000
00000000
00010000
00001000
00010000
00001000
,
00010000
00000000
00000100
00000000
00010000
00000000
00000100
00000000
00010000
00000000
00000100
00000000
00000010
00000100
00000010
00000100
,
00000020
00000001
00000000
00000001
00000000
00000031
00001000
00000001
,
00000100
00000000
00001000
00000000
00000100
00000000
00000001
00000000
00000010
00000000
00001000
00000000
00010000
00001000
00010000
00001000
,
00010000
00000000
00001000
00000000
01000000
00000000
00100000
00000000
00010000
00000000
00100000
00000000
10000000
00010000
10000000
00010000
,
10000000
01000000
00010000
00001000
00000200
00000000
00000301
00000100
,
00000001
00000100
00001000
00010000
02000000
00000000
13000000
00010000
,
10000000
00100000
10000000
00100000
10000000
00000000
00010000
01000000
00010000
01000000
00010000
01000000
00000000
01000000
00001000
01000000
,
00001000
01000000
00001000
01000000
00001000
00000000
00010000
00000100
00010000
00000100
00010000
00000100
00000000
00000010
00000001
00000100
,
00000010
00001000
00000100
00000010
00000001
00000000
00000100
00000010
00000100
00000010
00000100
00000010
00000000
00000010
00010000
00000010
,
00010000
00000010
00010000
00000010
00010000
00000000
00001000
00100000
00001000
00100000
00001000
00100000
00001000
00100000
00001000
00100000
,
01000000
10000000
01000000
10000000
01000000
00000000
10000000
00010000
10000000
00010000
10000000
00010000
00000000
00010000
01000000
00010000
,
01000000
00010000
01000000
00010000
01000000
00000000
00001000
00010000
00001000
00010000
00001000
00010000
00000000
00010000
00000100
00000010
,
00000001
00000100
00000010
00001000
00000100
00000000
00000010
00000001
00000010
00000001
00000010
00000001
00000000
00000001
00001000
00000001
,
00001000
00000001
00001000
00000001
00001000
00000001
00001000
00000000
00000020
00000000
00000000
00000000
00001000
00000000
00001000
00000000
,
00000000
00010000
00010000
00010000
00100000
00000000
00010000
00000000
,
00001030
00000000
00000000
00000010
00010000
00000000
00001000
00000000
02000000
00000000
00000000
00000000
00100000
00000000
00100000
00000000
,
00000000
00010000
00010000
00010000
00001000
00000000
00010000
00000000
,
03100000
01000000
00010000
10000000
00020000
00000000
01000000
01000000
,
00000000
00001000
00001000
00001000
00000100
00000000
00001000
00000000
,
01030000
00000000
00000000
01000000
00001000
00000000
00010000
00000000
00000200
00000000
00000000
00000000
00010000
00000000
00010000
00000000
,
00000000
00000000
00000000
00001000
00000000
00000000
00001000
00000000
00000010
00000000
00000000
00000010
00000000
00000000
00000310
00000000
,
00000001
00000100
00000010
00001000
00001001
00000000
00000001
00001000
,
00000000
00100000
01000000
00100000
01000000
00000000
00010000
00000000
,
00000100
00000000
00000000
00000010
00010000
00000000
00001000
00000000
00101000
00000000
00000000
00000000
01000000
00000000
10000000
00000000
,
00000000
00001000
00010000
00001000
00000010
00000000
00000001
00000000
,
00000100
00000010
00001000
00000001
00000011
00000000
00000001
00000100
,
00000000
01000000
00010000
00100000
01000000
00000000
00010000
00000000
,
00000010
00000000
00000000
00000100
00000001
00000000
00000010
00000000
00002000
00000000
00000000
00000000
00013000
00000000
00200000
00000000
,
00000000
00000000
00300000
10000000
00000000
00000000
00010000
00000000
00001000
00000000
00000000
00000001
00000000
00000000
00001000
00000000
,
00010000
00100000
10000000
01000000
00110000
00000000
00000000
00000000
;

//---------------dance-double - ----------------
#NOTEDATA:;
#CHARTNAME:;
#STEPSTYPE:dance-double;
#DESCRIPTION:;
#CHARTSTYLE:;
#DIFFICULTY:Hard;
#METER:11;
#RADARVALUES:0.389177,0.417389,0.145179,0.341597,0.034160,319.000000,302.000000,17.000000,40.000000,0.000000,0.000000,0.000000,0.000000,0.000000,0.389177,0.417389,0.145179,0.341597,0.034160,319.000000,302.000000,17.000000,40.000000,0.000000,0.000000,0.000000,0.000000,0.000000;
#CREDIT:;
#NOTES:
00000000
00000000
00000000
00000000
,
00000000
00000000
00000000
00000000
,
00001000
00100000
00001000
00011000
,
00010000
00000100
00000010
00000002
00000000
00000000
00000003
00000001
,
00000010
00000100
00000010
00000002
00000000
00000003
00000000
00000001
,
00000100
00000000
00001000
00000000
00010000
00000000
02000000
00000000
00000000
00000000
03000000
10000000
00010000
00000000
10000000
00000000
,
00100000
01000000
00010000
01100000
,
10000000
01000000
00100000
00002000
00000000
00003000
00000000
00001000
,
00100000
01000000
00100000
00002000
00000000
00003000
00000000
00010000
,
00000010
00000000
00000100
00000000
00000001
00000000
00000020
00000000
00000000
00000000
00000030
00000100
00001000
00000000
00000100
00000000
,
00000010
00000001
00000100
00000020
00000000
00000130
00001000
00000020
,
00000000
00000130
00000001
00000020
00000000
00000230
00000000
00000320
,
00000000
00001030
00010000
00200000
00000000
10300000
00000000
20020000
,
00000000
30030000
00000000
01000000
00100000
10000000
00010000
00010000
,
10000000
00010000
01000000
00200000
00000000
01300000
00010000
00200000
,
00000000
01300000
10000000
00200000
00000000
00320000
00000000
00032000
,
00000000
00003010
00000001
00000200
00000000
00000310
00000000
00002002
,
00000000
00003003
00000000
00000001
00001000
00000010
00000100
00000100
,
00000002
00000000
00001000
00001000
00000000
00000100
00000100
00000100
,
00001000
00000100
00001003
00001001
,
00000200
00000000
00000010
00000010
00000000
00010000
00010000
00010000
,
00000010
00000000
00010000
00000000
00000310
00000000
00010000
00001000
,
02000000
00000000
00001000
00001000
00000000
00100000
00100000
00100000
,
00001000
00100000
03001000
01100000
,
00020000
00000000
00000000
00000000
10000000
00000000
10000000
00000000
00000000
00000000
00000000
01000000
00000000
00000000
01000000
00000000
,
10000000
00000000
00000000
10000000
00000000
00000000
10030000
00000000
00100000
00000000
01000000
00000000
00010000
00000000
10000000
00000000
,
01000000
00010000
00000000
01000000
00010000
00001000
00000000
00010000
,
00001000
00000100
00000000
00001000
00000100
00000001
00000000
00000100
,
00000001
00000010
00000000
00000001
00000010
00001000
00000000
00000010
,
00001000
00010000
00000000
00001000
00000000
00010000
00001000
01000000
,
01100000
00000000
01000000
00100000
01100000
00000000
10000000
00010000
,
10000000
10000000
01000000
00010000
00001000
00000000
00000010
00000001
,
00001000
00000001
00001000
00000001
00001001
00000000
00000100
00000010
,
00001000
00000001
00001000
00000001
00001001
00000000
00000010
00010000
,
00001000
00000100
00000000
00001000
00010000
00000000
00000000
00100000
,
10000000
00000000
00000000
00100000
00010000
00000000
00001000
00000100
,
00000001
00000000
00000000
00000010
00001000
00000000
00000000
00010000
,
00100000
00000000
00000000
00020000
00002000
00000000
00000000
00033000
,
00001000
00100000
00000000
01000000
10000000
00000000
00000000
00100000
,
00010000
00000000
00000000
00001000
00000100
00000000
00001000
00010000
,
00100000
00000000
00000000
10000000
00010000
00000000
00000000
01000000
,
00010000
00100000
01000000
10000000
00200000
00000000
01000000
01000000
,
00000000
00001000
00001000
00001000
01000000
00000000
00001000
00000000
,
01300000
00000000
01001000
00000000
00002000
00000000
00010000
00010000
,
00000000
00100000
00100000
00100000
00010000
00000000
00100000
00000000
,
00013000
00000100
00000010
00000001
00002000
00000000
00000010
00000010
,
00000000
00010000
00010000
00010000
00000010
00000000
00010000
00000000
,
00003010
00000000
00000101
00000000
00000002
00000000
00001000
00001000
,
00000000
00000000
00000000
00000100
00000000
00000000
00000100
00000000
00000010
00000000
00000000
00000010
00000000
00000000
00000013
00000000
,
00000001
00000100
00000010
00001000
00001010
00000000
00000001
00001000
,
00000000
00000010
00000100
00001000
00020000
00000000
02030000
00000000
,
23000000
00000000
30000000
00000000
10010000
00000000
10000000
00100000
,
00000000
00010000
00001000
00000010
00000200
00000000
00000302
00000000
,
00001003
00000010
00000100
00000010
00010010
00000000
00010000
00001000
,
00000000
01000000
00100000
00010000
00002000
00000000
00003200
00000000
,
00000302
00000000
00000003
00000000
00001010
00000000
00000010
00000100
,
00000000
00000000
00000000
00001000
00000000
00000000
00010000
00000000
01000000
00000000
00000000
10000000
00000000
00000000
00100000
00000000
,
01000000
00010000
10000000
00100000
01100000
00000000
00000000
00000000
;

//---------------dance-double - ----------------
#NOTEDATA:;
#CHARTNAME:;
#STEPSTYPE:dance-double;
#DESCRIPTION:;
#CHARTSTYLE:;
#DIFFICULTY:Medium;
#METER:7;
#RADARVALUES:0.290358,0.294628,0.068319,0.307437,0.000000,238.000000,230.000000,8.000000,36.000000,0.000000,0.000000,0.000000,0.000000,0.000000,0.290358,0.294628,0.068319,0.307437,0.000000,238.000000,230.000000,8.000000,36.000000,0.000000,0.000000,0.000000,0.000000,0.000000;
#CREDIT:;
#NOTES:
00000000
00000000
00000000
00000000
,
00000000
00000000
00000000
00000000
,
10000000
01000000
10000000
00010000
,
01000000
00001000
01000000
00001000
00000000
00000000
00000000
00000000
,
00010000
00000100
00010000
00000100
00000000
00000000
00000000
00000000
,
00000010
00000001
00000010
00000001
00000000
00000000
00001000
00000001
,
00000100
00000010
00000100
00000010
,
00001000
00000010
00001000
00000010
00000000
00000000
00000000
00000000
,
00010000
00001000
00010000
00001000
00000000
00000000
00000000
00100000
,
00010000
01000000
00010000
01000000
00000000
00000000
00100000
00100000
,
00200000
00000000
10300000
00200000
00000000
00300000
01000000
00200000
,
00000000
00300000
10000000
00100000
00000000
01010000
00000000
00200000
,
00000000
00320000
00000000
00032000
00000000
00003200
00000000
00000302
,
00000000
00000003
00000000
00000000
00001000
00000000
00001000
00000000
,
00000020
00000000
00000130
00000020
00000000
00000030
00001000
00000020
,
00000000
00000030
00000100
00000010
00000000
00000101
00000000
00000020
,
00000000
00002030
00000000
00023000
00000000
00230000
00000000
20300000
,
00000000
30000000
00000000
10000000
00010000
10000000
00010000
10000000
,
00020000
00000000
00100000
00100000
00000000
00000000
00100000
00000000
,
01000000
00100000
01030000
00000000
,
20000000
00000000
00100000
00100000
00000000
00000000
01000000
00000000
,
00100000
00000000
01000000
00000000
30100000
00000000
00010000
00001000
,
00000020
00000000
00000001
00000001
00000000
00000000
00000100
00000000
,
00000001
00000100
00000031
00000000
,
00000200
00000000
00000010
00000010
00000000
00000000
00000000
00001000
,
00001000
00000000
00000000
00000010
00000310
00000000
00000100
00000000
,
00000002
00000000
00000103
00001000
,
00020000
00000000
01030000
00010000
,
00002000
00000000
00103000
01000000
,
20000000
00010000
00000000
00010000
00000000
00010000
30010000
00000000
,
20000000
00000000
31000000
00100000
00020000
00000000
01030000
00001000
,
00010000
00000010
00001100
00000010
,
00000200
00000310
00001100
00000010
,
00000010
00000100
00000011
00000000
,
00002002
00000000
00003003
00000001
00000010
00000000
00000000
00000100
,
00010000
00000000
00000000
00010000
00001000
00000000
00000000
02000000
,
00000000
00000000
03000000
00100000
10000000
00000000
00000000
01000000
,
00100000
00000000
00000000
00001000
00020000
00000000
00000000
00000000
,
00030100
00000000
00000000
00000010
00000001
00000000
00000000
00001000
,
00000100
00000000
00000000
00000100
00010000
00000000
00000000
00002000
,
00000000
00000000
00003000
01000000
00100000
00000000
00000000
10000000
,
00010000
01000000
00100000
10000000
00020000
00000000
10000000
10000000
,
00000000
01000000
10000000
01000000
,
10030000
00000000
00000000
00000000
20000000
00000000
00010000
00010000
,
00000000
01000000
00010000
01000000
,
30010000
00000000
00100000
00001000
00020000
00000000
00000010
00000010
,
00000000
00000100
00000010
00000100
,
00030010
00000000
00000000
00000000
00000200
00000000
00000001
00000001
,
00000000
00000000
00000000
00000010
00000010
00000000
00000000
00001000
,
00001300
00000000
00000001
00000000
00001000
00000000
00000010
00000100
,
00000000
00000010
00001000
00000000
00000100
00000000
00000100
00000000
,
00000100
00000000
00011000
00000000
00100000
00000000
00010000
01000000
,
00000000
00100000
10000000
00000000
00010000
00000000
00010000
00000000
,
00010000
00000000
10000000
01000000
00100000
00000000
00001000
00010000
,
00000000
00000100
00000010
00000000
00000001
00000000
00000001
00000000
,
00000001
00000000
00001000
00000000
00000010
00000000
00000100
00001000
,
00000000
00010000
00000000
01000000
10000000
00000000
00000000
00100000
,
01000000
00010000
10010000
00000000
;

//---------------dance-double - ----------------
#NOTEDATA:;
#CHARTNAME:;
#STEPSTYPE:dance-double;
#DESCRIPTION:;
#CHARTSTYLE:;
#DIFFICULTY:Easy;
#METER:4;
#RADARVALUES:0.167139,0.196418,0.000000,0.341597,0.000000,137.000000,137.000000,0.000000,40.000000,0.000000,0.000000,0.000000,0.000000,0.000000,0.167139,0.196418,0.000000,0.341597,0.000000,137.000000,137.000000,0.000000,40.000000,0.000000,0.000000,0.000000,0.000000,0.000000;
#CREDIT:;
#NOTES:
00000000
00000000
00000000
00000000
,
00000000
00000000
00000000
00000000
,
10000000
01000000
10000000
01000000
,
20000000
00000000
30000000
00000000
,
00020000
00000000
00030000
00000000
,
00200000
00000000
00300000
00000000
,
00001000
00010000
00001000
00010000
,
00002000
00000000
00003000
00000000
,
00020000
00000000
00030000
00000000
,
00000020
00000000
00000030
00000000
,
00000200
00000300
00000000
00000001
,
00000000
00001000
00000000
00000000
,
00000020
00000030
00000100
00000000
,
00000001
00000000
00001000
00000100
,
00020000
00000000
00030000
00001000
,
00000000
00100000
00000000
00000000
,
02000000
03000000
10000000
00000000
,
00010000
00000000
00100000
00100000
,
00200000
00000000
00320000
01030000
,
00100000
00100000
00100000
00000000
,
20000000
00000000
30020000
10030000
,
01000000
01000000
01000000
00100000
,
00002000
00000000
00023000
00030100
,
00001000
00001000
00001000
00000000
,
00000020
00000000
00000230
00000000
,
00000302
00000000
00001003
00001000
,
00001000
00000000
00000010
00000000
,
00000100
00000000
00000001
00000000
,
00001000
00000000
00000100
00000000
,
00000000
00010000
00000000
00001000
00000000
00010000
00001000
00000000
,
00001000
00100000
00001000
00000000
,
01000000
00010000
01000000
00000000
,
00100000
10000000
00010000
01000000
,
01000000
00010000
10000000
00000000
,
02000000
00000000
03000000
00000000
,
00200000
00300000
00002000
00003000
,
00020000
00030000
00000020
00000030
,
00000200
00000300
00000002
00000000
,
00002003
00003000
00000020
00000030
,
00000200
00000300
00000020
00000030
,
00020000
00030000
00002000
00003000
,
00020000
00000000
00000000
00030000
00000000
00000000
02000000
00000000
,
00000000
00100000
00100000
00100000
,
03100000
00000000
10000000
00200000
,
00000000
01000000
01000000
01000000
,
01300000
00000000
00001000
00020000
,
00000000
00000100
00000100
00000100
,
00030100
00000000
00000010
00000002
,
00000003
00000000
00002000
00003000
,
00000010
00000010
00000010
00001000
,
00000000
00000001
00000100
00000001
,
00000100
00000000
00000010
00010000
,
00000000
00001000
01000000
00001000
,
01000000
00000000
00100000
10000000
,
00000000
01000000
00100000
01000000
,
00100000
00000000
00001000
00020000
,
00000000
00030000
00000200
00000300
,
00000010
00000001
00001000
00000000
;

//---------------dance-single - Edit----------------
#NOTEDATA:;
#CHARTNAME:;
#STEPSTYPE:dance-single;
#DESCRIPTION:Edit;
#CHARTSTYLE:;
#DIFFICULTY:Edit;
#METER:13;
#RADARVALUES:0.494096,0.515598,0.111019,0.162259,0.213498,405.000000,392.000000,13.000000,19.000000,0.000000,0.000000,0.000000,0.000000,0.000000,0.494096,0.515598,0.111019,0.162259,0.213498,405.000000,392.000000,13.000000,19.000000,0.000000,0.000000,0.000000,0.000000,0.000000;
#CREDIT:;
#NOTES:
0000
0000
0000
0000
,
0000
0000
0000
0000
,
1000
0000
0000
0100
0000
0000
0010
0000
0100
0000
0001
0000
0000
0100
0000
0000
,
1000
0000
0000
0010
0000
0000
0100
0000
0010
0000
0001
0000
0000
0010
0000
0000
,
1000
0000
0000
0100
0010
0000
0100
0000
1000
0000
0000
0010
0100
0000
0010
0000
,
1000
0000
0000
1000
0100
0000
0010
0000
0001
0000
0000
0001
1000
0000
1000
0000
,
0001
0000
0000
0100
0000
0000
0010
0000
0100
0000
1000
0000
0000
0100
0000
0000
,
0001
0000
0000
0010
0000
0000
0100
0000
0010
0000
1000
0000
0000
0010
0000
0000
,
0001
0000
0000
0010
0100
0000
0010
0000
0001
0000
0000
0100
0010
0000
0100
0000
,
0001
0000
0000
0001
0010
0000
0100
0000
1000
0000
0000
1000
0001
0000
0001
0000
,
1000
0000
0010
0000
0010
0000
1000
0000
0100
0000
0000
0010
0001
0000
1000
0000
,
0001
0000
0100
0000
0100
0000
0001
0000
0010
0000
0000
0100
1000
0000
0001
0000
,
1000
0000
0010
0000
0010
0000
0100
0000
0001
0000
0000
0100
0010
0000
2000
0000
,
0002
0000
3003
0100
0100
0001
1000
1000
,
0001
0000
0100
0000
0100
0000
0001
0000
0010
0000
0000
0100
1000
0000
0001
0000
,
1000
0000
0010
0000
0010
0000
1000
0000
0100
0000
0000
0010
0001
0000
1000
0000
,
0001
0000
0100
0000
0100
0000
0010
0000
1000
0000
0000
0010
0100
0000
0002
0000
,
2000
0000
3003
0010
0010
0100
1000
0001
,
2001
0000
0010
0010
0000
0010
0010
0010
,
0001
0000
0000
0000
0100
0000
0000
0000
3001
0000
0000
0100
0010
0000
1000
0000
,
1002
0000
0100
0100
0000
0100
0100
0100
,
1000
0000
0013
0100
0001
1000
0001
0100
,
0201
0000
0010
0010
0000
0010
0010
0010
,
0001
0000
0000
0000
1000
0000
0000
0000
0301
0000
0000
0100
0010
0000
1000
0000
,
1020
0000
0000
0000
0100
0000
0200
0000
0000
0000
0300
0100
0000
0000
0100
0000
,
1000
0000
0000
1000
0000
0000
1030
0000
0001
0000
0100
0000
0010
0000
0100
0000
,
0001
0000
1000
0000
0010
0000
1000
0000
0100
0000
0010
0000
0001
0010
0100
1000
,
0010
0000
0100
0000
0010
0000
1000
0000
0100
0000
0010
0000
0001
1000
0010
0100
,
0010
0000
1000
0000
0001
0000
0100
0000
0010
0000
0100
0000
0001
0010
0100
1000
,
0010
0000
0100
0000
0010
0000
1000
0000
0100
0000
0010
0000
0100
1000
0001
0100
,
0010
0000
1000
0000
0100
0000
1000
0000
0010
0000
1000
0000
0100
0010
0001
0100
,
0010
0000
0100
0000
0001
0000
0100
0000
0010
0000
0100
0000
0001
1000
0010
0100
,
0001
0000
0010
0000
1000
0000
0010
0000
0001
0000
0010
0000
0100
1000
0010
0100
,
0001
0100
1000
0100
0001
0100
0010
1000
,
0001
0100
0000
0010
1000
0100
0000
0001
,
0100
0010
0000
0001
1000
0010
0000
0100
,
1000
0100
0001
0010
0100
1000
0000
0100
,
0010
0000
0001
0000
0000
0000
0100
0000
0010
0100
0010
0100
0010
0000
0100
0000
,
0010
1000
0000
0001
0100
0010
0000
0001
,
0010
1000
0000
0100
0010
1000
0000
0010
,
0001
0010
0000
0001
0100
0010
0000
1000
,
0001
0100
0010
1000
1002
0000
0100
0100
,
0000
1000
1000
1000
0100
0000
0010
0000
,
1003
0000
0000
0001
0100
0000
0010
0000
2010
0000
0000
0000
0001
0000
0001
0000
,
0000
0100
0100
0100
0010
0000
3001
1000
,
0010
1000
0001
0100
0201
0000
0010
0010
,
0000
1000
1000
1000
0010
0000
0001
0000
,
1300
0000
0000
0001
0100
0000
0010
0000
1020
0000
0000
0000
0100
0000
0200
0000
,
0000
0000
0300
0001
0000
0000
0001
0000
0100
0000
0000
0100
0000
0000
0130
0000
,
0001
1000
0010
0100
0210
0000
0001
0001
,
0000
0010
0010
0010
0001
0000
1000
0000
,
0310
0000
0000
0100
0010
0000
1000
0000
0120
0000
0000
0000
0100
0000
0100
0000
,
0000
1000
1000
1000
0100
0000
0031
1000
,
0010
0100
0001
1000
2010
0000
0100
0100
,
0000
0001
0001
0001
0100
0000
0010
0000
,
3001
0000
0000
1000
0001
0000
0100
0000
0102
0000
0000
0000
0010
0000
0020
0000
,
0000
0000
0030
1000
0000
0000
1000
0000
0100
0000
0000
0100
0000
0000
0103
0000
,
0010
1000
0001
0010
0101
0000
0000
0000
;

//---------------dance-double - Double Edit----------------
#NOTEDATA:;
#CHARTNAME:;
#STEPSTYPE:dance-double;
#DESCRIPTION:Double Edit;
#CHARTSTYLE:;
#DIFFICULTY:Edit;
#METER:13;
#RADARVALUES:0.480676,0.540151,0.051240,0.153719,0.217768,394.000000,388.000000,6.000000,18.000000,0.000000,0.000000,0.000000,0.000000,0.000000,0.480676,0.540151,0.051240,0.153719,0.217768,394.000000,388.000000,6.000000,18.000000,0.000000,0.000000,0.000000,0.000000,0.000000;
#CREDIT:;
#NOTES:
// measure 0
00000000
00000000
00000000
00000000
,  // measure 1
00000000
00000000
00000000
00000000
,  // measure 2
10000000
00000000
00000000
01000000
00000000
00000000
00100000
00000000
01000000
00000000
00010000
00000000
00000000
00001000
00000000
00000000
,  // measure 3
00000100
00000000
00000000
00000001
00000000
00000000
00000100
00000000
00000010
00000000
00000100
00000000
00000000
00001000
00000000
00000000
,  // measure 4
00010000
00000000
00000000
00001000
00010000
00000000
00001000
00000000
01000000
00000000
00000000
00100000
10000000
00000000
00100000
00000000
,  // measure 5
00010000
00000000
00000000
00001000
00000100
00000000
00001000
00000000
00010000
00000000
00000000
00000010
00000100
00000000
00000100
00000000
,  // measure 6
00000001
00000000
00000000
00000100
00000000
00000000
00000010
00000000
00000100
00000000
00001000
00000000
00000000
00010000
00000000
00000000
,  // measure 7
01000000
00000000
00000000
10000000
00000000
00000000
01000000
00000000
00100000
00000000
01000000
00000000
00000000
00010000
00000000
00000000
,  // measure 8
00001000
00000000
00000000
00010000
00001000
00000000
00010000
00000000
00000010
00000000
00000000
00000100
00000001
00000000
00000100
00000000
,  // measure 9
00001000
00000000
00000000
01000000
00100000
00000000
01000000
00000000
00001000
00000000
00000000
00100000
00010000
00100000
00010000
00000000
,  // measure 10
01000000
00000000
00100000
10000000
00100000
00000000
01000000
00000000
00100000
00000000
01000000
00010000
01000000
00000000
00100000
00000000
,  // measure 11
10000000
00000000
01000000
00100000
01000000
00000000
10000000
00000000
00010000
00000000
01000000
00100000
01000000
00000000
00010000
00000000
,  // measure 12
10000000
00100000
00010000
00001000
00000100
00000001
00000000
00002002
,  // measure 13
00000000
00000000
00003003
00001000
00000100
00000001
00000100
00001000
,  // measure 14
00000010
00000000
00000100
00000001
00000100
00000000
00000010
00000000
00000100
00000000
00000010
00001000
00000010
00000000
00000100
00000000
,  // measure 15
00000001
00000000
00000010
00000100
00000010
00000000
00000001
00000000
00001000
00000000
00000010
00000100
00000010
00000000
00001000
00000000
,  // measure 16
00000001
00000010
00001000
00010000
01000000
10000000
00000000
20020000
,  // measure 17
00000000
00000000
30030000
00010000
01000000
10000000
01000000
00010000
,  // measure 18
00200000
00000000
00001000
00001000
00000000
00010000
00010000
00010000
,  // measure 19
01000000
00000000
00000000
00000000
00010000
00000000
00000000
00000000
00301000
00000000
00000000
00001000
00010000
00000000
00000100
00000000
,  // measure 20
00002000
00000000
00000010
00000010
00000000
00010000
00010000
00010000
,  // measure 21
00100000
00000000
00010000
00000000
00003010
00000100
00000001
00001000
,  // measure 22
00000200
00000000
00001000
00001000
00000000
00010000
00010000
00010000
,  // measure 23
01000000
00000000
00000000
00000000
00010000
00000000
00000000
00000000
00001300
00000000
00000000
00000100
00010000
00000000
00001000
00000000
,  // measure 24
02000000
00000000
00000000
00000000
00100000
00000000
00200000
00000000
00000000
00000000
00300000
00010000
00000000
00000000
00010000
00000000
,  // measure 25
00100000
00000000
00000000
00100000
00000000
00000000
03100000
00000000
10000000
00000000
00010000
00000000
01000000
00000000
00100000
00000000
,  // measure 26
10000000
00000000
01000000
00000000
10000000
00000000
01000000
00000000
10000000
00000000
01000000
00000000
00100000
00010000
00100000
00010000
,  // measure 27
00100000
00000000
00001000
00000000
00100000
00000000
00001000
00000000
00100000
00000000
00001000
00000000
00010000
00001000
00010000
00001000
,  // measure 28
00010000
00000000
00000100
00000000
00010000
00000000
00000100
00000000
00010000
00000000
00000100
00000000
00000010
00000100
00000010
00000100
,  // measure 29
00000020
00000001
00000000
00000001
00000000
00000031
00001000
00000001
,  // measure 30
00000100
00000000
00001000
00000000
00000100
00000000
00000001
00000000
00000010
00000000
00001000
00000000
00010000
00001000
00010000
00001000
,  // measure 31
00010000
00000000
00001000
00000000
01000000
00000000
00100000
00000000
00010000
00000000
00100000
00000000
10000000
00010000
10000000
00010000
,  // measure 32
10000000
01000000
00010000
00001000
00000200
00000000
00000301
00000100
,  // measure 33
00000001
00000100
00001000
00010000
02000000
00000000
13000000
00010000
,  // measure 34
10000000
01000000
00000000
00010000
00001000
00100000
00000000
00010000
,  // measure 35
00001000
00000100
00000000
00000001
00001000
00000010
00000000
00000100
,  // measure 36
00001000
00010000
00000000
00100000
00010000
00001000
00000000
01000000
,  // measure 37
00100000
00000000
00010000
00000000
00000000
00000000
00001000
00000000
00010000
00000010
00010000
00000010
00010000
00000000
00001000
00000000
,  // measure 38
00010000
00000100
00000000
00000010
00000001
00000100
00000000
00001000
,  // measure 39
00010000
00000010
00000000
00000100
00001000
00010000
00100000
01000000
,  // measure 40
00010000
00001000
00000000
00000010
00000001
00000010
00000000
00000001
,  // measure 41
00000100
00000010
00001000
00000001
00001000
00000000
00000010
00000000
00000020
00000000
00000000
00000000
00001000
00000000
00001000
00000000
,  // measure 42
00000000
00010000
00010000
00010000
00100000
00000000
00010000
00000000
,  // measure 43
00001030
00000000
00000000
00000010
00010000
00000000
00001000
00000000
02000000
00000000
00000000
00000000
00100000
00000000
00100000
00000000
,  // measure 44
00000000
00010000
00010000
00010000
00001000
00000000
00010000
00000000
,  // measure 45
03100000
01000000
00010000
10000000
00020000
00000000
01000000
01000000
,  // measure 46
00000000
00001000
00001000
00001000
00000100
00000000
00001000
00000000
,  // measure 47
01030000
00000000
00000000
01000000
00001000
00000000
00010000
00000000
00000200
00000000
00000000
00000000
00010000
00000000
00010000
00000000
,  // measure 48
00000000
00000000
00000000
00001000
00000000
00000000
00001000
00000000
00000010
00000000
00000000
00000010
00000000
00000000
00000310
00000000
,  // measure 49
00000001
00000100
00000010
00001000
00001001
00000000
00000001
00001000
,  // measure 50
00000000
00100000
01000000
00100000
01000000
00000000
00010000
00000000
,  // measure 51
00000100
00000000
00000000
00000010
00010000
00000000
00001000
00000000
00101000
00000000
00000000
00000000
01000000
00000000
10000000
00000000
,  // measure 52
00000000
00001000
00010000
00001000
00000010
00000000
00000001
00000000
,  // measure 53
00000100
00000010
00001000
00000001
00000011
00000000
00000001
00000100
,  // measure 54
00000000
01000000
00010000
00100000
01000000
00000000
00010000
00000000
,  // measure 55
00000010
00000000
00000000
00000100
00000001
00000000
00000010
00000000
00002000
00000000
00000000
00000000
00013000
00000000
00200000
00000000
,  // measure 56
00000000
00000000
00300000
10000000
00000000
00000000
00010000
00000000
00001000
00000000
00000000
00000001
00000000
00000000
00001000
00000000
,  // measure 57
00010000
00100000
10000000
01000000
00110000
00000000
00000000
00000000
;
