#TITLE:Bigwavers;
#SUBTITLE:;
#ARTIST:BlackY;
#TITLETRANSLIT:;
#SUBTITLETRANSLIT:;
#ARTISTTRANSLIT:;
#GENRE:Hardcore;
#CREDIT:;
#BANNER:bigwavers-bn.png;
#BACKGROUND:bigwavers-bg.png;
#LYRICSPATH:;
#CDTITLE:;
#MUSIC:BIGWAVERS.ogg;
#OFFSET:-1.308900;
#SAMPLESTART:9.440000;
#SAMPLELENGTH:12.000000;
#SELECTABLE:YES;
#BPMS:0.000000=177.000000
;
#STOPS:120.000000=0.339000
;
#BGCHANGES:;
#KEYSOUNDS:;
#ATTACKS:;

//---------------dance-single - ----------------
#NOTES:
     dance-single:
     :
     Hard:
     13:
     0.534368,0.693945,0.434951,0.387502,0.146302,473.000000,418.000000,55.000000,49.000000,0.000000,0.000000,0.534368,0.693945,0.434951,0.387502,0.146302,473.000000,418.000000,55.000000,49.000000,0.000000,0.000000:
0000
0000
0000
0000
,
0000
0000
0000
0000
,
0000
0000
0000
0000
,
0001
0100
1000
0010
0001
0100
1000
0010
,
0002
0000
0000
0000
,
0000
0000
0000
0000
1003
0001
0100
0010
,
0110
0101
1000
1000
,
0020
0000
2000
0000
0030
0000
0001
0000
3001
0000
0000
0000
0100
0001
0100
0000
,
0101
1001
0010
0010
,
0200
0000
2000
0000
0300
0000
0010
0000
3010
0000
0000
0000
1000
0100
1000
0000
,
1100
0011
0100
0100
,
0002
0000
0020
0000
0003
0000
0100
0000
0130
0000
0000
0000
0010
0001
0010
0000
,
0011
0000
0001
0100
0000
1010
0000
0100
,
0000
0011
0000
0100
1000
0000
1000
0000
,
1010
1001
0100
0100
,
0002
0000
2000
0000
0003
0000
0100
0000
3100
0000
0000
0000
1000
0010
1000
0000
,
1010
1100
0001
0001
,
0200
0000
0002
0000
0300
0000
0010
0000
0013
0000
0000
0000
0100
0010
0100
0000
,
0110
0011
0100
0100
,
0020
0000
2000
0000
0030
0000
0100
0000
3100
0000
0000
0000
0010
0001
1000
0000
,
1001
0000
0010
0010
0000
1100
0000
0220
,
0000
0000
0000
0330
,
0010
0001
0010
0000
0001
1000
0001
0000
,
0200
0000
0000
0010
0000
0000
0300
0000
,
0001
0100
0001
0000
1000
0010
0001
0000
,
0020
0000
0000
0000
0000
0000
0000
0000
0000
0000
0000
0000
1030
0001
1000
0000
,
0001
0000
0000
0001
0000
0000
0100
0000
0010
0000
0000
0010
0000
0000
1000
0000
,
0100
0000
0000
0100
0000
0000
0010
0000
1000
0000
0000
1000
0000
0000
0010
0000
,
0001
0100
1000
0010
0001
0100
1000
0010
,
0002
0000
0000
0003
,
1020
0030
1000
0100
1000
0010
1000
0100
,
1000
0010
1000
0100
1000
0010
0100
0001
,
0100
0010
0100
0001
0100
0010
0100
0001
,
0100
0010
1010
0000
1100
0000
0011
0000
,
1000
1000
0001
0100
0001
0010
0001
0100
,
0001
0010
0001
0100
0001
1000
0010
0100
,
0010
0001
0010
0100
0010
0001
0020
0000
,
0000
1000
1030
1010
,
0010
0000
1000
0000
0001
0000
0000
0100
0000
0000
0010
0000
1000
0000
0100
0000
,
0010
0000
0001
0000
0100
0000
0000
0010
0000
0000
1000
0000
0100
0000
0010
0000
,
0001
0000
0100
0000
0010
0000
0000
1000
0000
0000
0001
0000
1000
0000
0100
0000
,
0010
0000
0001
0000
2002
0000
0000
0000
3003
0000
0000
0000
0110
0000
0000
0010
,
0000
0000
0100
0000
0001
0000
0000
1000
0000
0000
0001
0000
1000
0000
0000
0010
,
0000
0000
1000
0000
0100
0000
0000
0010
0000
0000
0001
0000
0100
0000
0010
0000
,
1000
0010
0100
0001
0010
0001
0200
0000
,
0000
0000
0000
0000
0000
0000
0310
1000
,
0000
0000
1000
0000
0100
0000
0000
0000
0001
0000
0100
0000
1000
0000
0000
0010
,
0000
0100
0002
0000
1000
0000
1003
0001
,
0000
0100
1000
0000
0101
0000
0010
1000
,
0100
1000
0010
0010
1000
1000
0101
0001
,
0000
0101
0010
0000
1001
1000
0110
0000
,
1100
0000
1000
0000
0000
0000
1100
0000
0010
0000
0000
0000
0100
0000
0000
0001
,
0000
0000
1000
0000
0000
0010
0000
0000
0100
0010
1000
0000
1010
0000
0000
0000
,
1100
0000
0001
0000
0010
0100
2000
0000
,
0000
3020
0000
0230
0000
0302
0000
0000
,
0000
0000
0000
0023
,
0000
0230
0000
2300
0000
3020
0000
0000
,
0000
0230
0000
0000
0302
0000
2003
0000
,
0000
0000
0000
0001
,
0000
0100
0000
0000
0010
0000
3002
0000
,
0000
0000
0100
0000
0100
0000
0000
1000
0000
0000
0010
0000
1003
0000
0000
0000
,
0100
0010
0001
0101
,
0000
1001
0000
1010
0000
0220
0000
0000
,
0000
0000
0000
0000
0000
0330
1010
0000
,
0000
1100
0000
0110
0000
0012
0000
0000
,
0000
1000
0000
0000
1003
0000
0202
0000
,
0000
0000
0303
2010
,
0000
0100
0000
0000
3001
0000
0220
0000
,
0000
0000
0000
0000
,
0000
0330
0010
2002
,
0000
0000
0000
3003
,
0000
0000
0000
0101
,
0011
0000
0101
0000
0011
0000
0100
1000
,
0000
0000
1010
0000
0000
0000
0010
0100
0010
1000
0010
0000
0100
0000
0000
0001
,
0000
0000
0010
0000
0100
0000
1000
0000
0100
0000
0001
0000
0100
0000
0000
0010
,
0000
1000
0000
0010
0001
0100
2000
0000
,
0100
0100
3100
0002
,
0100
0000
0100
0000
0103
0000
0010
1000
,
0001
0000
1000
0000
0001
0000
1000
0000
0001
0000
1000
0000
0100
0000
0000
0010
,
0000
0001
0001
0000
1100
1000
0010
0000
,
0010
0000
1001
0000
0010
0000
1001
0010
,
0000
0000
1001
0000
0000
0000
0010
0100
0010
0100
0010
0000
1000
0000
0000
0100
,
0000
0000
0010
0000
0001
0000
0000
0100
0000
0000
0010
0000
1000
0000
0000
0001
,
0000
1000
0001
0100
0010
1000
0001
0001
,
1000
1000
0010
0010
0100
0100
0010
0010
,
1000
0000
1000
0000
0100
0000
0100
0000
0010
0000
0010
0000
0001
0100
0001
0100
,
0001
0100
0001
0000
0010
0000
0000
0100
0000
0000
1000
0000
0020
0000
0000
0000
,
0000
0000
0000
0031
;

//---------------dance-double - ----------------
#NOTES:
     dance-double:
     :
     Easy:
     7:
     0.356999,0.451064,0.134439,0.316328,0.031633,316.000000,299.000000,17.000000,40.000000,0.000000,0.000000,0.356999,0.451064,0.134439,0.316328,0.031633,316.000000,299.000000,17.000000,40.000000,0.000000,0.000000:
00000000
00000000
00000000
00000000
,
00000000
00000000
00000000
00000000
,
00000000
00000000
00000000
00000000
,
00000001
00001000
00000001
00001000
00000001
00001000
00000001
00001000
,
00000002
00000000
00000000
00000000
,
00000000
00000000
00000003
00000000
,
00000100
00000100
00001000
00001000
,
00010000
00100000
00000000
10000000
00000000
00000000
00000000
00000000
,
01000000
01000000
00010000
00010000
,
00001000
00000010
00000000
00000010
00000000
00000000
00000000
00000000
,
00000001
00000001
00001000
00001000
,
00000100
00010000
00000000
00010000
00000000
00000000
00000000
00000000
,
00001000
00000000
00100000
00010000
00000000
00101000
00000000
00000000
,
00010000
00000000
01000000
00100000
00000000
10000000
00000000
00010000
,
10000000
10000000
01000000
01000000
,
00010000
00001000
00000000
00000100
00000000
00000000
00000001
00001000
,
00000001
00000001
00000010
00000010
,
00001000
00010000
00000000
00100000
00000000
00000000
10000000
01000000
,
10000000
10000000
00010000
00010000
,
01000000
00001000
00000000
00110000
00000000
00000000
00000000
00000000
,
00001000
00000000
00010000
00010000
00000000
00000010
00000000
00020020
,
00000000
00000000
00000000
00030030
,
00010000
00010000
00000100
00000100
,
00002000
00000000
00000000
00003010
00000000
00000000
00000000
00000000
,
00000001
00000001
00000100
00000100
,
00000010
00010000
00000010
00000000
,
00020000
00000000
00031000
00000000
,
00002000
00000000
00013000
00000000
,
00200000
00010000
00010000
00310000
,
00110000
00000000
11000000
00000000
,
00200000
00300000
01000000
00000000
00010000
00000000
01000000
00000000
,
00010000
01000000
00010000
00100000
,
00001000
00010000
00000100
00010000
,
00000100
00010100
00010100
00010100
,
00000000
00000010
00010000
00000010
,
00010000
00000010
00010000
00001000
,
00001000
01000000
00010000
02000000
,
03100000
01100000
01100000
01100000
,
00000000
00000000
00000000
00000000
10000000
00000000
00000000
00010000
00000000
00000000
10000000
00000000
00000000
00000000
00000000
00000000
,
00000000
00000000
00000000
00000000
00010000
00000000
00000000
10000000
00000000
00000000
00010000
00000000
00000000
00000000
00000000
00000000
,
00000000
00000000
00000000
00000000
01000000
00000000
00000000
00001000
00000000
00000000
01000000
00000000
00000000
00000000
00000000
00000000
,
00000000
00022000
00033000
00000000
,
00000000
00000000
00000000
00000000
00000010
00000000
00000000
00010000
00000000
00000000
00000010
00000000
00000000
00000000
00000000
00000000
,
00000000
00000000
00000000
00000000
00010000
00000000
00000000
00000100
00000000
00000000
00010000
00000000
00001000
00000000
01000000
00000000
,
00001000
00000000
00010000
00000100
00010000
00000000
00002000
00000000
,
00000000
00100000
00103000
00000000
00001000
00000000
02000000
00000000
,
00000000
03100000
00000000
00000000
10000000
00000000
01000000
00000000
,
00100000
00010000
00010000
02000000
,
00000000
03010000
00000000
00000000
10000000
00000000
00100000
00000000
,
01000000
00000000
00100000
00000000
10000000
00010000
20000000
00000000
,
00000000
32000000
00000000
03000000
00020000
00000000
00032000
00000000
,
00003000
00000000
00000020
00000000
00000000
00000000
00000030
00000000
00000002
00000000
00000000
00000000
00001003
00000000
00000000
00000001
,
00000000
00000000
00001000
00000000
00000001
00000000
00000000
00001000
00000000
00000000
00000001
00000000
00000100
00000000
00000000
00000000
,
00000100
00000100
00000010
00002000
,
00000000
00000100
00000000
00003100
00000000
00020000
00000000
00000000
,
00000000
00000000
00000000
00032000
,
00000000
00100000
00000000
00100000
00003000
02000000
00000000
00000000
,
00000000
23000000
00000000
00000000
30100000
00000000
02000000
00000000
,
00000000
00010000
00000000
00010000
,
00000000
00010000
00000000
00000000
03010000
00000000
00200000
00000000
,
00000000
00000000
00001000
00000000
00001000
00000000
00000000
00001000
00000000
00000000
00001000
00000000
00301000
00000000
00000000
00000000
,
00010000
00001000
00010000
00000200
,
00000000
00001000
00000000
00000010
00000300
00000100
00000001
00001000
,
00000001
00000000
00001000
00000001
00001000
00000000
00000200
00000000
,
00000000
00010000
00000000
00010300
00000000
00001000
01000000
00010000
,
01000000
00000000
00010000
00100000
00010000
00000000
20000000
00000000
,
00000000
00000000
30010000
00020000
,
00000000
02030000
00000000
00000000
03100000
00000000
02000000
00000000
,
00000000
00000000
00000000
00000000
,
00000000
00000000
03010000
00202000
,
00000000
00000000
00000000
00303000
,
00000000
00000000
00000000
00010000
,
00010000
00000000
00000100
00000000
00001000
00000000
00000010
00001000
,
00000000
00001010
00000000
00000100
00000001
00000000
00001000
00000010
,
00001000
00000000
00000001
00000100
00000001
00000000
00000010
00000000
,
00000100
00000000
00010000
00001000
00010000
00001000
01000000
00000000
,
01000000
01000000
01000000
00100000
,
00100000
00000000
00100000
00000000
00100000
00000000
10000000
00010000
,
10000000
00010000
10000000
00010000
10000000
00010000
02000000
00000000
,
00000000
00000000
00000000
03010000
,
00000000
00000000
01100000
00000000
00000000
00000000
10000000
00010000
,
00000000
11000000
00000000
00000000
00100000
00000000
20000000
00000000
,
30000000
02000000
03000000
00010000
,
00000000
00000000
00001000
00000000
00000100
00000000
00000001
00001000
,
00000001
00000000
00001000
00000001
00001000
00000000
00000010
00000100
,
00000010
00000000
00000100
00000010
00000100
00000000
00000020
00000000
,
00000000
00020030
00000000
00031000
,
00000000
00001000
00100000
11000000
;

//---------------dance-single - ----------------
#NOTES:
     dance-single:
     :
     Challenge:
     16:
     0.806637,1.135618,0.569391,0.442859,0.691968,714.000000,642.000000,72.000000,56.000000,0.000000,0.000000,0.806637,1.135618,0.569391,0.442859,0.691968,714.000000,642.000000,72.000000,56.000000,0.000000,0.000000:
0000
0000
0000
0000
,
0000
0000
0000
0000
,
0000
0000
0000
0000
,
0100
0010
0100
0010
0100
0001
0100
0001
1000
0010
1000
0010
1000
0100
1000
0100
,
0020
0000
0000
0000
,
0000
0000
0000
0000
0000
0000
0000
0000
0031
0100
0010
1000
0001
0100
0010
1000
,
0001
0001
1100
1100
,
1000
0000
0100
0000
0001
0000
0200
0000
0000
0000
0000
0000
0310
1000
0010
0001
,
0100
0100
0011
0011
,
1000
0000
0010
0000
0001
0000
0020
0000
0000
0000
0030
0000
0100
1000
0100
0001
,
1000
1000
0011
0011
,
1000
0000
0200
0000
0000
0000
0302
0000
0000
0000
0003
0000
1000
0010
0001
0010
,
0100
0000
0010
0001
0000
1020
0000
0130
,
1000
0100
0001
0100
0010
1000
0010
0001
,
0010
1100
0010
0101
,
1000
0000
0210
0000
0000
0000
1000
0000
0301
0000
0000
0000
1000
0100
0001
0100
,
1000
0011
0001
1010
,
0100
0000
1002
0000
0000
0000
0010
0000
0103
0000
0000
0000
0001
0100
1000
0100
,
0010
1100
0010
0101
,
1000
0000
0201
0000
0000
0000
0010
0000
1300
0000
0000
0000
0001
0100
0010
1000
,
0100
0000
1100
1100
0000
0011
0000
0201
,
0000
0000
0000
0300
,
0010
1000
0101
0000
1000
0110
0001
0000
,
1000
0000
0100
0000
0010
0000
0100
0000
1000
0000
0100
0000
0010
0001
0010
0001
,
0100
0010
1100
0000
0001
0110
1000
0000
,
0010
0000
1000
0000
0001
0000
0100
0000
0010
0000
1000
0000
0100
0010
0100
0010
,
0001
0000
1000
0001
0000
0100
0001
0000
0100
0000
0010
1000
0000
0010
0100
0000
,
0010
1000
0100
0001
1000
0010
0001
0100
,
0010
1000
0010
1000
0010
1000
0010
1000
0100
0010
0100
0010
0100
0010
0100
0010
,
0002
0000
0000
0000
,
1003
0000
0100
0000
1000
0000
0010
0100
0000
0100
0001
0000
0100
0000
0010
1000
,
0000
1000
0001
0010
0100
0010
0001
0000
0100
0010
1000
0000
0001
0000
0100
0010
,
0000
0100
0001
0000
1000
0000
0010
0100
0000
0010
1000
0000
0010
0000
0100
0001
,
0000
0100
0010
0000
1001
0000
0000
0000
1001
0000
0000
0000
0110
0000
0000
0000
,
0100
0000
0001
0000
0010
0000
0100
1000
0000
0100
0010
0000
0001
0000
0100
0010
,
0000
0100
0001
1000
0010
0100
0010
0000
1000
0000
0100
0010
0001
0000
0100
0000
,
0010
0000
1000
0001
0000
1000
0100
0000
0010
0100
1000
0000
2100
0000
0000
0000
,
0000
0001
3001
1001
,
1000
0000
0010
0000
0100
0000
0001
0010
0000
0001
0010
0000
0100
0000
1000
0010
,
1000
0000
0001
0000
1000
0000
0100
0010
0000
0100
0010
0000
0100
1000
0100
1000
,
0100
0000
1000
0000
0001
0000
0010
0100
0000
0010
0100
0000
0010
0000
0001
0000
,
1100
0000
0010
0000
0200
0000
0000
0000
0000
0000
0000
0000
0310
0000
0000
1010
,
0000
0000
1001
0000
0101
0000
0000
0011
0000
0000
0010
0000
0110
0000
0000
1100
,
0000
0000
1000
0000
1010
0000
0000
0101
0000
0000
0001
0000
0010
0000
0100
1000
,
0100
1000
0010
0100
0010
0100
0001
0010
0001
0010
0100
1000
0100
0010
0200
0000
,
0000
0001
0001
0000
1300
0000
1010
0100
,
0000
0000
1010
0000
0100
0000
0000
0000
0001
0000
0010
0000
0001
0000
0000
1000
,
0000
0000
0010
0000
0100
0001
0100
0000
0100
0001
0100
0000
0010
0000
1000
0000
,
0100
0000
0001
0000
1000
0000
0000
0010
0000
0000
0001
0000
0100
0000
0000
0010
,
0000
1000
0010
0100
0001
0001
0110
1000
,
0000
0110
0001
0000
1100
0010
1100
0000
,
0101
0000
0010
0000
0000
0000
0100
0000
1010
0000
0000
0000
1100
0000
0000
0101
,
0000
0000
1100
0000
0000
0101
0000
0000
0100
0010
0100
0010
2000
0000
0000
0000
,
0001
0000
0000
0000
0010
0000
0000
0000
3100
1000
0100
1000
0002
0000
0000
0000
,
0000
1000
0000
0100
0000
0013
0200
0000
,
0000
1000
0000
0000
0000
0000
0320
0000
,
0000
0001
0000
0100
0000
1000
0032
0000
,
0000
0023
0000
0000
2030
0000
3002
0000
,
0000
0000
0000
0000
0100
0000
0003
0010
0000
0000
0001
0000
2000
0000
0000
0000
,
0000
3020
0000
0000
0230
0000
2300
0000
,
0000
0000
0001
0000
3002
0000
0000
0023
0000
0000
0230
0000
0002
0000
0300
0000
,
2000
0003
0020
3000
0200
0330
0220
0000
,
0330
0000
2200
0000
3300
0000
0022
0000
0033
0000
1100
0000
1000
0000
0010
0100
,
0001
0100
0010
0000
0100
0000
0001
0010
0100
0010
0001
0000
2002
0000
0000
0000
,
3003
0000
0202
0000
0303
0000
2020
0000
3030
0000
0101
0000
0001
0000
1000
0010
,
0100
0001
0100
0000
0001
0000
0100
0010
1000
0010
0100
0000
2002
0000
0000
0000
,
0000
0000
0000
0000
3003
0000
0010
0000
0010
0100
0001
0000
0202
0000
0000
0000
,
0303
2200
0000
3300
1001
0000
2001
0000
,
0000
0010
0000
0010
0000
3010
1002
0010
,
0000
0000
0010
0000
0000
0000
0013
0000
1001
0000
0000
0000
1000
0100
0001
0100
,
1000
0010
0001
0010
1000
0100
0001
0100
1000
0010
0001
0010
2000
0000
0000
0000
,
0000
0000
0000
0000
3001
0000
0100
0010
,
0001
0000
0010
0000
1000
0000
0000
0000
1001
0000
0000
0000
1000
0000
0100
0010
,
0001
0000
1000
0000
0000
0000
0010
0001
0010
1000
0010
0000
0100
1000
0100
0001
,
0010
0001
0100
0000
0010
0001
0010
1000
0100
1000
0001
0000
0100
0000
0010
1000
,
0000
0001
0100
0000
0001
0000
1000
0001
1000
0001
1000
0000
0010
0000
0001
0000
,
0010
1000
0010
0001
0010
1000
0100
0001
,
0100
0000
1000
0000
0100
0000
0001
0000
0100
0000
1000
0001
0100
0000
0100
0001
,
0100
0001
0100
0001
0100
0001
0100
0001
0100
0001
0100
0001
1000
0010
0100
0001
,
0010
0001
0100
0010
1000
0100
0010
0001
0100
0010
1000
0100
1000
0000
0000
0000
,
1000
0000
0110
0000
0001
0000
0120
1000
,
0000
0000
1030
0000
0000
0000
0001
0100
1000
0100
0001
0000
0010
0000
0100
0001
,
0000
0100
1000
0000
0010
0000
0100
1000
0000
0100
0001
0000
1010
0000
0000
0101
,
0000
0000
1010
0000
1000
0100
0010
0001
1000
0100
0010
0001
0100
0000
0010
1000
,
0010
0000
0100
0001
0100
0000
0001
0010
0001
0000
1000
0100
1000
0000
0010
0100
,
0010
0000
0100
0001
0100
0000
0001
1000
0001
0000
0100
0010
1000
0100
1000
0100
,
1000
0100
1000
0100
0010
0000
0000
0101
0000
0000
0010
0000
0100
0010
0100
0010
,
0100
0010
0100
0010
1000
0001
1000
0001
1000
0001
1000
0001
2000
0000
0000
0000
,
0000
0000
0000
0000
,
0000
0000
0000
3000
;

//---------------dance-single - ----------------
#NOTES:
     dance-single:
     :
     Medium:
     11:
     0.453027,0.603297,0.221430,0.561482,0.126531,401.000000,373.000000,28.000000,71.000000,0.000000,0.000000,0.453027,0.603297,0.221430,0.561482,0.126531,401.000000,373.000000,28.000000,71.000000,0.000000,0.000000:
0000
0000
0000
0000
,
0000
0000
0000
0000
,
0000
0000
0000
0000
,
0010
0010
0100
0100
0001
0001
1000
1000
,
2002
0000
0000
0000
,
0000
0000
0000
3003
,
2000
3200
0001
1300
,
0001
0010
0000
0022
0000
0033
0001
1000
,
0002
0023
1000
0031
,
1000
0100
0000
2200
0000
3300
1000
0010
,
0200
0302
0010
1003
,
0001
0100
0000
0202
0000
0303
0010
1000
,
0100
0000
0010
0010
0000
0011
0000
2001
,
0000
0000
0020
3030
,
0200
0001
0010
0301
,
1000
0020
0000
0100
0130
0000
0010
1000
,
0002
0010
0100
0013
,
0002
1000
0000
0100
0103
0000
0010
1000
,
0200
0010
0001
0310
,
2000
0001
0000
0100
3100
0000
1000
0010
,
0100
0000
0001
0001
0000
1001
0000
2002
,
0000
0000
0000
3003
,
1000
0010
0100
0000
0100
0010
1000
0000
,
1000
0100
0010
0100
1000
0000
0000
0000
,
0001
0100
0010
0000
0010
0100
0001
0000
,
0001
0010
0100
0010
0001
0010
0100
0100
,
1000
0000
0000
1000
0000
0000
0010
0000
0100
0000
0000
0100
0000
0000
0001
0000
,
0010
0000
0000
0010
0000
0000
0100
0000
1000
0000
0000
1000
0000
0000
0001
0000
,
0100
0100
0100
0100
0100
0100
0100
0100
,
0200
0000
0000
0000
,
0300
0000
0010
0000
0100
0000
0000
0100
0000
0000
0001
0000
0100
0000
0000
0100
,
0000
0010
1000
0010
0100
0001
0010
0100
,
1000
0000
0100
0010
0001
0000
0100
0010
,
1000
0010
1010
0000
0101
0000
0011
0000
,
0010
0000
0100
0000
1000
0000
0000
1000
0000
0000
0010
0000
1000
0000
0000
1000
,
0000
0100
0010
0001
0100
0010
1000
1000
,
0010
0100
0001
0010
0001
0010
0022
0000
,
0033
1100
1010
0110
,
0100
0000
0001
0000
1000
0000
0000
0010
0000
0000
0100
0000
0001
0000
0000
0010
,
0000
0000
0001
0000
0100
0000
0000
0010
0000
0000
1000
0000
0001
0000
0000
1000
,
0000
0000
0010
0000
0100
0000
0000
0001
0000
0000
1000
0000
0100
0000
0000
1000
,
0000
0000
0010
0000
0200
0000
0000
0000
0000
0000
0000
0000
0301
0000
0000
0100
,
0000
0000
0010
0000
1000
0000
0000
0010
0000
0000
0100
0000
0010
0000
0000
1000
,
0000
0000
0010
0000
0100
0000
0000
0001
0000
0000
0010
0000
0001
0000
1000
0000
,
0001
0000
0100
0010
0100
0000
0202
0000
,
0303
0010
1000
0000
1100
0000
0020
0000
,
0030
0000
0001
0000
0100
0000
0000
0100
0000
0000
0100
0000
0010
0000
0000
0010
,
0000
0020
0000
0000
0000
0000
1030
0001
,
1000
0000
0001
0000
1000
0000
0000
1000
0000
0000
1000
0000
0001
0000
0000
0001
,
0000
0001
0100
0000
0010
0010
0200
0000
,
0300
0202
0000
0303
0001
0000
0020
0000
,
0030
0000
0022
0000
0000
0000
0033
0000
0100
0000
0000
0000
1000
0000
0000
1000
,
0000
0000
1000
0000
0100
0000
0000
0100
0000
0000
0100
0000
0010
0000
0000
0000
,
0010
0010
0011
0002
,
0000
1000
0000
1000
0000
0023
0000
0000
,
0000
0000
0000
0230
,
0000
0010
0000
0010
0000
2300
0000
0000
,
0000
0002
3000
0000
2003
0000
3020
0000
,
0000
0000
0000
0230
,
0000
0001
0000
0000
0001
0000
0302
0000
,
0000
0010
0010
0000
0000
0000
0023
0000
,
0230
2300
3002
2003
,
0000
0010
0000
3010
0000
2020
0000
0000
,
0000
0000
0000
0000
0000
3030
0002
0000
,
0000
0010
0000
0013
0000
0022
0000
0000
,
0033
0002
0000
0000
1003
0000
2002
0000
,
0000
0000
3003
0020
,
0000
0200
0000
0330
0110
0000
0220
0000
,
0000
0000
0000
0000
,
0000
0330
1000
2020
,
0000
0000
0000
3030
,
0000
0000
0000
0002
,
0100
0000
0010
0000
0013
0000
0001
0010
,
0000
0000
0011
0000
0000
0000
0100
0000
1000
0000
0100
0000
1000
0000
0000
0010
,
0000
0000
1000
0000
0010
0000
0000
1000
0000
0000
0010
0000
0100
0000
0000
0001
,
0000
0200
0000
0301
1000
0001
0020
0000
,
0000
0000
0000
0031
,
0001
1000
1000
0010
,
0100
0000
0001
0000
0100
0000
0001
0000
0100
0000
0001
0000
0010
0000
0000
0010
,
0000
0000
0001
0000
0010
0000
0000
0010
0000
0000
0001
0000
1000
0000
0000
0000
,
0000
0000
0001
0000
0000
0000
0100
0010
,
0000
0000
0110
0000
0000
0000
1000
0000
0001
0000
0100
0000
0010
0000
0000
1000
,
0000
0000
0010
0000
0100
0000
0000
0001
0000
0000
0100
0000
0001
0000
0000
0001
,
0000
0002
0000
0000
0000
0000
1003
0010
,
1000
0000
0001
0100
0001
0000
0010
0100
,
0010
0000
0100
1000
0100
0000
1000
0010
,
0100
0000
0001
0100
0010
0000
1000
0010
,
1000
0010
1000
0010
1000
0010
2000
0000
,
0000
0000
0000
0000
,
0000
0000
0000
3000
;

//---------------dance-double - ----------------
#NOTES:
     dance-double:
     :
     Hard:
     13:
     0.562612,0.780737,0.442859,0.292603,0.193751,498.000000,442.000000,56.000000,37.000000,0.000000,0.000000,0.562612,0.780737,0.442859,0.292603,0.193751,498.000000,442.000000,56.000000,37.000000,0.000000,0.000000:
// measure 0
00000000
00000000
00000000
00000000
,  // measure 1
00000000
00000000
00000000
00000000
,  // measure 2
00000000
00000000
00000000
00000000
,  // measure 3
00010000
00001000
00000100
00001000
00010000
01000000
00010000
00001000
,  // measure 4
00011000
00000000
00000000
00000000
,  // measure 5
00000000
00000000
00000000
00000000
00000000
00000000
00000000
00000000
00010000
01000000
00010000
01000000
00010000
01000000
00010000
00000000
,  // measure 6
00100000
00110000
00010000
00110000
,  // measure 7
00010000
00000000
01000000
00000000
00000000
00000000
00011000
00000000
00000000
00000000
00000010
00000000
00001000
00000001
00001000
00000000
,  // measure 8
00000001
00000011
00000100
00000011
,  // measure 9
00000100
00000000
00001000
00000000
00000000
00000000
00020000
00000000
00000000
00000000
00000000
00000000
00130000
10000000
00100000
00000000
,  // measure 10
10000000
10100000
00010000
11000000
,  // measure 11
00010000
00000000
00001000
00000000
00000000
00000000
00022000
00000000
00000000
00000000
00033000
00000000
00010000
00001000
00000010
00000000
,  // measure 12
00000001
00000000
00000010
00000010
00000000
00001001
00000000
00000001
,  // measure 13
00000100
00001000
00010000
00000000
00001000
00000100
00000001
00000000
,  // measure 14
00001000
00001010
00000010
00001010
,  // measure 15
00000100
00000000
00010000
00000000
00000000
00000000
00010100
00000000
00000000
00000000
00001000
00000000
00100000
00010000
01000000
00000000
,  // measure 16
00010000
00110000
01000000
10100000
,  // measure 17
01000000
00000000
00010000
00000000
00000000
00000000
10010000
00000000
00000000
00000000
10000000
00000000
00100000
00010000
00001000
00000000
,  // measure 18
00010000
00100000
10100000
01000000
,  // measure 19
00100000
00010000
00000000
00220000
00000000
00330000
00010000
01000000
,  // measure 20
00100000
00000000
11000000
11000000
00000000
00110000
00000000
20020000
,  // measure 21
00000000
00000000
00000000
30030000
,  // measure 22
01000000
00001000
01001000
00000000
00010000
00000100
00010100
00000000
,  // measure 23
00001000
00000100
00000001
00000100
00001000
00000100
00000001
00000100
,  // measure 24
00010000
00001000
01001000
00000000
00001000
00010000
00010100
00000000
,  // measure 25
00001000
00010000
01000000
00010000
00001000
00010000
01000000
01000000
,  // measure 26
00010000
00000000
00000000
00000100
00001000
00000000
00000010
00000000
00000100
00000000
00000000
00000001
00001000
00000000
00000100
00000000
,  // measure 27
00010000
00000000
00000000
00001000
00100000
00000000
00010000
00000000
01000000
00000000
00100000
00000000
10000000
00000000
00010000
00000000
,  // measure 28
10000000
01000000
00010000
01000000
10000000
01000000
00010000
01000000
,  // measure 29
10000000
00010000
00101000
00010000
,  // measure 30
00002000
00010000
00013000
00001000
00000100
00000000
00000001
00001000
,  // measure 31
00000010
00000000
00000100
00000001
00001000
00000010
00000100
00001000
,  // measure 32
00010000
00001000
00000100
00000001
00000010
00000100
00001000
00000010
,  // measure 33
00000100
00000001
00001001
00000000
00010100
00000000
00011000
00000000
,  // measure 34
00100000
00000000
00010000
01000000
00100000
00000000
10000000
01000000
,  // measure 35
00100000
00000000
00010000
10000000
01000000
00000000
00010000
00001000
,  // measure 36
00000100
00001000
00010000
00100000
10000000
01000000
12000000
00000000
,  // measure 37
00000000
00010000
13000000
10100000
,  // measure 38
00000000
00000000
01000000
00000000
00010000
00000000
00000000
00010000
00000000
00000000
00100000
00000000
00001000
00000000
00010000
00000000
,  // measure 39
00011000
00000000
00000000
00000000
00000100
00000000
00000000
00000100
00000000
00000000
00001000
00000000
00000010
00000000
00000100
00000000
,  // measure 40
00000101
00000000
00000000
00000000
00000001
00000000
00000000
00000001
00000000
00000000
00001000
00000000
00000100
00000000
00010000
00000000
,  // measure 41
00011000
00000000
00001000
00000000
00200000
00000000
00000000
00000000
00000000
00000000
00000000
00000000
00301000
00000000
00000000
00010000
,  // measure 42
00000000
00000000
00100000
00000000
10000000
00000000
00000000
00010000
00000000
00000000
10000000
00000000
01000000
00000000
00000000
00010000
,  // measure 43
00000000
00000000
00001000
00000000
00000010
00000000
00000000
00000001
00000000
00000000
00001000
00000000
00000001
00000000
00000100
00000000
,  // measure 44
00000001
00000100
00001000
00010000
00001000
00010000
02000000
00000000
,  // measure 45
00000000
00100000
03100000
00000000
11000000
00000000
10010000
00000000
,  // measure 46
00000000
00000000
01000000
00000000
00100000
00000000
00000000
10000000
00000000
00000000
00010000
00000000
00100000
00000000
00000000
00100000
,  // measure 47
00000000
00000000
00100000
00000000
00001000
00000000
00100000
00000000
00001000
00000000
00100000
00000000
00000000
00000000
00001000
00010000
,  // measure 48
00000000
00010000
00000000
00000000
00000100
00000000
00000000
00000010
00000000
00000000
00000001
00000000
00001000
00000000
00000000
00000010
,  // measure 49
00000000
00000100
00000001
00001000
00000010
00000010
00001000
00000000
,  // measure 50
00000000
00001100
00000000
00000000
00000010
00000000
00000001
00000000
,  // measure 51
00000000
00000000
00000101
00000000
00000000
00000000
00000000
00000000
00000010
00000000
00000000
00000000
00001000
00000000
00000000
00000100
,  // measure 52
00000000
00000000
00010000
00000000
00000000
00001000
00000000
00000000
00100000
00010000
00100000
00010000
00100000
00000000
00000000
00000000
,  // measure 53
00100000
00100000
00011000
00000200
,  // measure 54
00000000
00002300
00000000
00003020
00000000
00000230
00000000
00000000
,  // measure 55
00000000
00000000
00000000
00000302
,  // measure 56
00000000
00000020
00000003
00002030
00000000
00023000
00000000
00000000
,  // measure 57
00000000
00230000
00000000
00000000
00320000
00000000
00032000
00000000
,  // measure 58
00000000
02000000
00003000
03200000
,  // measure 59
00000000
20300000
00000000
00000000
30020000
00000000
20030000
00000000
,  // measure 60
00000000
00000000
31000000
00000000
01000000
00000000
00000000
00010000
00000000
00000000
00001000
00000000
00000010
00000000
00000000
00000000
,  // measure 61
00000001
00000010
00000011
00000200
,  // measure 62
00000000
00010000
00000000
00000010
00000000
00001300
00000000
00000000
,  // measure 63
00000000
00000000
00000000
02000000
,  // measure 64
00000000
00100000
00000000
00010000
00000000
03001000
00000000
00000000
,  // measure 65
00000000
00020200
00000000
00030300
00101000
00000000
00011000
00000000
,  // measure 66
00000000
00000000
00000000
00000120
,  // measure 67
00000000
00001000
00000000
00000000
00010030
00000000
00000220
00000000
,  // measure 68
00000000
00000000
00000000
00000000
,  // measure 69
00000330
00000000
00010000
02200000
,  // measure 70
00000000
00000000
00000000
03300000
,  // measure 71
00000000
00000000
00000000
11000000
,  // measure 72
01010000
00000000
11000000
00000000
00100000
00000000
00010000
00001000
,  // measure 73
00000000
00000000
00001010
00000000
00000000
00000000
00000010
00000001
00000010
00000001
00000010
00000000
00000001
00000000
00001000
00000010
,  // measure 74
00000000
00001000
00000100
00000000
00001000
00000000
00000001
00000010
00000000
00000001
00000100
00000000
00000010
00000000
00010000
00001000
,  // measure 75
00000000
00000100
00001000
00000000
00010000
00000000
00100000
00010000
00000000
00001000
00010000
00000000
00100000
00000000
10000000
00000000
,  // measure 76
10010000
00000000
01000000
00010000
10010000
00000000
00100000
01000000
,  // measure 77
00001000
00000000
00010000
00100000
10000000
00000000
01000000
01000000
,  // measure 78
00010000
00000000
00001000
00000000
00010000
00000000
00001000
00000000
00010000
00000000
00001000
00000000
00000010
00000000
00000000
00000010
,  // measure 79
00000000
00000000
00000010
00000000
00000001
00000000
00000000
00000001
00000000
00000000
00000001
00000000
00000011
00000000
00000000
00000000
,  // measure 80
00000000
00000000
00000110
00000000
00000000
00000000
00000100
00001000
,  // measure 81
00000000
00000000
00001100
00000000
00000000
00000000
00001000
00000010
00001000
00000010
00001000
00000000
00000010
00000000
00000000
00010000
,  // measure 82
00000000
00010000
00001000
00000000
01000000
00000000
00100000
10000000
00000000
00100000
01000000
00000000
00010000
00000000
00000000
10000000
,  // measure 83
00000000
00010000
01000000
00100000
10000000
00100000
01000000
00010000
,  // measure 84
00010000
00000000
00100000
00001000
00001000
00000000
00010000
00000010
,  // measure 85
00000100
00001000
00010000
00001000
00000100
00000001
00001000
00000010
,  // measure 86
00001000
00000000
00000010
00000000
00000100
00000000
00000000
00001000
00000000
00000000
00010000
00000000
00100000
00000000
10000000
00000000
,  // measure 87
00100000
10000000
00100000
10000000
00100000
10000000
00200000
00000000
,  // measure 88
00000000
00000000
00000000
00000000
,  // measure 89
00000000
00000000
00000000
00300000
;

//---------------dance-single - ----------------
#NOTES:
     dance-single:
     :
     Beginner:
     5:
     0.187537,0.346972,0.086990,0.150256,0.000000,166.000000,155.000000,11.000000,19.000000,0.000000,0.000000,0.187537,0.346972,0.086990,0.150256,0.000000,166.000000,155.000000,11.000000,19.000000,0.000000,0.000000:
0000
0000
0000
0000
,
0000
0000
0000
0000
,
0000
0000
0000
0000
,
0220
0000
0000
0000
,
0330
0000
0000
0000
,
0000
0000
0000
0000
,
1000
1000
1000
1000
,
1000
0000
0100
0000
,
0001
0001
0001
0001
,
0001
0000
0100
0000
,
0010
0010
0010
0010
,
0010
0000
0000
0000
,
1000
0000
0000
0001
,
0001
0000
0000
0000
,
0100
0100
0100
0100
,
0100
0000
0001
0000
,
0010
0010
0010
0010
,
0010
0000
0001
0000
,
0100
0100
0100
0100
,
0100
0000
0000
0000
,
0010
0000
0000
0100
,
0000
0000
0000
0000
,
0001
0000
1000
0000
,
0010
0000
0000
0000
,
1000
0000
0001
0000
,
0100
0000
0000
0100
,
0100
0000
0001
0000
,
0010
0000
0100
0000
,
1000
1000
1000
1000
,
1000
0000
0000
0000
,
1001
0000
0000
0010
,
0000
0100
0000
0001
,
0000
1000
0000
0001
,
0000
0100
0100
0100
,
0000
0010
0000
1000
,
0000
0100
0000
0010
,
0000
0001
0000
0100
,
0000
0010
0010
0010
,
0000
1000
0000
0001
,
0000
1000
0000
0010
,
0000
1000
0000
0100
,
0000
0020
0030
0010
,
0000
0001
0000
1000
,
0000
0001
0000
0100
,
0000
0100
0000
0100
,
0000
0000
0000
0010
,
0000
1000
1000
1000
,
0000
0001
0000
0100
,
0000
0010
0000
0100
,
0000
0000
0000
0001
,
0000
1000
0000
0010
,
0010
0010
0000
0010
,
0000
0010
0000
0100
,
0100
0100
0100
0100
,
0000
0000
0000
0002
,
0000
0003
0000
2000
,
0000
3000
0000
0020
,
0000
0030
0000
0200
,
0000
0300
0000
0010
,
0000
1000
0000
0010
,
0000
0000
0000
0100
,
0000
0001
0000
0020
,
0000
0000
0030
0010
,
0000
0000
0000
0002
,
0000
0000
0003
0001
,
0000
1000
0000
2000
,
0000
3000
0000
0020
,
0000
0030
0000
2000
,
0000
0000
0000
0000
,
3000
0000
1001
2002
,
0000
0000
0000
3003
,
0000
0000
0000
0010
,
0010
0010
0010
0010
,
0000
0000
0100
0100
,
0000
0001
0000
1000
,
0000
0010
0000
0220
,
0000
0000
0000
0000
,
0000
0000
0330
0000
,
0010
0010
0010
0010
,
0000
0000
0000
1001
,
0000
0110
0000
1001
,
0000
0000
0110
0110
,
0000
0000
0000
0010
,
0000
0010
0000
2000
,
0000
3000
0000
0002
,
0000
0003
0000
1000
,
0000
0001
0000
2000
,
0000
3000
0000
1001
;

//---------------dance-single - ----------------
#NOTES:
     dance-single:
     :
     Easy:
     9:
     0.419135,0.567809,0.316328,0.474492,0.039541,371.000000,331.000000,40.000000,60.000000,0.000000,0.000000,0.419135,0.567809,0.316328,0.474492,0.039541,371.000000,331.000000,40.000000,60.000000,0.000000,0.000000:
0000
0000
0000
0000
,
0000
0000
0000
0000
,
0000
0000
0000
0000
,
1000
0001
0100
0010
1000
0001
0100
0010
,
1000
0000
0000
0000
,
0000
0000
0000
0000
,
0001
0100
0001
0101
,
0100
0010
0000
0120
0000
0030
0010
1000
,
0010
1000
0010
1010
,
1000
0100
0000
2100
0000
3000
0001
1000
,
0001
1000
0001
1001
,
0100
0010
0000
0220
0000
0330
0010
1000
,
0001
0000
0100
0010
0000
0010
0000
0220
,
0000
0000
0000
0330
2002
0000
3003
0000
,
1000
0100
0010
0000
1000
0100
0010
0000
,
0001
1000
0000
2000
0000
0000
3001
0000
,
0100
0010
1000
0000
0100
0010
1000
0000
,
0001
0010
0000
0020
0000
0030
0001
0000
,
0100
0001
1000
0000
0100
0001
1000
0000
,
0010
1000
0000
2000
0000
3000
0100
0010
,
0001
0000
1000
0010
0000
1010
0000
2002
,
0000
0000
0000
3003
,
0001
0000
0100
0000
0010
1000
0010
0000
,
1000
0100
1000
0100
1000
0000
0000
0000
,
1000
0000
0010
0000
0100
0001
0100
0000
,
0001
0000
0010
0000
0001
0100
0001
0100
,
0001
0000
0000
0001
0000
0000
0001
0000
1000
0000
0000
1000
0000
0000
1000
0000
,
0001
0000
0000
0001
0000
0000
0001
0000
1000
0000
0000
1000
0000
0000
1000
0000
,
0010
0100
0010
0100
0010
0100
0010
0100
,
0020
0000
0000
0000
,
0030
0000
1000
0100
0010
0100
1000
0000
,
1000
0100
0010
0100
1000
0000
0001
0000
,
0001
1000
1000
0010
,
0010
0101
0101
1001
,
0000
0000
0001
0010
0100
0010
0001
0000
,
0001
0010
0100
0010
0001
0000
1000
0001
,
1000
0010
0010
0220
,
0330
1010
1010
1001
,
0000
0000
0000
0000
1000
0000
0000
0100
0000
0000
1000
0000
0100
0000
0000
0000
,
0000
0000
0000
0000
0010
0000
0000
0001
0000
0000
0010
0000
0001
0000
0000
0000
,
0000
0000
0000
0000
0001
0000
0000
1000
0000
0000
0001
0000
1000
0000
0000
0000
,
0000
0220
0330
1001
,
0000
0000
0000
0000
0010
0000
0000
0100
0000
0000
0010
0000
0100
0000
0000
0000
,
0000
0000
0000
0000
0001
0000
0000
1000
0000
0000
0001
0000
1000
0000
0000
0000
,
0000
0001
0000
0210
,
0000
0010
0010
0000
0310
0000
0110
0000
,
0000
1000
0100
0000
1000
0000
0010
0000
,
0100
0000
0001
1000
0001
0000
0100
0000
,
0000
0010
0100
0000
0010
0000
1000
0000
,
0001
0000
1000
0000
0100
0100
0010
0000
,
0000
0011
0000
0000
1001
0000
0011
0000
,
0000
1001
0000
0000
1010
0000
1001
0001
,
1000
0010
0100
0001
1000
0010
0010
0000
,
0010
0010
1100
0002
,
0000
0023
0000
0230
0000
0320
0000
0000
,
0000
0000
0000
0230
,
0000
2300
0000
3020
0000
2030
0000
0000
,
0000
3002
0000
0000
0203
0000
0320
0000
,
0000
0000
0000
0000
,
0000
0000
0000
2030
,
0000
0000
0001
0000
3001
0000
0000
0001
0000
0000
1000
0000
1000
0000
0000
0000
,
0010
0100
0010
0220
,
0330
1000
0000
0001
0000
2002
0000
0000
,
0000
0000
3003
0022
,
0033
0100
0000
1000
0000
2200
0000
3300
,
0000
0020
0000
0000
0032
0000
2003
0000
,
0000
0000
0000
3020
,
0030
0020
0000
0030
0110
0000
0202
0000
,
0000
0000
0000
0000
,
0000
0303
1000
2020
,
0000
0000
0000
3030
,
0000
0000
0000
0001
,
0001
0000
0010
0000
0010
0000
0001
0010
,
0000
1001
0000
1000
0100
0010
0001
0000
,
0100
0010
1000
0100
,
0010
0000
0001
1000
0001
1000
0002
0000
,
2003
3002
2003
3020
,
0230
0000
0320
0000
0230
0000
0310
1000
,
0100
1000
0100
1000
0100
1000
0020
0000
,
0000
0000
0030
1100
,
0000
0101
0000
0011
,
0000
1010
0000
0000
0000
0000
1000
0000
,
0001
0000
0100
0001
0100
0000
0020
0000
,
0000
0000
1030
0100
0010
0001
0100
0010
,
1000
0000
0100
0010
1000
0000
0010
0100
,
0001
0000
0010
0100
0001
0000
0100
0010
,
0100
0010
0100
0010
0100
0010
2000
0000
,
0000
0000
0000
3002
,
0000
0000
0000
0000
,
0000
0000
0000
0003
;

//---------------dance-double - ----------------
#NOTES:
     dance-double:
     :
     Challenge:
     16:
     0.771615,1.171106,0.640564,0.347961,0.632656,683.000000,602.000000,81.000000,44.000000,0.000000,0.000000,0.771615,1.171106,0.640564,0.347961,0.632656,683.000000,602.000000,81.000000,44.000000,0.000000,0.000000:
00000000
00000000
00000000
00000000
,
00000000
00000000
00000000
00000000
,
00000000
00000000
00000000
00000000
,
10000000
01000000
10000000
01000000
00010000
00001000
00010000
00001000
00000100
00000001
00000100
00000001
00000100
00001000
00000100
00001000
,
00020000
00000000
00000000
00000000
,
00000000
00000000
00000000
00000000
00000000
00000000
00000000
00000000
00031000
00010000
00001000
00010000
00100000
10000000
00100000
10000000
,
00100000
10000000
10100000
01010000
,
10000000
00000000
01000000
00000000
00000000
00000000
01010000
00000000
00000000
00000000
00010000
00001000
00010000
00001000
00000100
00000000
,
00000001
00000100
00000101
00001001
,
00000001
00000000
00000010
00000000
00000000
00000000
00001010
00000000
00000000
00000000
00001000
00010000
00001000
00010000
00100000
00000000
,
10000000
00100000
10000000
10100000
,
00010000
00000000
01000000
00000000
00000000
00000000
02002000
00000000
00000000
00000000
03003000
00000000
00001000
00010000
00001000
00010000
,
00100000
00000000
10100000
10000000
00000000
11000000
00000000
01000000
,
00010000
00000000
00001000
00000000
00000100
00000000
00000000
00000000
00000100
00000000
00001000
00010000
00001000
00010000
00001000
00000000
,
00011000
00010100
00010010
00011000
,
00001000
00000000
00000100
00000000
00000000
00000000
00000100
00000000
00000001
00000000
00000000
00000000
00000010
00001000
00000010
00001000
,
00000010
00000110
00001010
00010010
,
00000100
00000000
00001000
00000000
00000000
00000000
00011000
00000000
00000000
00000000
00001000
00000000
00010000
00100000
00010000
00100000
,
10000000
01010000
10010000
01010000
,
10000000
00000000
01000000
00000000
00000000
00000000
01010000
00000000
00000000
00000000
00010000
00001000
00010000
00001000
00000000
00000000
,
00000100
00000000
00000001
00000010
00000000
00000011
00000000
00002200
,
00000000
00000000
00000000
00000000
00000000
00000000
00000000
00003300
,
00000001
00000010
00000100
00000000
00000001
00000010
00001000
00000000
,
00010000
00000000
00100000
00000000
10000000
00000000
00100000
00000000
01000000
00000000
00100000
00000000
00010000
00100000
10000000
00000000
,
01000000
00010000
00001000
00000000
00010000
00001000
00000100
00000000
,
00000001
00000000
00001000
00000000
00001001
00000000
00000010
00000000
00000100
00000000
00000010
00000000
00001000
00000001
00001000
00000001
,
00000100
00000000
00000000
00000101
00000000
00000000
00000010
00000000
00010000
00000000
00000000
00010010
00000000
00000000
00000100
00000000
,
00001000
00001000
00010000
00010000
00100000
00100000
10000000
10000000
,
00010000
01000000
00010000
01000000
00010000
01000000
00010000
01000000
00010000
01000000
00010000
01000000
00010000
01000000
00010000
01000000
,
00020000
00000000
00000000
00100000
00100000
00000000
00130000
00000000
,
00110000
00000000
00000010
00000000
00000100
00000000
00000001
00001000
00000000
00001000
00000001
00000000
00001000
00000000
00000010
00000100
,
00000000
00000100
00000001
00000010
00001000
00000010
00000100
00000000
00001000
00010000
01000000
00000000
10000000
00100000
10000000
01000000
,
00100000
00000000
01000000
00000000
00100000
00010000
10000000
00010000
01000000
00000000
00100000
00000000
10000000
00010000
01000000
00100000
,
00010000
00001000
00011000
00000000
00110000
00000000
10100000
00000000
,
00010000
00000000
01000000
00000000
00100000
00000000
00010000
00100000
00000000
00100000
10000000
00000000
01000000
00000000
00010000
00001000
,
00000000
00001000
00000100
00001000
00010000
00100000
01000000
00000000
00010000
00000000
00001000
00000000
00000100
00000000
00000100
00000000
,
00000001
00000000
00001000
00000000
00000010
00000100
00000001
00001000
00000010
00010000
00000100
00001000
00000010
00000000
00000000
00000000
,
00000000
00011000
00000110
00011000
,
00100000
00000000
00000000
00000000
10000000
00000000
00000000
10100000
00000000
00000000
00100000
00000000
01000000
00000000
00010000
00100000
,
00010000
00000000
01000000
00000000
00001000
00000000
00000000
00011000
00000000
00000000
00010000
00000000
00000100
00000000
00001000
00000010
,
00001000
00000000
00000100
00000000
00000010
00000000
00000000
00000011
00000000
00000000
00000001
00000000
00000100
00000000
00001000
00010000
,
00001000
00000000
00010000
00000000
00200000
00000000
00000000
00000000
00000000
00000000
00300000
00000000
10100000
00000000
00000000
10010000
,
00000000
00000000
00100000
00000000
01000000
00000000
00000000
01001000
00000000
00000000
00010000
00000000
00001100
00000000
00000000
00001010
,
00000000
00000000
00000100
00000000
00000001
00000000
00000000
00000011
00000000
00000000
00000100
00000000
00001100
00000000
00001000
00000001
,
00001000
00000000
00000010
00000000
00011000
00000000
00001000
00100000
00001000
00000000
01000000
00000000
01200000
00000000
00000000
00000000
,
00000000
10000000
01000000
00000000
10300000
00000000
10010000
00000000
,
10000000
00000000
00010000
00000000
01000000
00000000
00000000
00100000
00000000
00000000
00010000
00000000
00001000
00000000
00000000
00000010
,
00000000
00000000
00000001
00000000
00001000
00000000
00000001
00000010
00000001
00000000
00001000
00000100
00001000
00000000
00000010
00000100
,
00000010
00000100
00000010
00000000
00000100
00000000
00000000
00001000
00000000
00000000
00010000
00000000
00100000
00000000
00000000
10000000
,
00000000
00010000
01000000
00100000
00020000
00032000
00023000
00000000
,
00130000
00000000
10000000
00000000
01000000
00000000
00000000
00010000
00000000
00000000
00001000
00000000
00000100
00000000
00000000
00000010
,
00000000
00000000
00001000
00000000
00010000
00000000
00000000
00100000
00000000
00000000
10000000
00000000
00010000
00000000
00000000
00001000
,
00000000
00000000
00010000
00000000
00000000
00001000
00000000
00000000
00000010
00000001
00000010
00000001
00000010
00000000
00000000
00000000
,
00000010
00000010
00001001
00000202
,
00000303
00002200
00003300
00022000
00033000
00202000
00000000
00000000
,
00000000
00000000
00000000
00000000
00000000
00303000
20200000
00000000
,
30300000
22000000
33000000
02020000
03030000
00022000
00000000
00000000
,
00033000
00020020
00000000
00030030
00202000
00303000
00200020
00000000
,
00000000
00000000
00000000
00000000
,
00000000
00000000
00300030
00011000
,
00000000
00000000
00001000
00000000
00010000
00000000
00000000
00100000
00000000
00000000
00010000
00000000
00001000
00000000
00000000
00000000
,
00000010
00000001
00000010
00011000
,
00000000
01001000
00000000
00010100
00000000
02000200
00000000
00000000
,
00000000
00000000
03000300
00011000
,
00000000
00101000
00000000
00010010
00000000
00200020
00000000
00300030
,
00000000
00020000
00000000
00000000
00002000
00033000
00022000
00000000
,
00000000
00000000
00000000
00000000
00033000
00000000
00100000
00000000
10000000
00010000
00100000
00000000
00002000
00000000
00000000
00000000
,
00000000
00020000
00000000
00033000
00011000
00000000
00000010
00000100
,
00000001
00000000
00001000
00000000
00000010
00000000
00000100
00000000
00000001
00000000
00001000
00000000
00000100
00010000
00000100
00010000
,
00001000
00010000
00001000
00010000
00001000
01000000
00001000
01000000
00001000
00010000
00001000
00010000
00100000
10000000
00010000
01000000
,
00100000
10000000
00010000
01000000
00100000
10000000
00010000
01000000
00100000
10000000
00010000
01000000
00100000
00010000
00001000
00000100
,
00000001
00000010
00000100
00001000
00000010
00000100
00000001
00000000
00001001
00000000
00000000
00000000
00000011
00000000
00000000
00000000
,
00000011
00000000
00001010
00000000
00001010
00000000
00001000
00010000
,
00100000
00000000
10000000
00000000
00000000
00000000
00010000
01000000
00010000
01000000
00010000
01000000
00100000
00000000
10000000
01000000
,
00000000
10000000
00100000
00000000
01000000
00000000
00010000
00100000
00000000
00010000
01000000
00000000
00100000
00000000
00010000
00001000
,
00000000
00000010
00000001
00000000
00000000
00000000
00001000
00000100
00001000
00000100
00001000
00000100
00000010
00000000
00000001
00000000
,
00000100
00000010
00001000
00000100
00000010
00000001
00000100
00000010
,
00001000
00000000
00000100
00000000
00000010
00000000
00000001
00000000
00000100
00000000
00001000
00000000
00001000
00000000
00010000
00100000
,
00010000
00100000
00010000
00100000
00010000
00100000
00010000
00100000
00010000
00100000
00010000
00100000
10000000
00000000
00000000
01010000
,
00000000
00000000
00100000
00000000
10010000
00000000
00000000
00010000
00000000
00000000
11000000
00000000
00100000
00000000
00000000
00000000
,
00100000
00000000
00011000
00000000
00011000
00000000
00000100
00000100
,
00000000
00000000
00000011
00000000
00000000
00000000
00000001
00001000
00000001
00001000
00000001
00001000
00000010
00000000
00000000
00000100
,
00000000
00000100
00001000
00000000
00010000
00000000
00000000
00100000
00000000
00100000
10000000
00000000
00010000
00000000
10000000
00010000
,
00000000
10000000
00010000
00000000
10000000
01000000
00100000
00010000
10000000
01000000
00100000
00010000
10000000
00000000
00010000
00000000
,
01000000
00100000
00010000
00001000
00000100
00000001
00001000
00000010
,
00000100
00000000
00001000
00000000
00010000
00000000
00100000
00000000
10000000
00000000
00010000
00000000
10000000
01000000
10000000
01000000
,
10000000
01000000
10000000
01000000
00010000
00000000
00001000
00010000
00000000
00001000
00000100
00000000
00000001
00000010
00000100
00001000
,
00000001
00000010
00000100
00001000
00000001
00000010
00000100
00001000
00000001
00000010
00000100
00001000
00000002
00000000
00000000
00000000
,
00000000
00000000
00000000
00000000
,
00000000
00000000
00000000
00000003
;

//---------------dance-double - ----------------
#NOTES:
     dance-double:
     :
     Medium:
     11:
     0.441730,0.603297,0.355869,0.490309,0.079082,391.000000,346.000000,45.000000,62.000000,0.000000,0.000000,0.441730,0.603297,0.355869,0.490309,0.079082,391.000000,346.000000,45.000000,62.000000,0.000000,0.000000:
00000000
00000000
00000000
00000000
,
00000000
00000000
00000000
00000000
,
00000000
00000000
00000000
00000000
,
10000000
01000000
10000000
01000000
10000000
01000000
10000000
01000000
,
22000000
00000000
00000000
00000000
,
00000000
00000000
33000000
00000000
10000000
01000000
00010000
00001000
,
00000100
00000100
00001000
00001000
,
00010000
00001000
00000000
00000100
00000000
00000000
00000000
00000000
,
00000001
00000001
00000100
00000100
,
00001000
00010000
00000000
00001000
00000000
00010000
01000000
00000000
,
10000000
10000000
00010000
00010000
,
01000000
00100000
00000000
00010000
00000000
00000000
00001000
00000010
,
00000001
00000000
00001000
00000100
00000000
00001100
00000000
00002020
,
00000000
00000000
00000000
00003030
00000202
00000000
00000000
00000303
,
00000101
00001001
00001100
00001001
,
00000001
00000200
00000000
00000320
00000000
00000000
00000130
00001000
,
00010000
00010000
01000000
01000000
,
10000000
00010000
00000000
02200000
00000000
03300000
00010000
01000000
,
01010000
10010000
11000000
10010000
,
00100000
02000000
00000000
03200000
00000000
00300000
00010000
00001000
,
00000010
00000000
00000001
00000002
00000000
00001000
00000000
00002000
,
00000000
00000000
00000000
00003003
,
00000010
00000100
00000010
00000000
00000100
00000010
00000100
00000000
,
00000001
00000100
00001000
00010000
01000000
00000000
00000000
00000000
,
10000000
00010000
10000000
00000000
00010000
10000000
00010000
00000000
,
01000000
00010000
10000000
00000000
00100000
10000000
00010000
00010000
,
10000000
00000000
00000000
10000000
00000000
00000000
01000000
00000000
00100000
00000000
00000000
00100000
00000000
00000000
00010000
00000000
,
01000000
00000000
00000000
01000000
00000000
00000000
00001000
00000000
00010000
00000000
00000000
00010000
00000000
00000000
00000100
00000000
,
00001000
00000010
00001000
00000010
00001000
00000010
00001000
00000010
,
00002020
00000000
00000000
00003030
,
00000101
00000000
00000001
00000010
00000001
00001000
00000001
00000100
,
00000001
00000010
00000001
00000100
00000001
00001000
00000001
00000100
,
00000001
00000000
00001000
00000100
00010000
00000000
00010000
00001000
,
01000000
01010000
01100000
20200000
,
30300000
00000000
10000000
00100000
10000000
01000000
10000000
00010000
,
10000000
00100000
10000000
01000000
10000000
00010000
10000000
10000000
,
00000000
00010000
01000000
00100000
01000000
00000000
00022000
00000000
,
00033000
00010010
00000110
00000101
,
00000000
00000000
00000010
00000000
00000100
00000000
00000000
00000001
00000000
00000000
00000100
00000000
00000001
00000000
00000000
00000000
,
00000000
00000000
00000000
00000000
00000100
00000000
00000000
00000010
00000000
00000000
00000100
00000000
00000010
00000000
00000000
00000000
,
00000000
00000000
00000000
00000000
00010000
00000000
00000000
00001000
00000000
00000000
00010000
00000000
00001000
00000000
00000000
00000000
,
00000000
00022000
00033000
00101000
,
00000000
00000000
00000000
00000000
00100000
00000000
00000000
00010000
00000000
00000000
01000000
00000000
00010000
00000000
00000000
00000000
,
00000000
00000000
00000000
00000000
01000000
00000000
00000000
00100000
00000000
00000000
10000000
00000000
00100000
00000000
00000000
00000000
,
00000000
11000000
00000000
00202000
,
00000000
00000000
00303000
00011000
,
00000000
00000000
00000000
00000000
00000010
00000000
00000000
00000010
00000000
00000000
00001000
00000000
00000001
00000000
00000000
00001000
,
00000000
00000020
00000000
00000000
00000100
00000130
00000000
00000001
,
00000000
00000100
00000000
00000000
00001000
00000000
00000000
00010000
00000000
00000000
01000000
00000000
10000000
00000000
00000000
00010000
,
00000000
10000000
00010000
00000000
00100000
00100000
00100000
00000000
,
00000000
01010000
00000000
00000000
00100000
00000000
00100000
00000000
,
00000000
00000000
11000000
00000000
00000000
00000000
00000000
00000000
01000000
00000000
00000000
00000000
00010000
00000000
00000000
00001000
,
00000000
00000000
00000010
00000000
00000000
00000001
00000000
00000000
00001000
00000000
00000001
00000000
00001000
00000000
00000000
00000000
,
00001000
00001000
00000110
00000002
,
00000000
00000203
00000000
00000302
00000000
00000023
00000000
00000000
,
00000000
00000000
00000000
00000230
,
00000000
00020300
00000000
00032000
00000000
00203000
00000000
00000000
,
00000000
02300000
00000000
00000000
23000000
00000000
30020000
00000000
,
00000000
00000000
00000000
00000000
,
00000000
00000000
00000000
01030000
,
00000000
00000000
01000000
00000000
00001000
00000000
00000000
00001000
00000000
00000000
00001000
00000000
00010000
00000000
00000000
00000000
,
00000010
00000100
00000010
00002020
,
00003030
00000101
00000000
00000101
00000000
00002020
00000000
00003030
,
00000000
00000000
00000000
22000000
,
33000000
00110000
00000000
00110000
00000000
22000000
00000000
00000000
,
33000000
20000000
00000000
30000000
00200000
00000000
02300000
00000000
,
00000000
00000000
03000000
00002000
,
00000000
00020000
00000000
00033000
00011000
00000000
00000200
00000000
,
00000000
00000000
00000000
00000000
,
00000000
00000000
00002300
00003020
,
00000000
00000000
00000000
00000030
,
00000000
00000000
00000000
00000100
,
00000001
00000000
00000101
00000000
00001001
00000000
00000010
00001000
,
00000000
00001010
00000000
00000010
00010000
00001000
01000000
00010000
,
01000000
00000000
00000000
00000000
00010000
00000000
01000000
00000000
00010000
00000000
00000000
00000000
10000000
00000000
00000000
10000000
,
00000000
10000000
00000000
01000000
00100000
01000000
00200000
00000000
,
00310000
00020000
00130000
00200000
,
00310000
00000000
00020000
00000000
00130000
00000000
00001000
00010000
,
00000100
00010000
00000100
00010000
00000100
00010000
00000200
00000000
,
00000000
00000000
00000000
00000310
,
00000000
00000011
00000000
00001001
,
00000000
00000000
00000110
00000000
00000000
00000000
00000000
00000000
00000000
00000000
00000100
00000000
00000001
00000000
00000000
00000001
,
00000000
00000000
00000001
00000000
00001000
00000000
00000010
00000000
00001000
00000000
00000000
00000000
00000010
00000000
00000000
00000010
,
00000000
00000010
00001000
00000100
00000010
00000001
00002000
00000000
,
00003100
00000200
00001300
00002000
,
00003100
00000000
00000200
00000000
00001300
00000000
00001000
00000100
,
00010000
00000000
00010000
00001000
01000000
00000000
00100000
01000000
,
00100000
01000000
00100000
01000000
00100000
01000000
00200000
00000000
,
00000000
00000000
00000000
00000000
,
00000000
00000000
00000000
00300000
;
