#TITLE:アレスの楯;
#SUBTITLE:;
#ARTIST:劇団レコード;
#TITLETRANSLIT:Ares no tate;
#SUBTITLETRANSLIT:;
#ARTISTTRANSLIT:Gekidan Record;
#GENRE:Hardcore;
#CREDIT:;
#BANNER:アレスの楯-bn.png;
#BACKGROUND:アレスの楯-bg.png;
#LYRICSPATH:;
#CDTITLE:;
#MUSIC:アレスの楯.ogg;
#OFFSET:-0.172200;
#SAMPLESTART:29.089998;
#SAMPLELENGTH:12.000000;
#SELECTABLE:YES;
#BPMS:0.000000=87.000000
,8.000000=174.000000
,197.000000=87.000000
,199.000000=174.000000
,231.000000=87.000000
,233.000000=174.000000
;
#STOPS:8.000000=1.034000
;
#BGCHANGES:;
#KEYSOUNDS:;
#ATTACKS:;

//---------------dance-single - ----------------
#NOTES:
     dance-single:
     :
     Hard:
     13:
     0.635256,0.817246,0.323225,0.391788,0.313430,454.000000,421.000000,33.000000,40.000000,0.000000,0.000000,0.635256,0.817246,0.323225,0.391788,0.313430,454.000000,421.000000,33.000000,40.000000,0.000000,0.000000:
0000
0000
0000
0000
,
0000
0000
0000
0000
,
2002
0000
3003
0000
1000
0000
1000
0000
0010
0000
0100
0000
0001
0000
0000
0001
,
0010
0000
0000
0010
0100
0000
0000
0100
1000
0000
0000
1000
0001
0000
0100
0000
,
0001
0000
0000
0000
0001
0000
0001
0000
0010
0000
0100
0000
1000
0000
0000
1000
,
0010
0000
0000
0010
0100
0000
0000
0100
0001
0000
0000
0001
1000
0000
0100
0000
,
1000
0000
0000
0000
0010
0000
0010
0000
0100
0000
0001
0000
1000
0000
0000
1000
,
0001
0000
0000
0001
0100
0000
0000
0100
0010
0000
0000
0010
1000
0000
0100
0000
,
0010
0000
0100
0100
1000
0001
0011
0000
,
0100
0000
0000
0000
1100
0000
0000
1000
0001
0000
0000
0100
0010
0000
0010
0000
,
0010
0010
0010
0000
0000
0000
0101
0000
,
0000
0010
1100
0000
0000
0000
1001
0000
,
0000
0100
0011
0000
0000
0000
0000
0000
,
0000
1000
0110
0000
0000
0000
0000
0000
,
0000
0000
0010
0100
0010
0000
1000
0000
0100
0000
0010
0001
0010
0000
0100
1000
,
0100
1000
0100
0000
1000
0000
0010
1000
0010
0000
1000
0000
0100
1000
0100
1000
,
0100
0010
0001
1000
0010
0100
0110
0000
,
1001
0000
0000
0000
0010
0000
0100
0000
0010
0000
0100
0000
0001
1000
0001
0000
,
0100
0000
0010
0000
1000
0000
0100
0000
0010
0000
0010
0000
0100
0000
0000
0100
,
1000
1100
1010
0101
,
0011
0001
1000
0010
1000
0000
0001
0100
,
0001
0000
0010
0000
0100
0000
0100
0000
1000
0000
1000
0000
0001
1000
0001
1000
,
0001
0000
0000
0000
0100
0000
0001
0000
1000
0000
1000
0000
0010
0000
0000
0010
,
0100
0101
0011
1100
,
1010
0000
0010
0000
0100
0000
0000
0100
0001
0000
0000
0000
1000
0000
0000
1000
,
0010
0100
0200
0000
0001
0000
0310
0000
,
0100
0010
1000
1000
1000
1000
1000
0001
,
0100
0100
0020
0000
0030
0010
0200
0000
,
0300
0000
0001
0001
0001
0001
0001
1000
,
0010
0010
0200
0000
0000
0000
0301
1000
,
0001
1000
0001
0000
1000
0100
1000
0100
1000
0100
1000
0000
0001
0100
0001
0100
,
0001
0100
0001
0000
1001
0000
0000
0000
0010
0000
0000
0000
0100
0000
0000
0000
,
0010
0100
1001
0000
0000
1000
0100
0010
,
0000
0000
0002
1000
1000
1000
1003
0010
,
0100
0010
2000
0000
3100
1000
0200
0000
,
1300
0000
0100
0000
2000
0000
0000
0000
3001
0010
0001
0010
0001
0000
1000
0000
,
0100
0010
0002
0000
0003
0010
0001
0001
,
0100
0000
0010
0000
2000
0000
0000
0000
3100
1000
0100
1000
0100
0000
0000
0000
,
1000
0001
0020
0000
0030
0001
0100
0100
,
0010
0000
1000
0000
2000
0000
0000
0000
0000
0000
0000
0000
3100
0000
0000
0100
,
0010
0000
0220
0000
0330
0001
2000
0000
,
3020
0000
0100
0100
0100
0100
0130
0001
,
0010
0000
0001
0000
0100
0001
0100
0001
0100
0000
0010
0000
0100
0001
0100
0001
,
0100
0000
0010
0000
0100
0001
0100
0001
0100
0001
0100
0001
0100
0000
0010
0000
,
1000
0100
0020
0000
0030
0010
0100
1000
,
0010
0000
0100
0000
0002
0000
0000
0000
0103
0001
0100
0001
0100
0000
0000
0000
,
0010
1000
2000
0000
3000
1000
0010
0100
,
0010
1000
0002
0000
0000
0000
0013
0000
,
0011
0000
0202
0000
0303
0100
0010
0200
,
0000
0000
0000
0000
0320
0000
0000
0000
0000
1030
0010
0100
0001
0200
0002
0000
,
0303
0000
0001
0000
0010
0000
0010
0000
0100
0000
1000
0000
0010
2000
0020
0000
,
3030
0010
0100
0000
0100
0001
0022
0000
,
0033
0000
0010
0001
0010
0000
0001
0000
1000
0000
0001
0000
1000
0002
2000
0000
,
0000
0000
3003
0001
0010
0100
0110
0000
,
1000
2000
0000
3000
1001
0000
0110
0100
,
0001
0000
0020
0000
0000
0000
0030
0000
0001
0000
1000
0000
0010
1000
0010
0000
,
0000
0000
0010
0000
0200
0000
0000
0000
0300
0000
0100
0000
0001
1000
0002
0000
,
0000
0000
0000
2000
,
0000
3003
1000
0010
0100
0100
0001
0000
,
1000
0000
0000
1000
0100
0000
0000
0100
0001
0000
0000
0000
1100
0000
1000
0000
,
0001
0000
0001
0100
0010
0010
1000
0000
,
0001
0000
0000
0001
0100
0000
0000
0100
1000
0000
0000
0000
0101
0000
0001
0000
,
1000
0000
0010
0100
0001
0001
1000
0000
,
0010
0000
0000
0010
0100
0000
0000
0100
1000
0000
0000
0000
0110
0000
0010
0000
,
1000
0000
0100
0010
0001
1000
1001
0000
,
0001
0000
1100
0000
1000
0000
0110
0010
,
0100
0002
0000
0003
;

//---------------dance-single - ----------------
#NOTES:
     dance-single:
     :
     Medium:
     9:
     0.460351,0.490347,0.284046,0.499530,0.000000,329.000000,300.000000,29.000000,51.000000,0.000000,0.000000,0.460351,0.490347,0.284046,0.499530,0.000000,329.000000,300.000000,29.000000,51.000000,0.000000,0.000000:
0000
0000
0000
0000
,
0000
0000
0000
0000
,
2002
3003
0001
0010
0100
0010
0001
0000
,
0100
0000
0101
0000
0001
0000
0010
0010
,
0010
0000
0100
1000
0001
1000
0100
0000
,
1000
0000
1100
0000
0100
0000
1000
1000
,
1000
0000
0010
0100
0001
0100
0010
0000
,
1000
0000
1010
0000
0010
0000
0100
0100
,
0100
0000
0001
0100
0001
1000
0001
0000
,
1000
0000
0010
0000
1000
0000
0001
0001
,
0001
0001
0001
0000
0000
0000
0100
0000
,
0000
0010
0010
0000
0000
0000
1000
0000
,
0000
0100
0100
0000
0000
0000
0000
0000
,
0000
0010
0000
0000
,
0000
0000
0001
0010
0001
0010
0001
0000
,
1000
0000
0010
0000
0100
0000
0010
1000
,
0100
0000
1000
0010
0100
0010
1000
0000
,
0001
0000
0100
0000
0001
0000
1000
0100
,
0001
0100
2000
0000
0000
3010
1000
0000
,
0010
0100
0100
0101
,
0001
0010
0100
0000
0100
0000
1100
0000
,
1000
0001
0010
0010
0001
0000
0202
0000
,
0303
0000
0020
0000
0000
0130
0010
0000
,
1000
0001
0001
0011
,
0001
1000
0010
0000
0010
0000
1010
0000
,
1000
2002
0000
3003
,
0000
0000
1000
0001
1000
0001
1000
0001
,
1000
0020
0030
0020
,
0030
0000
0100
0010
0100
0010
0100
0010
,
0100
0000
0002
0000
0003
0000
1000
0001
,
1000
0020
0000
1030
,
0100
1100
0010
0001
,
0100
0001
0200
0000
0000
0310
1000
0020
,
0000
0000
1030
0001
1000
0001
1000
0000
,
0000
0000
0120
0000
0000
1030
0020
0000
,
0130
0001
0200
0000
0000
0000
0300
0001
,
0010
0100
2100
0000
0000
3010
1000
0010
,
0100
0001
0200
0000
0000
0000
0000
0000
,
0310
0100
0220
0000
0330
0001
1000
0010
,
0100
0010
2000
0000
0000
0000
3010
0000
,
0001
0000
2020
0000
3030
0010
2000
0000
,
3001
0000
0022
0000
0000
0000
0033
0001
,
1000
0010
0200
0000
0300
0010
0200
0000
,
0310
1000
0200
0000
0010
0000
0310
0001
,
1000
0001
0200
0000
0300
0010
0100
0010
,
0100
0001
0200
0000
0001
0000
0301
0000
,
1000
0100
2200
0000
3300
0100
1000
0100
,
1000
0001
2000
0000
0000
0000
3010
0000
,
0100
0000
0202
0000
0303
0100
0001
0020
,
0000
0230
0000
2300
,
3000
1000
0010
1000
0010
0100
0002
0000
,
0000
1000
1003
0000
0010
0100
0220
0000
,
0330
0100
0001
1000
0010
1000
0002
0000
,
0000
0000
1003
0100
0001
0100
2000
0000
,
0010
0020
0000
3030
0100
0000
0101
0001
,
0100
0020
0000
0030
0110
0010
2000
0000
,
3000
0100
2000
0000
3000
0010
0200
0000
,
0000
0000
0000
0301
,
0000
0000
1000
1000
0100
0010
0001
0000
,
1100
0000
0001
0000
1100
0000
0010
0100
,
0100
0000
0001
0001
0010
0100
1000
0000
,
0101
0000
1000
0000
0101
0000
0010
1000
,
1000
0000
0001
0001
0100
0010
0001
0000
,
1010
0000
0100
0000
0011
0000
0100
0010
,
1000
0000
0100
0001
0100
1000
0100
0000
,
0011
0000
0100
0000
1010
0000
0001
1000
,
0001
2000
0000
3000
;

//---------------dance-single - ----------------
#NOTES:
     dance-single:
     :
     Easy:
     7:
     0.366602,0.424968,0.088152,0.381993,0.000000,262.000000,253.000000,9.000000,39.000000,0.000000,0.000000,0.366602,0.424968,0.088152,0.381993,0.000000,262.000000,253.000000,9.000000,39.000000,0.000000,0.000000:
0000
0000
0000
0000
,
0000
0000
0000
0000
,
0202
0303
0001
1000
0001
0000
1000
0000
,
0010
0000
1000
0000
0100
0000
0010
0001
,
0010
0000
0001
0100
0001
0000
1000
0000
,
0010
0000
0100
0000
0010
0000
1000
0100
,
1000
0000
0010
0100
0010
0000
0100
0000
,
0001
0000
0100
0000
0010
0000
1000
0001
,
0100
0000
0010
1000
0100
0000
0011
0000
,
0100
0000
0011
0000
0100
0000
1000
1000
,
1000
0010
0000
0010
,
0000
0100
0000
0100
,
0000
0010
0000
0000
,
0000
0100
0000
0000
,
0000
0001
0100
2000
,
3100
0002
0013
1000
,
1000
0010
0001
0200
,
0310
0001
0010
1000
,
0001
1000
0001
0000
0000
0100
0020
0000
,
0130
0020
1030
0100
,
1000
0010
1000
0000
0100
0000
0010
0000
,
0001
1000
0001
0000
0100
0000
0010
0000
,
0000
0000
2000
0000
3000
0010
2000
0000
,
3100
0010
0010
0001
,
1000
0001
1000
0000
0010
0000
0100
0000
,
0010
0200
0001
1000
,
0301
0000
0010
0001
0010
0001
0010
0001
,
0010
0200
0300
0200
,
0300
0000
1000
0010
1000
0010
1000
0010
,
1000
0020
0030
0100
,
0001
2000
0000
3001
,
0010
0001
0100
0100
,
0010
0100
0020
0000
0030
0000
2000
0000
,
3000
0002
0000
0003
,
0000
0000
2002
0000
3003
1000
0002
0000
,
0003
0001
2000
0000
3000
0000
0000
0000
,
0010
0100
0220
0000
0330
0100
0020
0000
,
0030
0010
0200
0000
0300
0000
0000
0000
,
0001
0010
0022
0000
0033
0010
0002
0000
,
1003
0002
0000
0103
,
0100
0000
0020
0000
0030
0100
0020
0000
,
1030
0020
0000
0030
,
0000
0000
0100
0000
0000
0001
0100
0000
,
0000
0001
0010
0000
0000
0000
0000
0100
,
1000
0100
1000
0000
0000
0010
1000
0000
,
0000
0010
0100
0000
0000
0000
0000
0000
,
0010
1000
0001
0000
0000
0001
1000
0000
,
0000
0020
0000
0130
,
0010
0000
0110
0000
0000
1000
0001
1000
,
0000
0020
0000
0130
,
0000
0001
0001
0000
1000
0000
0010
0000
,
0000
0000
0100
0000
0010
0010
0010
0000
,
0000
1000
0001
2002
,
3003
0000
0000
0100
0010
0100
0010
0000
,
1000
0010
0000
0000
0100
0000
0001
0000
,
0010
0100
0000
0000
0010
0000
0001
0000
,
0000
0001
1000
0000
0000
1000
0010
0000
,
0000
0000
0000
0220
,
0000
0330
1000
0100
1000
0100
1000
0000
,
0100
0000
0001
0000
0100
0000
1000
0001
,
1000
0000
0001
0100
0001
0100
0001
0000
,
0100
0000
1000
0000
0100
0000
0001
1000
,
0001
0000
1000
0010
1000
0010
1000
0000
,
0100
0000
0001
0000
0100
0000
1000
0010
,
1000
0000
0001
0100
0010
0000
1000
0000
,
0100
0000
0010
0000
0001
0000
1000
1000
,
1000
0020
0000
0030
;

//---------------dance-double - ----------------
#NOTES:
     dance-double:
     :
     Hard:
     13:
     0.659044,0.817246,0.460351,0.509325,0.284046,471.000000,424.000000,47.000000,52.000000,0.000000,0.000000,0.659044,0.817246,0.460351,0.509325,0.284046,471.000000,424.000000,47.000000,52.000000,0.000000,0.000000:
00000000
00000000
00000000
00000000
,
00000000
00000000
00000000
00000000
,
22000000
33000000
10000000
00100000
00100000
10000000
01000000
00000000
,
01010000
00000000
00011000
00000000
00001100
00000000
00000100
00000001
,
00000001
00000000
00001000
00000010
00000010
00000100
00000001
00000000
,
00000101
00000000
00001100
00000000
00011000
00000000
00010000
01000000
,
01000000
00000000
10000000
00010000
00010000
01000000
00100000
00000000
,
00110000
00000000
00011000
00000000
00001010
00000000
00000001
00001000
,
00001000
00000000
00000010
00000100
00000100
00000001
00001000
00000000
,
00001001
00000000
00000010
00000000
00000101
00000000
00000010
00001000
,
00001000
00001000
00000200
00000000
00000320
00000000
00000230
00000000
,
00000300
00010000
00002000
00000000
00203000
00000000
00302000
00000000
,
00003000
01000000
00200000
00000000
20300000
00000000
30200000
00000000
,
00300000
01000000
00020000
00000000
00000000
00000000
00000000
00000000
,
00030000
00000000
00000000
00000000
10000000
00000000
00010000
00000000
01000000
00000000
00100000
00000000
01000000
00010000
01000000
00000000
,
00100000
00000000
10000000
00000000
01000000
00000000
00010000
00000000
00001000
00000000
00000010
00000000
00000001
00000100
00000001
00000000
,
00001000
00000000
00000010
00000000
00000100
00000000
00000001
00000000
00001000
00000000
00000010
00000000
00000100
00000010
00000100
00000000
,
00001000
00000000
00010000
00000000
00100000
00000000
10000000
00000000
00100000
00000000
10000000
00000000
01000000
00010000
01000000
00000000
,
10000000
00100000
02200000
00000000
03300000
00010000
10000000
00000000
,
01010000
00000000
00000000
00000000
00100000
00000000
00000000
00100000
10000000
00000000
00000000
00000000
01010000
00000000
00000000
00000000
,
10000000
01000000
11000000
00000000
00100000
00000000
01010000
00000000
,
00100000
00000000
00010000
00000000
00001000
00000000
00000010
00000000
00000010
00000000
00000001
00000000
00001000
00000100
00001000
00000100
,
00001000
00000000
00000220
00000000
00000330
00001000
00000001
00000000
,
00000110
00000000
00000000
00000000
00001000
00000000
00000000
00001000
00000001
00000000
00000000
00000000
00000110
00000000
00000000
00000000
,
00000001
00000100
00000101
00000000
00001000
00000000
00011000
00000000
,
01000000
00000000
10000000
00010000
20000000
00000000
00000000
00000000
30200000
00000000
00000000
00000000
02300000
00000000
00000000
00000000
,
03010000
00000000
10000000
10000000
10000000
10000000
10000000
01000000
,
00010000
00001000
00000200
00000000
00000300
00000001
00000200
00000000
,
00000300
00000000
00000001
00000001
00000001
00000001
00000001
00000010
,
00001000
00010000
00200000
00000000
00000000
00000000
10300000
00100000
,
01000000
00000000
00000000
00000000
00010000
00100000
00010000
00100000
00010000
00100000
00010000
00000000
10000000
00000000
01000000
00000000
,
00100000
00000000
00000000
00000000
01000000
10000000
01000000
10000000
01000000
00000000
00000000
00000000
00100000
00010000
00100000
00010000
,
00100000
00010000
20020000
00000000
30030000
00100000
01000000
02020000
,
00000000
03030000
00100000
01000000
01000000
01000000
10000000
00100000
,
00010000
00000000
00001000
00000000
00000010
00000001
00000010
00000000
00000000
00000000
00000010
00000000
00000001
00000010
00000001
00000000
,
00001000
00000000
00000100
00000000
00001000
00000010
00001000
00000000
00000001
00000100
00000001
00000100
00000001
00000000
00000100
00000000
,
00001000
00000000
00010000
00000000
01000000
10000000
01000000
00000000
10000000
00000000
01000000
10000000
01000000
00000000
10000000
00000000
,
00100000
00000000
01000000
00000000
00010000
00000000
00000000
00000000
00100000
00010000
00100000
00010000
00100000
00000000
00000000
00000000
,
00010000
01000000
01010000
00000000
00100000
10000000
10100000
01000000
,
00010000
00000000
10000000
00000000
00010000
10000000
00010000
10000000
00010000
00000000
00000000
00000000
01000000
00100000
01000000
00100000
,
01000000
00100000
01000000
00000000
00020000
00000000
00000000
00000000
00030000
00000000
00010000
00000000
20000000
00000000
00000000
00000000
,
31000000
00000000
01010000
00000000
00010000
00001000
00000100
00000001
,
00001000
00000000
00000001
00000000
00001000
00000010
00001000
00000010
00001000
00000000
00000010
00000000
00001000
00000010
00001000
00000010
,
00001000
00000000
00000010
00000000
00000100
00000001
00000100
00000001
00000100
00000001
00000100
00000001
00000100
00000000
00000001
00000000
,
00001000
00000010
00000200
00000000
00000300
00000100
00001000
00001000
,
00010000
00000000
01000000
00000000
20000000
00000000
00000000
00000000
30010000
10000000
00010000
10000000
00010000
00000000
00000000
00000000
,
01000000
00100000
01200000
00000000
00000000
10000000
10300000
01000000
,
00100000
00000000
00010000
00000000
00100000
00010000
00100000
00010000
00100000
00000000
00000000
00000000
00010000
01000000
00010000
00000000
,
01000000
00010000
01000000
00000000
02002000
00000000
00000000
00000000
03003000
00000000
00001000
00000000
00010000
00000000
00020200
00000000
,
00000000
00000000
00030300
00000000
00020000
00000000
00000000
00000000
00030000
00000100
00001000
00000010
00000200
00000000
00000000
00000000
,
00000300
00000100
00000001
00001000
00000010
00000010
00000210
00000000
,
00000000
00000001
00000301
00000000
00001000
00000010
00002020
00000000
,
00003030
00000001
00000100
00001000
00010000
00000010
00020020
00000000
,
00000000
00000000
00030030
00000010
00000100
00000001
00001001
00000000
,
00000110
00000220
00000000
00000330
00010010
00000000
00010000
00001000
,
01001000
00000000
02002000
00000000
00000000
00000000
03003000
00000000
01000000
00000000
00100000
00000000
10000000
00010000
10000000
00000000
,
00000000
00000000
01000000
00000000
22000000
00000000
00000000
00000000
33000000
00000000
00100000
00000000
00010000
01000000
00020000
00000000
,
00000000
00000000
00000000
20000000
,
00000000
30030000
01000000
00010000
10010000
00100000
10000000
00000000
,
01000000
00000000
00000000
01000000
00010000
00000000
00000000
00010000
00001000
00000000
00000000
00001000
00000100
00000000
00000100
00000000
,
00000001
00000000
00001000
00000010
00001010
00000100
00000001
00000000
,
00000010
00000000
00000000
00000010
00001000
00000000
00000000
00001000
00010000
00000000
00000000
00010000
00100000
00000000
00100000
00000000
,
10000000
00000000
00000000
00000000
00010000
00000000
10000000
00000000
10010000
00000000
00100000
00000000
01000000
00000000
00000000
01000000
,
00100000
00000000
00000000
00100000
00010000
00000000
00000000
00010000
00001000
00000000
00000000
00001000
00000010
00000000
00000010
00000000
,
00000001
00000000
00001000
00000010
00001010
00000100
00000101
00000000
,
00001001
00000000
00000100
00010000
00001000
01000000
00100000
00100000
,
00100000
22000000
00000000
33000000
;

//---------------dance-double - ----------------
#NOTES:
     dance-double:
     :
     Medium:
     10:
     0.489735,0.523037,0.372199,0.450556,0.000000,350.000000,312.000000,38.000000,46.000000,0.000000,0.000000,0.489735,0.523037,0.372199,0.450556,0.000000,350.000000,312.000000,38.000000,46.000000,0.000000,0.000000:
00000000
00000000
00000000
00000000
,
00000000
00000000
00000000
00000000
,
00020020
00030030
00010000
00000100
00000100
00001000
00000010
00000000
,
00001010
00000000
00000110
00000000
00000101
00000000
00000100
00000001
,
00000100
00000000
00000001
00000010
00000010
00000100
00001000
00000000
,
00001100
00000000
00010100
00000000
00011000
00000000
00010000
00001000
,
00010000
00000000
00001000
01000000
01000000
00001000
00100000
00000000
,
01100000
00000000
11000000
00000000
10010000
00000000
10000000
00010000
,
10000000
00000000
00010000
00100000
00100000
01000000
10000000
00000000
,
11000000
00000000
00110000
00000000
11000000
00000000
00100000
00010000
,
00100000
00010000
00000000
10000000
,
00000000
00010000
00010000
00000000
00000000
00000000
10000000
00000000
,
00000000
01000000
00010000
00000000
00001000
00000000
00000100
00000000
,
00000000
00000001
00000002
00000000
00000000
00000000
00000000
00000000
,
00000000
00000000
00001003
00000010
00001000
00000010
00001000
00000000
,
00000001
00000000
00000100
00000000
00000010
00000000
00001000
00000001
,
00001000
00000000
00000010
00000100
00000010
00000100
00000010
00000000
,
00000100
00001000
00010000
00100000
,
10000000
00010000
20020000
00000000
30030000
00010000
01000000
00000000
,
01010000
00100000
10000000
10100000
,
10000000
01000000
11000000
00000000
00100000
00000000
00010000
00000000
,
01000000
00010000
00100000
00100000
00010000
01000000
00200000
00000000
,
00000000
00000000
02300000
00000000
03000000
01000000
00001000
00000000
,
00010000
00000010
00000100
00000101
,
00001000
00000010
00001010
00000000
00000100
00000000
00000001
00000000
,
00002000
00000010
00000010
00000010
,
00003010
00000000
00000100
00000100
00000100
00000100
00000100
00000100
,
00000001
00001000
00000002
00000000
00000003
00000001
00002000
00000000
,
00003000
00000000
00000010
00000010
00000010
00000010
00000010
00000010
,
00001000
00000001
00000200
00000000
00000000
00000000
00001300
00010000
,
01000000
20000000
30000000
11000000
,
10000000
10010000
00010000
01010000
,
01000000
00100000
02000000
00000000
03000000
00100000
01000000
00200000
,
00000000
00300000
10000000
10000000
10000000
10000000
10000000
00000000
,
00000000
00000000
02020000
00000000
03030000
00010000
02000000
00000000
,
03010000
01000000
00020000
00000000
00130000
00010000
00100000
00000000
,
00001000
00010000
00000200
00000000
00000300
00000100
00001000
00000010
,
00000100
00000001
00002000
00000000
00003001
00000100
00000010
00000000
,
00001000
00000100
00002200
00000000
00003300
00000010
00000001
00000100
,
00000010
00000100
00000002
00000000
00000000
00000000
00000103
00000000
,
00001000
00000000
00020000
00000000
00030000
00100000
10000000
00000000
,
10100000
00000000
20020000
00000000
00000000
00000000
30030000
00010000
,
01000000
00100000
20000000
00000000
30000000
10000000
20000000
30000000
,
10000000
00010000
20000000
00000000
00010000
00000000
30010000
01000000
,
00100000
10000000
00020000
00000000
00030000
00010000
00100000
00001000
,
00001000
00010000
00002000
00000000
00010000
00000000
00013000
00000000
,
00000010
00000100
00000002
00000000
00000003
00000001
00000010
00000100
,
00001000
00000010
00000200
00000000
00000000
00000000
00000301
00000000
,
00001000
00000000
00002002
00000000
00003003
00000010
00000100
00000020
,
00000000
00000000
00000200
00000000
00000000
00000330
00000110
00000000
,
00000000
00001000
00000100
00010000
00010000
00001000
02000000
00000000
,
00000000
00100000
03100000
00000000
10000000
00010000
10010000
00000000
,
00000000
01000000
00010000
00100000
00100000
01000000
20000000
00000000
,
30000000
00000000
00000000
10000000
00010000
10000000
00010000
00000000
,
01000000
02000000
00000000
03000000
01010000
00000000
00010000
00100000
,
00010000
00200000
00000000
00000000
00301000
00010000
00002000
00000000
,
00003000
00010000
00000200
00000000
00000300
00000010
00000002
00000000
,
00000000
00000000
00000000
00002000
,
00000000
00003003
00000001
00000100
00000001
00000100
00000001
00000000
,
00000100
00000000
00001100
00000000
00011000
00000000
00010000
01000000
,
10000000
00000000
10000000
01000000
10000000
01000000
10000000
00000000
,
01000000
00000000
01010000
00000000
00011000
00000000
00001000
00000100
,
00000001
00000000
00001000
00000010
00001000
00000010
00001000
00000000
,
00000010
00000000
00000110
00000000
00001100
00000000
00001000
00010000
,
01000000
00000000
10000000
00010000
10000000
00010000
10000000
00000000
,
00010000
00000000
00110000
00000000
11000000
00000000
10000000
01000000
,
00010000
00002000
00000000
00003000
;

//---------------dance-double - ----------------
#NOTES:
     dance-double:
     :
     Easy:
     6:
     0.333020,0.392278,0.156715,0.421172,0.000000,238.000000,222.000000,16.000000,43.000000,0.000000,0.000000,0.333020,0.392278,0.156715,0.421172,0.000000,238.000000,222.000000,16.000000,43.000000,0.000000,0.000000:
00000000
00000000
00000000
00000000
,
00000000
00000000
00000000
00000000
,
20000000
30010000
01000000
01000000
,
00010000
00000000
00100000
00000000
00100000
00000000
00001000
00010000
,
00001000
00010000
00000010
00000010
,
00010000
00000000
00000100
00000000
00000100
00000000
00001000
00000010
,
00001000
00000010
00000100
00000100
,
00000001
00000000
00001000
00000000
00001000
00000000
00000100
00010000
,
00000100
00010000
00001000
00001000
,
01000000
00000000
00010000
00000000
00010000
00000000
00100000
00100000
,
00100000
00110000
00000000
11000000
,
00000000
10010000
00000000
01100000
,
00000000
01000000
01000000
00000000
00000000
00000000
00000000
00000000
,
00000000
00011000
00000000
00000000
,
00000000
00000000
00001000
00000000
00010000
00000000
00000100
00001000
,
00000100
00000000
00001000
00000000
00000010
00000000
00000100
00000001
,
00000100
00000001
00000001
00001000
,
00001000
00000000
00000000
00000000
00000000
00000000
00000010
00000100
,
00000010
00001000
00000002
00000000
00000003
00000000
00000100
00000000
,
00000010
00001000
00001000
00001010
,
00000010
00010000
00010000
00011000
,
00001000
00000000
02000000
00000000
03010000
01000000
00010000
00000000
,
00000000
10000000
00010000
01000000
,
01010000
00010000
00010000
00110000
,
01000000
10000000
02000000
00000000
23000000
00000000
32000000
00000000
,
23000000
00010000
00010000
00010000
,
30010000
20020000
00000000
00000000
,
30030000
01000000
00000000
00001000
,
00000000
00022000
00000000
00000000
,
00033000
00000100
00000000
00001000
,
00000010
00000200
00000000
00000301
,
00001000
00000010
00000010
00001000
,
00000100
00000010
00000200
00000000
00000000
00000000
00020300
00000000
,
00000000
00001000
00001000
00031000
,
00001000
00200000
00300000
00200000
,
01300000
20000000
00000000
30000000
,
00010000
02000000
03000000
02000000
,
03001000
00010000
00000100
00000100
,
00001000
00000020
00000000
00000130
,
00000001
00002000
00000000
00003010
,
00000010
00000220
00000330
00002002
,
00003003
00000100
00000100
00000100
,
00000000
00000002
00000003
00000002
,
00000003
00002000
00000010
00003010
,
00010000
00002000
00003000
01000000
,
00010000
20000000
01000000
31000000
,
00010000
01000000
00020000
00000000
00000000
00000000
01030000
00000000
,
01000000
00200000
00000000
10300000
,
00010000
10010000
00000000
01100000
,
00000000
20020000
30030000
10000000
,
00000000
00010000
01000000
00200000
,
00000000
01000000
01300000
00000000
00001000
00000000
00010000
00000000
,
00000000
00000100
00001000
00000020
,
00000000
00000030
00000100
00000002
,
00001000
00001003
00000000
00000000
00000010
00000000
00000200
00000000
,
00000010
00000310
00000000
00000000
00001000
00000000
00000002
00000000
,
00000003
00002000
00003000
00000200
,
00000000
00000000
00000000
00020000
,
00000000
00030300
00010000
00000000
00001000
00000000
00100000
00000000
,
00010000
00000000
00100000
00000000
00010000
00000000
01000000
00001000
,
01000000
00001000
00010000
00000100
,
00001000
00000000
00000100
00000000
00001000
00000000
00000010
00010000
,
00000010
00010000
00001000
01000000
,
00010000
00000000
01000000
00000000
00010000
00000000
00100000
00001000
,
00100000
00001000
00010000
00000100
,
00000100
00000000
00010000
00000000
00010000
00000000
00001000
00100000
,
00001000
02000000
00000000
03000000
;

//---------------dance-single - ----------------
#NOTES:
     dance-single:
     :
     Beginner:
     4:
     0.180502,0.326898,0.186099,0.048974,0.000000,129.000000,110.000000,19.000000,5.000000,0.000000,0.000000,0.180502,0.326898,0.186099,0.048974,0.000000,129.000000,110.000000,19.000000,5.000000,0.000000,0.000000:
// measure 0
0000
0000
0000
0000
,  // measure 1
0000
0000
0000
0000
,  // measure 2
1001
0000
0000
0000
,  // measure 3
0000
0010
0010
0010
,  // measure 4
0000
0100
0000
0000
,  // measure 5
0000
0001
0001
0001
,  // measure 6
0000
1000
0000
0100
,  // measure 7
0100
0100
0000
0010
,  // measure 8
0000
0001
0000
1000
,  // measure 9
1000
1000
0000
0001
,  // measure 10
0000
1001
0000
0110
,  // measure 11
0000
1001
0000
0110
,  // measure 12
0000
1001
0000
0000
,  // measure 13
0000
0110
0000
0000
,  // measure 14
0000
1000
0000
0001
,  // measure 15
0000
1000
0000
0001
,  // measure 16
0000
0100
0000
0010
,  // measure 17
0000
0100
0000
0000
,  // measure 18
0000
0001
0000
0010
,  // measure 19
0000
0001
0000
0000
,  // measure 20
0000
1000
0000
0010
,  // measure 21
0000
1000
0000
0100
,  // measure 22
0000
0010
0000
0001
,  // measure 23
0000
0010
0000
0000
,  // measure 24
0000
0100
0000
1000
,  // measure 25
0000
0100
0000
0000
,  // measure 26
0000
0010
0010
0010
,  // measure 27
0000
0001
0000
0001
,  // measure 28
0000
0100
0100
0100
,  // measure 29
0000
0010
0000
1000
,  // measure 30
0000
0100
0000
0010
,  // measure 31
0000
0100
0000
0000
,  // measure 32
0000
1000
0000
0001
,  // measure 33
0000
1000
0000
0000
,  // measure 34
0000
0110
0000
0110
,  // measure 35
0000
0110
0000
0000
,  // measure 36
0000
1001
0000
1001
,  // measure 37
0000
1001
0000
0000
,  // measure 38
0000
0010
0000
0010
,  // measure 39
0000
0100
0000
0000
,  // measure 40
0000
0001
0000
0001
,  // measure 41
0000
0001
0000
0000
,  // measure 42
0000
2000
0000
3000
,  // measure 43
0000
2000
0000
3000
,  // measure 44
0000
0010
0000
0010
,  // measure 45
0000
0010
0000
0000
,  // measure 46
0000
0100
0000
0100
,  // measure 47
0000
0001
0000
0001
,  // measure 48
0000
0010
0000
0100
,  // measure 49
0000
1000
0000
0001
,  // measure 50
0000
0001
0000
0001
,  // measure 51
0000
1000
0000
0010
,  // measure 52
0000
0010
0000
0010
,  // measure 53
0000
0000
0000
0110
,  // measure 54
0000
0000
0000
1001
,  // measure 55
0000
0000
0000
0010
,  // measure 56
0000
0010
0000
0100
,  // measure 57
0000
0000
0000
0020
,  // measure 58
0030
0010
0000
0000
,  // measure 59
0000
1000
0000
0001
,  // measure 60
0000
0110
0000
0000
,  // measure 61
0000
0001
0000
1000
,  // measure 62
0000
0110
0000
0000
,  // measure 63
0000
1000
0000
0100
,  // measure 64
0000
1001
0000
0000
,  // measure 65
0000
0001
0000
0010
,  // measure 66
0000
2002
0000
3003
;
