#VERSION:0.83;
#TITLE:Abracadabra;
#SUBTITLE:;
#ARTIST:Lady Gaga;
#TITLETRANSLIT:;
#SUBTITLETRANSLIT:;
#ARTISTTRANSLIT:;
#GENRE:Pop;
#ORIGIN:;
#CREDIT:;
#BANNER:;
#BACKGROUND:;
#PREVIEWVID:;
#JACKET:;
#CDIMAGE:;
#DISCIMAGE:;
#LYRICSPATH:;
#CDTITLE:;
#MUSIC:Abracadabra.ogg;
#OFFSET:0.005000;
#SAMPLESTART:60.914997;
#SAMPLELENGTH:12.000000;
#SELECTABLE:YES;
#BPMS:0.000=126.000;
#STOPS:;
#DELAYS:;
#WARPS:;
#TIMESIGNATURES:0.000=4=4;
#TICKCOUNTS:0.000=4;
#COMBOS:0.000=1;
#SPEEDS:0.000=1.000=0.000=0;
#SCROLLS:0.000=1.000;
#FAKES:;
#LABELS:0.000=Song Start;
#BGCHANGES:;
#KEYSOUNDS:;
#ATTACKS:
;

//---------------dance-single - ----------------
#NOTEDATA:;
#CHARTNAME:;
#STEPSTYPE:dance-single;
#DESCRIPTION:;
#CHARTSTYLE:;
#DIFFICULTY:Hard;
#METER:12;
#RADARVALUES:0.469947,0.566482,0.524774,0.375958,0.097906,420.000000,353.000000,67.000000,48.000000,0.000000,0.000000,0.000000,0.000000,0.000000,0.469947,0.566482,0.524774,0.375958,0.097906,420.000000,353.000000,67.000000,48.000000,0.000000,0.000000,0.000000,0.000000,0.000000;
#CREDIT:;
#NOTES:
0000
0000
0000
0000
,
0000
0000
0000
0000
,
0000
0000
0000
0000
,
0000
0000
0000
0101
,
0011
0000
0000
0001
0010
0000
0001
0000
1000
0000
0001
0000
0200
0000
0000
0000
,
0320
0032
0023
1030
,
1100
0000
0000
1000
0100
0000
1000
0000
0010
0000
1000
0000
0200
0000
0000
0000
,
0302
0000
0000
0000
0203
0000
0000
0000
0310
0001
0010
0000
1001
0000
0000
0000
,
0001
0000
0100
0000
0000
0000
0000
0000
0001
0000
0000
0100
0000
0000
0010
0000
,
1000
0000
0100
0000
0000
0000
0000
0000
1000
0000
0000
0100
0000
0000
0010
0000
,
0001
0000
1000
0000
0000
0000
0000
0000
0001
0000
0000
1000
0000
0000
0010
0000
,
0100
0000
0001
0000
0000
0000
0000
0000
0100
0001
1000
0000
1001
0000
0000
0000
,
1000
0000
0010
0000
0000
0000
0000
0000
0001
0000
0000
0010
0000
0000
0100
0000
,
0001
0000
0010
0000
0000
0000
0000
0000
1000
0000
0000
0010
0000
0000
0100
0000
,
0001
0000
0100
0000
0000
0000
0000
0000
1000
0000
0000
0010
0000
0000
0100
0000
,
1000
0000
0100
0000
0000
0000
0000
0000
0001
0010
0100
0000
1100
0000
0000
0000
,
2010
0000
0001
0000
0100
0000
0010
0010
,
0000
0001
0000
3100
0000
1000
0100
0001
,
0000
1020
0000
0002
0000
0033
0001
0100
,
0000
0000
0010
0000
0000
0000
1000
0000
0100
0010
0001
0000
0011
0000
0000
0000
,
0102
0000
0010
0000
1000
0000
0100
0100
,
0000
0010
0000
2000
0000
0003
0000
3200
,
0000
0010
0310
0000
0011
0000
0001
0100
,
0010
0000
1000
0000
0000
0000
0100
0000
0010
0001
1000
0000
0010
0000
0100
0000
,
0120
0000
1000
2030
0000
3000
0010
1000
,
0010
0010
0100
0020
0000
1030
0001
0100
,
0110
0000
1001
0000
1000
0100
0010
0001
,
0200
0020
0300
0230
0000
0300
0001
0100
,
0210
0000
0301
0002
0000
0003
0100
0001
,
0100
0100
0010
0200
0000
0301
0010
0100
,
1100
0000
1001
0000
0001
0100
0010
1000
,
0001
0000
0100
0000
1000
0000
0100
0000
0001
0000
1000
0000
0010
0100
0010
0100
,
0010
1000
1001
0010
0000
1001
0100
0001
,
0010
0010
0000
2002
0000
3003
0100
1000
,
0010
1001
0000
0202
0000
0303
0100
0001
,
0010
1001
0000
2200
0000
0000
3300
0000
,
0010
0100
0101
0010
0000
1100
0010
0100
,
0001
0001
0000
2020
0000
3030
0010
1000
,
0102
0000
0010
0020
0000
0033
0000
0000
,
0011
0000
1100
0000
1010
0000
0200
0002
,
0000
0000
0000
0000
0000
0000
0303
0000
0001
1000
0001
1000
0001
0000
0000
0000
,
1010
0000
0000
0010
1000
0000
0010
0000
1000
0000
0001
0000
1000
0000
0010
0000
,
1010
1000
1100
0000
0011
0001
0101
0000
,
0011
0000
0000
0010
0001
0000
0010
0000
0001
0000
1000
0000
0001
0000
0010
0000
,
0011
0001
0101
0000
1010
1000
1100
0000
,
1010
0000
0000
1000
0010
0000
0100
0000
0001
0000
0010
0000
0100
0000
1000
0000
,
1100
0010
0001
0000
0101
0010
1000
0000
,
0110
0000
0000
0010
0100
0000
0010
0000
1000
0000
0010
0000
0100
0000
0010
0000
,
0110
0000
0100
0000
1001
0000
0000
0000
0010
0100
0010
0000
1000
0001
1000
0001
,
1000
0010
0100
0000
0001
0010
0110
1000
,
0001
0000
0100
0001
1001
0000
0010
1000
,
0200
0001
1000
0001
,
1300
0000
0000
0000
0010
0000
0000
0000
0100
0001
0100
0000
0010
0000
1000
0000
,
0001
1000
0100
0000
0010
0001
1001
0010
,
0100
0000
0010
1000
1100
0000
0010
0001
,
0200
0001
1000
0301
,
0100
0010
1000
0001
1000
0100
0010
0001
,
1000
0100
0110
0001
0000
0110
0100
0001
,
0100
1001
0000
0220
0000
0330
0100
0001
,
0010
1001
0000
2200
0000
3300
0010
1000
,
0100
1001
0000
0022
0000
0033
0000
0000
,
1000
0001
0101
0010
0000
1001
0010
0001
,
0100
1001
0000
2200
0000
3300
1000
0001
,
0210
0000
0001
0002
0000
0303
0000
0000
,
0101
0000
1010
0000
1100
0000
0020
0002
,
0000
0000
0000
0033
;

//---------------dance-single - ----------------
#NOTEDATA:;
#CHARTNAME:;
#STEPSTYPE:dance-single;
#DESCRIPTION:;
#CHARTSTYLE:;
#DIFFICULTY:Medium;
#METER:8;
#RADARVALUES:0.298752,0.359118,0.117487,0.485612,0.000000,267.000000,252.000000,15.000000,62.000000,0.000000,0.000000,0.000000,0.000000,0.000000,0.298752,0.359118,0.117487,0.485612,0.000000,267.000000,252.000000,15.000000,62.000000,0.000000,0.000000,0.000000,0.000000,0.000000;
#CREDIT:;
#NOTES:
0000
0000
0000
0000
,
0000
0000
0000
0000
,
0000
0000
0000
0000
,
0000
0000
0000
0000
,
1000
0000
0100
0010
0100
1000
0200
0000
,
0320
0230
2300
3002
,
0013
0000
0001
0100
0001
0010
0002
0000
,
0203
0000
0320
0000
1030
0001
1001
0000
,
1000
0100
0010
0000
0000
0000
0000
0001
,
0100
0010
0000
0000
0000
0000
0100
0001
,
0000
1000
0000
0000
0000
0000
0010
1000
,
0001
0000
0000
0000
0100
0001
0100
0000
,
0010
1000
0001
0000
0000
0000
0000
0100
,
0010
0000
0000
0000
0000
0000
0010
0100
,
0001
0000
0000
0000
0000
0000
0010
0100
,
1000
0000
0000
0000
0001
1000
0001
0000
,
0200
0000
0301
0000
0200
0000
0301
1000
,
0000
1001
0000
0010
0000
0010
1000
0002
,
0000
0203
0000
0320
0000
0000
1000
2030
,
0000
3200
0000
0310
0001
1000
0001
0000
,
2000
0000
3010
0000
2000
0000
3010
0100
,
0000
1001
0000
0210
0000
0000
0000
0302
,
0000
0000
0000
0000
0000
0000
1003
0001
,
0100
0010
0000
0220
0000
0330
0010
1000
,
0002
0000
0003
0002
0000
0003
0001
0100
,
0010
1000
0010
2000
0000
3100
0010
0000
,
0001
0000
1000
0000
0001
1000
0001
0100
,
0000
0000
0000
0000
0000
0000
0100
0001
,
2000
0000
3001
2000
0000
3000
0010
0000
,
0200
0000
0301
0200
0000
0310
0100
0000
,
0001
0000
0001
0000
1000
0100
0010
0002
,
0000
0000
0000
0000
0000
0000
0013
0100
,
1000
0010
1000
0020
0000
0130
0010
1000
,
0010
0010
0000
0010
0000
0000
0100
0001
,
0100
0100
0000
0100
0000
0000
0010
1000
,
0010
0010
0000
0010
0000
0000
0000
0000
,
0100
0001
0100
0002
0000
0013
0100
1000
,
0100
0100
0000
0100
0000
0000
0010
0001
,
0020
0000
0031
0001
0000
0000
0000
0000
,
0101
0000
1001
0000
1010
0000
0020
0200
,
0000
0000
0330
0000
,
0010
0000
0100
0010
0100
0000
0010
0100
,
0020
0030
0020
0030
0020
0030
0020
0030
,
1000
0000
0001
1000
0001
0000
1000
0001
,
2000
3000
2000
3000
0002
0003
2000
3000
,
0001
0000
0010
0001
0010
0000
0001
0010
,
0002
0003
0020
0030
0002
0003
0020
0030
,
0100
0000
1000
0100
1000
0000
0100
1000
,
0200
0300
0200
0300
0020
0030
0200
0300
,
2000
3000
0000
1010
,
1100
0000
0010
0000
,
0002
0000
0000
0000
,
0003
0000
0000
0000
0100
0010
1000
0010
,
0100
0000
0000
0101
,
0011
0000
0100
0000
,
2000
0000
0000
0000
,
3000
0000
0000
0000
,
0100
0001
0100
0002
0000
0103
0010
0100
,
0001
0001
0000
0002
0000
0003
0100
0010
,
1000
1000
0000
2000
0000
3000
0010
0100
,
0001
0001
0000
0002
0000
0003
0000
0000
,
0010
1000
0010
2000
0000
3000
0100
0010
,
0100
0100
0000
1000
0000
0000
0010
0100
,
0002
0000
1003
0002
0000
0003
0000
0000
,
0011
0000
1001
0000
1010
0000
0020
0200
,
0000
0000
0330
0000
;

//---------------dance-double - ----------------
#NOTEDATA:;
#CHARTNAME:;
#STEPSTYPE:dance-double;
#DESCRIPTION:;
#CHARTSTYLE:;
#DIFFICULTY:Hard;
#METER:13;
#RADARVALUES:0.550509,0.695228,0.391622,0.250638,0.246722,492.000000,442.000000,50.000000,32.000000,0.000000,0.000000,0.000000,0.000000,0.000000,0.550509,0.695228,0.391622,0.250638,0.246722,492.000000,442.000000,50.000000,32.000000,0.000000,0.000000,0.000000,0.000000,0.000000;
#CREDIT:;
#NOTES:
// measure 0
00000000
00000000
00000000
00000000
,  // measure 1
00000000
00000000
00000000
00000000
,  // measure 2
00000000
00000000
00000000
00000000
,  // measure 3
00000000
00000000
00000000
01001000
,  // measure 4
00101000
00000000
00000000
00100000
00010000
00000000
01000000
00000000
00100000
00000000
10000000
00000000
02000000
00000000
00010000
00000000
,  // measure 5
03010000
00001000
00020000
00001000
00031000
00000100
00000002
00001003
,  // measure 6
00001001
00000000
00000000
00000001
00001000
00000000
00000010
00000000
00000100
00000000
00000010
00000000
00002000
00000000
00000100
00000000
,  // measure 7
00003100
00000000
00010000
00000000
00002000
00000000
00100000
00000000
00013000
00001000
00010000
00000000
00100000
00000000
00000000
00000000
,  // measure 8
10000000
00000000
01000000
10000000
00000000
00000000
00000000
00000000
00100000
00000000
00000000
00010000
00000000
00000000
00001000
00000010
,  // measure 9
00001000
00000000
00010000
00000000
01000000
00000000
00000000
00000000
00010000
00000000
00000000
00000000
00001000
00000000
00000100
00000001
,  // measure 10
00000000
00000000
00000100
00000000
00000010
00000000
00000000
00000000
00000100
00000000
00001000
00000000
00010000
00100000
00000000
00000000
,  // measure 11
00100000
00000000
10000000
00000000
10000000
00000000
00000000
00000000
00010000
10000000
00010000
00000000
10010000
00000000
00000000
00000000
,  // measure 12
00100000
00000000
01000000
00010000
00000000
00000000
00000000
00000000
00001000
00000000
00000000
00000100
00000000
00000000
00000001
00001000
,  // measure 13
00000001
00000000
00000010
00000000
00001000
00000000
00000000
00000000
00010000
00000000
00000000
00000000
00001000
00000000
00000100
00000001
,  // measure 14
00000000
00000000
00000010
00000000
00000100
00000000
00000000
00000000
00000001
00000000
00000000
00000000
00000100
00001000
00000000
00000000
,  // measure 15
00001000
00000000
00000010
00000000
00010010
00000000
00000000
00000000
00010000
00001000
00010000
00000000
00011000
00000000
00000000
00000000
,  // measure 16
00100000
00010000
00000000
00000000
00110000
00000000
00000000
00000000
00000100
00001000
00000000
00000000
00000100
00000000
00001000
00000000
,  // measure 17
00000000
00010100
00000000
00101000
00000000
00010000
00001000
00000010
,  // measure 18
00000000
00000011
00000000
00001010
00000000
00000010
00001000
00010000
,  // measure 19
00000000
00110000
00000000
10100000
10000000
00010000
01100000
00000000
,  // measure 20
00010000
01000000
00000000
00000000
01010000
00000000
00000000
00000000
00000010
00001000
00000000
00000000
00001000
00000000
00000100
00000000
,  // measure 21
00000000
00011000
00000000
01100000
00000000
00010000
00001000
00000200
,  // measure 22
00000000
00000000
00000001
00000000
00000301
00000000
00000000
00000000
00001000
00000001
00000000
00001000
00000001
00000000
00000100
00000000
,  // measure 23
00000010
00000000
00002000
00000000
00000000
00000000
00003001
00000000
00000010
00000100
00000010
00000000
00000001
00000000
00000001
00000000
,  // measure 24
00002000
00000010
00003010
00001010
00000000
00000000
00010000
00001000
,  // measure 25
02000000
00010000
03010000
01010000
00000000
00100000
10000000
00010000
,  // measure 26
10000000
01000000
10000000
00000000
00010000
00100000
00010000
00000000
01000000
00100000
01000000
00100000
01000000
00000000
00010000
00000000
,  // measure 27
02000000
00100000
03000000
10100000
00000000
02000000
00010000
03010000
,  // measure 28
00200000
00010000
01300000
00110000
00000000
00000000
00001000
00010000
,  // measure 29
00000200
00001000
00000310
00001100
00000000
00000010
00000100
00000100
,  // measure 30
00000001
00000010
00000001
00000000
00001000
00000100
00001000
00000000
00000010
00000100
00000010
00000100
00000010
00000100
00000010
00000000
,  // measure 31
00001000
00000001
00001000
00000001
00001000
00000001
00001000
00000001
00001000
00000001
00001000
00000000
00000100
00000000
00000010
00000000
,  // measure 32
00000001
00000100
00001000
00010000
00000000
00011000
00001000
00200000
,  // measure 33
01000000
01300000
00000000
11000000
00000000
00100000
00010000
02000000
,  // measure 34
00100000
03100000
00000000
11000000
00000000
10000000
00010000
00200000
,  // measure 35
01000000
00000000
01300000
00000000
00000000
00000000
11000000
00000000
10000000
00010000
01000000
00000000
01010000
00000000
00000000
00000000
,  // measure 36
10000000
01000000
00010000
00001000
00000000
00011000
00010000
00000020
,  // measure 37
00000100
00000130
00000000
00001001
00000000
00001000
00000100
00000001
,  // measure 38
00000201
00000000
00001000
00002000
00000000
00003300
00000000
00000000
,  // measure 39
00000001
00000010
00000100
00000000
00000100
00001000
00000010
00000000
00000010
00000100
00000010
00000000
00020000
00000000
00002000
00000000
,  // measure 40
00000000
00000000
00000000
00000000
00000000
00000000
00033000
00000000
00001000
00010000
00001000
00010000
00001000
00000000
00000000
00000000
,  // measure 41
00101000
00000000
00000000
00100000
00001000
00000000
00001000
00000000
00100000
00000000
00001000
00000000
00001000
00000000
00100000
00000000
,  // measure 42
00001000
00001000
00001000
00001000
00010000
00010000
00010000
00010000
,  // measure 43
00010010
00000000
00000000
00000010
00010000
00000000
00000010
00000000
00000010
00000000
00010000
00000000
00000010
00000000
00000010
00000000
,  // measure 44
00010000
00010000
00010000
00010000
00000010
00000010
00000010
00000000
,  // measure 45
00011000
00000000
00000000
00001000
00100000
00000000
01000000
00000000
10000000
00000000
01000000
00000000
00100000
00000000
00001000
00000000
,  // measure 46
00010000
00000100
00000010
00000000
00000010
00000100
00010000
00000000
00010000
00000100
00000010
00000000
00000010
00000001
00000100
00000000
,  // measure 47
00000101
00000000
00000000
00000001
00000100
00000000
00000010
00000000
00010000
00000000
00000010
00000000
00000100
00000000
00000001
00000000
,  // measure 48
00001000
00000100
00000010
00000000
00000010
00000100
00001000
00000000
00001000
00000100
00010000
00000000
00001000
00010000
00001000
00010000
,  // measure 49
00001000
00100000
00010000
00000000
01000000
00100000
10010000
00000000
,  // measure 50
01100000
10000000
00010000
00000000
01010000
00100000
10000000
00000000
,  // measure 51
11000000
00100000
00010000
01000000
00100000
10000000
01000000
00010000
,  // measure 52
00001000
00000000
00000010
00000000
00000001
00000000
00000100
00000000
00000010
00001000
00000010
00000000
00000100
00000000
00000001
00000000
,  // measure 53
00001000
00000100
00000010
00000000
00000001
00000100
00001001
00000000
,  // measure 54
00000100
00000010
00001100
00000000
00000010
00000100
00011000
00000000
,  // measure 55
00100000
00010000
01000000
00100000
10000000
00010000
01000000
00100000
,  // measure 56
01000000
00100000
01000000
00100000
01000000
00100000
01000000
00100000
10000000
00000000
00010000
00000000
01000000
00000000
00100000
00000000
,  // measure 57
10000000
01000000
00110000
02000000
00000000
13000000
00010000
01000000
,  // measure 58
00010000
00010000
00000000
00202000
00000000
00303000
00010000
00000010
,  // measure 59
00010000
00010000
00000000
00002200
00000000
00003300
00000010
00000001
,  // measure 60
00000100
00000000
00000010
00000000
00000000
00000000
00001001
00000000
00000100
00000010
00000100
00000000
00001001
00000000
00000000
00000000
,  // measure 61
00000001
00000100
00001010
00000200
00000000
00010300
00001000
00000100
,  // measure 62
00001000
00010000
00000000
20200000
00000000
30300000
00010000
01000000
,  // measure 63
01001000
00000000
00010000
00000020
00000000
00000030
00000000
00000000
,  // measure 64
00000100
00000010
00000000
00000000
00000010
00000100
00000000
00000000
00000110
00000000
00000000
00000000
00002000
00000000
00000002
00000000
,  // measure 65
00000000
00000000
00000000
00003003
;

//---------------dance-single - ----------------
#NOTEDATA:;
#CHARTNAME:;
#STEPSTYPE:dance-single;
#DESCRIPTION:;
#CHARTSTYLE:;
#DIFFICULTY:Easy;
#METER:6;
#RADARVALUES:0.239449,0.308990,0.093989,0.430785,0.000000,214.000000,202.000000,12.000000,55.000000,0.000000,0.000000,0.000000,0.000000,0.000000,0.239449,0.308990,0.093989,0.430785,0.000000,214.000000,202.000000,12.000000,55.000000,0.000000,0.000000,0.000000,0.000000,0.000000;
#CREDIT:;
#NOTES:
0000
0000
0000
0000
,
0000
0000
0000
0000
,
0000
0000
0000
0000
,
0000
0000
0000
0000
,
2000
3100
0100
2000
,
3020
0230
0302
0023
,
0032
0103
0100
0002
,
0023
0000
0230
0000
1300
0001
1000
0000
,
0010
1000
0000
0000
0000
0000
0000
0010
,
1000
0010
0000
0000
0000
0000
0100
0001
,
0100
0000
0000
0000
0000
0000
0100
0001
,
0100
0000
0010
1001
,
1000
0100
0000
0000
0000
0000
0000
1000
,
0100
0000
0000
0000
0000
0000
0010
0001
,
0010
0000
0000
0000
0000
0000
0010
0001
,
0010
0000
0100
1001
,
0020
0000
0230
0000
0320
0000
1030
0002
,
0000
2003
0000
3002
0000
0203
0000
0320
,
0000
0230
0000
0302
0000
0000
0000
2003
,
0000
3020
0000
0230
0000
0300
0000
0000
,
0002
0000
2003
0000
3002
0000
0103
0020
,
0000
0230
0000
0320
0000
0000
0000
2030
,
0000
0000
0000
3000
0000
0000
1000
0100
,
0010
0001
0000
0001
0000
0000
0001
0000
,
2000
0000
0000
3020
0000
0000
1030
0000
,
0200
0000
0000
2300
0000
0000
3010
0000
,
0200
0302
0203
0320
,
0230
0300
0000
0001
,
0020
0000
0000
0032
0000
0000
0103
0000
,
0020
0000
0000
2030
0000
0000
3100
0000
,
0010
0010
0001
1000
,
0010
0010
0010
0110
,
1000
0000
0001
1000
0000
0000
0010
0000
,
0100
0001
0000
0100
0000
0000
0010
0000
,
0100
0001
0000
0100
0000
0000
0010
0000
,
0100
0001
0000
1000
0000
0000
0000
0000
,
1000
0000
0001
1000
0000
0000
0010
0000
,
0100
0001
0000
0010
0000
0000
0100
0000
,
1000
0000
0010
0100
0000
0000
0000
0000
,
0001
0000
0001
0000
0001
0000
0002
2000
,
0000
0000
3003
0000
,
1000
0001
1000
0001
,
0100
0110
0100
0110
,
0001
1000
0001
1000
,
0010
0110
0010
0110
,
1000
0100
0001
0100
,
2000
3002
2003
3002
,
1003
0001
1000
0001
,
1000
1010
0001
0011
,
0200
0300
0000
1000
,
0001
0000
0100
0000
,
0002
0000
0000
0000
,
0003
0000
0010
0100
,
1000
0000
0000
0010
,
1000
0000
0002
0000
,
0023
0000
0000
0000
,
0030
0000
0000
0000
,
0001
0000
0100
0001
0000
0000
1000
0000
,
0010
1000
0000
0100
0000
0000
1000
0000
,
0010
1000
0000
0100
0000
0000
1000
0000
,
0010
1000
0000
0100
0000
0000
0000
0000
,
0010
0000
0001
1000
0000
0000
0010
0000
,
0100
0001
0000
1000
0000
0000
0020
0000
,
1030
0000
0001
1000
0000
0000
0000
0000
,
0101
0000
0011
0000
1100
0000
1000
0020
,
0000
0000
0000
0030
;

//---------------dance-double - ----------------
#NOTEDATA:;
#CHARTNAME:;
#STEPSTYPE:dance-double;
#DESCRIPTION:;
#CHARTSTYLE:;
#DIFFICULTY:Medium;
#METER:7;
#RADARVALUES:0.317774,0.386972,0.164481,0.532606,0.000000,284.000000,263.000000,21.000000,68.000000,0.000000,0.000000,0.000000,0.000000,0.000000,0.317774,0.386972,0.164481,0.532606,0.000000,284.000000,263.000000,21.000000,68.000000,0.000000,0.000000,0.000000,0.000000,0.000000;
#CREDIT:;
#NOTES:
00000000
00000000
00000000
00000000
,
00000000
00000000
00000000
00000000
,
00000000
00000000
00000000
00000000
,
00000000
00000000
00000000
00000010
,
00001000
00000000
00000100
00000010
00000100
00000000
00002000
00000000
,
00003002
00000203
00002300
00023000
,
00230000
00000000
10300000
00010000
10000000
00000000
00200000
00000000
,
02300000
00000000
03200000
00000000
00310000
00001000
00000010
00000000
,
00000001
00000100
00000000
00000000
00000000
00000000
00000001
00000100
,
00000010
00001000
00000000
00000000
00000000
00000000
00000100
00010000
,
00000000
00000100
00000000
00000000
00000000
00000000
00000100
00010000
,
00001000
00000000
00000000
00000000
00100000
00010000
01000000
00000000
,
00100000
10000000
01000000
00000000
00000000
00000000
00100000
00001000
,
00010000
00000100
00000000
00000000
00000000
00000000
00010000
00000010
,
00000000
00010000
00000000
00000000
00000000
00000000
00000100
00000010
,
00000001
00000000
00000000
00000000
00001000
00000100
00000010
00000000
,
00000100
00000000
00010100
00000000
00010000
00000000
00001000
00100000
,
00000000
00101000
00000000
00001000
00000000
01000000
00100000
01000000
,
00000000
00100000
00000000
20020000
00000000
30030000
01000000
00100000
,
00000000
00110000
00000000
22000000
00000000
33000000
00000000
00000000
,
00100000
00000000
10100000
00000000
10000000
00000000
00010000
01000000
,
00000000
01010000
00000000
00200000
00000000
00000000
00300000
00001000
,
00020000
00000000
00000000
00000000
00030000
00000000
00000100
00000010
,
00000001
00001000
00000000
00002002
00000000
00003003
00000010
00000100
,
00000020
00000000
00000030
00000020
00000000
00000030
00001000
00000100
,
00010000
00010000
00001000
00200000
00000000
00310000
01000000
00000000
,
00010000
00000000
00110000
00000000
00100000
00010000
01000000
00020000
,
00000000
00030000
00000000
00000000
00000000
00000000
00100000
01000000
,
20000000
00000000
31000000
20000000
00000000
30000000
00100000
01000000
,
00001000
00001000
00010000
00000200
00000000
00001300
00000010
00000000
,
00001010
00000000
00000101
00000000
00001000
00000001
00000100
00000010
,
00001000
00000100
00000010
00000001
00000200
00000000
00000320
00000000
,
00001030
00000010
00001000
00000020
00000000
00001030
00000100
00001000
,
00001000
00000200
00000000
00002300
00000000
00003000
00000100
00000100
,
00001000
00000200
00000000
00002300
00000000
00003000
00000100
00010000
,
00001000
02000000
03000000
02000000
00000000
03000000
00000000
00000000
,
00100000
10000000
00100000
00200000
00000000
10300000
00010000
10000000
,
00010000
20000000
00000000
32000000
00000000
03000000
10000000
01000000
,
20000000
00000000
30010000
02000000
00000000
03000000
00000000
00000000
,
01010000
00000000
01010000
00000000
10100000
00000000
00100000
20000000
,
00000000
00000000
00000000
30000000
,
00010000
00000000
00100000
00010000
00100000
00000000
00010000
00100000
,
00010000
00010000
00100000
00001000
,
00010000
00000000
00000100
00010000
00000100
00000000
00010000
00000100
,
00010000
00010000
00000100
00000100
,
00000010
00000000
00000001
00001000
00000001
00000000
00000100
00000000
,
00000020
00002030
00003020
00002030
,
00003001
00000000
00000100
00000001
00000100
00000000
00000010
00000000
,
00020000
00000000
00032000
00000000
00013000
00010000
00001000
00010000
,
00001000
00000000
00000000
00100000
,
00110000
00000000
02000000
03000000
,
02002000
00000000
00000000
03003000
,
00000000
00000000
00000000
00000000
00001000
00010000
00001000
00010000
,
00000200
00000000
00000300
00000010
,
00000022
00000033
00020200
00030300
,
00022000
00000000
00000000
00000000
,
00000000
00000000
00033000
00000000
01000000
00010000
10000000
00010000
,
00100000
00010000
01000000
00020000
00000000
00130000
00010000
01000000
,
00010000
00200000
00300000
00200000
00000000
00000000
00301000
00010000
,
00000100
00002000
00003000
00002000
00000000
00003000
00000100
00001000
,
00000100
00000020
00000030
00000020
00000000
00000030
00000000
00000000
,
00000001
00001000
00000001
00000200
00000000
00000301
00001000
00000010
,
00000100
00000020
00000030
00000020
00000000
00000030
00001000
00000100
,
00001000
00000000
00000100
00020000
00000000
00030000
00000000
00000000
,
00011000
00000000
00011000
00000000
00100000
00000000
00100000
00200000
,
00000000
00000000
00000000
02300000
00000000
00000000
00000000
03000000
;

//---------------dance-double - ----------------
#NOTEDATA:;
#CHARTNAME:;
#STEPSTYPE:dance-double;
#DESCRIPTION:;
#CHARTSTYLE:;
#DIFFICULTY:Easy;
#METER:5;
#RADARVALUES:0.192454,0.231743,0.015665,0.360293,0.000000,172.000000,170.000000,2.000000,46.000000,0.000000,0.000000,0.000000,0.000000,0.000000,0.192454,0.231743,0.015665,0.360293,0.000000,172.000000,170.000000,2.000000,46.000000,0.000000,0.000000,0.000000,0.000000,0.000000;
#CREDIT:;
#NOTES:
00000000
00000000
00000000
00000000
,
00000000
00000000
00000000
00000000
,
00000000
00000000
00000000
00000000
,
00000000
00000000
00000000
00000000
,
10000000
01000000
10000000
02000000
,
03200000
02300000
03200000
02300000
,
03100000
00001000
00010000
00000200
,
00002300
00003200
00002300
00003001
,
00000100
00000000
00000000
00000010
,
00010000
00000000
00000000
00010000
,
00001000
00000000
00000000
01000000
,
00001000
00000000
00100000
11000000
,
00100000
00000000
00000000
00000000
,
00010000
00000000
00000000
01000000
,
00001000
00000000
00000000
00010000
,
00000100
00000000
00001000
00000110
,
00002000
00000000
00003002
00000000
00002003
00000000
00003000
00002000
,
00000000
00003020
00000000
00000230
00000000
00000310
00000000
00000020
,
00000000
00020030
00000000
00032000
00000000
00003000
00000000
00002000
,
00000000
02003000
00000000
03002000
00000000
00003000
00000000
00000000
,
00100000
00000000
01000000
00000000
10000000
00000000
01000000
00200000
,
00000000
00320000
00000000
02030000
00000000
00000000
00000000
03020000
,
00000000
00000000
00000000
00000000
00000000
00030000
00000000
00000000
,
00200000
00000000
00300000
00010000
,
02000000
00000000
03000000
02000000
00000000
03000000
00010000
00000000
,
00200000
00000000
00300000
00200000
00000000
00300000
00001000
00000000
,
00010000
00000100
00010000
00000010
,
00000000
00000000
00000000
00000100
,
00000002
00000000
00000003
00000002
00000000
00000003
00001000
00000000
,
00000200
00000000
00000300
00000200
00000000
00000300
00001000
00000000
,
00000010
00000010
00010000
00002000
,
00000000
00003000
00000000
00000000
,
01000000
00000000
00010000
00000000
,
00100000
00010000
01000000
00000000
,
00100000
00010000
01000000
00000000
,
00100000
00010000
10000000
00000000
,
01000000
00010000
00000000
00001000
,
00000010
00000100
00000001
00000000
,
00001000
00000000
00000001
00000000
,
00000100
00000100
00000010
00000010
,
00000000
00000000
00000000
00000000
,
00010000
00000100
00010000
00000100
,
00010000
00010000
00001000
00001000
,
00100000
00001000
00100000
00001000
,
00010000
00010000
00001000
00001000
,
00010000
00000010
00000100
00000010
,
00020000
00032000
00023000
00032000
,
01003000
00010000
00100000
00010000
,
02000000
03002000
00023000
00030200
,
00000310
00000000
00000000
00000100
,
00000100
00000000
00010000
00000000
,
00000200
00000000
00000000
00000300
,
00000000
00000000
00010000
00001000
,
01000000
00000000
00000000
00100000
,
10000000
00000000
00100000
00000000
,
02000000
00000000
00000000
03000000
,
00000000
00000000
00010000
10000000
,
00010000
00000000
00000000
00100000
00000000
00000000
00010000
00000000
,
01000000
00000000
00000000
00010000
00000000
00000000
00100000
00000000
,
00001000
00000000
00000000
00001000
00000000
00000000
00010000
00000000
,
00000100
00000000
00000000
00000100
00000000
00000000
00000000
00000000
,
00001000
00000010
00000000
00000100
,
00000001
00000000
00000000
00001000
00000000
00000000
00000010
00000000
,
00000010
00000000
00000000
00000100
00000000
00000000
00000000
00000000
,
00000010
00000000
00010000
00000000
00001000
00000000
00100000
00020000
,
00000000
00000000
00000000
00030000
;

//---------------dance-single - ----------------
#NOTEDATA:;
#CHARTNAME:;
#STEPSTYPE:dance-single;
#DESCRIPTION:;
#CHARTSTYLE:;
#DIFFICULTY:Beginner;
#METER:3;
#RADARVALUES:0.116368,0.180244,0.023497,0.117487,0.000000,104.000000,101.000000,3.000000,15.000000,0.000000,0.000000,0.000000,0.000000,0.000000,0.116368,0.180244,0.023497,0.117487,0.000000,104.000000,101.000000,3.000000,15.000000,0.000000,0.000000,0.000000,0.000000,0.000000;
#CREDIT:;
#NOTES:
0000
0000
0000
0000
,
0000
0000
0000
0000
,
0000
0000
0000
0000
,
0000
0000
0000
0000
,
0000
1000
1000
2000
,
0000
3000
2000
3000
,
0000
0001
0001
0002
,
0000
0003
0001
0000
,
0100
0000
0000
0000
,
0010
0000
0000
0100
,
0000
0000
0000
0001
,
0001
0000
0000
0000
,
1000
0000
0000
0000
,
0010
0000
0000
0100
,
0000
0000
0000
0010
,
0010
0000
0000
1001
,
1001
0000
0000
0100
,
0000
0000
0000
1000
,
0000
0000
0000
0010
,
0000
0000
0000
0100
,
0000
0000
0000
0001
,
0000
0000
0020
0030
,
0020
0030
0000
0100
,
0100
0000
0000
1000
,
1000
0000
0000
0001
,
0001
0000
0000
1000
,
1000
0000
0001
0000
,
1000
0000
0000
0010
,
0010
0000
0000
0100
,
0100
0000
0000
0010
,
0010
0000
0100
0000
,
0010
0000
0000
0000
,
1000
0000
0000
0100
,
0100
0000
0000
0000
,
0100
0100
0000
1000
,
1000
0000
0000
0000
,
0001
0000
0000
0100
,
0100
0000
0000
0100
,
0100
0000
0000
0000
,
0001
0000
1000
0000
,
0001
0000
0000
0000
,
1000
0000
0000
0100
,
0200
0300
0200
0300
,
0100
0000
0000
0010
,
0020
0030
0020
0030
,
0010
0000
0000
0000
,
0001
0000
0001
0000
,
1000
0000
0000
1000
,
2000
3000
2000
3000
,
0000
0000
0000
0010
,
0010
0000
0100
0000
,
0020
0000
0000
0030
,
0000
0000
1000
1000
,
1000
0000
0000
0001
,
0001
0000
0010
0000
,
0020
0000
0000
0000
,
0030
0000
0000
0000
,
0100
0000
0000
0010
,
0010
0000
0000
0001
,
0001
0000
0000
1000
,
1000
0000
0000
0000
,
0100
0000
0000
1000
,
1000
0000
0000
0010
,
0010
0000
0000
0000
,
0100
0000
0100
0000
,
0220
0000
0000
0330
;
