#VERSION:0.83;
#TITLE:7 To Smoke;
#SUBTITLE:;
#ARTIST:lapix;
#TITLETRANSLIT:;
#SUBTITLETRANSLIT:;
#ARTISTTRANSLIT:;
#GENRE:House;
#ORIGIN:;
#CREDIT:;
#BANNER:7tosmoke-bn.png;
#BACKGROUND:7tosmoke-bg.png;
#PREVIEWVID:;
#JACKET:;
#CDIMAGE:;
#DISCIMAGE:;
#LYRICSPATH:;
#CDTITLE:;
#MUSIC:7 to Smoke.ogg;
#OFFSET:0.000000;
#SAMPLESTART:20.620001;
#SAMPLELENGTH:12.000000;
#SELECTABLE:YES;
#BPMS:0.000=128.000;
#STOPS:;
#DELAYS:;
#WARPS:;
#TIMESIGNATURES:0.000=4=4;
#TICKCOUNTS:0.000=4;
#COMBOS:0.000=1;
#SPEEDS:0.000=1.000=0.000=0;
#SCROLLS:0.000=1.000;
#FAKES:;
#LABELS:0.000=Song Start;
#BGCHANGES:;
#KEYSOUNDS:;
#ATTACKS:
;

//---------------dance-single - ----------------
#NOTEDATA:;
#CHARTNAME:;
#STEPSTYPE:dance-single;
#DESCRIPTION:;
#CHARTSTYLE:;
#DIFFICULTY:Challenge;
#METER:15;
#RADARVALUES:0.727018,0.861724,0.331300,0.110433,1.085926,553.000000,517.000000,36.000000,12.000000,0.000000,0.000000,0.000000,0.000000,0.000000,0.727018,0.861724,0.331300,0.110433,1.085926,553.000000,517.000000,36.000000,12.000000,0.000000,0.000000,0.000000,0.000000,0.000000;
#CREDIT:;
#NOTES:
// measure 0
0000
0000
0000
0000
,  // measure 1
0000
0000
0000
0000
,  // measure 2
0000
0000
0000
0000
,  // measure 3
0100
0000
0001
0000
1000
0010
0000
0000
0110
0000
0000
0000
0101
0000
0000
0001
,  // measure 4
0000
0000
1000
0000
0010
0000
0001
0010
0000
1000
0010
0000
0100
0001
0100
0000
,  // measure 5
0101
0000
0010
0000
1000
0001
0000
0000
0100
0010
0000
0000
1001
0000
0010
0100
,  // measure 6
0000
0000
0001
0000
0011
0000
0100
1000
0000
0000
0010
0000
1010
0000
0100
0001
,  // measure 7
0010
0000
0100
0000
1000
0001
0000
0000
0110
0000
0000
0000
0001
0000
0000
0200
,  // measure 8
0000
0010
0010
0010
0010
0010
0310
0000
,  // measure 9
0100
0001
0000
2000
0000
0000
3000
0000
0100
0001
0000
2000
0000
0000
3000
0000
,  // measure 10
0010
0000
0000
1000
0000
0000
0000
0000
0000
0010
0000
0000
0001
0000
0000
0010
0000
0000
0000
0000
0000
0000
1000
0000
0010
0000
0000
0000
1000
0000
0010
0000
0000
0000
1000
0000
0020
0000
0000
0000
0000
0000
0000
0000
0000
0000
0000
0000
,  // measure 11
0130
0000
0001
0000
0010
0001
0000
0100
0000
0001
0000
0000
0010
0100
1000
0000
,  // measure 12
0100
0000
0010
0000
0100
1000
0000
0010
0000
0100
0000
0000
0001
1000
0001
0000
,  // measure 13
0010
0000
0001
0000
0010
0100
0000
0100
0000
0100
0000
1000
0001
0100
0010
0000
,  // measure 14
0100
0000
0010
0000
0001
0010
0000
1000
0000
0100
0000
0010
0001
0000
1000
0000
,  // measure 15
0010
0000
1000
0000
0100
1000
0000
0010
0000
0100
0000
0001
1000
0010
0100
0000
,  // measure 16
0001
0000
0010
0000
0100
0010
0000
0001
0000
0001
0000
1000
0010
0100
0001
0010
,  // measure 17
0100
0000
1000
0000
0001
0010
0000
0010
0000
0010
0000
0001
1000
0010
0100
0000
,  // measure 18
0110
0000
0100
0000
0001
0010
0000
0100
0000
1000
0000
0010
0001
0010
1000
0000
,  // measure 19
0001
0000
0100
0000
0010
1000
0000
0001
0000
1000
0000
0010
0100
0010
0100
0000
,  // measure 20
0001
0000
1000
0000
0010
0100
0000
0001
0000
0001
0000
1000
0100
0010
0001
0000
,  // measure 21
0011
0000
0100
0000
1000
0001
0000
0010
0000
0010
0000
0001
0100
1000
0100
0000
,  // measure 22
0001
0000
0100
0000
1000
0100
0000
0001
0000
1000
0000
0001
1000
0000
0010
0000
,  // measure 23
1010
0000
0100
0000
0001
0010
0000
0100
0000
1000
0000
0010
0001
0010
1000
0000
,  // measure 24
0010
0000
0100
0000
0010
1000
0000
0010
0000
0100
0000
0010
1000
0100
0010
0000
,  // measure 25
0001
0000
1000
0000
0100
0010
0000
0001
0000
0001
0000
1000
0010
0001
0010
0000
,  // measure 26
1001
0000
0010
0000
0100
0010
0000
1001
0000
0110
0000
0000
0200
0000
0000
0000
,  // measure 27
0301
0010
0100
1000
0010
0100
0001
0010
0100
1000
0010
0100
0001
0010
0100
1000
,  // measure 28
0010
0100
0010
0100
0010
0100
0010
0100
0020
0000
0000
0000
0000
0000
0000
0000
,  // measure 29
0030
0000
0000
0000
0000
0000
0101
0000
0000
0000
0000
0000
1100
0000
0000
0000
0000
0000
0010
0000
0000
0100
0001
1000
,  // measure 30
0010
0000
0100
0000
0010
0000
1000
0001
0000
0000
0100
0000
0001
0000
1000
0000
,  // measure 31
0000
0000
0000
0000
0000
0000
0011
0000
0000
0000
0000
0000
1010
0000
0000
0000
0000
0000
0100
0000
0000
0001
0010
0100
,  // measure 32
1000
0000
0010
0000
0100
0000
0001
0010
0000
0100
0010
0000
0001
1000
0100
0000
,  // measure 33
0000
0000
0000
0000
0000
0000
1100
0000
0000
0000
0000
0000
0101
0000
0000
0000
0000
0000
0010
0000
0000
1000
0001
0100
,  // measure 34
0010
0000
0100
0000
0001
0000
1000
0010
0000
0000
0100
0000
0010
0000
0100
0000
,  // measure 35
0000
0000
0000
0000
1010
0000
0000
0000
0011
0000
0000
0000
0100
0000
0010
1000
,  // measure 36
0000
0200
0010
0010
0010
0010
0310
0000
,  // measure 37
0001
1000
0000
0020
0000
0000
0030
0000
0001
1000
0000
0020
0000
0000
0030
0000
,  // measure 38
1000
0000
0000
0100
0000
0000
0000
0000
0000
0001
0000
0000
0100
0000
0000
1000
0000
0000
0000
0000
0000
0000
0010
0000
0100
0000
0000
0000
0010
0000
0100
0000
0000
0000
0010
0000
0200
0000
0000
0000
0000
0000
0000
0000
0000
0000
0000
0000
,  // measure 39
0301
0000
1000
0000
0100
0010
0000
0100
1000
0100
0010
0100
1000
0100
0010
0001
,  // measure 40
0100
0000
0010
1000
0000
0001
0000
0100
0001
0010
0001
0100
0001
0010
0001
0100
,  // measure 41
0010
1000
0100
0010
0001
0100
0010
1000
0100
1000
0010
0100
0001
1000
0010
0100
,  // measure 42
0001
0010
0001
1000
0001
0100
0001
0010
0100
1000
0100
0001
0100
1000
0100
0010
,  // measure 43
0001
0000
1000
0000
0010
0100
0000
0010
1000
0100
1000
0010
1000
0100
1000
0010
,  // measure 44
0100
0000
0010
1000
0000
0001
0000
0100
0001
0010
0100
1000
0001
0010
0100
1000
,  // measure 45
0010
0100
0001
1000
0010
0100
0001
0010
0100
1000
0001
0010
0001
1000
0100
0001
,  // measure 46
0100
1000
0100
0001
0100
1000
0100
0010
0001
1000
0001
0100
0001
1000
0001
0100
,  // measure 47
0001
0000
1000
0000
0010
0100
0000
0101
0000
0010
0000
0100
0010
1000
0010
0000
,  // measure 48
1000
0000
0001
0000
0100
0010
0000
0110
0000
1000
0000
0020
0000
0031
0010
1000
,  // measure 49
0001
0000
0100
0000
0010
0001
0000
0011
0000
1010
0000
0010
0100
0010
1000
0010
,  // measure 50
0100
0000
0000
0000
0000
0000
0001
0000
0000
0000
0000
0000
1000
0000
0000
0100
0000
0000
0000
0000
0000
1100
0000
0000
0000
0000
0000
0011
0000
0000
0000
0000
0000
0000
1000
0000
0100
0000
0010
0000
0001
0000
1000
0000
0100
0000
0010
0000
,  // measure 51
0001
0000
1000
0000
0010
1000
0000
1100
0000
0001
0000
0110
0000
0001
1000
0000
,  // measure 52
0010
0000
0100
0000
0010
1000
0000
0101
0000
1010
0000
0110
0000
0001
1000
0100
,  // measure 53
0010
0000
0100
0000
0001
0100
0000
0101
0000
1100
0000
1000
0010
0100
0001
0010
,  // measure 54
0100
0000
1000
0000
0001
0010
0000
0000
0000
0000
1000
0000
0001
0010
0000
0000
,  // measure 55
0000
0000
0100
0000
1000
0010
0000
0101
0000
1100
0000
0000
0000
0000
0000
0000
,  // measure 56
0002
0000
0000
0003
;

//---------------dance-single - ----------------
#NOTEDATA:;
#CHARTNAME:;
#STEPSTYPE:dance-single;
#DESCRIPTION:;
#CHARTSTYLE:;
#DIFFICULTY:Hard;
#METER:13;
#RADARVALUES:0.478544,0.626708,0.082825,0.156447,0.699410,364.000000,355.000000,9.000000,17.000000,0.000000,0.000000,0.000000,0.000000,0.000000,0.478544,0.626708,0.082825,0.156447,0.699410,364.000000,355.000000,9.000000,17.000000,0.000000,0.000000,0.000000,0.000000,0.000000;
#CREDIT:;
#NOTES:
0000
0000
0000
0000
,
0000
0000
0000
0000
,
0000
0000
0000
0000
,
0000
0000
0000
0000
,
0000
0000
0000
0000
,
0110
0000
0000
0000
2000
0000
0000
0000
3002
0000
0000
0000
0023
0000
0030
0011
,
0000
0000
0001
0000
0100
0000
0010
1000
0000
0000
0001
0000
0100
0000
0010
0000
,
0110
0000
0000
0000
0002
0000
0000
0000
2003
0000
0000
0000
3200
0000
0300
2200
,
0000
0000
0000
3300
,
1000
0100
0000
0010
0000
0000
0000
0000
1000
0100
0000
0010
0000
0000
0000
0000
,
1000
0100
0000
0000
1000
0100
0000
0000
1000
0100
0010
0000
0001
0000
0000
0000
,
0000
0000
0001
0000
1000
0010
0000
0100
0000
0100
0000
0000
0000
0000
0000
0000
,
0000
0000
0010
0000
1000
0001
0000
0010
0000
0010
0000
0000
0000
0000
0000
0000
,
0000
0000
0001
0000
0100
1000
0000
0100
0000
0001
0000
0000
0000
0000
0000
0000
,
0000
0000
1000
0000
0010
0100
0000
0010
0000
0001
0000
0010
0100
0000
0010
0000
,
0000
0000
1000
0000
0001
0100
0000
0010
0000
0010
0000
0000
1000
0001
1000
0000
,
0010
0000
0100
0000
0001
1000
0000
0010
0000
0010
0000
0000
0000
0000
0000
0000
,
0000
0000
0100
0000
0001
1000
0000
0100
0000
0001
0000
0000
0100
0000
1000
0000
,
0000
0000
0010
0000
0100
0001
0000
1000
0000
0100
0000
1000
0100
0000
0010
0000
,
0000
0000
0001
0000
1000
0100
0000
0001
0000
0100
0000
0010
0100
1000
0001
0000
,
0000
0000
0100
0000
0001
1000
0000
0010
0000
0010
0000
0000
0000
0000
0000
0000
,
0000
0000
0100
0000
0010
1000
0000
0100
0000
0100
0000
0000
0001
0000
0100
0000
,
0000
0000
1000
0000
0001
0010
0000
0100
0000
1000
0000
0100
0010
0000
0001
0000
,
0000
0000
1000
0000
0001
0100
0000
0010
0000
1000
0000
0100
0010
0100
1000
0000
,
0000
0000
0001
0000
0100
0010
0000
1000
0000
1000
0000
0000
0001
0000
1000
0000
,
0010
0000
0100
0000
0001
0010
0000
0010
0000
0010
0000
0100
0010
0001
0010
0000
,
0100
0000
1000
0000
0001
0010
0000
0001
0000
0100
0000
0010
0200
0000
0000
0000
,
0310
0000
0000
0010
0000
0000
0010
0000
0000
0010
0000
0000
0010
0000
0000
0020
,
0200
0000
0000
0000
0000
0000
0000
0330
,
0000
0000
0000
0000
0001
0000
0000
0000
0100
0000
0000
0000
1000
0000
0000
0100
,
0000
0000
0001
0000
0001
0000
1000
0010
0000
0000
1000
0000
1000
0000
0100
0000
,
0000
0000
0000
0000
1000
0000
0000
0000
0010
0000
0000
0000
0001
0000
0000
0010
,
0000
0000
1000
0000
1000
0000
0100
0010
0000
0001
1000
0000
0000
0010
0100
0000
,
0000
0000
0000
0000
0001
0000
0000
0000
0010
0000
0000
0000
1000
0000
0000
0010
,
0000
0000
0001
0000
0001
0000
1000
0100
0000
0000
1000
0000
1000
0000
0001
0000
,
0000
0000
0000
0000
1010
0000
0000
0000
0011
0000
0000
0000
0101
0000
0000
2200
,
0000
0000
0000
3300
,
0001
0100
0000
0010
0000
0000
0000
0000
0001
0100
0000
0010
0000
0000
0000
0000
,
0001
0100
0000
0000
0001
0100
0000
0000
0001
0100
0010
0000
2000
0000
0000
0000
,
3000
0000
0001
0000
1000
0100
0000
0010
0100
0010
0000
0100
0010
0100
1000
0000
,
0001
0000
0100
0010
0000
1000
0000
1000
0000
0010
0100
0000
0001
0000
1000
0000
,
0010
0001
0010
0100
1000
0100
0001
0010
,
0100
0001
0100
1000
0100
0010
0001
1000
,
0010
0000
1000
0000
0001
0100
0000
0010
0100
0010
0000
0100
0010
0100
0001
0000
,
1000
0000
0010
1000
0000
0001
0000
0100
0000
0010
1000
0010
1000
0010
0100
0010
,
0100
0001
1000
0010
1000
0001
0100
0001
,
0010
0001
0100
0001
0010
0100
1000
0001
,
1000
0000
0010
0000
0100
0001
0000
1000
0000
1000
0000
0010
0000
0100
0010
0000
,
0000
0000
0100
0000
0001
1000
0000
0100
0000
0100
0000
0010
0000
0001
1000
0010
,
0000
0000
0100
0000
0001
1000
0000
0100
0000
0100
1000
0010
0100
0001
0010
0100
,
0000
0000
1000
0000
0001
0100
0000
0001
0000
1000
0000
0002
0000
0000
0000
0000
,
0103
0000
0010
0000
0100
0001
0000
1000
0000
0010
0000
0100
0000
0001
0100
0000
,
0000
0000
0001
0000
0010
0100
0000
1000
0000
1000
0000
0010
0000
0001
0010
1000
,
0000
0000
0010
0000
0100
1000
0000
0100
0000
0100
0001
0010
0100
1000
0010
0100
,
0000
0000
0001
0000
1000
0100
0000
0000
0000
0000
1000
0000
0001
0100
0000
0000
,
0000
0000
0001
0000
1000
0100
0000
0010
0000
0010
0000
0000
0000
0000
0000
0000
,
0220
0000
0000
0330
;

//---------------dance-single - ----------------
#NOTEDATA:;
#CHARTNAME:;
#STEPSTYPE:dance-single;
#DESCRIPTION:;
#CHARTSTYLE:;
#DIFFICULTY:Medium;
#METER:10;
#RADARVALUES:0.357593,0.470031,0.138041,0.073622,0.377313,272.000000,257.000000,15.000000,8.000000,0.000000,0.000000,0.000000,0.000000,0.000000,0.357593,0.470031,0.138041,0.073622,0.377313,272.000000,257.000000,15.000000,8.000000,0.000000,0.000000,0.000000,0.000000,0.000000;
#CREDIT:;
#NOTES:
0000
0000
0000
0000
,
0000
0000
0000
0000
,
0000
0000
0000
0000
,
0000
0000
0000
0000
1000
0000
0000
0000
0100
0000
0000
0000
0010
0000
0000
0001
,
0000
0001
0010
0100
0000
0010
0100
1000
,
0000
0000
0000
0000
0001
0000
0000
0000
0100
0000
0000
0000
0010
0000
0000
1000
,
0000
1000
0100
0010
0000
0100
0010
0001
,
0000
0000
0000
0000
0100
0000
0000
0000
0010
0000
0000
0000
2000
0000
0000
0002
,
0000
0000
0000
3003
,
0101
0000
1010
0000
,
0101
0000
1010
0000
0101
0101
1010
0000
,
1000
0000
0100
0000
0010
0001
0000
0000
0000
0000
0000
0000
1000
0000
0001
0000
,
0000
0000
1000
0000
0010
0100
0000
0001
0000
0001
0000
0000
0000
0000
0000
0000
,
0000
0000
1000
0000
0100
0010
0000
0001
0000
0001
0000
0000
0000
0000
0000
0000
,
0000
0000
1000
0000
0010
0100
0000
0001
0000
1000
0000
0000
0000
0000
0000
0000
,
0001
0000
0010
0000
0100
1000
0000
0000
0000
0000
0000
0000
0010
0000
0100
0000
,
0000
0000
0001
0000
0010
0100
0000
1000
0000
1000
0000
0000
0000
0000
0000
0000
,
0000
0000
0001
0000
0100
0010
0000
1000
0000
1000
0000
0000
0000
0000
0000
0000
,
0000
0000
0001
0000
0100
0010
0000
1000
0000
0001
0000
0000
1000
0000
0000
0000
,
0000
0000
0010
0000
0100
0001
0000
1000
0000
0001
0000
0000
0000
0000
0000
0000
,
0000
0000
0100
0000
0010
1000
0000
0001
0000
1000
0000
0000
0000
0000
0000
0000
,
0000
0000
0010
0000
0100
0001
0000
1000
0000
0001
0000
0000
0000
0000
0000
0000
,
0000
0000
0100
0000
0010
1000
0000
0010
0000
1000
0000
0000
0000
0000
0000
0000
,
0000
0000
1000
0000
0100
1000
0000
0010
0000
1000
0000
0000
0000
0000
0000
0000
,
0000
0000
0010
0000
0100
0001
0000
0010
0000
0001
0000
0000
0000
0000
0000
0000
,
0000
0000
0010
0000
0001
1000
0000
0001
0000
0100
0000
0000
0000
0000
0000
0000
,
0000
0000
0010
0000
1000
0100
0000
0010
0000
0001
0000
0000
0000
0000
0000
0000
,
2000
0000
0000
0000
,
0002
0000
0000
3003
,
0000
0000
0000
0000
0001
0000
0000
0000
0100
0000
0000
0000
0001
0000
0000
1000
,
0000
0010
0100
0010
0000
0100
0010
0100
,
0000
0000
0000
0000
0010
0000
0000
0000
1000
0000
0000
0000
0001
0000
0000
0100
,
0000
0010
1000
0010
0000
1000
0100
0010
,
0000
0000
0000
0000
0100
0000
0000
0000
1000
0000
0000
0000
0001
0000
0000
0010
,
0000
0001
0100
0001
0000
1000
0100
0010
,
0000
0000
0000
0000
0010
0000
0000
0000
0001
0000
0000
0000
1000
0000
0000
0200
,
0000
0000
0000
0300
,
1010
0000
0101
0000
,
1010
0000
0101
0000
1010
1010
0101
0000
,
0000
0001
0010
0001
1000
0100
0010
0100
,
1000
0000
0001
1000
0000
0001
0000
0000
0100
0000
0000
0000
0100
0000
0000
0000
,
0010
1000
0010
1000
0001
0100
0001
0100
,
0010
0100
0010
0100
0001
0000
1000
0000
,
0010
1000
0100
1000
0010
1000
0100
1000
,
0010
0000
0100
0001
0000
0100
0000
0001
0000
0000
1000
0000
0001
0000
0000
0000
,
0100
0001
1000
0010
1000
0001
0200
0000
,
0001
0001
0010
0310
,
0000
0000
1000
0000
0100
0010
0000
0001
0000
0010
0000
0000
0000
0000
0000
0000
,
0000
0000
0001
0000
0010
0100
0000
1000
0000
0100
0000
0000
0000
0000
0000
0000
,
0000
0000
1000
0000
0001
0100
0000
0010
0000
0100
0000
0000
0000
0000
0000
0000
,
0000
0000
0001
0000
1000
0010
0000
0100
0000
0010
0000
0000
0000
0000
0000
0000
,
0000
0000
0100
0000
0001
1000
0000
0010
0000
1000
0000
0000
0000
0000
0000
0000
,
0000
0000
0010
0000
1000
0001
0000
0100
0000
0001
0000
0000
0000
0000
0000
0000
,
0000
0000
0100
0000
0010
1000
0000
0001
0000
1000
0000
0000
0000
0000
0000
0000
,
0000
0000
0010
0000
0100
0010
0000
0000
0000
0000
0100
0000
0010
0100
0000
0000
,
0000
0000
0010
0000
0100
0010
0000
1000
0000
1000
0000
0000
0000
0000
0000
0000
,
2020
0000
0000
3030
;

//---------------dance-single - ----------------
#NOTEDATA:;
#CHARTNAME:;
#STEPSTYPE:dance-single;
#DESCRIPTION:;
#CHARTSTYLE:;
#DIFFICULTY:Beginner;
#METER:3;
#RADARVALUES:0.110433,0.257677,0.055217,0.009203,0.000000,84.000000,78.000000,6.000000,1.000000,0.000000,0.000000,0.000000,0.000000,0.000000,0.110433,0.257677,0.055217,0.009203,0.000000,84.000000,78.000000,6.000000,1.000000,0.000000,0.000000,0.000000,0.000000,0.000000;
#CREDIT:;
#NOTES:
0000
0000
0000
0000
,
0000
0000
0000
0000
,
0000
0000
0000
0000
,
0000
0000
0000
0000
,
0000
0000
0000
0000
,
0000
0010
0010
0010
,
0000
0100
0000
0100
,
0000
0001
0000
1000
,
2000
0000
3000
0000
,
1001
0000
0110
0000
,
1001
1001
1001
0000
,
0000
0010
0000
0000
,
0000
1000
0000
0000
,
0000
0100
0000
0000
,
0000
0001
0000
0000
,
0000
0010
0000
0000
,
0000
0001
0000
0000
,
0000
0100
0000
0000
,
0000
1000
0000
0000
,
0000
0001
0000
1000
,
0000
1000
0000
0000
,
0000
0010
0000
0100
,
0000
0100
0000
0000
,
0000
0100
0000
0001
,
0000
0100
0000
0000
,
0000
0010
0000
1000
,
0000
0010
0010
0000
,
1000
0000
0000
0000
,
0001
0000
0000
0000
,
0000
0001
0001
0000
,
0000
0000
0000
0000
,
0000
1000
1000
0000
,
0000
0000
0000
0000
,
0000
0010
0010
0000
,
0000
0000
0000
0000
,
0000
0100
0100
0000
,
0100
0000
0000
0000
,
0001
0000
0001
0000
,
0001
0001
0001
0000
,
0000
1000
0000
0000
,
0000
0010
0000
0000
,
1000
0000
1000
0000
,
0001
0000
0001
0000
,
0000
0100
0000
0000
,
0010
0000
0000
0000
,
1000
0000
1000
0000
,
0001
0000
0001
0000
,
0000
0100
0000
0001
,
0000
0100
0000
0000
,
0000
0010
0000
1000
,
0000
0010
0000
0000
,
0000
0100
0000
0010
,
0000
0100
0000
0000
,
0000
0001
0000
1000
,
0000
0001
0000
0001
,
0000
0001
0001
0000
,
1001
0000
0000
0000
;

//---------------dance-double - ----------------
#NOTEDATA:;
#CHARTNAME:;
#STEPSTYPE:dance-double;
#DESCRIPTION:;
#CHARTSTYLE:;
#DIFFICULTY:Challenge;
#METER:16;
#RADARVALUES:0.801955,0.861724,0.708613,0.082825,1.122737,610.000000,533.000000,77.000000,9.000000,0.000000,0.000000,0.000000,0.000000,0.000000,0.801955,0.861724,0.708613,0.082825,1.122737,610.000000,533.000000,77.000000,9.000000,0.000000,0.000000,0.000000,0.000000,0.000000;
#CREDIT:;
#NOTES:
00000000
00000000
00000000
00000000
,
00000000
00000000
00000000
00000000
,
00000000
00000000
00000000
00000000
,
00100000
00000000
00000000
10000000
00000000
00000000
00000000
00000000
00000000
00000000
00000000
00000000
01010000
00000000
00000000
00000000
00000000
00000000
00000000
00000000
00000000
00000000
00000000
00000000
10100000
00000000
00000000
00000000
00000000
00000000
00000000
00000000
00000000
01000000
00000000
00000000
00010000
00000000
00000000
00000000
00000000
00000000
00100000
00000000
00000000
00000000
00001000
00000000
,
00010000
00000000
00000000
00000000
00000000
00000000
00001000
00000000
00000000
00000000
00000000
00000000
00010000
00000000
00000000
00000000
00000000
00000000
00001000
00000000
00000000
00000100
00000000
00000000
00000000
00000000
00000000
00000100
00000000
00000000
00000001
00000000
00000000
00000000
00000000
00000000
00001000
00000000
00000000
00000000
00000010
00000000
00000100
00000000
00000000
00000000
00000000
00000000
,
00000001
00000000
00000000
00000000
00000000
00000000
00000010
00000000
00000000
00000000
00000000
00000000
00001100
00000000
00000000
00000000
00000000
00000000
00000000
00000000
00000000
00000010
00000000
00000000
00000001
00000000
00000000
00000000
00000000
00000000
00001000
00000000
00000000
00000000
00000000
00000000
00000010
00000000
00000000
00000000
00000000
00000000
00000100
00000000
00000000
00000000
00001000
00000000
,
00010000
00000000
01000000
00000000
11000000
00000000
00100000
00010000
00000000
00000000
01000000
00000000
00100000
00000000
10010000
00000000
,
10000000
00000000
00000000
00000000
00000000
00000000
00010000
00000000
00000000
01000000
00000000
00000000
00100000
00000000
00000000
00000000
00000000
00000000
00010000
00000000
00000000
00001000
00000000
00000000
00000100
00000000
00000000
00000000
00000000
00000000
00000001
00000000
00000000
00001000
00000000
00000000
00000010
00000000
00000000
00000000
00000000
00000000
00000100
00000000
00000002
00000000
00000000
00000000
,
00000000
00001000
00001000
00001000
00001000
00001000
00001003
00000000
,
00000010
00010000
00000000
00001100
00000000
00000000
00000000
00000000
00010000
00001000
00000000
00110000
00000000
00000000
00000000
00000000
,
00001000
00010000
00000000
00000000
00000000
00001000
00000100
00000000
00000000
00000000
00000000
00001000
00010000
00000000
00100000
00010000
00000000
00000000
00022000
00000000
00000000
00000000
00000000
00000000
,
00033000
00000000
00001000
00000000
00100000
00010000
00000000
11000000
00000000
01010000
00000000
00000000
00100000
10000000
00100000
00000000
,
00000000
00000000
01000000
00000000
00010000
10000000
00000000
00110000
00000000
00011000
00000000
00000100
00000001
00000100
00000001
00000000
,
00001001
00000000
00000010
00000000
00010000
00001000
00000000
00001100
00000000
00000101
00000000
00000001
00000010
00000000
00001000
00000000
,
00010000
00000000
00100000
00000000
10000000
00010000
00000000
10100000
00000000
01010000
00000000
00100000
10000000
00000000
01010000
00000000
,
00000000
00000000
00100000
00000000
10000000
00010000
00000000
11000000
00000000
01010000
00000000
00100000
00010000
00001000
00000100
00000000
,
00000000
00000000
00000001
00000000
00001000
00000010
00000000
00001100
00000000
00000011
00000000
00000100
00001000
00000100
00001000
00000000
,
00010000
00000000
01000000
00000000
10000000
00010000
00000000
11000000
00000000
00110000
00000000
10000000
01000000
00000000
00010000
00000000
,
00001000
00000000
00100000
00000000
00010000
00001000
00000000
00001100
00000000
00000101
00000000
00000001
00001000
00000010
00000100
00000000
,
00000001
00000000
00001000
00000000
00000100
00000010
00000000
00001010
00000000
00011000
00000000
00010000
00001000
00000100
00001000
00000000
,
00010000
00000000
00100000
00000000
10000000
00100000
00000000
00110000
00000000
10100000
00000000
10000000
01000000
00010000
00001000
00000000
,
00000100
00000000
00000001
00000000
00000010
00001000
00000000
00001010
00000000
00000011
00000000
00000001
00000100
00000000
00001100
00000000
,
00000010
00000000
00000100
00000000
00001000
00010000
00000000
00110000
00000000
00010100
00000000
00010000
00100000
00000000
10000000
00000000
,
00010000
00000000
01000000
00000000
00100000
00010000
00000000
00110000
00000000
10100000
00000000
10000000
01000000
00010000
00001000
00000000
,
00000100
00000000
00000001
00000000
00001000
00000010
00000000
00001100
00000000
01001000
00000000
00001000
00000100
00000000
00001000
00000000
,
00010000
00000000
01000000
00000000
10000000
00010000
00000000
01100000
00000000
10010000
00000000
01000000
00100000
00010000
00001000
00000000
,
00000100
00000000
00000001
00001000
00000010
00000100
00000000
00000110
00000000
00000110
00000000
00000002
00002000
00000000
00003003
00000000
,
00000001
00000100
00000010
00001000
00000100
00000010
00000001
00000100
00000010
00001000
00000100
00000010
00000001
00000100
00000010
00001000
,
00000200
00010000
00001000
00010000
00001000
00010000
00001300
00000000
,
00011000
00000000
00000000
00000000
00000000
00100000
00010000
00000000
00000000
00000000
00000000
01000000
00010000
00000000
00000000
00000000
00000000
10000000
00100000
00000000
00000000
01000000
00010000
00000000
,
00000000
00000000
00000000
10000000
00000000
00000000
00010000
00000000
00000000
00100000
01000000
00000000
00000000
00000000
00000000
10000000
00000000
00010000
01000000
00000000
00000000
01100000
00000000
00000000
,
00000000
00000000
00000000
00000000
00000000
10000000
01000000
00000000
00000000
00000000
00000000
00100000
00001000
00000000
00000000
00000000
00000000
00010000
00000100
00000000
00000000
00001000
00010000
00000000
,
00000000
00000000
00000000
00000000
00000000
00000000
00001000
00000000
00000000
00000000
00000100
00000000
00000001
00000000
00000000
00000000
00000000
00000000
00000100
00000000
00000000
00000010
00000000
00000000
00000000
00000000
00000000
00000000
00000010
00000000
00000100
00000000
00000000
00000000
00000001
00000000
00001000
00000000
00000000
00000000
00000010
00000000
00000100
00000000
00000000
00000000
00000000
00000000
,
00000000
00000000
00000000
00000000
00000000
00000001
00001000
00000000
00000000
00000100
00000000
00000000
00011000
00000000
00000000
00100000
00000000
00010000
01000000
00000000
00000000
00100000
10000000
00000000
,
00000000
00000000
00000000
00000000
00000000
00000000
10000000
00000000
00000000
00000000
00000000
00000000
01010000
00000000
00000000
00000000
00000000
00000000
00100000
00000000
00000000
10000000
00000000
00000000
00000000
00000000
00000000
00000000
00000000
00000000
00010000
00000000
00000000
00000000
10000000
00000000
01000000
00000000
00000000
00000000
00000000
00000000
00100000
00000000
00000000
00000000
00000000
00000000
,
01000000
00000000
10000000
00100000
01000000
00000000
00001000
00010000
00000100
00000000
00000001
00001000
00000010
00000000
00000100
00000002
,
00000000
00001000
00000100
00001000
00000100
00001000
00000103
00000000
,
00000010
00010000
00000000
00010100
00000000
00000000
00000000
00000000
00010000
00001000
00000000
00101000
00000000
00000000
00000000
00010000
,
00001000
00000000
00000000
00100000
00000000
00000000
00000000
00000000
00000000
00010000
00000000
00000000
00001000
00000000
00000000
00000100
00000000
00000000
00000000
00000000
00000000
00000000
00000001
00000000
00000010
00000000
00000000
00000000
00000100
00000000
00001000
00000000
00000000
00000000
00000100
00000000
00010000
00000000
00000000
00000000
00000000
00000000
00011000
00000000
00000000
00000000
00000000
00000000
,
00010100
00000000
00001000
00000000
00100000
00010000
00000000
01000000
00010000
10000000
00000000
00100000
00010000
00001000
00000010
00000001
,
00000000
00001000
00000010
00000100
00000000
00001100
00000000
00010000
00001000
00000100
00000001
00000010
00000100
00010000
00001000
00000100
,
00000001
00000010
00000100
00000010
00000001
00000100
00001000
00000100
00000001
00000010
00000100
00000010
00000001
00000100
00001000
00010000
,
01000000
10000000
01000000
00100000
00010000
01000000
00100000
01000000
00010000
01000000
10000000
01000000
00010000
01000000
10000000
01000000
,
00010000
00000000
10000000
00000000
01000000
00010000
00000000
00011000
00000000
00001000
00010000
00100000
01000000
00010000
00001000
00000100
,
00000001
00000000
00001000
00000100
00000000
00010100
00000000
00010010
00000000
00000010
00000100
00001000
00010000
00100000
01000000
00010000
,
00001000
00000100
00000010
00000100
00001000
00000010
00000100
00001000
00010000
00100000
10000000
00010000
01000000
00100000
00010000
00001000
,
00000010
00000001
00000010
00000001
00000010
00000001
00000010
00000001
00001000
00000010
00001000
00000010
00001000
00000010
00001000
00000010
,
00000100
00000000
00000001
00000000
00001000
00000100
00000000
00001100
00000000
00010010
00000000
00010100
00000000
00001000
00100000
00000000
,
01010000
00000000
00100000
00000000
01000000
00010000
00000000
11000000
00000000
01100000
00000000
01010000
00000000
10000000
00100000
01000000
,
00010000
00000000
00100000
01000000
10000000
00010000
00000000
11000000
00000000
01000000
00010000
00001000
00000100
00000001
00001000
00000010
,
00000001
00000000
00000000
00000000
00000000
00000000
00000010
00000000
00000000
00000000
00000000
00000000
00000100
00000000
00000000
00000001
00000000
00000000
00000000
00000000
00000000
00001010
00000000
00000000
00000000
00000000
00000000
00000101
00000000
00000000
00000000
00000000
00000000
00000000
00000001
00000000
00000010
00000000
00000100
00000000
00001000
00000000
00000010
00000000
00000100
00000000
00010000
00000000
,
00001000
00000000
00010000
00000000
00100000
10000000
00000000
10010000
00000000
01100000
00000000
11000000
00000000
00010000
00001000
00000000
,
00000101
00000000
00001010
00000000
00000100
00010000
00000000
00011000
00000000
01001000
00000000
00110000
00000000
00010000
00001000
00000100
,
00000001
00000000
00000010
00000000
00000100
00010000
00000000
00010100
00000000
00010000
00001000
00000100
00000010
00001000
00010000
00100000
,
10000000
00000000
00010000
00000000
10000000
01000000
00000000
00000000
00010000
00000000
00001000
00000000
00010000
00000100
00000000
00000000
,
00000010
00000000
00000001
00000000
00001000
00000010
00000000
00011000
00000000
01100000
00000000
00000000
00000000
00000000
00000000
00000000
,
00000220
00000000
00000000
00000330
;

//---------------dance-double - ----------------
#NOTEDATA:;
#CHARTNAME:;
#STEPSTYPE:dance-double;
#DESCRIPTION:;
#CHARTSTYLE:;
#DIFFICULTY:Hard;
#METER:14;
#RADARVALUES:0.567942,0.705047,0.128839,0.073622,0.819046,432.000000,418.000000,14.000000,8.000000,0.000000,0.000000,0.000000,0.000000,0.000000,0.567942,0.705047,0.128839,0.073622,0.819046,432.000000,418.000000,14.000000,8.000000,0.000000,0.000000,0.000000,0.000000,0.000000;
#CREDIT:;
#NOTES:
00000000
00000000
00000000
00000000
,
00000000
00000000
00000000
00000000
,
00000000
00000000
00000000
00000000
,
00000000
00000000
00000000
00000000
21000000
00000000
00000000
00000000
00010000
00000000
00000000
00000000
00100000
00000000
00000000
01000000
,
30000000
00000000
10000000
00000000
00010000
00000000
01000000
00100000
00000000
00010000
00001000
00000000
00000100
00000001
00000100
00000000
,
00000000
00000000
00000000
00000000
00001002
00000000
00000000
00000000
00000100
00000000
00000000
00000000
00000010
00000000
00000000
00001000
,
00000003
00000000
00000010
00000000
00000100
00000000
00000001
00000010
00000000
00000000
00001000
00000000
00010000
00000000
00100000
00000000
,
10000000
00000000
01000000
00000000
00100000
00000000
00010000
00000000
01000000
00000000
00100000
00000000
00010000
00000000
00001000
00000200
,
00000000
00000001
00000001
00000001
00000001
00000001
00000301
00000000
,
00001000
00000010
00000000
00001010
00000000
00000000
00000000
00000000
00001000
00000010
00000000
00001010
00000000
00000000
00000000
00000000
,
00001010
00000000
00000000
00000000
00000000
00000010
00010000
00000000
00000000
00000000
00000000
00010000
00001000
00000000
00001000
00010000
00000000
00010000
00002000
00000000
00000000
00000000
00000000
00000000
,
00003000
00000000
00100000
00000000
00010000
10000000
00000000
00100000
00000000
01000000
00000000
00000000
00000000
00000000
00000000
00000000
,
00000000
00000000
00100000
00000000
10000000
00010000
00000000
00100000
00000000
01000000
00000000
00000000
00000000
00000000
00000000
00000000
,
00000000
00000000
10000000
00000000
01000000
00010000
00000000
00001000
00000000
00001000
00000000
00000000
00000000
00000000
00000000
00000000
,
00000000
00000000
00000010
00000000
00000001
00001000
00000000
00000010
00000000
00000100
00000000
00000001
00000010
00000000
00000000
00000000
,
00000000
00000000
00000001
00000000
00001000
00000010
00000000
00001000
00000000
00000001
00000000
00000000
00000000
00000000
00000000
00000000
,
00000000
00000000
00000100
00000000
00000001
00000010
00000000
00000100
00000000
00000100
00000000
00000000
00000000
00000000
00000000
00000000
,
00000000
00000000
00001000
00000000
00000010
00000100
00000000
00001000
00000000
00001000
00000000
00000000
00000000
00000000
00000000
00000000
,
00000000
00000000
00010000
00000000
00100000
10000000
00000000
00010000
00000000
01000000
00000000
00100000
10000000
00100000
10000000
00000000
,
00000000
00000000
00010000
00000000
10000000
01000000
00000000
00100000
00000000
01000000
00000000
00000000
10000000
00010000
01000000
00000000
,
00000000
00000000
00010000
00000000
10000000
00100000
00000000
01000000
00000000
01000000
00000000
00000000
00010000
00000000
00100000
00000000
,
01000000
00000000
10000000
00000000
01000000
00010000
00000000
00001000
00000000
00001000
00000000
00000010
00000001
00000000
00000000
00000000
,
00000000
00000000
00001000
00000000
00000010
00000100
00000000
00000001
00000000
00000010
00000000
00000100
00001000
00000000
00000001
00000000
,
00000000
00000000
00000100
00000000
00000010
00001000
00000000
00000010
00000000
00000100
00000000
00000000
00000001
00001000
00000010
00000000
,
00000000
00000000
00000100
00000000
00000001
00001000
00000000
00000010
00000000
00000010
00000000
00000000
00000100
00000000
00000001
00000000
,
00001000
00000000
00000010
00000000
00000100
00001000
00000000
00010000
00000000
00010000
00000000
01000000
10000000
00000000
00000000
00000000
,
00000000
00000000
00100000
00000000
01000000
00010000
00000000
10000000
00000000
00100000
00000000
01000000
00010000
00000000
00000000
00000000
,
10000000
00100000
00000000
01000000
00010000
00000000
10000000
00100000
00000000
01000000
00010000
00000000
10000000
00100000
01000000
00010000
,
00100000
01000000
10000000
00100000
00010000
00001000
00000010
00000001
,
00001001
00000000
00000000
00000000
00000000
00000000
00000010
00000100
00000000
00000000
00000000
00000000
00000100
00000001
00000000
00000000
00000000
00000000
00000001
00000000
00000000
00000100
00000010
00000000
,
00000000
00000000
00000000
00010000
00000000
00000000
00001000
00000000
00000000
00000100
00001000
00000000
00000000
00000000
00000000
00010000
00000000
00100000
10000000
00000000
00000000
00010000
00000000
00000000
,
00000000
00000000
00000000
00000000
00000000
00000000
01000000
00010000
00000000
00000000
00000000
00000000
00010000
10000000
00000000
00000000
00000000
00000000
10000000
00000000
00000000
00100000
01000000
00000000
,
00000000
00000000
00000000
00100000
00000000
00000000
00010000
00000000
00000000
00001000
00000010
00000000
00000000
00000000
00000001
00000100
00000000
00000000
00000010
00000000
00001000
00000001
00000000
00000000
,
00000000
00000000
00000000
00000000
00000000
00000000
00000100
00000010
00000000
00000000
00000000
00000000
00010000
00001000
00000000
00000000
00000000
00000000
01000000
00100000
00000000
10000000
00010000
00000000
,
00000000
00000000
00000000
01000000
00000000
00000000
00010000
00000000
00000000
10000000
00100000
00000000
00000000
00000000
00000000
01000000
00000000
00100000
00010000
00000000
00000000
00001000
00000000
00000000
,
00000010
00000000
00000000
00000000
00000000
00000000
00000001
00000000
00000000
00000100
00000000
00000000
00000001
00000000
00000000
00000000
00000000
00000000
00001000
00000000
00000000
00000100
00000000
00000000
00001000
00000000
00000000
00000000
00000000
00000000
00000010
00000000
00000000
00000100
00000000
00000000
00000001
00000000
00000000
00000000
00000000
00000000
00001000
00000000
00000002
00000000
00000000
00000000
,
00000000
00000010
00000010
00000010
00000010
00000010
00000013
00000000
,
00000100
00010000
00000000
00010100
00000000
00000000
00000000
00000000
00000100
00010000
00000000
00010100
00000000
00000000
00000000
00000000
,
00010100
00000000
00000000
00000000
00000000
00000100
00010000
00000000
00000000
00000000
00000000
00010000
00001000
00000000
00001000
00010000
00000000
00010000
00001000
00000000
00000000
01100000
00000000
00000000
,
01010000
00000000
10000000
00000000
00100000
10000000
00000000
00010000
01000000
00010000
00000000
01000000
00010000
01000000
00010000
10000000
,
00000000
00000000
00100000
01000000
00000000
00100000
00000000
00010000
00000000
00001000
00000010
00000001
00000010
00000001
00000100
00000001
,
00000100
00000010
00001000
00000001
00000010
00000100
00001000
00000010
,
00000100
00000001
00000100
00000001
00001000
00000010
00001000
00000010
00001000
00000100
00000010
00000001
00000100
00000010
00001000
00000001
,
00000000
00000000
00000100
00000000
00000001
00000010
00000000
00000100
00001000
00000100
00000000
00001000
00000100
00001000
00000010
00000100
,
00000000
00000000
00000001
00000010
00000000
00001000
00000000
00010000
00000000
00100000
10000000
00100000
10000000
00100000
10000000
00100000
,
10000000
01000000
00100000
00010000
00100000
01000000
10000000
00010000
,
01000000
01000000
00100000
00100000
00010000
00010000
00001000
00001000
,
00000010
00000000
00000001
00000000
00001000
00000010
00000000
00000100
00000000
00000001
00000000
00000010
00000000
00000010
00000100
00000000
,
00000000
00000000
00001000
00000000
00000001
00000100
00000000
00000010
00000000
00000010
00000000
00000100
00000000
00001000
00010000
00100000
,
00000000
00000000
10000000
00000000
00010000
01000000
00000000
00100000
00000000
00100000
10000000
00000000
00010000
00000000
01000000
00000000
,
00000000
00000000
00100000
00000000
01000000
00010000
00000000
10000000
00000000
10000000
00000000
00100000
02000000
00000000
00000000
00000000
,
03000000
00000000
00010000
00000000
00100000
01000000
00000000
10000000
00000000
00010000
00000000
01000000
00000000
00100000
01000000
00000000
,
00000000
00000000
00010000
00000000
10000000
00100000
00000000
00010000
00000000
00010000
00000000
00001000
00000000
00000010
00000001
00000100
,
00000000
00000000
00000010
00000000
00001000
00000010
00000000
00000100
00000000
00000100
00000001
00000000
00001000
00000000
00000010
00000000
,
00000000
00000000
00000100
00000000
00000001
00001000
00000000
00000000
00000000
00000000
00000100
00000000
00010000
00001000
00000000
00000000
,
00000000
00000000
00100000
00000000
00010000
10000000
00000000
01100000
00000000
10010000
00000000
00000000
00000000
00000000
00000000
00000000
,
02002000
00000000
00000000
03003000
;

//---------------dance-double - ----------------
#NOTEDATA:;
#CHARTNAME:;
#STEPSTYPE:dance-double;
#DESCRIPTION:;
#CHARTSTYLE:;
#DIFFICULTY:Easy;
#METER:10;
#RADARVALUES:0.336558,0.417805,0.174853,0.073622,0.271482,256.000000,237.000000,19.000000,8.000000,0.000000,0.000000,0.000000,0.000000,0.000000,0.336558,0.417805,0.174853,0.073622,0.271482,256.000000,237.000000,19.000000,8.000000,0.000000,0.000000,0.000000,0.000000,0.000000;
#CREDIT:;
#NOTES:
00000000
00000000
00000000
00000000
,
00000000
00000000
00000000
00000000
,
00000000
00000000
00000000
00000000
,
00000000
00000000
00000000
00000000
10000000
00000000
00000000
00000000
01000000
00000000
00000000
00000000
00010000
00000000
00000000
00001000
,
00000000
00000010
00000001
00000010
00000000
00000001
00001000
00000100
,
00000010
00000000
00000000
00000000
00000001
00000000
00000000
00000000
00000100
00000000
00000000
00000000
00001000
00000000
00000000
00010000
,
00000000
01000000
10000000
01000000
00000000
10000000
00010000
10000000
,
00000000
00000000
00000000
00000000
01100000
00000000
00000000
00000000
10010000
00000000
00000000
00000000
01100000
00000000
00000000
00200000
,
00000000
00000000
00000000
00300000
,
11000000
00000000
00110000
00000000
,
11000000
00000000
00110000
00000000
11000000
11000000
00110000
00000000
,
01000000
00000000
00010000
00000000
10000000
00010000
00000000
00000000
00000000
00000000
00000000
00000000
00000000
00000000
00000000
00000000
,
01000000
00000000
00010000
00000000
00100000
00010000
00000000
00000000
00000000
00000000
00000000
00000000
00000000
00000000
00000000
00000000
,
00100000
00000000
10000000
00000000
00010000
10000000
00000000
00000000
00000000
00000000
00000000
00000000
00000000
00000000
00000000
00000000
,
01000000
00010000
00000000
00000000
00000000
00000000
00001000
00000100
,
00000001
00000000
00001000
00000000
00000010
00001000
00000000
00000000
00000000
00000000
00000000
00000000
00000000
00000000
00000000
00000000
,
00000001
00000000
00001000
00000000
00000100
00001000
00000000
00000000
00000000
00000000
00000000
00000000
00000000
00000000
00000000
00000000
,
00000010
00000000
00000100
00000000
00000001
00000100
00000000
00000000
00000000
00000000
00000000
00000000
00000000
00000000
00000000
00000000
,
00000010
00000100
00001000
00010000
,
00100000
00000000
10000000
00000000
00010000
10000000
00000000
00010000
00000000
10000000
00000000
00000000
00000000
00000000
00000000
00000000
,
00000000
00000000
00100000
00000000
10000000
00010000
00000000
10000000
00000000
00010000
00000000
00000000
00000000
00000000
00000000
00000000
,
01000000
00000000
00100000
00000000
01000000
00100000
00000000
01000000
00000000
00100000
00000000
00000000
00000000
00000000
00000000
00000000
,
00010000
00001000
00000010
00000010
,
00000000
00000000
00000001
00000000
00000100
00000001
00000000
00000100
00000000
00000001
00000000
00000000
00000000
00000000
00000000
00000000
,
00000000
00000000
00001000
00000000
00000010
00001000
00000000
00000010
00000000
00001000
00000000
00000000
00000000
00000000
00000000
00000000
,
00000000
00000000
00000001
00000000
00001000
00000001
00000000
00001000
00000000
00000001
00000000
00000000
00000000
00000000
00000000
00000000
,
00000200
00000000
00000000
00000000
00000000
00000000
00000000
00000010
00000000
00000310
00000000
00000000
00000000
00000000
00000000
00000000
,
00010000
00001000
00010000
00001000
,
00022000
00000000
00000000
00033000
,
00000000
00000000
00000000
00000000
00100000
00000000
00000000
00000000
00010000
00000000
00000000
00000000
00100000
00000000
00000000
00010000
,
00000000
01000000
00010000
10000000
00000000
01000000
00010000
10000000
,
00000000
00000000
00000000
00000000
00100000
00000000
00000000
00000000
10000000
00000000
00000000
00000000
00100000
00000000
00000000
10000000
,
00000000
00100000
00010000
00001000
00000000
00010000
00001000
00000010
,
00000000
00000000
00000000
00000000
00000001
00000000
00000000
00000000
00000100
00000000
00000000
00000000
00000001
00000000
00000000
00000100
,
00000000
00000010
00001000
00000001
00000000
00000010
00001000
00000001
,
00000000
00000000
00000000
00000000
00000100
00000000
00000000
00000000
00001000
00000000
00000000
00000000
00010000
00000000
00000000
00200000
,
00000000
00000000
00000000
00300000
,
10010000
00000000
01100000
00000000
,
10010000
00000000
01100000
00000000
10010000
10010000
01100000
00000000
,
00000000
10000000
01000000
00000000
10000000
00000000
10000000
00000000
,
00010000
01000000
00010000
00000000
00100000
00000000
00100000
00000000
,
01000000
10000000
00100000
00010000
00001000
00000000
00000010
00000000
,
00000001
00001000
00000001
00000000
00001000
00000001
00001000
00000000
,
00000000
00000001
00000010
00000000
00000001
00000000
00000001
00000000
,
00001000
00000010
00001000
00000000
00000010
00000000
00000100
00000000
,
00000001
00000010
00001000
00000000
00010000
00100000
20000000
00000000
,
00010000
00010000
00010000
30010000
,
00000000
00000000
01000000
00000000
00010000
01000000
00000000
00010000
00000000
01000000
00000000
00000000
00000000
00000000
00000000
00000000
,
00000000
00000000
00001000
00000000
00010000
00001000
00000000
00010000
00000000
00001000
00000000
00000000
00000000
00000000
00000000
00000000
,
00000000
00000000
00010000
00000000
00000100
00010000
00000000
00000100
00000000
00010000
00000000
00000000
00000000
00000000
00000000
00000000
,
00000000
00000000
00000010
00000000
00000100
00000010
00000000
00000100
00000000
00000010
00000000
00000000
00000000
00000000
00000000
00000000
,
00001000
00000000
00000100
00000000
00010000
00001000
00000000
00010000
00000000
00001000
00000000
00000000
00000000
00000000
00000000
00000000
,
00000000
00000000
00100000
00000000
00010000
10000000
00000000
00100000
00000000
10000000
00000000
00000000
00000000
00000000
00000000
00000000
,
00000000
00000000
00100000
00000000
01000000
00001000
00000000
00010000
00000000
00001000
00000000
00000000
00000000
00000000
00000000
00000000
,
00000000
00000000
00010000
00000000
00000100
00001000
00000000
00000000
00000000
00000000
00000100
00000000
00010000
00001000
00000000
00000000
,
00000000
00000000
00100000
00000000
00001000
00010000
00000000
00001000
00000000
00001000
00000000
00000000
00000000
00000000
00000000
00000000
,
00022000
00000000
00000000
00033000
;

//---------------dance-double - ----------------
#NOTEDATA:;
#CHARTNAME:;
#STEPSTYPE:dance-double;
#DESCRIPTION:;
#CHARTSTYLE:;
#DIFFICULTY:Medium;
#METER:12;
#RADARVALUES:0.415439,0.496144,0.082825,0.082825,0.469341,316.000000,307.000000,9.000000,9.000000,0.000000,0.000000,0.000000,0.000000,0.000000,0.415439,0.496144,0.082825,0.082825,0.469341,316.000000,307.000000,9.000000,9.000000,0.000000,0.000000,0.000000,0.000000,0.000000;
#CREDIT:;
#NOTES:
00000000
00000000
00000000
00000000
,
00000000
00000000
00000000
00000000
,
00000000
00000000
00000000
00000000
,
10010000
00000000
00000000
00000000
01000000
00000000
00000000
00000000
00010000
00000000
00000000
00000000
00100000
00000000
00000000
01000000
,
00000000
00010000
00001000
00000100
00000000
00000001
00001000
00000010
,
00000000
00000000
00000000
00000000
00000100
00000000
00000000
00000000
00000001
00000000
00000000
00000000
00001000
00000000
00000000
00000010
,
00000000
00000100
00001000
00010000
00000000
01000000
10000000
00100000
,
00000000
00000000
00000000
00000000
01000000
00000000
00000000
00000000
00010000
00000000
00000000
00000000
00100000
00000000
00000000
00002000
,
00000000
00010000
00010000
00010000
00010000
00010000
00013000
00000000
,
00000100
00010000
00000000
00001000
00000000
00000000
00000000
00000000
01000000
00001000
00000000
00010000
00000000
00000000
00000000
00000000
,
00000100
00000000
00011000
00000000
01000000
00001000
00020100
00000000
,
00031000
00000000
01000000
00000000
00001000
00010000
00000000
00001000
00000000
01000000
00000000
00000000
00000000
00000000
00000000
00000000
,
00000000
00000000
01000000
00000000
00001000
00010000
00000000
00001000
00000000
01000000
00000000
00000000
00000000
00000000
00000000
00000000
,
00000000
00000000
00001000
00000000
00010000
00000100
00000000
00010000
00000000
00010000
00000000
00000000
00000000
00000000
00000000
00000000
,
00000000
00000000
00000010
00000000
00000100
00000010
00000000
00001000
00000000
00000010
00000000
00000000
00000000
00000000
00000000
00000000
,
00000000
00000000
00010000
00000000
00000100
00001000
00000000
00000100
00000000
00010000
00000000
00000000
00000000
00000000
00000000
00000000
,
00000000
00000000
00000100
00000000
00010000
00001000
00000000
00010000
00000000
00000100
00000000
00000000
00000000
00000000
00000000
00000000
,
00000000
00000000
00010000
00000000
00001000
01000000
00000000
00100000
00000000
00100000
00000000
00000000
00000000
00000000
00000000
00000000
,
00000000
00000000
01000000
00000000
00010000
01000000
00000000
00100000
00000000
01000000
00000000
00000000
00000000
00000000
00000000
00000000
,
00000000
00000000
00010000
00000000
10000000
01000000
00000000
10000000
00000000
00010000
00000000
00000000
00000000
00000000
00000000
00000000
,
00000000
00000000
00100000
00000000
00001000
00010000
00000000
00001000
00000000
00100000
00000000
00000000
00000000
00000000
00000000
00000000
,
00000000
00000000
00001000
00000000
00010000
00000100
00000000
00000010
00000000
00000010
00000000
00000000
00000000
00000000
00000000
00000000
,
00000000
00000000
00000001
00000000
00000100
00000010
00000000
00001000
00000000
00001000
00000000
00000000
00000000
00000000
00000000
00000000
,
00000000
00000000
00000100
00000000
00001000
00000001
00000000
00001000
00000000
00000100
00000000
00000000
00000000
00000000
00000000
00000000
,
00000000
00000000
00010000
00000000
00000100
00001000
00000000
00000100
00000000
00010000
00000000
00000000
00000000
00000000
00000000
00000000
,
00000000
00000000
00100000
00000000
00001000
00010000
00000000
00001000
00000000
00100000
00000000
00000000
00000000
00000000
00000000
00000000
,
00000000
00000000
00010000
00000000
01000000
00100000
00000000
10000000
00000000
00010000
00000000
00000000
00000000
00000000
00000000
00000000
,
20200000
00000000
00000000
30300000
,
02020000
00000000
00000000
03030000
,
10010000
00000000
00000000
00000000
10000000
00000000
00000000
00000000
01000000
00000000
00000000
00000000
00010000
00000000
00000000
00001000
,
00000000
00010000
00001000
00000100
00000000
00000001
00001000
00000001
,
00000000
00000000
00000000
00000000
00000001
00000000
00000000
00000000
00000100
00000000
00000000
00000000
00001000
00000000
00000000
00010000
,
00000000
00001000
00010000
00100000
00000000
10000000
00010000
10000000
,
00000000
00000000
00000000
00000000
00100000
00000000
00000000
00000000
10000000
00000000
00000000
00000000
00010000
00000000
00000000
01000000
,
00000000
00100000
00010000
00001000
00000000
00000100
00000001
00000100
,
00000000
00000000
00000000
00000000
00000001
00000000
00000000
00000000
00001000
00000000
00000000
00000000
00000001
00000000
00000000
00002000
,
00000000
00000010
00000010
00000010
00000010
00000010
00003010
00000000
,
00001000
00000100
00000000
00010000
00000000
00000000
00000000
00000000
00010000
00001000
00000000
01000000
00000000
00000000
00000000
00000000
,
01000000
00000000
00011000
00000000
00000100
00001000
00000010
00000101
,
00000010
00000000
00001000
00000000
00000001
00000100
00000000
00000001
00000100
00000000
00000010
00000000
00001000
00000000
00000010
00000000
,
00000000
00000000
00000100
00000001
00000000
00000100
00000000
00000001
00000100
00000000
00000010
00000000
00010000
00000000
00001000
00000000
,
01000000
00010000
00100000
01000000
10000000
00010000
01000000
00100000
,
10000000
01000000
10000000
01000000
10000000
00100000
10000000
00100000
,
01000000
00000000
00010000
00000000
10000000
00100000
00000000
10000000
00100000
00000000
01000000
00000000
00010000
00000000
00100000
00000000
,
01000000
00010000
00001000
00000100
00000001
00001000
00000010
00000100
,
00000001
00000010
00000100
00001000
00000100
00000010
00000001
00001000
,
00000010
00000100
00000010
00000100
00000001
00001000
00000001
00001000
,
00000000
00000000
00000010
00000000
00001000
00000100
00000000
00001000
00000000
00000010
00000000
00000000
00000100
00000000
00000001
00000000
,
00000000
00000000
00000100
00000000
00000001
00000010
00000000
00000001
00000000
00000100
00000000
00000010
00000000
00000100
00000010
00000000
,
00000000
00000000
00001000
00000000
00000100
00010000
00000000
00001000
00000000
00001000
00000000
00010000
00001000
00000000
00010000
00000000
,
00000000
00000000
00001000
00000000
01000000
00001000
00000000
01000000
00000000
01000000
00000000
00000000
00000000
00000000
00000000
00000000
,
00000000
00000000
00100000
00000000
10000000
01000000
00000000
10000000
00000000
00100000
00000000
00000000
01000000
00000000
00010000
00000000
,
00000000
00000000
10000000
00000000
00010000
01000000
00000000
00010000
00000000
10000000
00000000
00100000
00000000
10000000
00100000
00000000
,
00000000
00000000
01000000
00000000
00001000
00010000
00000000
00001000
00000000
00001000
00000000
00010000
00001000
00000000
00010000
00000000
,
00000000
00000000
00000100
00000000
00010000
00001000
00000000
00000000
00000000
00000000
01000000
00000000
00001000
00010000
00000000
00000000
,
00000000
00000000
00000100
00000000
00010000
00001000
00000000
00010000
00000000
00010000
00000000
00000000
00000000
00000000
00000000
00000000
,
00022000
00000000
00000000
00033000
;

//---------------dance-single - ----------------
#NOTEDATA:;
#CHARTNAME:;
#STEPSTYPE:dance-single;
#DESCRIPTION:;
#CHARTSTYLE:;
#DIFFICULTY:Easy;
#METER:6;
#RADARVALUES:0.216922,0.313354,0.202461,0.092028,0.004601,165.000000,143.000000,22.000000,10.000000,0.000000,0.000000,0.000000,0.000000,0.000000,0.216922,0.313354,0.202461,0.092028,0.004601,165.000000,143.000000,22.000000,10.000000,0.000000,0.000000,0.000000,0.000000,0.000000;
#CREDIT:;
#NOTES:
0000
0000
0000
0000
,
0000
0000
0000
0000
,
0000
0000
0000
0000
,
0000
1000
0100
0010
,
0000
0001
0000
1000
,
0000
0001
0010
0100
,
0000
1000
0000
0001
,
0000
0000
0000
0000
0100
0000
0000
0000
0100
0000
0000
0000
0100
0000
0000
0200
,
0000
0000
0000
0300
,
1001
0000
0110
0000
,
1001
0110
1001
0110
,
0000
0100
0001
0000
,
0000
1000
0010
0000
,
0000
0100
0101
0000
,
0000
0010
1010
0100
,
0000
0001
1000
0000
,
0000
0100
0010
0000
,
0000
0001
0011
0000
,
0000
0100
1100
0001
,
0000
0100
0010
0000
,
0000
1000
0100
0000
,
0000
0010
0011
0000
,
0000
0000
0100
0000
0101
0000
0001
1000
,
0000
0010
1000
0000
,
0000
0001
0100
0000
,
0000
0010
1010
0000
,
0000
1000
1100
0000
,
0020
0000
0000
0130
,
0202
0000
0000
0303
,
0000
0001
0010
0100
,
0000
0100
0000
0100
,
0000
1000
0100
0010
,
0000
0010
0000
0001
,
0000
0100
0001
1000
,
0000
0010
0000
1000
,
0000
0001
0010
0100
,
1000
0000
0000
0000
,
1010
0000
0101
0000
,
1010
0101
1010
0102
,
0003
1000
0010
1000
,
0001
0100
0001
0100
,
0010
0010
0010
1000
,
0100
0010
0001
1000
,
0001
0100
0001
0100
,
0010
1000
0010
0100
,
0002
0000
0000
2003
0000
0000
3020
0000
,
0130
0001
1000
0010
,
0000
0100
0001
0000
0100
0000
0000
0000
,
0000
0010
1000
0000
0010
0000
0000
0000
,
0000
1000
0001
0000
1000
0000
0000
0000
,
0000
0001
0100
0000
0100
0000
0000
0000
,
0000
0001
0010
0000
0001
0000
0000
0000
,
0000
0100
1000
0000
0100
0000
0000
0000
,
0000
1000
0100
0000
0010
0000
0000
0000
,
0000
0001
0100
0000
0000
0001
0100
0000
,
0000
0001
0100
0000
0010
0000
0000
0000
,
2020
0000
0000
3030
;
