#TITLE:xXXi_wud_nvrstøp_UXXx (Remix);
#SUBTITLE:;
#ARTIST:100 gecs feat. Tommy Cash & Hannah Diamond;
#TITLETRANSLIT:;
#SUBTITLETRANSLIT:;
#ARTISTTRANSLIT:;
#GENRE:Hardcore;
#CREDIT:;
#BANNER:xxxi_wud_nvrstop_Uxxx.png;
#BACKGROUND:xxxi_wud_nvrstop_uxxx-bg.png;
#LYRICSPATH:;
#CDTITLE:;
#MUSIC:xXXi_wud_nvrstøp_ÜXXx (Remix).mp3;
#OFFSET:-0.040000;
#SAMPLESTART:14.150000;
#SAMPLELENGTH:12.000000;
#SELECTABLE:YES;
#BPMS:0.000000=170.000000
;
#STOPS:
;
#BGCHANGES:;
#KEYSOUNDS:;
#ATTACKS:;

//---------------dance-single - ----------------
#NOTES:
     dance-single:
     :
     Hard:
     14:
     0.721918,0.742709,0.504425,0.036685,0.160499,551.000000,496.000000,55.000000,4.000000,0.000000,0.000000,0.721918,0.742709,0.504425,0.036685,0.160499,551.000000,496.000000,55.000000,4.000000,0.000000,0.000000:
// measure 0
0000
0000
0000
0000
,  // measure 1
0000
0000
0000
0000
,  // measure 2
0000
0000
0000
0000
,  // measure 3
0000
0000
0000
0000
0010
0100
0010
0100
,  // measure 4
0010
0000
1000
0000
0100
0010
0100
0010
,  // measure 5
0100
1000
0001
0000
0010
1000
0010
1000
,  // measure 6
0010
0000
0001
0000
0100
1000
0100
1000
,  // measure 7
0100
0001
1000
0010
0100
0001
1000
0010
,  // measure 8
0100
0000
0010
0100
0010
0000
0100
0010
,  // measure 9
0200
0000
0000
0300
,  // measure 10
1001
0000
1100
0000
1000
0010
0001
0010
,  // measure 11
1000
0000
1001
0000
0001
0010
1000
0010
,  // measure 12
0001
0000
1001
0000
1000
0010
0001
0010
,  // measure 13
1000
0001
1001
0000
0001
0100
0010
0100
,  // measure 14
0001
0000
1100
0000
0001
0100
0010
0100
,  // measure 15
0001
0100
1000
0000
0001
0100
0010
0100
,  // measure 16
0001
0000
1100
0000
1000
0100
0010
0100
,  // measure 17
1000
0100
0001
0100
1000
0100
0010
0000
,  // measure 18
1001
0000
0101
0000
0001
0010
1000
0010
,  // measure 19
0001
0000
1001
0000
1000
0010
0001
0010
,  // measure 20
1000
0000
1001
0000
0001
0010
1000
0010
,  // measure 21
0001
1000
1001
0000
0001
0100
0010
1000
,  // measure 22
0001
0000
1100
0000
1000
0100
0010
0001
,  // measure 23
0100
1000
0100
0000
0001
0010
0100
0010
,  // measure 24
0001
0000
1100
0000
0001
0010
0100
0010
,  // measure 25
0001
0010
1000
0010
0001
0010
0100
0000
,  // measure 26
2002
0000
0000
3003
,  // measure 27
0000
0000
0000
0000
0001
0010
0100
0000
,  // measure 28
1100
0000
0000
0000
1000
0000
0010
0000
0000
0000
0110
0000
0000
0000
0100
0001
,  // measure 29
1000
0010
1000
0010
1000
0000
0100
0000
1000
0000
0100
0000
0010
0000
0001
0000
,  // measure 30
0100
0000
0000
0000
0001
0000
0100
0000
0000
0000
0101
0000
0000
0000
0001
0010
,  // measure 31
0100
1000
0100
1000
0100
0000
0010
0000
0001
0000
0010
0000
0100
0000
0000
0000
,  // measure 32
1100
0000
0000
0000
1000
0000
0001
0000
0000
0000
1001
0000
0000
0000
0100
0010
,  // measure 33
1000
0010
1000
0010
1000
0000
0001
0000
0100
0000
1000
0000
0100
0000
0001
0000
,  // measure 34
1000
1000
0000
1001
0000
0001
0001
0000
,  // measure 35
1000
0100
0001
0000
1000
0100
0001
0100
,  // measure 36
1000
0000
0000
0000
0001
0000
0100
0000
0000
0000
0110
0000
0000
0000
0100
0001
,  // measure 37
1000
0010
1000
0010
1000
0000
0001
0000
1000
0000
0100
0000
0010
0000
0100
0000
,  // measure 38
1000
0000
0000
0000
0100
0000
0010
0000
0000
0000
0110
0000
0000
0000
0010
0100
,  // measure 39
1000
0100
1000
0100
1000
0000
0010
0000
1000
0000
0100
0000
0001
0000
0000
0000
,  // measure 40
1000
0000
0010
0000
0100
0000
0001
0000
0000
0000
0101
0000
0000
0000
0001
0100
,  // measure 41
0010
1000
0010
1000
0010
0000
0100
0000
0001
0000
0010
0000
1000
0000
0010
0000
,  // measure 42
0001
0001
0000
1001
0000
1000
1000
0000
,  // measure 43
0100
0001
0100
0000
1000
0010
0001
0010
,  // measure 44
1000
0100
0001
0000
1000
0010
0001
0010
,  // measure 45
1000
0100
0001
0000
0100
1000
0010
0100
,  // measure 46
0001
0100
1000
0000
0001
0010
1000
0010
,  // measure 47
0001
0100
1000
0000
0001
0100
1000
0100
,  // measure 48
0001
0010
1000
0000
0001
0100
1000
0100
,  // measure 49
0001
0010
1000
0000
0010
0001
1000
0100
,  // measure 50
0010
0100
1000
0000
0101
0000
1100
0000
,  // measure 51
1001
0000
0000
0000
1010
0000
0010
0100
0001
0000
0010
0000
0100
0000
0000
0000
,  // measure 52
1000
0100
1000
0000
0100
1000
0100
0000
1000
0000
0010
0000
0100
0000
0001
0000
,  // measure 53
0011
0000
1100
0000
0001
0010
0001
0100
,  // measure 54
0001
0010
0001
0000
0100
0001
0100
0000
0010
0000
1000
0000
0001
0000
0100
0000
,  // measure 55
0010
1000
1010
0000
1000
0100
0001
0100
,  // measure 56
1000
0010
1000
0000
0010
1000
0010
0000
1000
0000
0100
0000
0010
0000
0001
0000
,  // measure 57
0100
0001
0100
0000
0001
0100
0001
0000
1000
0000
0010
0000
0001
0000
0010
0000
,  // measure 58
1000
0000
1001
0000
0001
0010
1000
0010
,  // measure 59
0001
0100
1000
0100
0001
1000
1001
0000
,  // measure 60
0001
0010
0001
0000
0010
0001
0010
0000
0001
0000
0100
0000
0010
0000
1000
0000
,  // measure 61
1100
0000
0011
0000
1000
0100
1000
0010
,  // measure 62
1000
0100
1000
0000
0010
1000
0010
0000
0100
0000
0001
0000
1000
0000
0010
0000
,  // measure 63
1000
0100
0010
0000
0001
0010
1000
0010
,  // measure 64
0001
0100
0001
0000
0100
0001
0100
0000
0010
0000
1000
0000
0100
0000
0010
0000
,  // measure 65
0100
1000
0100
0000
1000
0100
1000
0000
0100
0000
0001
0000
0100
0000
1000
0000
,  // measure 66
0001
0000
1001
0000
0001
0100
1000
0100
,  // measure 67
0001
0010
1000
0010
0001
0010
0110
0000
,  // measure 68
1100
0000
1100
0000
0011
0000
0100
1000
,  // measure 69
0011
0000
0011
0000
0001
0100
1000
0100
,  // measure 70
0101
0000
0101
0000
1010
0000
0001
0100
,  // measure 71
1010
0000
1010
0000
0001
0100
0010
0001
,  // measure 72
0011
0000
1010
0000
1100
0000
0100
0010
,  // measure 73
0011
0000
1001
0000
1000
0010
0100
1000
,  // measure 74
1100
0000
0101
0000
0001
0100
1000
0100
,  // measure 75
0001
0010
1000
0010
0001
0100
1000
0000
,  // measure 76
0002
0000
0000
0000
,  // measure 77
0000
0003
0000
0000
0000
0000
0000
0000
;

//---------------dance-single - ----------------
#NOTES:
     dance-single:
     :
     Medium:
     10:
     0.507046,0.530506,0.183427,0.064200,0.000000,387.000000,367.000000,20.000000,7.000000,0.000000,0.000000,0.507046,0.530506,0.183427,0.064200,0.000000,387.000000,367.000000,20.000000,7.000000,0.000000,0.000000:
0000
0000
0000
0000
,
0000
0000
0000
0000
,
0000
0000
0000
0000
,
0000
0000
0010
0010
,
0010
1000
0010
0010
,
0010
0001
0010
1000
,
0001
1001
0100
0010
,
0100
1001
0010
0010
,
0020
0000
0031
1000
0002
0000
1003
0010
,
2000
0000
0000
3000
,
1001
0000
0101
0000
0001
0010
0001
0100
,
0001
0000
1000
0000
0001
0010
0001
0100
,
0001
0000
1000
0000
0001
0010
0001
0100
,
0001
0000
1000
0000
1000
0100
1000
0010
,
1000
0000
0001
0000
1000
0100
1000
0010
,
1000
0000
0001
0000
0100
0010
1000
0010
,
0100
0000
0000
0000
0010
0100
0001
0100
,
0010
1000
0010
0000
1000
0100
1000
0000
,
1010
0000
1001
0000
0010
0100
0010
1000
,
0010
0000
0100
0000
0010
1000
0010
0100
,
0010
0000
1000
0000
0010
0100
0010
1000
,
0010
0000
0100
0000
0100
0001
0100
0010
,
0100
0000
0001
0000
0100
0010
0100
0001
,
0100
0000
0001
0000
1000
0001
0100
0001
,
1000
0000
0000
0000
0001
1000
0100
1000
,
0001
0010
0001
0000
0010
0001
0010
0000
,
0022
0000
0000
0033
,
0000
0000
0000
0000
0001
0100
0010
0000
,
1010
0000
1000
0100
0000
0010
0000
0010
,
0000
0000
0000
0000
0100
1000
0010
0100
,
0001
0000
1000
0010
0000
0100
0000
0100
,
0000
0000
0000
0000
0001
0010
0001
0000
,
0011
0000
0010
0100
0000
1000
0000
1000
,
0000
0000
0000
0000
1000
0010
0100
0001
,
1000
1000
0000
1001
0000
0001
0001
0000
,
0000
0000
0000
0000
1000
0010
0100
0000
,
0101
0000
0001
0010
0000
0100
0000
1000
,
0000
0100
0000
0000
0010
0001
0100
0010
,
1000
0000
0001
0100
0000
0010
0000
1000
,
0000
0010
0000
0000
1000
0100
1000
0000
,
1100
0000
0100
0010
0000
0001
0000
0010
,
0000
0001
0000
0000
0001
0100
0010
1000
,
0001
0001
0000
1001
0000
1000
1000
0000
,
0010
0000
0010
0000
1000
0100
0010
0100
,
1000
0000
1000
0000
0001
0010
0100
0010
,
0001
0000
0001
0000
0100
0001
0010
0001
,
0100
0000
0100
0000
0010
1000
0100
0000
,
0010
0000
0010
0000
0001
1000
0010
0100
,
0010
0000
0010
0000
1000
0001
0100
0000
,
0010
0000
0010
0000
1000
0100
0010
0001
,
0100
0010
1000
0000
0000
0000
0000
0000
,
0000
0000
0000
0000
,
1010
0000
1001
0000
1000
0100
1000
0010
,
1000
0000
0001
0000
1000
0100
1000
0010
,
1000
0000
0001
0000
0100
0010
0100
0010
,
0100
0000
0100
0000
0001
0010
0001
1000
,
0001
0000
0100
0000
0001
0010
0001
1000
,
0001
0000
0100
0000
0010
1000
0100
1000
,
0010
0000
0000
0000
0100
0001
0010
0001
,
0100
0000
0100
0000
0010
1000
0010
0000
,
0110
0000
0101
0000
0100
0010
0100
0001
,
0100
0000
0010
0000
0100
0001
0100
0010
,
0100
0000
0001
0000
1000
0001
1000
0001
,
1000
0000
0010
0000
0100
0010
1000
0010
,
0100
0000
0100
0000
0001
0010
0100
0010
,
0001
0001
1000
0100
,
1100
0000
0001
0100
,
0010
0000
0010
0000
0100
0010
0110
0000
,
0010
0000
0010
0000
0010
0000
1000
0010
,
1000
0000
0010
0000
0100
0001
0100
0001
,
0100
0000
0100
0000
0100
0000
0001
0100
,
0001
0000
0100
0000
0001
0010
0001
0010
,
0001
0000
0001
0000
0001
0000
0100
0001
,
0100
0000
0001
0000
1000
0010
0100
0010
,
1000
0000
1000
0000
1000
0010
0100
0000
,
0001
1000
0010
0000
0100
0001
0010
0000
,
0022
0000
0000
0000
,
0000
0033
0000
0000
0000
0000
0000
0000
;

//---------------dance-single - ----------------
#NOTES:
     dance-single:
     :
     Easy:
     7:
     0.390438,0.424405,0.018343,0.055028,0.000000,298.000000,296.000000,2.000000,6.000000,0.000000,0.000000,0.390438,0.424405,0.018343,0.055028,0.000000,298.000000,296.000000,2.000000,6.000000,0.000000,0.000000:
0000
0000
0000
0000
,
0000
0000
0000
0000
,
0000
0000
0000
0000
,
0000
0000
0010
0010
,
1000
0000
0001
0000
0010
0001
0010
0001
,
0010
0100
1000
1000
,
0100
0000
0001
0001
,
0100
0010
1000
0001
,
1000
0000
0010
1000
0010
0000
0100
0001
,
0200
0000
0000
0300
,
0001
0000
1000
0000
0010
1000
0010
0000
,
0100
0000
0001
0000
1000
0010
1000
0000
,
0001
0000
0100
0000
0010
1000
0010
0000
,
0100
0000
0001
0000
1000
0100
1000
0000
,
0001
0000
0010
0000
0001
0010
0001
0000
,
1000
0000
0100
0000
1000
0100
1000
0000
,
0001
0000
0000
0000
1000
0100
1000
0000
,
0001
0001
1000
0010
,
1000
0000
0001
0000
0100
0001
0100
0000
,
0010
0000
1000
0000
0001
0100
0001
0000
,
1000
0000
0010
0000
0100
0001
0100
0000
,
0010
0000
1000
0000
0001
0010
0001
0000
,
1000
0000
0100
0000
1000
0100
1000
0000
,
0001
0000
0010
0000
0001
0010
0001
0000
,
1000
0000
0000
0000
0001
0010
0001
0000
,
1000
1000
0001
0001
,
1001
0000
0000
0000
,
0000
0000
0010
0001
,
0100
0000
0010
1000
0000
0100
0000
1000
,
0000
0000
1000
0010
,
0100
0000
0010
0100
0000
0001
0000
0010
,
0000
0000
0001
0100
,
0010
0000
0100
0001
0000
1000
0000
0010
,
0000
0000
0000
0000
1000
0001
1000
0000
,
0001
2000
0000
0002
0000
0000
3003
0000
,
0000
0000
0010
1000
,
0010
0000
0100
0001
0000
0010
0000
0001
,
0000
0000
0001
0100
,
0010
0000
0100
0010
0000
1000
0000
0100
,
0000
0000
1000
0010
,
0100
0000
0010
1000
0000
0001
0000
0100
,
0000
0000
0000
0000
0001
0010
0001
0000
,
1000
0002
0000
0020
0000
0000
0033
0000
,
0000
0000
0000
0000
0001
0010
0001
0100
,
0000
0000
0000
0000
0010
1000
0010
0000
,
0000
0000
0000
0000
1000
0100
1000
0010
,
0000
0000
0000
0000
0100
0001
0100
0000
,
0000
0000
0000
0000
0010
0100
0010
1000
,
0000
0000
0000
0000
0001
1000
0001
0000
,
0000
0000
0000
0000
0100
0001
0100
0010
,
1000
0001
1000
0000
0000
0000
0000
0000
,
0000
0000
0000
0000
,
0001
0000
0010
0000
0001
0100
0001
0000
,
1000
0000
1000
0000
0001
0010
0001
0000
,
1000
0000
1000
0000
0001
1000
0001
0000
,
1000
0000
0010
0000
1000
0100
1000
0000
,
0001
0000
0001
0000
1000
0100
1000
0000
,
0010
0000
0010
0000
0100
0001
0100
0010
,
0100
0000
0000
0000
0010
1000
0010
0000
,
0100
0100
0010
1000
,
1000
0000
0100
0000
1000
0010
1000
0000
,
0001
0000
0001
0000
1000
0100
1000
0000
,
0001
0000
0001
0000
1000
0001
1000
0000
,
0001
0000
0100
0000
0001
0010
0001
0000
,
1000
0000
1000
0000
0001
0010
0001
0000
,
0100
0000
0100
0000
0010
1000
0010
0100
,
0010
0000
0000
0000
0100
0001
0100
0000
,
0010
0010
1000
1001
,
0001
0001
0001
0100
,
0001
0001
1000
0100
,
0010
0010
0010
0100
,
1000
1000
0010
0100
,
0010
0010
0010
1000
,
0001
0001
0100
0010
,
0100
0100
0100
0001
,
1000
0010
0100
0100
,
0020
0000
0000
0000
,
0000
0030
0000
0000
0000
0000
0000
0000
;

//---------------dance-single - ----------------
#NOTES:
     dance-single:
     :
     Beginner:
     4:
     0.169015,0.247168,0.018343,0.009171,0.000000,129.000000,127.000000,2.000000,1.000000,0.000000,0.000000,0.169015,0.247168,0.018343,0.009171,0.000000,129.000000,127.000000,2.000000,1.000000,0.000000,0.000000:
0000
0000
0000
0000
,
0000
0000
0000
0000
,
0000
0000
0000
0000
,
0000
0000
0000
0000
,
0010
0010
0000
0000
,
0100
0100
0000
0000
,
1000
0000
0001
0001
,
0001
0000
0000
0000
,
0100
0000
0010
0000
,
0110
0000
0000
0000
,
0001
0001
0000
0000
,
0001
0001
0000
0000
,
0001
0001
0000
0000
,
0010
0010
0010
0000
,
0100
0100
0000
0000
,
0100
0100
0000
0100
,
0100
0000
1000
1000
,
1000
0000
0000
0000
,
1000
1000
0000
0000
,
0100
0100
0000
0000
,
0100
0100
0000
0000
,
1000
1000
1000
0000
,
0001
0001
0000
0000
,
0001
0001
0000
0001
,
0001
0000
0100
0100
,
0100
0000
0000
0000
,
0110
0000
0000
0000
,
0000
0000
0001
0000
,
0001
0000
0000
0000
,
0000
0000
0100
0000
,
0100
0000
0000
0000
,
0000
0000
0010
0000
,
0010
0000
0000
0000
,
0000
0000
0001
0000
,
1000
0000
0000
0000
,
0000
0000
0001
0000
,
0001
0000
0000
0000
,
0000
0000
0010
0000
,
0010
0000
0000
0000
,
0000
0000
0100
0000
,
0100
0000
0000
0000
,
0000
0000
1000
0000
,
0001
0000
0000
0000
,
0000
0000
0010
0010
,
0000
0000
0100
0000
,
0000
0000
0100
0100
,
0000
0000
0010
0000
,
0000
0000
0001
0001
,
0000
0000
1000
0000
,
0000
0000
1000
1000
,
1000
0000
0000
0000
,
0000
0000
0000
0000
,
0010
0010
0000
0000
,
0010
0010
0000
0000
,
0010
0010
0000
0000
,
1000
1000
1000
0000
,
0001
0001
0000
0000
,
0001
0001
0000
0001
,
0001
0000
0100
0100
,
0100
0000
0000
0000
,
0100
0100
0000
0000
,
0100
0100
0000
0000
,
0100
0100
0000
0000
,
0001
0001
0001
0000
,
1000
1000
0000
0000
,
1000
1000
0000
1000
,
1000
0000
0010
0000
,
0010
0000
0000
0000
,
0100
0000
0000
0100
,
0100
0000
0000
0001
,
0001
0000
0000
0001
,
0001
0000
0000
0010
,
0010
0000
0000
0010
,
0010
0000
0000
0100
,
0100
0000
0000
0000
,
0000
0000
1000
1000
,
2000
0000
0000
0000
,
3000
0000
0000
0000
;

//---------------dance-double - ----------------
#NOTES:
     dance-double:
     :
     Hard:
     14:
     0.723228,0.742709,0.651167,0.045857,0.160499,552.000000,481.000000,71.000000,5.000000,0.000000,0.000000,0.723228,0.742709,0.651167,0.045857,0.160499,552.000000,481.000000,71.000000,5.000000,0.000000,0.000000:
00000000
00000000
00000000
00000000
,
00000000
00000000
00000000
00000000
,
00000000
00000000
00000000
00000000
,
00000000
00000000
00000000
00000000
10000000
00100000
10000000
00100000
,
00010000
00000000
00001000
00000000
00000010
00000001
00000010
00000001
,
00000100
00000010
00001000
00000000
00000001
00000100
00000010
00001000
,
00001001
00000000
00000000
00000000
00000001
00000100
00001000
00010000
,
01000000
10000000
01000000
10000000
01000000
10000000
00100000
01000000
,
00010000
00000000
01000000
00100000
10000000
00000000
00100000
01000000
,
02010000
00000000
00000000
03000000
,
01100000
00000000
01010000
00000000
10000000
01000000
00010000
01000000
,
10000000
00000000
10010000
00000000
00010000
01000000
10000000
01000000
,
00010000
00000000
10010000
00000000
10000000
01000000
00010000
00001000
,
00000100
00000001
00000100
00000000
00000001
00000010
00001000
00000010
,
00000001
00000000
00001001
00000000
00001000
00000010
00000001
00000010
,
00001000
00000000
00001001
00000000
00000001
00000100
00001000
00010000
,
01000000
00000000
10010000
00000000
10000000
00100000
01000000
00100000
,
00010000
00001000
00000010
00000001
00000010
00000100
00000010
00000000
,
00000110
00000000
00000011
00000000
00000001
00000100
00001000
00000100
,
00000001
00000000
00001001
00000000
00001000
00000100
00000001
00000100
,
00001000
00000000
00001001
00000000
00000001
00000010
00001000
00010000
,
00100000
10000000
00100000
00000000
10000000
00100000
00010000
00100000
,
10000000
00000000
10010000
00000000
00010000
00100000
10000000
00100000
,
00010000
00000000
10010000
00000000
10000000
00100000
00010000
00001000
,
00000010
00000000
00001001
00000000
00000001
00000100
00000010
00000100
,
00001000
00010000
01000000
10000000
01000000
00100000
01000000
00000000
,
20020000
00000000
00000000
30030000
,
00000000
00000000
00000000
00000000
10000000
01000000
00100000
00000000
,
00101000
00000000
00000000
00000000
00001000
00000000
00010000
00000000
00000000
00000000
00011000
00000000
00000000
00000000
00010000
00000100
,
00000010
00000001
00000010
00000001
00000010
00000000
00000001
00000000
00000100
00000000
00000010
00000000
00001000
00000000
00000010
00000000
,
00000100
00000000
00000000
00000000
00000010
00000000
00010000
00000000
00000000
00000000
00011000
00000000
00000000
00000000
00001000
01000000
,
00100000
10000000
00100000
10000000
00100000
00000000
01000000
00000000
00010000
00000000
10000000
00000000
00100000
00000000
00000000
00000000
,
01100000
00000000
00000000
00000000
01000000
00000000
00001000
00000000
00000000
00000000
00011000
00000000
00000000
00000000
00010000
00000010
,
00000100
00000001
00000100
00000001
00000100
00000000
00000010
00000000
00001000
00000000
00000100
00000000
00000010
00000000
00000001
00000000
,
00000100
00001000
00000000
00011000
00000000
00010000
01000000
00000000
,
10000000
00100000
01100000
00000000
00010000
00100000
01100000
00000000
,
10010000
00000000
00000000
00000000
01000000
00000000
00100000
00000000
00000000
00000000
10010000
00000000
00000000
00000000
00100000
01000000
,
00010000
10000000
00010000
10000000
00010000
00000000
01000000
00000000
00100000
00000000
00010000
00000000
00001000
00000000
00000010
00000000
,
00000001
00000000
00000000
00000000
00001000
00000000
00000001
00000000
00000000
00000000
00000110
00000000
00000000
00000000
00000001
00001000
,
00000010
00000100
00000010
00000100
00000010
00000000
00001000
00000000
00000010
00000000
00000100
00000000
00001000
00000000
00000000
00000000
,
00011000
00000000
00000000
00000000
00010000
00000000
01000000
00000000
00000000
00000000
11000000
00000000
00000000
00000000
00010000
01000000
,
00100000
10000000
00100000
10000000
00100000
00000000
10000000
00000000
00010000
00000000
01000000
00000000
00100000
00000000
10000000
00000000
,
01000000
00010000
00000000
00011000
00000000
00001000
00000100
00000000
,
00000101
00000000
00001010
00000000
00000001
00000100
00000010
00001000
,
00001100
00000000
00010100
00000000
00010000
00001000
01000000
00000000
,
01010000
00000000
01100000
00000000
00100000
10000000
01000000
00010000
,
00001000
00000000
00001100
00000000
00000100
00000001
00000100
00000000
,
00000011
00000000
00001001
00000000
00000010
00001000
00000001
00000100
,
00000101
00000000
00001100
00000000
00001000
00010000
01000000
00000000
,
11000000
00000000
10100000
00000000
01000000
00010000
01000000
00100000
,
10000000
01000000
00100000
00000000
00011000
00000000
00000110
00000000
,
00001001
00000000
00000000
00000000
00010100
00000000
00010000
00001000
01000000
00000000
00100000
00000000
10000000
00000000
00000000
00000000
,
00010000
01000000
00010000
00000000
01000000
00100000
01000000
00000000
00100000
00000000
10000000
00000000
01000000
00000000
00010000
00000000
,
00001000
00000000
00000101
00000000
00000010
00001000
00000100
00001000
,
00000010
00001000
00000010
00000000
00000100
00000010
00000100
00000000
00001000
00000000
00010000
00000000
01000000
00000000
10000000
00000000
,
00100000
01000000
01100000
00000000
10000000
01000000
00100000
00010000
,
01000000
00010000
01000000
00000000
00010000
00100000
00010000
00000000
01000000
00000000
00100000
00000000
00010000
00000000
00001000
00000000
,
00000010
00000001
00000010
00000000
00000001
00001000
00000001
00000000
00000100
00000000
00001000
00000000
00010000
00000000
01000000
00000000
,
10000000
00000000
10010000
00000000
10000000
01000000
00010000
01000000
,
10000000
00100000
00010000
00001000
00000010
00000001
00001001
00000000
,
00001000
00000010
00001000
00000000
00000010
00000100
00000010
00000000
00000100
00000000
00000001
00000000
00000010
00000000
00001000
00000000
,
00010000
00000000
10100000
00000000
01000000
00010000
00100000
00010000
,
01000000
00010000
01000000
00000000
00100000
01000000
00100000
00000000
00010000
00000000
00001000
00000000
00000010
00000000
00000001
00000000
,
00000100
00000010
00000110
00000000
00000001
00000010
00000100
00001000
,
00000010
00001000
00000010
00000000
00001000
00000100
00001000
00000000
00000010
00000000
00000100
00000000
00001000
00000000
00010000
00000000
,
01000000
10000000
01000000
00000000
10000000
00010000
10000000
00000000
00100000
00000000
00010000
00000000
00001000
00000000
00000010
00000000
,
00000001
00000000
00001001
00000000
00000001
00000010
00001000
00000010
,
00000001
00000100
00001000
00010000
01000000
10000000
11000000
00000000
,
10100000
00000000
01010000
00000000
10100000
00000000
10000000
01000000
,
00010000
00000000
00011000
00000000
00001000
00000100
00000001
00000100
,
00000101
00000000
00001010
00000000
00000101
00000000
00000001
00000100
,
00001000
00000000
00011000
00000000
00010000
01000000
10000000
01000000
,
11000000
00000000
00110000
00000000
11000000
00000000
10000000
01000000
,
00010000
00000000
00011000
00000000
00001000
00000100
00000001
00000100
,
00000101
00000000
00001100
00000000
00000001
00000100
00001000
00010000
,
01000000
10000000
01000000
10000000
01000000
00100000
01000000
00000000
,
02200000
00000000
00000000
00000000
,
00000000
03300000
00000000
00000000
00000000
00000000
00000000
00000000
;

//---------------dance-double - ----------------
#NOTES:
     dance-double:
     :
     Easy:
     8:
     0.441536,0.530506,0.055028,0.018343,0.000000,337.000000,331.000000,6.000000,2.000000,0.000000,0.000000,0.441536,0.530506,0.055028,0.018343,0.000000,337.000000,331.000000,6.000000,2.000000,0.000000,0.000000:
00000000
00000000
00000000
00000000
,
00000000
00000000
00000000
00000000
,
00000000
00000000
00000000
00000000
,
00000000
00000000
00000000
00000000
01000000
00100000
01000000
00100000
,
01000000
00010000
00100000
00010000
,
00001000
00000000
00000010
00000000
00000001
00001000
00000001
00001000
,
00000001
00000000
00000000
00000000
00001000
00000001
00001000
00000001
,
00001000
00000010
00000100
00001000
,
00010000
00000000
01000000
10000000
01000000
00000000
10000000
01000000
,
20000000
00000000
00000000
30000000
,
00100000
00000000
00100000
00000000
10000000
00010000
10000000
00010000
,
10000000
00000000
00100000
00000000
10000000
00010000
10000000
00010000
,
10000000
00000000
00100000
00000000
10000000
00010000
10000000
00010000
,
10000000
01000000
00010000
00001000
,
00000100
00000000
00000001
00000000
00001000
00000010
00001000
00000010
,
00001000
00000000
00000001
00000000
00001000
00000010
00001000
00000010
,
00001000
00000000
00000000
00000000
00000010
00001000
00000010
00001000
,
00000010
00000100
00000001
00001001
,
00000100
00000000
00000100
00000000
00000001
00001000
00000001
00001000
,
00000001
00000000
00000100
00000000
00000001
00001000
00000001
00001000
,
00000001
00000000
00000100
00000000
00000001
00001000
00000001
00001000
,
00000001
00000010
00001000
00010000
,
00100000
00000000
10000000
00000000
00010000
01000000
00010000
01000000
,
00010000
00000000
10000000
00000000
00010000
01000000
00010000
01000000
,
00010000
00000000
00000000
00000000
01000000
00010000
01000000
00010000
,
01000000
00100000
10000000
00010000
,
01100000
00000000
00000000
00000000
,
00000000
00000000
00000000
00000000
01000000
00100000
00010000
00000000
,
00001000
00000000
00000010
00000001
00000000
00000001
00000000
00000001
,
00000000
00000000
00000000
00000000
00000100
00000010
00000100
00000000
,
00001000
00000000
00010000
01000000
00000000
10000000
00000000
10000000
,
00000000
00000000
00000000
00000000
01000000
00100000
01000000
00000000
,
00010000
00000000
00001000
00000010
00000000
00000001
00000000
00000001
,
00000000
00000000
00000000
00000000
00000001
00000100
00000001
00000100
,
00001000
00010000
00000000
01000000
00000000
10000000
00000000
00000000
,
00010000
00000000
10000000
00000000
00100000
01000000
00100000
00000000
,
00010000
00000000
00001000
00000010
00000000
00000001
00000000
00000001
,
00000000
00000001
00000000
00000000
00000100
00000010
00000100
00000000
,
00001000
00000000
00010000
01000000
00000000
10000000
00000000
10000000
,
00000000
10000000
00000000
00000000
00100000
01000000
00100000
00000000
,
00010000
00000000
00001000
00000010
00000000
00000001
00000000
00000001
,
00000000
00000001
00000000
00000000
00000001
00000010
00000001
00000010
,
00001000
00010000
00000000
00100000
00000000
10000000
00000000
00000000
,
00000000
00000000
00000000
00000000
00010000
01000000
00010000
01000000
,
00000000
00000000
00000000
00000000
00001000
00010000
00001000
00000000
,
00000000
00000000
00000000
00000000
00010000
00000010
00010000
00000010
,
00000000
00000000
00000000
00000000
00000100
00000010
00000100
00000000
,
00000000
00000000
00000000
00000000
00000001
00001000
00000001
00001000
,
00000000
00000000
00000000
00000000
00000100
00010000
00000100
00000000
,
00000000
00000000
00000000
00000000
00010000
00001000
00010000
00001000
,
01000000
00100000
00000000
00000000
,
00000000
00000000
00000000
00000000
,
10010000
00000000
10010000
00000000
01000000
00100000
01000000
00100000
,
01000000
00000000
00001000
00000000
00010000
00001000
00010000
00001000
,
00010000
00000000
00000100
00000000
00001000
00000010
00001000
00000010
,
00001000
00000001
00000100
00001000
,
00010000
00010000
01000000
10000000
,
00100000
00100000
00010000
00001000
,
00000010
00000000
00000001
00001000
,
00000001
00000000
00000100
00000000
00000010
00000100
00000010
00000000
,
00001001
00000000
00001001
00000000
00000010
00000100
00000010
00000100
,
00000010
00000000
00010000
00000000
00001000
00010000
00001000
00010000
,
00001000
00000000
00100000
00000000
00010000
01000000
00010000
01000000
,
00010000
10000000
00100000
00010000
,
00001000
00001000
00000010
00000001
,
00000100
00000100
00001000
00010000
,
01000000
00000000
10000000
00010000
,
10000000
00100000
01000000
00000000
00010000
01000000
00100000
00000000
,
10000000
00000000
10000000
00000000
10000000
00000000
00010000
00100000
,
00010000
00000000
01000000
00000000
00001000
00010000
00001000
00000000
,
00010000
00000000
00010000
00000000
00010000
00000000
00000100
00001000
,
00000100
00000000
00000010
00000000
00000001
00001000
00000001
00000000
,
00000100
00000000
00000100
00000000
00000100
00000000
00000010
00010000
,
00000010
00000000
00010000
00000000
00001000
01000000
00001000
00000000
,
01000000
00000000
01000000
00000000
00100000
10000000
00100000
00000000
,
01000000
00000000
00010000
00000000
00100000
00001000
00010000
00000000
,
00002000
00000000
00000000
00000000
,
00000000
00003000
00000000
00000000
00000000
00000000
00000000
00000000
;

//---------------dance-double - ----------------
#NOTES:
     dance-double:
     :
     Medium:
     10:
     0.499184,0.530506,0.064200,0.036685,0.000000,381.000000,374.000000,7.000000,4.000000,0.000000,0.000000,0.499184,0.530506,0.064200,0.036685,0.000000,381.000000,374.000000,7.000000,4.000000,0.000000,0.000000:
00000000
00000000
00000000
00000000
,
00000000
00000000
00000000
00000000
,
00000000
00000000
00000000
00000000
,
00000000
00000000
00000000
00000000
10000000
00100000
01000000
00100000
,
10000000
00000000
10010000
00000000
10000000
00100000
01000000
00100000
,
01000000
00001000
01000000
00000000
00001000
00010000
00001000
00010000
,
00001000
00000000
00000000
00000000
00010000
00001000
00010000
00001000
,
00010000
00000000
00000010
00000000
00000100
00000000
00000010
00000100
,
00000010
00000000
00000100
00000010
00000100
00000000
00000010
00000100
,
00000020
00000000
00000000
00000030
,
00001000
00000000
00000001
00000000
00001000
00000001
00001000
00000001
,
00001000
00000000
00000010
00000000
00001000
00000001
00001000
00000001
,
00001000
00000000
00000010
00000000
00001000
00000001
00001000
00000001
,
00000100
00000000
00000010
00000000
00010000
00001000
00010000
00001000
,
00010000
00000000
00001000
00000000
01000000
00100000
01000000
00100000
,
01000000
00000000
00100000
00000000
10000000
00010000
10000000
00010000
,
10000000
00000000
00000000
00000000
00010000
10000000
00010000
10000000
,
00010000
01000000
00100000
01000000
,
00010000
00000000
00010000
00000000
10000000
01000000
10000000
01000000
,
10000000
00000000
00100000
00000000
10000000
01000000
10000000
01000000
,
10000000
00000000
00100000
00000000
10000000
01000000
10000000
01000000
,
10000000
00000000
00100000
00000000
01000000
00010000
01000000
00010000
,
01000000
00000000
00001000
00000000
00010000
00001000
00010000
00001000
,
00010000
00000000
00000010
00000000
00000100
00000001
00000100
00000001
,
00000100
00000000
00000000
00000000
00000001
00000100
00000001
00000100
,
00000001
00001000
00000010
00010000
,
00002000
00000000
00000000
00003000
,
00000000
00000000
00000000
00000000
01000000
00100000
01000000
00000000
,
00010000
00000000
00100000
00001000
00000000
00010000
00000000
00000100
,
00000000
00000000
00000000
00000000
00000010
00000001
00000010
00000000
,
00000001
00000000
00001000
00000100
00000000
00010000
00000000
00001000
,
00000000
00000000
00000000
00000000
01000000
00010000
01000000
00000000
,
00100000
00000000
10000000
01000000
00000000
00100000
00000000
00001000
,
00000000
00000000
00000000
00000000
00010000
00000100
00010000
00000100
,
00001000
00000010
00000000
00000100
00000000
00000000
00001001
00000000
,
00000110
00000000
00000100
00000000
00000001
00000010
00000001
00000000
,
00000100
00000000
00001000
00010000
00000000
01000000
00000000
10000000
,
00000000
00000000
00000000
00000000
10000000
00100000
10000000
00000000
,
01000000
00000000
00010000
00001000
00000000
00000100
00000000
00000001
,
00000000
00000000
00000000
00000000
00000001
00000010
00000001
00000000
,
00000100
00000000
00001000
00010000
00000000
01000000
00000000
10000000
,
00000000
00000000
00000000
00000000
00100000
01000000
00100000
01000000
,
00100000
00010000
00000000
00001000
00000000
00000010
00000001
00000000
,
00001000
00000000
00000010
00000000
00001000
00000010
00000100
00000001
,
00001000
00000000
00000100
00000000
00010000
00001000
00100000
00000000
,
01000000
00000000
10000000
00000000
00100000
01000000
00010000
00100000
,
00001000
00000000
00010000
00000000
00000010
00000100
00000001
00000000
,
00000010
00000000
00000100
00000000
00000010
00000001
00001000
00000010
,
00000100
00000000
00001000
00000000
00010000
01000000
10000000
00000000
,
00100000
00000000
01000000
00000000
00010000
10000000
00100000
01000000
,
00010000
00100000
00010000
00000000
00000000
00000000
00000000
00000000
,
00000000
00000000
00000000
00000000
,
01010000
00000000
10010000
00000000
10000000
01000000
10000000
01000000
,
10000000
00000000
00010000
00000000
00100000
00001000
00100000
00001000
,
00100000
00000000
00001000
00000000
00010000
00000010
00010000
00000010
,
00000100
00000001
00000100
00000000
00000001
00001000
00000001
00001000
,
00000001
00000000
00001000
00000000
00000100
00010000
00000100
00010000
,
00000100
00000000
00010000
00000000
00001000
01000000
00001000
01000000
,
00001000
00000000
00000000
00000000
01000000
00001000
01000000
00001000
,
01000000
00000000
00100000
00000000
10000000
00010000
01000000
00000000
,
00010000
00000000
00100000
00000000
00001000
00010000
00001000
00010000
,
00001000
00000000
00010000
00000000
00000010
00000100
00000010
00000100
,
00000010
00000000
00000100
00000000
00000001
00000010
00000001
00000010
,
00000001
00001000
00000100
00000000
00010000
00001000
00010000
00001000
,
00010000
00000000
00001000
00000000
00100000
01000000
00100000
01000000
,
00100000
00000000
01000000
00000000
10000000
00010000
01000000
00010000
,
10000000
00000000
00000000
00000000
00010000
10000000
01000000
10000000
,
00010000
00010000
01000000
01010000
,
00100000
00000000
00100000
00000000
00001000
00000000
00010000
00001000
,
00010000
00000000
00000100
00000000
00001000
00000010
00000100
00000001
,
00000100
00000000
00000100
00000000
00000010
00000000
00001000
00000100
,
00010000
00000000
00010000
00000000
00001000
00100000
01000000
10000000
,
00100000
00000000
00100000
00000000
01000000
00000000
00010000
10000000
,
00100000
00000000
00100000
00000000
01000000
00001000
00010000
00000100
,
00001000
00000000
00001000
00000000
00000010
00000100
00000010
00000100
,
00000001
00000010
00000001
00001000
00000100
00010000
00001000
00000000
,
00022000
00000000
00000000
00000000
,
00000000
00033000
00000000
00000000
00000000
00000000
00000000
00000000
;
