#TITLE:Zero Day;
#SUBTITLE:;
#ARTIST:MC Frontalot;
#TITLETRANSLIT:;
#SUBTITLETRANSLIT:;
#ARTISTTRANSLIT:;
#GENRE:Hip Hop;
#CREDIT:;
#BANNER:;
#BACKGROUND:;
#LYRICSPATH:;
#CDTITLE:;
#MUSIC:Zero Day.mp3;
#OFFSET:-0.040000;
#SAMPLESTART:45.499977;
#SAMPLELENGTH:13.000004;
#SELECTABLE:YES;
#BPMS:0.000000=190.000000
;
#STOPS:248.000000=2.210000
;
#BGCHANGES:;
#KEYSOUNDS:;
#ATTACKS:;

//---------------dance-single - ----------------
#NOTES:
     dance-single:
     :
     Hard:
     13:
     0.686873,0.684287,0.550326,0.251026,0.014482,498.000000,441.000000,57.000000,26.000000,0.000000,0.000000,0.686873,0.684287,0.550326,0.251026,0.014482,498.000000,441.000000,57.000000,26.000000,0.000000,0.000000:
// measure 0
0000
0000
0000
0000
,  // measure 1
0000
0000
0000
0000
,  // measure 2
0000
0000
0000
0000
,  // measure 3
0000
0000
0000
0000
0000
0000
0010
1000
,  // measure 4
0000
1000
0100
0000
0011
0000
1100
1000
,  // measure 5
0001
0010
0100
1000
0000
0010
0001
0010
,  // measure 6
1000
0000
0001
0100
1000
0000
0101
0000
,  // measure 7
1000
0010
0100
0010
0001
0000
0010
1000
,  // measure 8
0001
0100
1000
0100
0001
1000
1001
0000
,  // measure 9
0110
0100
0001
0000
1100
0000
0001
0100
,  // measure 10
0000
1000
0100
0001
1000
0000
0001
0010
,  // measure 11
0000
1000
0010
0001
1000
0000
0010
0100
,  // measure 12
0000
0100
0001
1000
0010
0100
1000
0100
,  // measure 13
0001
0000
0000
1000
0000
0000
0001
0000
0000
0000
1000
0000
0100
0000
0001
0000
,  // measure 14
0100
1000
0010
0001
0010
1000
0001
0100
,  // measure 15
1000
0100
0001
1000
0000
0010
0100
0010
,  // measure 16
1000
0000
0100
0000
0001
0000
0100
0000
1000
0000
0010
0000
0000
0100
0000
0000
,  // measure 17
0010
0000
0000
0001
0000
0000
0010
0000
1000
0000
0000
0000
0001
0000
1000
0000
,  // measure 18
0010
0100
0010
1000
0010
0100
0001
0010
,  // measure 19
0001
0000
1000
0010
0100
0000
1001
0000
,  // measure 20
0210
0001
1000
0301
,  // measure 21
1000
0001
1000
0010
0110
0000
0001
1000
,  // measure 22
0001
0100
0010
0100
1000
0100
1000
0100
,  // measure 23
0001
0100
0001
0010
0001
0000
0010
1000
,  // measure 24
0010
0001
0000
1000
0001
0000
0100
0010
,  // measure 25
0000
0100
1000
0000
0101
0000
1000
0001
,  // measure 26
0010
0100
1000
0000
0100
0010
0001
0100
,  // measure 27
0000
1000
0100
0001
0100
0001
0100
0001
,  // measure 28
0010
1100
0101
1100
,  // measure 29
0010
0000
0100
0001
0100
0000
0010
1000
,  // measure 30
0010
0100
0000
0011
0000
0010
0100
1000
,  // measure 31
0000
1001
0000
1100
0000
0110
0000
0001
,  // measure 32
1000
0000
0001
0010
0001
0000
1000
0100
,  // measure 33
1000
0001
0010
0100
1000
0000
1000
0010
,  // measure 34
0100
0001
0010
0100
1000
0010
0100
0001
,  // measure 35
1000
0010
0100
0010
0100
0010
0110
0000
,  // measure 36
1001
0000
1200
0000
0301
0000
1000
0100
,  // measure 37
0001
0100
1000
0200
0000
0300
0001
0100
,  // measure 38
1000
0100
0001
0200
0000
0300
1000
0100
,  // measure 39
0001
0100
1000
0200
0000
1300
0001
0010
,  // measure 40
0000
0000
0021
0000
1030
0000
0001
0010
,  // measure 41
1000
0010
0001
0020
0000
0030
1000
0010
,  // measure 42
0001
0010
1000
0010
0001
0100
0020
0000
,  // measure 43
0030
0100
0001
1000
0010
0100
0100
0010
,  // measure 44
1010
0000
0010
1010
0000
0010
1010
0000
,  // measure 45
0000
0001
0010
0100
1000
0000
0001
0000
,  // measure 46
0101
0000
0001
0101
0000
0001
0101
0000
,  // measure 47
0000
1000
0100
0010
0001
0000
1000
0000
,  // measure 48
0110
0000
0010
0110
0000
0010
0110
0000
,  // measure 49
0000
0100
0001
0100
1000
0100
0001
0000
,  // measure 50
1001
0000
1000
1100
0000
0001
0101
0000
,  // measure 51
0000
0010
1000
0010
0100
0010
0001
0000
,  // measure 52
1010
0000
0100
0101
0000
0010
1010
0000
,  // measure 53
0000
0100
0001
1000
0001
0000
0101
0000
,  // measure 54
1100
0000
0010
0011
0000
0100
1100
0000
,  // measure 55
0000
0010
1000
0001
1000
0000
1010
0000
,  // measure 56
1001
0000
1000
1100
0000
0001
0011
0000
,  // measure 57
0000
0001
0100
0010
0100
0000
0101
0000
,  // measure 58
0110
0000
1000
1001
0000
0001
0011
0000
,  // measure 59
0000
0100
1000
0100
0001
0100
1000
0000
,  // measure 60
0001
0000
1000
0010
0000
0001
0010
0000
,  // measure 61
0000
1000
0001
1000
0010
0000
1010
0000
,  // measure 62
2200
3300
1001
0000
0201
0000
1300
0000
,  // measure 63
0100
0001
0100
1000
0100
0002
0000
0003
,  // measure 64
0010
1000
0010
0001
0010
2000
0000
3000
,  // measure 65
0010
0001
0100
0010
1000
0002
0000
0103
,  // measure 66
0010
0100
0000
0000
1020
0000
0031
0000
,  // measure 67
0100
0001
0100
1000
0100
0002
0000
0003
,  // measure 68
0010
1000
0010
0001
0010
2000
0000
3010
,  // measure 69
0000
0000
0000
0100
0010
0100
0010
0100
,  // measure 70
0010
0001
1001
0000
0201
0000
0310
0000
,  // measure 71
0100
1000
0100
0001
0100
0020
0000
0030
,  // measure 72
0010
0001
0010
1000
0010
0200
0000
0300
,  // measure 73
0100
1000
0100
0010
0100
0002
0000
1003
,  // measure 74
0001
0100
0000
0000
1020
0000
0130
0000
,  // measure 75
0010
0001
0010
0100
0010
2000
0000
3000
,  // measure 76
0100
0010
0100
1000
0100
0001
0100
1000
,  // measure 77
0200
0000
0300
0010
0001
1000
0100
0010
,  // measure 78
0100
1000
2002
0000
0000
0000
3003
0000
;

//---------------dance-single - ----------------
#NOTES:
     dance-single:
     :
     Beginner:
     3:
     0.153098,0.226647,0.086894,0.000000,0.000000,111.000000,102.000000,9.000000,0.000000,0.000000,0.000000,0.153098,0.226647,0.086894,0.000000,0.000000,111.000000,102.000000,9.000000,0.000000,0.000000,0.000000:
0000
0000
0000
0000
,
0000
0000
0000
0000
,
0000
0000
0000
0000
,
0000
0000
0000
0010
,
0000
0000
0000
0100
,
0000
0000
0000
0000
,
1000
0000
0000
0001
,
0000
0000
0000
0001
,
0001
0000
0000
0010
,
0000
0000
0000
0100
,
0100
0000
0000
1000
,
1000
0000
0000
0010
,
0010
0000
0000
0100
,
0000
0000
0000
0001
,
0001
0000
0000
1000
,
0000
0000
0000
1000
,
1000
0000
0000
0100
,
0000
0000
0000
0010
,
0010
0000
0000
0001
,
0001
0000
0000
0000
,
1001
0000
0000
1000
,
0000
0000
0000
0010
,
0010
0000
0000
0100
,
0000
0100
0000
0010
,
0010
0000
0000
1000
,
0000
0000
0000
0001
,
0001
0000
0000
1000
,
0000
1000
0000
0000
,
0100
0000
0000
0010
,
0000
0000
0000
0100
,
0100
0000
0000
1000
,
0000
1000
0000
0000
,
0001
0000
0000
1000
,
0000
0000
0000
0000
,
0010
0000
0000
0100
,
0100
0100
0000
0000
,
0110
0000
0000
0000
,
1000
0000
0000
0000
,
1000
0000
0000
0000
,
1000
0000
0000
0000
,
0110
0000
0000
0000
,
0001
0000
0000
0000
,
0001
0000
0001
0000
,
0000
0000
0000
0000
,
1001
0000
0000
0010
,
0000
0000
0000
1000
,
1000
0000
0000
0100
,
0000
0000
0000
0001
,
0001
0000
0000
0010
,
0000
0000
0000
0100
,
0100
0000
0000
0000
,
0000
0010
0010
0010
,
0010
0000
0000
0001
,
0000
0000
0000
0100
,
0100
0000
0000
0000
,
0000
0010
0010
0010
,
0010
0000
0000
0100
,
0000
0000
0000
0001
,
0001
0000
0000
0000
,
0000
1000
1000
1000
,
1000
0000
0000
0000
,
0000
0000
0000
0000
,
0110
0000
0000
0000
,
0000
0100
0000
0000
,
0000
0100
0000
0000
,
0000
0100
0000
0000
,
0000
1001
0000
0000
,
0000
0010
0000
0000
,
0000
0010
0000
0000
,
0000
0000
1000
1000
,
0000
0110
0000
0000
,
0000
0001
0000
0000
,
0000
0001
0000
0000
,
0000
0001
0000
0000
,
0000
0110
0000
0000
,
0000
1000
0000
0000
,
0000
1000
0000
0000
,
0000
0000
0000
0000
,
0000
1001
0000
0000
;

//---------------dance-single - ----------------
#NOTES:
     dance-single:
     :
     Medium:
     11:
     0.532395,0.566618,0.193097,0.347574,0.004827,386.000000,366.000000,20.000000,36.000000,0.000000,0.000000,0.532395,0.566618,0.193097,0.347574,0.004827,386.000000,366.000000,20.000000,36.000000,0.000000,0.000000:
0000
0000
0000
0000
,
0000
0000
0000
0000
,
0000
0000
0000
0000
,
0000
0000
0000
0000
0000
0000
1000
0100
,
0000
1000
0100
0000
0011
0000
0101
0000
,
0001
0010
0100
1000
0000
0000
0001
0000
,
1000
0000
0001
0010
0100
0000
1000
0000
,
0000
0000
1000
0000
0001
0000
1000
0010
,
1000
0001
0001
1000
,
1010
0000
0100
0000
0110
0000
0001
1000
,
0000
0001
1000
0000
0010
0000
1000
0001
,
0000
1000
0001
0000
0100
0000
0010
0100
,
0000
0000
0001
0010
0001
0000
1000
0100
,
1000
0010
0100
0010
,
1000
1000
0100
0100
,
0001
0001
0100
1000
,
1000
0000
0100
0000
0010
0000
0001
0000
0000
0000
1000
0000
0000
1000
0000
0000
,
1000
0000
0000
0000
0010
0000
0100
0010
,
0100
0001
0011
0100
,
0110
0000
1000
0001
1000
0000
0010
0000
,
2100
3002
0023
0230
,
0300
0000
1000
0001
1000
0000
0001
0010
,
0001
0000
0100
0000
0010
0000
0100
0001
,
1000
0010
0100
0001
,
0100
0001
0000
0100
0010
0000
0010
1000
,
0000
0100
1000
0000
1001
0000
0010
0100
,
0001
1000
0010
0000
0010
1000
0100
0000
,
0010
0001
0010
0001
0010
0001
0010
0000
,
0100
1100
0010
1010
,
1000
0000
0001
0000
1000
0000
0010
0100
,
0000
0001
0000
0010
0000
0100
1000
0010
,
0000
0100
0000
0001
0000
1000
0000
0010
,
0100
0000
0001
1000
0001
0000
1000
0100
,
1000
0010
0100
0010
0000
0000
0010
1000
,
0010
0000
0100
0001
0100
0000
0001
1000
,
0001
1000
0001
1000
0000
0000
0110
0000
,
0000
0000
0200
0000
0302
0000
0103
0010
,
0100
0010
0100
0020
0000
0030
0100
0010
,
0100
0010
0100
0020
0000
0030
0100
0010
,
0100
0010
0100
0020
0000
1030
0001
1000
,
0000
0000
0020
0000
2030
0000
3010
0100
,
0010
0100
0010
0200
0000
0300
0010
0100
,
0010
0100
0010
0200
0000
0300
0002
0000
,
0000
0023
0000
0000
0130
0010
0100
0000
,
1000
0000
0100
0001
0000
0100
0001
0000
,
0000
1000
0001
1001
,
1000
0000
0010
1000
0000
0010
1000
0000
,
0000
0010
0100
0110
,
0010
0000
1000
0100
0000
1000
0100
0000
,
0000
0001
0100
0101
,
0001
0000
0010
0001
0000
0010
0001
0000
,
0000
0100
0010
1000
0001
1000
0010
0000
,
1000
0000
0010
1000
0000
0010
0100
0000
,
0000
0010
1000
1001
,
0001
0000
0100
0001
0000
0100
0010
0000
,
0000
0100
0001
1001
,
0001
0000
0010
0100
0000
1000
0001
0000
,
0000
1000
0100
0011
,
0001
0000
0100
0010
0000
1000
0001
0000
,
0000
0100
0010
0100
0010
0100
0010
0000
,
1000
0000
0001
0001
0000
1000
1000
0000
,
0000
0010
1000
0010
0100
0000
0001
0000
,
2002
3003
0020
0230
,
0301
1000
0001
1000
0001
2000
0000
3000
,
0001
1000
0001
1000
0001
2000
0000
3000
,
0001
1000
0001
1000
0001
2000
0000
3000
,
0110
0000
2000
3200
,
0310
0001
0010
0001
0010
0002
0000
0003
,
0010
0001
0010
0001
0010
0002
0000
0003
,
0000
0000
0000
0010
0100
0010
0100
0010
,
0001
1000
0000
0000
0020
0000
2030
0000
,
3001
0100
0001
0100
0001
0200
0000
0300
,
0010
1000
0010
1000
0010
2000
0000
3000
,
0001
0100
0001
0100
0001
0200
0000
0300
,
0010
0000
2000
3002
,
0103
0010
0100
0010
0100
0020
0000
0030
,
1000
0001
1000
0001
1000
0002
0000
0003
,
0200
0000
0000
0301
0010
1000
0010
0001
,
0010
0110
0000
0000
;

//---------------dance-single - ----------------
#NOTES:
     dance-single:
     :
     Easy:
     7:
     0.376539,0.377746,0.028965,0.164132,0.000000,273.000000,270.000000,3.000000,17.000000,0.000000,0.000000,0.376539,0.377746,0.028965,0.164132,0.000000,273.000000,270.000000,3.000000,17.000000,0.000000,0.000000:
0000
0000
0000
0000
,
0000
0000
0000
0000
,
0000
0000
0000
0000
,
0000
0000
0000
0010
,
0010
1000
0001
1000
,
0100
0100
0001
0100
,
1000
0001
0010
0010
,
1000
0010
0001
1000
,
0001
0100
0010
1000
,
0001
0001
0001
0010
,
0100
0100
0100
1000
,
0010
0010
0010
0110
,
0000
0100
0001
0100
,
0010
1000
0001
0100
,
0100
0001
1000
0010
,
0010
1000
0001
0100
,
0001
0010
0001
1000
,
0020
0000
0130
0100
,
0001
0010
0100
1000
,
1000
0100
0010
0001
,
2000
3002
0203
0320
,
0030
1000
1000
0001
,
0010
1000
0010
0001
,
1000
1000
0000
1000
,
0100
0001
0100
1000
,
0001
0001
0100
0010
,
1000
1000
0100
1000
,
0001
0010
0100
1000
,
0010
0100
0010
0100
,
0001
1000
0001
0000
,
0100
0010
0100
0010
,
1000
0001
1000
0001
,
0010
0100
0100
0010
,
0001
0001
1000
0010
,
0100
0010
1000
0010
,
0100
0010
0001
0010
,
1000
0002
2003
3000
,
0001
0100
0000
1000
,
0100
0001
0000
0100
,
1000
0100
0001
1000
,
0000
0020
0230
0300
,
1000
0010
0000
0001
,
0010
1000
0001
1000
,
0000
0010
0100
0001
,
0001
1000
0001
0000
,
0010
0100
0010
0001
,
1000
0010
1000
0000
,
0100
0010
0100
1000
,
0010
0001
0010
0000
,
1000
0001
1000
0010
,
0100
1000
0100
0001
,
1000
0001
1000
1000
,
0010
0100
0010
0100
,
0001
0010
0100
1000
,
0001
0010
0001
0010
,
0001
1000
0100
0010
,
0100
1000
0100
1000
,
0010
0100
0001
1000
,
0010
1000
0001
0100
,
0010
0100
0001
0010
,
0001
0000
0000
0000
,
0000
0000
0000
0000
,
1001
0000
0020
0230
,
0301
0010
1000
0010
,
0001
0100
1000
0100
,
0001
0010
1000
0010
,
0001
0000
0200
0320
,
1030
0010
0001
0010
,
1000
0100
0001
0100
,
0000
0000
1000
0001
,
1000
0000
0020
0230
,
0310
1000
0100
1000
,
0010
0100
0001
0100
,
0010
1000
0100
1000
,
0010
0000
0200
0302
,
1003
0100
0001
0100
,
1000
0001
1000
0001
,
1000
0000
0100
0100
,
0100
0110
0000
0000
;

//---------------dance-double - ----------------
#NOTES:
     dance-double:
     :
     Easy:
     7:
     0.331023,0.377746,0.028965,0.115858,0.000000,240.000000,237.000000,3.000000,12.000000,0.000000,0.000000,0.331023,0.377746,0.028965,0.115858,0.000000,240.000000,237.000000,3.000000,12.000000,0.000000,0.000000:
00000000
00000000
00000000
00000000
,
00000000
00000000
00000000
00000000
,
00000000
00000000
00000000
00000000
,
00000000
00000000
00000000
00000010
,
00000100
00000010
00010000
00001000
,
00001000
00010000
00000000
00100000
,
10000000
00000000
01000000
00010000
,
00000000
00001000
00000100
00000001
,
00001000
00001000
00000010
00000010
,
00000100
00001000
00010000
01000000
,
00000000
10000000
00010000
10000000
,
00100000
01000000
00001000
00100000
,
00000000
01000000
00100000
01000000
,
00001000
00010000
00010000
00001000
,
00000100
00000001
00000010
00000000
,
00001000
00010000
00100000
00000000
,
10000000
01000000
00010000
00000000
,
00001000
00000010
00000100
00000000
,
00001000
00000001
00001000
00000010
,
00000100
00000100
00000010
00001000
,
00000200
00020300
00032000
00203000
,
00300000
00010000
01000000
00000000
,
00100000
10000000
01000000
00000000
,
00010000
00001000
00000100
00000000
,
00000001
00000000
00000010
00000000
,
00001000
00010000
00100000
00000000
,
10000000
00010000
10000000
00000000
,
00010000
01000000
00001000
00010000
,
00000010
00000010
00000100
00000100
,
00000001
00001000
00000001
00000000
,
00000100
00001000
00010000
00000000
,
01000000
00010000
00001000
00000000
,
00010000
00000010
00000100
00000010
,
00010000
00001000
00000000
00001000
,
01000000
00100000
01000000
00001000
,
00010000
00001000
00000000
00011000
,
00000000
00000020
00000230
00000300
,
00000001
00001000
00000100
00000000
,
00010000
00001000
01000000
00000000
,
00001000
00010000
00000100
00010000
,
00000000
00200000
02300000
03001000
,
00010000
00000010
00000000
00010000
,
00001000
00100000
00010000
01000000
,
00000000
00100000
10000000
10000000
,
00010000
00000000
00000000
00010000
00000000
00000000
00010000
00000000
,
00000000
00100000
00001000
00010000
,
00000010
00000000
00000000
00000010
00000000
00000000
00000010
00000000
,
00000100
00000001
00001000
00000100
,
00001000
00000000
00000000
00001000
00000000
00000000
00001000
00000000
,
00000100
00010000
00001000
01000000
,
00100000
00000000
00000000
00100000
00000000
00000000
00100000
00000000
,
10000000
01000000
00010000
00001000
,
00000100
00000000
00000000
00000100
00000000
00000000
00000100
00000000
,
00000001
00001000
00000010
00000100
,
00000001
00000000
00000000
00000001
00000000
00000000
00000001
00000000
,
00000010
00001000
00010000
00100000
,
10000000
00000000
00000000
10000000
00000000
00000000
10000000
00000000
,
01000000
00010000
00001000
00000010
,
00000100
00000000
00000000
00000100
00000000
00000000
00000100
00000000
,
00000000
00000000
00000000
00000000
,
00000010
00000000
00010000
00000000
,
00000000
00001000
00100000
00010000
,
10010000
00000000
10000000
10000000
,
00000000
01000000
00010000
00001000
,
00000000
00000100
00001000
01000000
,
00000000
00010000
00001000
00000100
,
00000000
00000000
00000001
00000001
,
00000000
00000010
00001000
00010000
,
00000000
00100000
00010000
00001000
,
00000000
00000000
00000010
00000001
,
00001000
00000000
00000020
00000230
,
00000300
00001000
00010000
01000000
,
00010000
01000000
10000000
00000000
,
01000000
00010000
00001000
00010000
,
00000000
00000000
02000000
03200000
,
00300000
00010000
00001000
00000010
,
00000000
00001000
00000010
00000001
,
00000100
00000010
00001000
00000001
,
00001000
00001001
00000000
00000000
;

//---------------dance-double - ----------------
#NOTES:
     dance-double:
     :
     Hard:
     13:
     0.679977,0.642168,0.405503,0.212406,0.014482,493.000000,451.000000,42.000000,22.000000,0.000000,0.000000,0.679977,0.642168,0.405503,0.212406,0.014482,493.000000,451.000000,42.000000,22.000000,0.000000,0.000000:
00000000
00000000
00000000
00000000
,
00000000
00000000
00000000
00000000
,
00000000
00000000
00000000
00000000
,
00000000
00000000
00000000
00000000
00000000
00000000
01000000
00010000
,
00000000
00100000
01000000
00000000
00010000
00000000
00001000
00010000
,
00100000
10000000
01000000
00010000
00000000
00001000
00000100
00000001
,
00001000
00000000
00000001
00000010
00000001
00000000
00001100
00000000
,
00000010
00000100
00001000
00010000
01000000
00000000
00010000
00001000
,
00010000
00100000
10000000
00010000
00100000
01000000
00010000
00000000
,
00001000
00000000
00000100
00000001
00000000
00000000
00000010
00001000
,
00000000
00000010
00000001
00000100
00001000
00000000
00000100
00000001
,
00000000
00000010
00001000
00010000
00100000
00000000
10000000
00010000
,
00000000
00000000
01000000
00100000
00010000
00001000
00000100
00000001
,
00000100
00000000
00000000
00001000
00000000
00000000
00010000
00000000
00000000
00000000
00001000
00000000
00100000
00000000
00010000
00000000
,
00001000
00000100
00000010
00000001
00000100
00001000
00010000
00100000
,
10000000
00100000
00010000
00001000
00000000
01000000
00100000
00000000
,
00010000
00000000
00001000
00000000
00000100
00000000
00000001
00000000
00000000
00000000
00000010
00000000
00000000
00000100
00000000
00000000
,
00010000
00000000
00000000
00001000
00000000
00000000
00000100
00000000
00000001
00000000
00000000
00000000
00000100
00000000
00000010
00000000
,
00010000
00001000
00100000
01000000
10000000
00010000
01000000
00100000
,
00010000
00000000
00001000
00010000
00100000
00000000
10100000
00000000
,
20000000
30020000
00032000
00003002
,
00000003
00000000
00000100
00000010
00000110
00000000
00000100
00001000
,
00010000
00100000
10000000
00100000
00010000
00001000
00000100
00000001
,
00000100
00000010
00010000
00001000
00000000
00000000
00010000
00100000
,
10000000
01000000
00000000
01000000
00010000
00000000
00010000
00001000
,
00000000
00001000
00000010
00000000
00000011
00000000
00000100
00001000
,
00000100
00000001
00000010
00000000
00001000
00010000
00100000
10000000
,
01000000
00010000
00001000
00010000
00001000
00010000
00001000
00010000
,
00100000
10100000
11000000
01010000
,
00010000
00000000
00001000
00000010
00000100
00000010
00000000
00001000
,
00000000
00000011
00000000
00000101
00000000
00001100
00000000
00001000
,
00010000
00100000
00000000
10100000
00000000
10010000
00000000
01000000
,
00100000
00000000
01000000
00010000
01000000
00000000
00001000
00010000
,
00100000
00010000
00001000
00000100
00000000
00000001
00001000
00000001
,
00000100
00001000
00000100
00001000
00010000
00100000
00010000
00100000
,
10000000
00010000
10000000
01000000
00010000
00000000
00011000
00000000
,
00010100
00000000
00000020
00000000
00000230
00000000
00000301
00000100
,
00001000
00000100
00001000
00020000
00000000
00030000
00001000
00010000
,
01000000
00010000
01000000
20000000
00000000
30000000
01000000
10000000
,
00100000
10000000
00100000
00020000
00000000
00031000
00000100
00000001
,
00000000
00000000
00001001
00000000
00000110
00000000
00000001
00000010
,
00001000
00000010
00001000
00020000
00000000
00031000
00000010
00000001
,
00000100
00001000
00010000
00100000
00010000
00001000
00000200
00000000
,
00000300
00000001
00001000
00000001
00001000
00000010
00000010
00000010
,
00001000
00000000
00000100
00010100
00000000
00000100
00010100
00000000
,
00000100
00010000
00001000
01000000
01010000
00000000
10100000
00000000
,
10000000
00000000
01000000
01100000
00000000
01000000
01100000
00000000
,
00001000
00010000
00000010
00000100
00000010
00000000
00001001
00000000
,
00000010
00000000
00010000
00010100
00000000
00010000
00010100
00000000
,
00001000
00100000
01000000
00100000
00001000
00000000
00110000
00000000
,
01000000
00000000
10000000
10100000
00000000
10000000
10100000
00000000
,
10000000
01000000
00010000
01000000
10000000
01000000
00010000
00000000
,
00001000
00000000
00000100
00000001
00000000
00000100
00001000
00000000
,
00000010
00000100
00001000
00010000
00100000
00010000
00001000
00000000
,
01000000
00000000
00100000
00010000
00000000
00100000
10000000
00000000
,
01000000
00010000
00001000
00010000
01000000
00100000
00010000
00000000
,
00001000
00000000
00000100
00000001
00000000
00000100
00001000
00000000
,
00000010
00000100
00001000
00010000
00001000
00000100
00000001
00000000
,
00001100
00000000
00000010
00010010
00000000
00010000
00011000
00000000
,
00000000
00001000
00100000
00010000
00100000
01000000
10000000
00000000
,
00100000
00000000
00010000
00010000
00000000
00001000
00001000
00000000
,
00000000
00000100
00000001
00000100
00001000
00000000
00010000
00000000
,
00022000
00033000
00101000
00000000
01010000
00000000
11000000
00000000
,
00100000
00010000
00001000
00010000
00100000
00020000
00000000
00031000
,
00000100
00000010
00000100
00001000
00010000
00002000
00000000
00013000
,
00100000
01000000
00100000
00010000
00001000
00020000
00000000
00030010
,
00000100
00000010
00001000
00000000
00000101
00000000
00001100
00000000
,
00000010
00000100
00001000
00010000
00001000
00000200
00000000
00001300
,
00010000
00100000
01000000
00100000
00010000
00002000
00000000
00013000
,
00000000
00000000
00000000
00100000
10000000
00100000
10000000
00100000
,
10000000
00010000
10000000
00000000
11000000
00000000
01010000
00000000
,
10000000
01000000
00010000
00001000
00000100
00000020
00000000
00000130
,
00001000
00010000
00100000
01000000
00001000
00020000
00000000
00030010
,
00000100
00001000
00010000
00001000
00000100
00000002
00000000
00001003
,
00000010
00001000
00000000
00000000
00000101
00000000
00001100
00000000
,
00000010
00000100
00001000
00010000
00100000
20000000
00000000
30010000
,
01000000
00100000
00010000
00100000
00010000
00100000
00010000
00001000
,
00000100
00000000
00000001
00000100
00001000
00010000
00100000
01000000
,
00010000
00001000
00011000
00000000
00000000
00000000
00000000
00000000
;

//---------------dance-double - ----------------
#NOTES:
     dance-double:
     :
     Medium:
     10:
     0.500672,0.528844,0.048274,0.318610,0.000000,363.000000,358.000000,5.000000,33.000000,0.000000,0.000000,0.500672,0.528844,0.048274,0.318610,0.000000,363.000000,358.000000,5.000000,33.000000,0.000000,0.000000:
00000000
00000000
00000000
00000000
,
00000000
00000000
00000000
00000000
,
00000000
00000000
00000000
00000000
,
00000000
00000000
00000000
00000000
00000000
00000000
10000000
01000000
,
00000000
10000000
00100000
00000000
00010000
00000000
00001000
00000000
,
00000010
00000001
00000010
00000001
00000000
00000000
00000100
00000000
,
00001000
00000000
00010000
00001000
00010000
00000000
00002000
00000000
,
00003000
00000000
00100000
01000000
00100000
00000000
00010000
00000000
,
01000000
10000000
01000000
00010000
,
00100000
00000000
00001000
00010000
00001000
00000000
00010000
00000010
,
00000000
00000100
00000010
00000100
00000010
00000000
00001000
00000010
,
00000000
00010000
00000100
00010000
00000100
00000000
00010000
00000000
,
00000000
00001000
00010000
00100000
,
10000000
00010000
10010000
10000000
,
01000000
00010000
00001000
00000100
,
00000001
00001000
00000001
00001000
00000000
00000010
00000100
00000000
,
00010000
00001000
00010000
00001000
00000000
01000000
00100000
00000000
,
20000000
00000000
00000000
00000000
30010000
00000000
00100000
01000000
,
00001000
00010000
00001000
00000010
,
00000001
00000100
00000100
00001000
,
00020000
00230000
20300000
30020000
,
00030000
00000000
01000000
00100000
01000000
00000000
00010000
00000000
,
10000000
00000000
01000000
00100000
01000000
00000000
00100000
00000000
,
00001000
00010000
00000010
00000100
00000000
00000000
00000001
00000000
,
00000100
00000010
00000000
00000100
00000010
00000000
00010000
00001000
,
00000000
00010000
00001000
00000000
01100000
00000000
00100000
00000000
,
10000000
00010000
10000000
00000000
00010000
00000000
00100000
00000000
,
01000000
00010000
00001000
00000100
,
00000001
00000001
00001000
00001000
,
00000010
00000000
00000100
00000000
00001000
00000000
00010000
00100000
,
00000000
10000000
00000000
00010000
00000000
10000000
00000000
01000000
,
00000000
00010000
00000000
00001000
00000000
00000100
00000000
00000001
,
00001000
00000000
00000100
00010000
00000100
00000000
00010000
00001000
,
00010000
00000000
00001000
00100000
00001000
00000000
00100000
00000000
,
00010000
01000000
00100000
10000000
,
00010000
00100000
00001000
00011000
,
00000000
00000000
00000200
00000000
00002300
00000000
00003010
00000100
,
00000010
00000100
00000010
00000200
00000000
00000300
00000010
00010000
,
00000010
00010000
00000010
00020000
00000000
00030000
00001000
01000000
,
00001000
01000000
00001000
02000000
00000000
03100000
10000000
00100000
,
00000000
00000000
20000000
00000000
32000000
00000000
03100000
00001000
,
00100000
00001000
00100000
00002000
00000000
00003000
00010000
00000010
,
00010000
00000010
00010000
00000020
00000000
00000030
00000100
00000000
,
00000001
00001000
00000000
00001000
00000010
00000000
00000010
00000000
,
00000110
00000000
00000001
00001000
00000000
00000001
00001000
00000000
,
00000010
00000100
00001000
00010000
,
00100000
00000000
10000000
00010000
00000000
10000000
00010000
00000000
,
10000000
01000000
00010000
00001000
,
00000100
00000000
00000010
00000100
00000000
00000010
00000100
00000000
,
00000010
00000100
00001000
00010000
,
00100000
00000000
01000000
00010000
00000000
01000000
00010000
00000000
,
00000000
00100000
00001000
00100000
00001000
00100000
00001000
00000000
,
00010000
00000000
00000010
00000100
00000000
00000010
00000100
00000000
,
00000001
00000010
00000100
00010000
,
00001000
00000000
01000000
00100000
00000000
01000000
00100000
00000000
,
10000000
01000000
00010000
00001000
,
00000100
00000000
00000001
00001000
00000000
00000001
00001000
00000000
,
00000001
00000010
00001000
00010000
,
00100000
00000000
10000000
00010000
00000000
10000000
00010000
00000000
,
00000000
01000000
00100000
01000000
00100000
01000000
00100000
00000000
,
10000000
00000000
00000000
01000000
00000000
00000000
00010000
00000000
,
00000000
00000010
00000100
00000010
,
00020000
00031000
02000000
03200000
,
10300000
01000000
10000000
01000000
10000000
02000000
00000000
03000000
,
00100000
00001000
00100000
00001000
00100000
00002000
00000000
00003000
,
00010000
00000010
00010000
00000010
00010000
00000020
00000000
00000030
,
00000100
00000000
00000002
00000023
,
00000130
00010000
00000100
00010000
00000100
00020000
00000000
00030000
,
00001000
00100000
00001000
00100000
00001000
00200000
00000000
01300000
,
00000000
00000000
00000000
10000000
00010000
01000000
00100000
00000000
,
10000000
00000000
00020000
00230000
,
00301000
00010000
00001000
00010000
00001000
00020000
00000000
00030000
,
00000010
00000100
00000010
00000100
00000010
00000200
00000000
00000300
,
00000001
00000010
00000001
00000010
00000001
00000020
00000000
00000030
,
00001000
00000000
00020000
00230000
,
10300000
00010000
10000000
00010000
10000000
00020000
00000000
00030000
,
00000000
01000000
00100000
00000000
00100000
00010000
00000000
00010000
,
00001000
00000000
00000000
00000100
00000001
00000100
00000001
00000000
,
00001000
00001001
00000000
00000000
;
