#TITLE:X-Treme;
#SUBTITLE:;
#ARTIST:BanYa;
#TITLETRANSLIT:;
#SUBTITLETRANSLIT:;
#ARTISTTRANSLIT:;
#GENRE:Rock;
#CREDIT:;
#BANNER:xtreme-bn.png;
#BACKGROUND:xtreme-bg.png;
#LYRICSPATH:;
#CDTITLE:;
#MUSIC:X-Treme.ogg;
#OFFSET:0.040000;
#SAMPLESTART:31.040001;
#SAMPLELENGTH:13.000004;
#SELECTABLE:YES;
#BPMS:0.000000=162.000000
;
#STOPS:32.000000=0.370000,
47.000000=0.740000,
109.000000=0.370000,
140.000000=0.370000,
191.000000=1.110000,
220.000000=0.370000,
251.000000=0.370000
;
#BGCHANGES:;
#KEYSOUNDS:;
#ATTACKS:;

//---------------dance-single - ----------------
#NOTES:
     dance-single:
     :
     Hard:
     13:
     0.560399,0.588663,0.146373,0.000000,0.268350,402.000000,387.000000,15.000000,0.000000,0.000000,0.000000,0.560399,0.588663,0.146373,0.000000,0.268350,402.000000,387.000000,15.000000,0.000000,0.000000,0.000000:
// measure 0
0000
0000
0000
0000
,  // measure 1
0000
0000
0000
0000
,  // measure 2
0000
0000
0000
0000
,  // measure 3
0010
0000
0000
0000
1000
0000
0000
0001
0000
0000
0000
0000
0000
0000
0000
0000
,  // measure 4
0100
0001
0000
0000
0100
0000
0000
0000
0010
1000
0000
0000
0010
0000
0000
0000
,  // measure 5
1000
0000
0000
0000
0001
0000
0000
0010
0000
0000
0000
0000
0000
0000
0000
0000
,  // measure 6
0001
0100
0000
0000
0001
0000
0000
0000
1000
0010
0000
0000
1000
0000
0000
0000
,  // measure 7
0001
0000
0000
0000
0100
0000
0000
0010
0000
0000
0000
0000
0000
0000
0000
0000
,  // measure 8
1001
0000
0000
0000
1000
0100
0000
1000
0000
0100
0010
0000
0001
0000
0100
0000
,  // measure 9
0001
0100
0001
0100
0001
0100
0010
1000
,  // measure 10
0100
1000
0010
0100
0001
0100
0010
1000
,  // measure 11
0010
1000
0010
1000
0010
1000
1010
0000
,  // measure 12
1001
0000
1000
0100
0000
0010
0100
0000
,  // measure 13
1001
0000
0010
0100
0000
0001
0100
0000
,  // measure 14
1001
0000
1000
0100
0000
0001
0100
0000
,  // measure 15
1100
0000
0001
0100
0000
1000
0100
0000
,  // measure 16
0101
0000
0001
0010
0000
0100
1000
0000
,  // measure 17
0101
0000
1000
0100
0000
0010
0001
0000
,  // measure 18
1100
0000
0001
1000
0000
0010
0100
0000
,  // measure 19
1001
0000
0010
1000
0100
0010
0001
1000
,  // measure 20
0001
0000
1000
0000
0001
0000
0000
0000
0010
0000
0000
0001
0000
0000
1000
0000
,  // measure 21
0100
0000
0010
0000
0100
1000
0000
0000
0100
0000
0000
0000
0100
0001
0000
0000
,  // measure 22
0100
0000
0000
0000
1000
0000
0000
0000
0010
0000
0000
0100
0000
0000
0010
0000
,  // measure 23
1000
0000
0001
0000
0100
0001
0000
0000
0100
0000
0000
0000
0100
1000
0000
0000
,  // measure 24
0100
0000
0000
0000
0001
0000
0000
0000
1000
0000
0000
0010
0000
0000
0100
0000
,  // measure 25
0001
0000
1000
0000
0010
0001
0000
0000
0010
0000
0000
0000
0010
1000
0000
0000
,  // measure 26
0010
0000
0000
0000
0100
0000
0000
0000
0010
0000
0000
1000
0000
0000
0100
0000
,  // measure 27
1000
0000
0010
0000
1010
0000
0000
0000
0001
1000
0000
0001
0000
1000
0010
0000
,  // measure 28
0100
0000
0000
0000
0001
0000
0000
0100
0000
0000
0010
0000
1000
0000
0100
0000
,  // measure 29
1000
0010
0000
0000
1000
0000
0000
0000
0100
0010
0000
0000
0100
0000
0000
0000
,  // measure 30
1000
0000
0000
0000
0010
0000
0000
1000
0000
0000
0001
0000
0100
0000
0001
0000
,  // measure 31
0010
0100
0000
0000
0010
0000
0000
0000
0001
0100
0000
0000
0001
0000
0000
0000
,  // measure 32
0100
0000
0000
0000
1000
0000
0000
0100
0000
0000
0001
0000
0010
0000
0001
0000
,  // measure 33
0100
0001
0000
0000
0100
0000
0000
0000
0010
1000
0000
0000
0010
0000
0000
0000
,  // measure 34
0001
0000
0000
0000
0010
0000
0000
1000
0000
0000
0001
0000
1000
0000
0100
0000
,  // measure 35
1100
0000
0000
0000
0010
1000
0000
0010
0000
1000
0001
0000
0100
0000
0001
0000
,  // measure 36
0100
0001
0100
0001
0100
0001
1000
0010
,  // measure 37
0100
0001
0100
0010
1000
0001
0100
0010
,  // measure 38
0100
0010
0100
0010
0100
0010
0110
0000
,  // measure 39
0000
0000
0000
0000
,  // measure 40
0000
0000
0100
0010
0000
0100
0001
0000
,  // measure 41
0000
0000
1000
0010
0000
1000
0100
0000
,  // measure 42
0000
0000
0010
0001
0000
0010
0100
0000
,  // measure 43
0000
0000
1000
0010
0000
0100
0001
0000
,  // measure 44
0000
0000
1000
0010
0100
0010
0001
0010
,  // measure 45
0100
0010
1000
0010
0100
0010
0001
0010
,  // measure 46
0100
0000
0010
1000
0000
0000
0100
0000
0010
0000
0100
0000
0001
0000
0100
0000
,  // measure 47
0010
0100
1000
0100
0010
0100
0001
0000
,  // measure 48
0100
1000
0001
0010
0001
1000
0010
0000
,  // measure 49
0100
1000
0100
0001
0010
0100
1000
0000
,  // measure 50
0010
0100
0010
0100
0001
1000
0010
0000
,  // measure 51
1000
0100
0010
0001
0010
0001
0010
0001
,  // measure 52
0100
1000
0100
0001
0010
0100
1000
0000
,  // measure 53
0010
0001
0010
1000
0100
0010
0001
0000
,  // measure 54
1000
0010
1000
0010
0100
0001
1000
0000
,  // measure 55
1001
0000
0000
0000
0010
0100
0000
0010
0000
0100
0010
0000
1000
0000
0100
0000
,  // measure 56
0001
0000
0100
0000
1000
0000
0100
0000
0001
0000
0100
0000
1000
0010
0000
0010
,  // measure 57
0100
0000
0001
0000
0001
0100
0000
0100
0010
0000
1000
0000
0001
0000
0100
0000
,  // measure 58
1000
0000
0100
0000
0001
0000
0100
0000
1000
0000
0100
0000
0001
0010
0000
0010
,  // measure 59
0100
0000
1000
0000
1000
0100
0000
0100
0010
0000
0001
0000
1000
0000
0010
0000
,  // measure 60
0001
0000
0010
0000
1000
0000
0010
0000
0001
0000
0010
0000
1000
0001
0000
0001
,  // measure 61
0100
0000
0010
0000
0010
0100
0000
0100
0001
0000
1000
0000
0001
0000
0010
0000
,  // measure 62
1000
0010
0001
0010
1000
0010
0001
0000
,  // measure 63
1000
0100
0000
0010
0000
0001
0010
0000
0011
0000
0000
0000
0000
0000
0000
0000
;

//---------------dance-single - ----------------
#NOTES:
     dance-single:
     :
     Beginner:
     4:
     0.144979,0.216876,0.097582,0.000000,0.000000,104.000000,94.000000,10.000000,0.000000,0.000000,0.000000,0.144979,0.216876,0.097582,0.000000,0.000000,104.000000,94.000000,10.000000,0.000000,0.000000,0.000000:
0000
0000
0000
0000
,
0000
0000
0000
0000
,
0000
0000
0000
0000
,
1000
0000
0000
0000
,
0001
0000
0001
0000
,
0100
0000
0000
0000
,
0010
0000
0010
0000
,
1000
0000
0000
0000
,
1001
0000
0000
0010
,
0010
0010
0000
0100
,
0000
0000
0000
0010
,
0010
0010
0000
0110
,
0000
1000
0000
1000
,
0000
0001
0000
0001
,
0000
1000
0000
0001
,
0000
1000
0000
0000
,
0010
0010
0000
0010
,
0000
0100
0000
0100
,
0000
0010
0000
0100
,
0000
0010
0000
0110
,
0000
1000
0000
0000
,
0000
0010
0000
0010
,
0000
1000
0000
0000
,
0000
0100
0000
0100
,
0000
1000
0000
0000
,
0000
0001
0000
0001
,
0000
0100
0000
0000
,
0000
0110
0000
0000
,
0001
0000
0000
0000
,
0100
0000
0100
0000
,
0001
0000
0000
0000
,
0010
0000
0010
0000
,
0001
0000
0000
0000
,
1000
0000
1000
0000
,
0010
0000
0000
0000
,
0110
0000
0000
0010
,
0000
0000
0000
0100
,
0000
0100
0000
0010
,
0000
0000
0000
0110
,
0000
0000
0000
0000
,
0000
1000
0000
1000
,
0000
0001
0000
0001
,
0000
1000
0000
1000
,
0000
0001
0000
0001
,
0000
0100
0000
0000
,
0000
0100
0000
0000
,
0110
0000
0000
0000
,
0000
0010
0000
0000
,
1000
0000
0000
0000
,
0001
0000
0000
0000
,
1000
0000
0000
0000
,
0001
0001
0001
0001
,
0001
0000
0000
0000
,
0100
0000
0000
0000
,
0010
0000
0000
0000
,
0110
0000
0000
1000
,
0000
0000
0000
0010
,
0000
0010
0000
1000
,
0000
0000
0000
0001
,
0000
0001
0000
0001
,
0000
0000
0000
0100
,
0000
0100
0000
0001
,
0000
0000
0000
0110
,
0000
0000
1001
0000
;

//---------------dance-single - ----------------
#NOTES:
     dance-single:
     :
     Easy:
     6:
     0.280200,0.340805,0.087824,0.204922,0.000000,201.000000,192.000000,9.000000,21.000000,0.000000,0.000000,0.280200,0.340805,0.087824,0.204922,0.000000,201.000000,192.000000,9.000000,21.000000,0.000000,0.000000:
0000
0000
0000
0000
,
0000
0000
0000
0000
,
0000
0000
0000
0000
,
0001
0002
0003
0000
,
0100
0010
0100
0010
,
1000
2000
3000
0000
,
0010
1000
0010
1000
,
0001
0002
0003
0000
,
2002
0000
3003
0010
,
0010
0010
0010
1000
,
0100
0010
0001
0100
,
0100
0100
0100
0110
,
0000
0001
0000
1000
,
0100
0010
0000
0010
,
0100
1000
0000
0001
,
0100
0010
0000
0100
,
0001
1000
0000
0001
,
0010
0100
0000
0100
,
0010
0001
0000
1000
,
0010
0100
0000
0001
,
0001
0100
0200
0300
,
0000
0010
1000
0100
,
1000
0100
0200
0300
,
0000
0010
0001
0100
,
0001
1000
2000
3000
,
0000
0001
0100
0010
,
0100
0001
0002
0003
,
0000
2002
0000
3003
,
0010
0020
0030
0000
,
1000
0100
0010
0001
,
0100
0200
0300
0000
,
0001
0010
0100
1000
,
0001
2000
3000
0000
,
0010
0100
0001
1000
,
0010
0200
0300
0000
,
0220
0000
0330
1000
,
1000
1000
1000
0010
,
1000
0001
0100
0001
,
0001
0001
0001
1001
,
0000
0000
0000
0000
,
0000
0000
1000
0001
0000
0001
1000
0000
,
0000
0000
0001
1000
0000
1000
0001
0000
,
0000
0000
0100
0010
0000
0010
0100
0000
,
0000
0000
0010
0100
0000
0100
0010
0000
,
0000
1000
0100
0001
,
0100
1000
0100
0001
,
0100
1000
0010
0001
,
0010
1000
0010
0001
,
0010
1000
0001
0000
,
0100
0001
1000
0000
,
0010
1000
0100
0000
,
0010
0001
0001
0001
,
0100
0001
1000
0000
,
0100
1000
0010
0000
,
1000
0001
0100
0000
,
0220
0000
0330
1000
,
0100
1000
0010
0100
,
0001
0100
0001
0001
,
0010
0001
0100
0010
,
1000
0010
1000
0010
,
0100
0010
1000
0001
,
0010
0001
0010
0100
,
1000
0100
0010
0110
,
2020
3030
1001
0000
;

//---------------dance-single - ----------------
#NOTES:
     dance-single:
     :
     Medium:
     8:
     0.354083,0.433752,0.195164,0.146373,0.073186,254.000000,234.000000,20.000000,15.000000,0.000000,0.000000,0.354083,0.433752,0.195164,0.146373,0.073186,254.000000,234.000000,20.000000,15.000000,0.000000,0.000000:
0000
0000
0000
0000
,
0000
0000
0000
0000
,
0000
0000
0000
0000
,
1000
0000
0000
0000
1000
0000
0000
1000
0000
0000
0000
0000
0000
0000
0000
0000
,
0010
0100
0001
1000
,
0001
0000
0000
0000
0001
0000
0000
0001
0000
0000
0000
0000
0000
0000
0000
0000
,
0010
1000
0001
0100
,
0010
0000
0000
0000
0010
0000
0000
0010
0000
0000
0000
0000
0000
0000
0000
0000
,
1001
0000
0220
0000
0330
0000
0010
1000
,
0010
1000
0010
1000
0000
0000
0100
0000
,
0100
0000
0010
0000
0010
0000
0001
0100
,
0001
0100
0001
0100
0000
0000
0001
0000
,
1001
0000
2000
0000
3000
0100
1000
0000
,
0010
0100
0010
0000
0000
0100
0010
0000
,
0100
0000
0001
0010
0000
0001
0010
0000
,
0001
0000
1000
0100
0000
1000
0100
0000
,
2000
0000
3020
0000
0030
1000
0010
0000
,
1000
0001
1000
0000
0000
0001
1000
0000
,
0001
0000
0100
0001
0000
0100
0001
0000
,
0010
0100
1000
0001
,
0001
0000
0000
0000
0100
0000
0000
0000
0100
0000
0000
0100
0000
0000
0000
0000
,
0000
0001
0010
0001
,
0011
0000
0000
0000
0010
0000
0000
0000
0010
0000
0000
0010
0000
0000
0000
0000
,
0000
0100
1000
0100
,
1100
0000
0000
0000
1000
0000
0000
0000
1000
0000
0000
1000
0000
0000
0000
0000
,
0000
0001
0100
0001
,
0101
0000
0000
0000
0001
0000
0000
0000
0001
0000
0000
0001
0000
0000
0000
0000
,
0000
0110
2002
3003
,
0010
0000
0000
0000
0010
0000
0000
0010
0000
0000
0000
0000
0000
0000
0000
0000
,
1000
0100
0010
0011
,
0001
0000
0000
0000
0001
0000
0000
0001
0000
0000
0000
0000
0000
0000
0000
0000
,
0100
0010
1000
1001
,
0100
0000
0000
0000
0100
0000
0000
0100
0000
0000
0000
0000
0000
0000
0000
0000
,
1000
0010
0100
0101
,
1000
0000
0000
0000
1000
0000
0000
1000
0000
0000
0000
0000
0000
0000
0000
0000
,
1010
0000
0202
0000
0303
0000
0001
0010
,
0001
0010
0001
0010
0000
0000
0100
0000
,
1000
0000
0010
0000
0100
0000
0010
1000
,
0010
1000
0010
1000
0000
0000
1001
0000
,
0000
0000
0000
0000
,
0000
0000
1000
0100
0000
0000
0010
0000
,
0000
0000
0001
0100
0000
0000
0010
0000
,
0000
0000
1000
0001
0000
0000
0100
0000
,
0000
0000
0001
1000
0000
0000
0010
0000
,
0000
0000
1000
0100
0000
0001
0000
0100
,
0000
1000
0000
0100
0000
0001
0000
0100
,
0000
1000
0000
0010
0000
0001
0000
0010
,
0000
1000
0000
0010
0000
0100
0020
0000
,
0130
0001
0100
0001
0100
0000
0000
0000
,
0010
1000
0010
1000
0010
0000
0000
0000
,
1000
0001
1000
0001
1000
0000
0000
0000
,
0020
0130
0101
1100
,
0010
1000
0010
1000
0010
0000
0000
0000
,
1000
0100
1000
0100
1000
0000
0000
0000
,
0001
0010
0001
0010
0001
0000
0000
0000
,
0011
2200
3300
0010
,
1000
0000
0000
0001
0000
0000
0000
0000
0000
0000
0000
0000
1000
0000
0000
0000
,
0001
0100
0010
0100
,
0001
0000
0000
1000
0000
0000
0000
0000
0000
0000
0000
0000
0001
0000
0000
0000
,
0010
0100
1000
0001
,
1000
0000
0000
0010
0000
0000
0000
0000
0000
0000
0000
0000
0100
0000
0000
0000
,
0001
1000
0010
0100
,
0001
0000
0000
1000
0000
0000
0000
0000
0000
0000
0000
0000
0110
0000
0000
0000
,
2002
3003
1000
0000
;

//---------------dance-double - ----------------
#NOTES:
     dance-double:
     :
     Hard:
     13:
     0.539489,0.588663,0.136615,0.048791,0.112219,387.000000,373.000000,14.000000,5.000000,0.000000,0.000000,0.539489,0.588663,0.136615,0.048791,0.112219,387.000000,373.000000,14.000000,5.000000,0.000000,0.000000:
00000000
00000000
00000000
00000000
,
00000000
00000000
00000000
00000000
,
00000000
00000000
00000000
00000000
,
00000001
00000000
00000000
00000000
00000001
00000000
00000000
00000001
00000000
00000000
00000000
00000000
00000000
00000000
00000000
00000000
,
00000100
00001000
00010000
00000000
00100000
10000000
00010000
00000000
,
10000000
00000000
00000000
00000000
10000000
00000000
00000000
10000000
00000000
00000000
00000000
00000000
00000000
00000000
00000000
00000000
,
01000000
00010000
00001000
00000000
00000010
00000001
00001000
00000000
,
00000010
00000000
00000000
00000000
00000010
00000000
00000000
00000010
00000000
00000000
00000000
00000000
00000000
00000000
00000000
00000000
,
00000120
00000000
00000000
00000000
00001030
00000100
00000000
00001000
00000100
00000000
00010000
00000000
00001000
00000000
01000000
00000000
,
00001000
01000000
00001000
01000000
00001000
01000000
00100000
10000000
,
01000000
10000000
00100000
10000000
00010000
10000000
01000000
00010000
,
01000000
00010000
01000000
00010000
00001000
00000100
00000001
00000000
,
00001001
00000000
00000010
00000100
00000000
00000010
00001000
00000000
,
00001001
00000000
00000001
00000100
00000000
00001000
00010000
00000000
,
01010000
00000000
10000000
00100000
00000000
10000000
01000000
00000000
,
10100000
00000000
01000000
00010000
00000000
00001000
00000100
00000000
,
00000110
00000000
00000001
00000100
00000000
00000010
00001000
00000000
,
00001001
00000000
00000001
00000010
00000000
00001000
00010000
00000000
,
00110000
00000000
10000000
01000000
00000000
00100000
00010000
00000000
,
10010000
00000000
01000000
00100000
10000000
00010000
10000000
01000000
,
10000000
00000000
01000000
00000000
10000000
00000000
00000000
00000000
10000000
00000000
00000000
10000000
00000000
00000000
00010000
00000000
,
10000000
00000000
00100000
00010000
00001000
00000010
00000001
00001000
,
00000001
00000000
00000000
00000000
00000010
00000000
00000000
00000000
00000010
00000000
00000000
00000010
00000000
00000000
00000001
00000000
,
00001000
00000000
00000001
00000010
00001000
00010000
00100000
10000000
,
00010000
00000000
00000000
00000000
01000000
00000000
00000000
00000000
01000000
00000000
00000000
01000000
00000000
00000000
00100000
00000000
,
00010000
00000000
00001000
00000100
00000001
00001000
00000001
00000010
,
00000100
00000000
00000000
00000000
00010000
00000000
00000000
00000000
00010000
00000000
00000000
00010000
00000000
00000000
00001000
00000000
,
01000000
00000000
00000000
00000000
02001000
00000000
00000000
00000000
03100000
01000000
00000000
00100000
01000000
00000000
00010000
00000000
,
10000000
00000000
00000000
00000000
10000000
00000000
00000000
10000000
00000000
00000000
01000000
00000000
00100000
00000000
00000000
00000000
,
01000000
00010000
00001000
00000100
00000001
00000010
00000001
00000000
,
00000010
00000000
00000000
00000000
00000010
00000000
00000000
00000010
00000000
00000000
00000001
00000000
00001000
00000000
00000000
00000000
,
00000001
00000010
00001000
00010000
01000000
10000000
00010000
00000000
,
00100000
00000000
00000000
00000000
00100000
00000000
00000000
00010000
00000000
00000000
01000000
00000000
00100000
00000000
00000000
00000000
,
00010000
00001000
00000100
00000001
00000010
00000100
00001000
00000000
,
00000001
00000000
00000000
00000000
00000001
00000000
00000000
00000001
00000000
00000000
00001000
00000000
00000100
00000000
00000000
00000000
,
00001200
00000000
00000000
00000000
00010300
00001000
00000000
00010000
00001000
00000000
00100000
00000000
00010000
00000000
01000000
00000000
,
00010000
01000000
00010000
01000000
00010000
00100000
01000000
10000000
,
00100000
01000000
00010000
10000000
01000000
00010000
00001000
00000010
,
00001000
00000010
00001000
00000010
00001000
00000010
00000001
00000000
,
00000000
00000000
00000000
00000000
,
00000000
00000000
00000001
00000100
00000000
00000100
00001000
00000000
,
00000000
00000000
00010000
00100000
00000000
00100000
10000000
00000000
,
00000000
00000000
10000000
01000000
00000000
01000000
00010000
00000000
,
00000000
00000000
00001000
00000100
00000000
00000100
00000001
00000000
,
00000000
00000000
00000001
00000010
00000001
00000010
00001000
00010000
,
00001000
00010000
00100000
10000000
00100000
10000000
00010000
10000000
,
00010000
00000000
10000000
01000000
00000000
00000000
00010000
00000000
00001000
00000000
00010000
00000000
00001000
00000000
00000010
00000000
,
00000001
00000010
00000001
00000100
00001000
00000100
00001000
00000000
,
00010000
01000000
10000000
00100000
01000000
00010000
00000000
00000000
,
01000000
00001000
00010000
00000010
00000100
00000010
00000000
00000000
,
00001000
00000001
00000010
00000100
00001000
00000100
00000000
00000000
,
00010000
00001000
01000000
01000000
00100000
00100000
10000000
10000000
,
00100000
00010000
00001000
00000010
00000001
00000010
00000000
00000000
,
00000001
00000100
00000010
00010000
00001000
00010000
00000000
00000000
,
00001000
01000000
00100000
00010000
00100000
10000000
00000000
00000000
,
20010000
00000000
00000000
00000000
31000000
00100000
00000000
01000000
00100000
00000000
00001000
00000000
00010000
00000000
00000100
00000000
,
00010000
00000100
00010000
00000100
00010000
00000100
00001000
00000010
,
00000100
00000001
00000010
00000100
00001000
00000010
00000100
00000010
,
00000100
00000010
00000100
00000010
00000100
00001000
00010000
01000000
,
10000000
00100000
01000000
00010000
00100000
01000000
10000000
00010000
,
10000000
00010000
10000000
00010000
10000000
00010000
10000000
01000000
,
00010000
00001000
00000010
00000100
00000010
00001000
00000001
00000100
,
00000001
00000100
00000001
00000100
00000001
00000100
00000201
00000000
,
00000310
00001000
00000000
00000010
00000000
00001000
00000100
00000000
00010100
00000000
00000000
00000000
00000000
00000000
00000000
00000000
;

//---------------dance-double - ----------------
#NOTES:
     dance-double:
     :
     Easy:
     6:
     0.278805,0.309823,0.087824,0.263471,0.000000,200.000000,191.000000,9.000000,27.000000,0.000000,0.000000,0.278805,0.309823,0.087824,0.263471,0.000000,200.000000,191.000000,9.000000,27.000000,0.000000,0.000000:
00000000
00000000
00000000
00000000
,
00000000
00000000
00000000
00000000
,
00000000
00000000
00000000
00000000
,
10000000
00200000
00300000
00000000
,
01000000
00010000
01000000
00010000
,
00200000
00301000
00000000
00000000
,
00010000
00000100
00010000
00000100
,
00002000
00003010
00000000
00000000
,
00001001
00000220
00000330
00000001
,
00000010
00001000
00010000
00100000
,
00100000
10000000
00010000
10000000
,
01000000
00010000
00001000
00000200
,
00000301
00001000
00000000
00000001
,
00000010
00000100
00000000
00000010
,
00000100
00001000
00000000
00000001
,
00000100
00001000
00000000
00010000
,
00200000
10300000
00000000
00100000
,
10000000
01000000
00000000
01000000
,
00100000
00010000
00000000
10000000
,
00100000
00010000
00001000
00010000
,
00000010
00000100
00000002
00000003
,
00000000
00000010
00001000
00000010
,
00001000
00010000
00200000
00300000
,
00000000
10000000
00010000
10000000
,
00010000
01000000
00002000
00003000
,
00000000
00010000
00000100
00010000
,
00000100
00001000
00000020
00000030
,
00000000
00001010
00000202
00000303
,
00000010
00000200
00000300
00000000
,
00000001
00000100
00000001
00000100
,
00001000
00020000
00030000
00000000
,
00100000
10000000
00100000
10000000
,
01000000
00200000
00300000
00000000
,
00001000
00010000
00001000
00010000
,
00000010
00000200
00000300
00000000
,
00001001
00000220
00000330
00000001
,
00000010
00000001
00000010
00001000
,
00010000
01000000
10000000
00100000
,
00010000
00100000
00010000
00001000
,
00000000
00000000
00000000
00000000
,
00000000
00020000
00000000
00030010
,
00000000
00000200
00000000
00000301
,
00000000
00000020
00000000
00000130
,
00000000
00020000
00000000
00031000
,
00000000
10000000
01000000
00010000
,
00001000
00000100
00000001
00001000
,
00000001
00000001
00000010
00001000
,
00010000
00100000
10000000
00020000
,
10030000
00010000
01000000
00000000
,
01000000
00001000
00010000
00000000
,
00010000
00000010
00000100
00000000
,
00000100
00000001
00000001
00000001
,
00001000
00000010
00000100
00000000
,
00000100
00001000
00010000
00000000
,
00010000
01000000
10000000
00000000
,
10010000
02200000
03300000
10000000
,
00100000
10000000
00100000
01000000
,
00001000
00010000
00000100
00001000
,
00000010
00001000
00000010
00000100
,
00000001
00000010
00001000
00010000
,
00100000
00010000
00100000
10000000
,
00010000
00100000
00001000
00010000
,
00000100
00010000
00000100
00020000
,
00031000
00001000
00011000
00000000
;

//---------------dance-double - ----------------
#NOTES:
     dance-double:
     :
     Medium:
     8:
     0.380569,0.402769,0.175647,0.078066,0.053670,273.000000,255.000000,18.000000,8.000000,0.000000,0.000000,0.380569,0.402769,0.175647,0.078066,0.053670,273.000000,255.000000,18.000000,8.000000,0.000000,0.000000:
00000000
00000000
00000000
00000000
,
00000000
00000000
00000000
00000000
,
00000000
00000000
00000000
00000000
,
00000010
00000000
00000000
00000000
00000010
00000000
00000000
00000010
00000000
00000000
00000000
00000000
00000000
00000000
00000000
00000000
,
00000001
00001000
00000001
00001000
,
00000100
00000000
00000000
00000000
00000100
00000000
00000000
00000100
00000000
00000000
00000000
00000000
00000000
00000000
00000000
00000000
,
00010000
00001000
00010000
00001000
,
01000000
00000000
00000000
00000000
01000000
00000000
00000000
01000000
00000000
00000000
00000000
00000000
00000000
00000000
00000000
00000000
,
01010000
00000000
00100000
00001000
00100000
00000000
00001000
00000000
,
00010000
00000000
00000010
00000000
00000100
00000000
00000010
00001000
,
00000010
00000000
00000100
00000001
00000100
00000000
00000010
00000000
,
00010000
00001000
01000000
01100000
,
10010000
00000000
10000000
01000000
00000000
10000000
01000000
00000000
,
00010000
00000000
00001000
00000000
00000000
00000100
00000001
00000000
,
00001001
00000000
00000001
00000010
00000000
00000001
00000010
00000000
,
00001000
00000000
00010000
00000000
00000000
00100000
10000000
00000000
,
10010000
00000000
00100000
00010000
00000000
00100000
00010000
00000000
,
00001000
00000000
00000010
00000000
00000000
00000001
00001000
00000000
,
00000101
00000000
00000010
00001000
00000000
00000010
00001000
00000000
,
00010000
00000000
01000000
00000000
10000000
00000000
00010000
10000000
,
00010000
00000000
10000000
00000000
00010000
00000000
00000000
00000000
00100000
00000000
00000000
00010000
00000000
00000000
00000000
00000000
,
00000000
00100000
00001000
00010000
,
00000010
00000000
00000000
00000000
00000100
00000000
00000000
00000000
00000001
00000000
00000000
00000100
00000000
00000000
00000000
00000000
,
00000000
00000010
00010000
00001000
,
00100000
00000000
00000000
00000000
01000000
00000000
00000000
00000000
00010000
00000000
00000000
01000000
00000000
00000000
00000000
00000000
,
00000000
10000000
00100000
00010000
,
00001000
00000000
00000000
00000000
00000010
00000000
00000000
00000000
00000001
00000000
00000000
00000010
00000000
00000000
00000000
00000000
,
00000000
00001001
00000220
00000330
,
00000001
00000000
00000000
00000000
00000100
00000000
00000000
00000010
00000000
00000000
00000000
00000000
00000000
00000000
00000000
00000000
,
00000100
00001000
00010000
01000000
,
10000000
00000000
00000000
00000000
00100000
00000000
00000000
10000000
00000000
00000000
00000000
00000000
00000000
00000000
00000000
00000000
,
00010000
00100000
00001000
00010000
,
00000100
00000000
00000000
00000000
00000001
00000000
00000000
00000100
00000000
00000000
00000000
00000000
00000000
00000000
00000000
00000000
,
00001000
00000010
00000100
00000001
,
00001000
00000000
00000000
00000000
00000100
00000000
00000000
00001000
00000000
00000000
00000000
00000000
00000100
00000000
00000000
00000000
,
00010100
00000000
00022000
00000000
00033000
00000000
00100000
00010000
,
00100000
00010000
00100000
00010000
00000000
00000000
01000000
00000000
,
00100000
00000000
10000000
00000000
00010000
00000000
01000000
00001000
,
01000000
00001000
01000000
00001000
00000000
00000000
00011000
00000000
,
00000000
00000000
00000000
00000000
,
00000000
00000000
00000001
00001000
00000000
00000001
00001000
00000000
,
00000000
00000000
00000010
00010000
00000000
00000010
00010000
00000000
,
00000000
00000000
00001000
01000000
00000000
00001000
01000000
00000000
,
00000000
00000000
00100000
10000000
00000000
00100000
10000000
00000000
,
00000000
00000000
10000000
01000000
00000000
00010000
00000000
00001000
,
00000000
00000010
00000000
00000001
00000000
00000100
00000000
00001000
,
00000000
00011000
00000000
01000000
00000000
10000000
00000000
00100000
,
00000000
00010000
00000000
00001000
00000000
00000100
00000001
00000000
,
00001000
00000010
00000000
00001000
00000100
00000000
00010000
00000000
,
00010000
00001000
00000000
00100000
00001000
00000000
01000000
00000000
,
00100000
00100000
10010000
00000000
,
10000000
00000000
01000000
00100000
01000000
00100000
01000000
00100000
,
00001000
00010000
00000000
00001000
00010000
00000000
00000010
00000000
,
00000100
00000001
00000000
00000100
00000001
00000000
00000100
00000000
,
00001000
00010000
00000000
00001000
00010000
00000000
01000000
00000000
,
10010000
00000000
02200000
00000000
03300000
00000000
10000000
01000000
,
10000000
00000000
00010000
00000000
00100000
00000000
00001000
00010000
,
00001000
00000000
00010000
00001000
00010000
00000000
00000010
00000100
,
00000010
00000000
00001000
00000000
00000001
00000000
00000100
00000001
,
00000100
00000000
00000001
00000100
00000001
00000000
00001000
00000010
,
00001000
00000000
00000100
00000000
00010000
00000000
00001000
00010000
,
00001000
00000000
00010000
00001000
00010000
00000000
00001000
01000000
,
00001000
01000000
00100000
10010000
,
02020000
03030000
00101000
00000000
;

//---------------dance-single - ----------------
#NOTES:
     dance-single:
     :
     Challenge:
     15:
     0.789020,0.839814,0.370811,0.009758,0.858721,566.000000,528.000000,38.000000,1.000000,0.000000,0.000000,0.789020,0.839814,0.370811,0.009758,0.858721,566.000000,528.000000,38.000000,1.000000,0.000000,0.000000:
0000
0000
0000
0000
,
0000
0000
0000
0000
,
0000
0000
0000
0000
,
1000
0100
0000
0010
0100
0000
1000
0001
0000
0000
0000
0000
0000
0000
0000
0000
,
0001
0010
0000
0000
0011
0000
0000
1000
0010
0100
0001
0000
1001
0000
0000
0000
,
0010
0100
0000
0001
0100
0000
0010
1000
0000
0000
0000
0000
0000
0000
0000
0000
,
0010
1000
0000
0000
1010
0000
0000
0001
0010
0100
1000
0000
1001
0000
0000
0000
,
0100
0001
0000
0010
0001
0000
1000
0100
0000
0000
0000
0000
0000
0000
0000
0000
,
1001
0000
0000
0000
0010
0100
0000
0001
0000
1000
0100
0010
0001
0000
0010
0000
,
0001
0000
0010
0000
0001
0000
0010
0000
0001
0000
0010
0000
0100
1000
0100
0000
,
1000
0010
1000
0000
0010
0100
0010
0000
0100
0001
0100
0000
1000
0000
0010
0000
,
1000
0000
0010
0000
1000
0000
0010
0000
1000
0010
0100
0001
1000
0000
0000
0000
,
1001
0000
0000
0000
0010
1000
0010
0000
0000
0000
1000
0100
1000
0000
0000
0000
,
0001
0100
0001
0000
0010
0100
0010
0000
0000
0000
0001
0010
0001
0000
0000
0000
,
1100
0000
0000
0000
0010
1000
0010
0000
0000
0000
1000
0100
1000
0000
0000
0000
,
0010
0100
0010
0000
0100
0001
0100
0000
0000
0000
0100
1000
0100
0000
0000
0000
,
0011
0000
0000
0000
1000
0100
0001
0000
0000
0000
1000
0100
0010
0000
0000
0000
,
1000
0001
1000
0000
0001
0010
0100
0000
0000
0000
0001
0100
1000
0000
0000
0000
,
0110
0000
0000
0000
0100
0001
0010
0000
0000
0000
0001
0100
1000
0000
0000
0000
,
0001
0010
1000
0000
0010
0000
0001
0000
0010
0000
0001
0000
0100
0000
1000
0000
,
0001
1000
0001
1000
0001
0010
0000
0001
0100
0000
0010
1000
0000
1000
0100
0000
,
0010
0000
0100
0000
1000
0010
0000
0000
0101
0000
0000
1000
0010
0100
0001
0000
,
0101
0000
0000
0000
0010
1000
0000
0010
0100
0000
0001
0010
0000
0010
0100
0000
,
0010
0000
0100
0000
0010
0001
0000
0000
0011
0000
0000
1000
0100
0010
0001
0000
,
0011
0000
0000
0000
0100
0010
0000
1000
0010
0000
0100
0001
0000
0001
1000
0000
,
0010
0000
1000
0000
0100
0010
0000
0000
0110
0000
0000
1000
0001
0100
0010
0000
,
0110
0000
0000
0000
0100
0001
0000
1000
0010
0000
0100
0010
0000
0010
1000
0000
,
0001
0000
0010
0000
1100
0000
0000
0000
0010
1000
0000
0001
0000
0100
0001
1000
,
0010
0100
0000
0010
1000
0000
0001
0100
0000
0100
0010
0000
0001
0000
0010
0000
,
1000
0001
0000
0000
0101
0000
0000
1000
0001
0100
0001
0000
0101
0000
0000
0000
,
0010
1000
0000
0100
1000
0000
0100
0010
0000
0010
1000
0000
0010
0000
1000
0000
,
0010
0001
0000
0000
0011
0000
0000
1000
0001
0010
0001
0000
0011
0000
0000
0000
,
0100
0001
0000
0010
0001
0000
1000
0010
0000
0010
0100
0000
1000
0000
0100
0000
,
0001
0100
0000
0000
0101
0000
0000
1000
0001
0100
0001
0000
0101
0000
0000
0000
,
0010
1000
0000
0001
0100
0000
0001
1000
0000
0000
0010
0000
0100
0000
0010
0000
,
1001
0000
0000
0000
0010
1000
0000
0001
0000
1000
0100
0010
0001
0000
0100
0000
,
0001
0000
0010
0000
0001
0000
0100
0000
0001
0000
0010
0000
0100
1000
0100
0000
,
1000
0010
1000
0000
0010
0001
0010
0000
1000
0001
1000
0000
0010
0000
0100
0000
,
0010
0000
1000
0000
0010
0000
0100
0000
0010
1000
0001
0100
0010
0000
0000
0000
,
0000
0000
0000
0000
,
0000
0000
0000
0000
1000
0100
0010
0000
0000
0000
1000
0000
1001
0000
0000
0000
,
0000
0000
0000
0000
0001
0010
0100
0000
0000
0000
0001
0000
1001
0000
0000
0000
,
0000
0000
0000
0000
1000
0100
0001
0000
0000
0000
1000
0000
1100
0000
0000
0000
,
0000
0000
0000
0000
0001
0100
1000
0000
0000
0000
0001
0000
0011
0000
0000
0000
,
0000
0000
1000
0100
0001
0100
1000
0100
,
0001
0100
1000
0100
0001
0100
1000
0100
,
0001
0000
0100
1000
0000
0000
0010
0000
0001
0000
0010
0000
1000
0000
0010
0000
,
0001
0010
1000
0010
0001
0010
1000
0000
,
0001
0010
0001
1000
0001
0000
1000
0100
0010
0000
0001
0000
0100
0010
0000
0000
,
1000
0100
1000
0010
1000
0000
0001
0010
0100
0000
1000
0000
1001
0000
0000
0000
,
0010
0100
0010
1000
0010
0000
0100
0001
1000
0000
0010
0000
1000
0001
0000
0000
,
0100
0001
0010
0010
0010
0010
0010
0010
,
0100
1000
0100
0010
0100
0000
0010
0001
1000
0000
0010
0000
0100
0010
0000
0000
,
1000
0001
1000
0010
1000
0000
0001
0010
0100
0000
0010
0000
0001
0100
0000
0000
,
0001
1000
0001
0100
0001
0000
1000
0100
0010
0000
0100
0000
1100
0000
0000
0000
,
1001
0000
0000
0000
0001
0010
0000
0100
0000
1000
0100
0010
0001
0100
0001
1000
,
0001
0100
0001
0010
0001
0100
0001
1000
0001
0000
0010
0000
0100
1000
0000
0000
,
1100
0000
0000
0001
0010
0100
1000
0000
1100
0000
0000
0000
1000
0100
1000
0010
,
1000
0001
1000
0010
1000
0100
1000
0010
1000
0000
0001
0000
1000
0001
0000
0000
,
1001
0000
0000
0010
0100
0001
1000
0000
1001
0000
0000
0000
0010
0001
0010
0100
,
0010
1000
0010
0100
0010
0001
0010
0100
0010
0000
1000
0000
0001
0010
0000
0000
,
0011
0000
0000
1000
0100
0010
0001
0000
0011
0000
0000
0000
0100
0001
0100
0010
,
0100
1000
0100
0010
0100
0001
0100
0010
0100
0000
0001
0000
1100
0000
0000
0000
,
0010
1000
0000
1001
0000
0001
0100
0010
2000
0000
0000
0000
3000
0000
0000
0000
;

//---------------dance-double - ----------------
#NOTES:
     dance-double:
     :
     Challenge:
     15:
     0.723500,0.867503,0.302504,0.000000,0.805051,519.000000,488.000000,31.000000,0.000000,0.000000,0.000000,0.723500,0.867503,0.302504,0.000000,0.805051,519.000000,488.000000,31.000000,0.000000,0.000000,0.000000:
00000000
00000000
00000000
00000000
,
00000000
00000000
00000000
00000000
,
00000000
00000000
00000000
00000000
,
00000000
00000000
00000000
00000000
,
10000000
01000000
00000000
00000000
11000000
00000000
00000000
00010000
10000000
00010000
01000000
00000000
01010000
00000000
00000000
00000000
,
00100000
00000000
00000000
00000000
00010000
00000000
00000000
00001000
00000000
00000000
00000000
00000000
00000000
00000000
00000000
00000000
,
00000100
00000001
00000000
00000000
00000101
00000000
00000000
00001000
00000001
00000100
00000001
00000000
00000101
00000000
00000000
00000000
,
00001000
00000000
00000000
00000000
00010000
00000000
00000000
01000000
00000000
00000000
00000000
00000000
00000000
00000000
00000000
00000000
,
10010000
00000000
00000000
00000000
00100000
00001000
00000000
00010000
00000000
00001000
00100000
00001000
00010000
00000000
00000010
00000000
,
00000100
00000000
00000010
00000000
00010000
00000000
00000010
00000000
00000100
00000000
00000010
00000000
00001000
00000000
00000100
00001000
,
00000100
00000000
00000010
00000001
00000010
00000000
00000100
00001000
00000100
00000000
00010000
00000000
00001000
00000000
01000000
00000000
,
00100000
00000000
01000000
00000000
00001000
00000000
01000000
00000000
00100000
10000000
00010000
01000000
00100000
00000000
00000000
00000000
,
00011000
00000000
00000000
00000000
00000010
00001000
00000010
00000000
00000000
00000000
00000100
00000001
00000100
00000000
00000000
00000000
,
00000100
00001000
00010000
00000000
00100000
10000000
00100000
00000000
00000000
00000000
01000000
00010000
01000000
00000000
00000000
00000000
,
10010000
00000000
00000000
00000000
10000000
01000000
10000000
00000000
00000000
00000000
00010000
00100000
00010000
00000000
00000000
00000000
,
01000000
00001000
00010000
00000000
00000100
00001000
00000100
00000000
00000000
00000000
00001000
00000010
00001000
00000000
00000000
00000000
,
00001001
00000000
00000000
00000000
00000001
00000100
00000010
00000000
00000000
00000000
00000010
00000100
00001000
00000000
00000000
00000000
,
00010000
01000000
10000000
00000000
00100000
10000000
00010000
00000000
00000000
00000000
00010000
10000000
00100000
00000000
00000000
00000000
,
10010000
00000000
00000000
00000000
10000000
00100000
01000000
00000000
00000000
00000000
01000000
00100000
00010000
00000000
00000000
00000000
,
00001000
00000100
00000001
00000000
00000010
00000000
00001000
00000000
00010000
00000000
00001000
00000000
00010000
00000000
00010000
00000000
,
00001000
00010000
00001000
00010000
00001000
01000000
00000000
01000000
00100000
00000000
00100000
10000000
00000000
00000000
00000000
00000000
,
00000000
00000000
00000000
00000000
10000000
01000000
00000000
00000000
00110000
00000000
00000000
10000000
01000000
00100000
00010000
00000000
,
00110000
00000000
00000000
00000000
01000000
00001000
00000000
00001000
00010000
00000000
00010000
00000100
00000000
00000000
00000000
00000000
,
00000000
00000000
00000000
00000000
00001000
00000010
00000000
00000000
00000101
00000000
00000000
00001000
00000010
00000100
00000001
00000000
,
00000101
00000000
00000000
00000000
00000010
00010000
00000000
00010000
00001000
00000000
00001000
01000000
00000000
00000000
00000000
00000000
,
00000000
00000000
00000000
00000000
10000000
00010000
00000000
00000000
10010000
00000000
00000000
10000000
00010000
01000000
00100000
00000000
,
01100000
00000000
00000000
00000000
01000000
00001000
00000000
00001000
00010000
00000000
00010000
00000100
00000000
00000000
00000000
00000000
,
00000000
00000000
00000000
00000000
00001001
00000000
00000000
00000000
00000100
00010000
00000000
00001000
00000000
01000000
00001000
00010000
,
00000100
00001000
00000000
00001000
00000010
00000000
00000010
00000100
00000000
00000000
00000000
00000000
00000000
00000000
00000000
00000000
,
00001000
00000010
00000000
00000000
00000101
00000000
00000000
00001000
00000010
00000100
00000001
00000000
00000101
00000000
00000000
00000000
,
00000010
00010000
00000000
00001000
00010000
00000000
00001000
01000000
00000000
00000000
00000000
00000000
00000000
00000000
00000000
00000000
,
10000000
01000000
00000000
00000000
00110000
00000000
00000000
10000000
01000000
00100000
00010000
00000000
00110000
00000000
00000000
00000000
,
00100000
00001000
00000000
00010000
00001000
00000000
00010000
00000100
00000000
00000000
00000000
00000000
00000000
00000000
00000000
00000000
,
00000010
00000001
00000000
00000000
00001100
00000000
00000000
00000010
00000001
00001000
00000100
00000000
00001100
00000000
00000000
00000000
,
00000010
00010000
00000000
00001000
00010000
00000000
00001000
01000000
00000000
00000000
00000000
00000000
00000000
00000000
00000000
00000000
,
00011000
00000000
00000000
00000000
00100000
00001000
00000000
00010000
00000000
00000010
00010000
00001000
00010000
00000000
00100000
00000000
,
10000000
00000000
00100000
00000000
00010000
00000000
00100000
00000000
10000000
00000000
00100000
00000000
00010000
00001000
00010000
00000000
,
00000100
00000010
00000100
00000000
00001000
00000001
00001000
00000000
00000001
00000100
00000001
00000000
00001000
00000000
00000100
00000000
,
00000001
00000000
00000100
00000000
00001000
00000000
00000100
00000000
00000001
00000100
00001000
00000000
00000010
00000000
00000000
00000000
,
00000000
00000000
00000000
00000000
,
00000000
00000000
00000000
00000000
10000000
00000000
01000000
00000000
00000000
00000000
00010000
00001000
00000100
00000000
00000000
00000000
,
00000000
00000000
00000000
00000000
00000001
00000000
00000100
00000000
00000000
00000000
00001000
00010000
01000000
00000000
00000000
00000000
,
00000000
00000000
10000000
00010000
00000000
00001000
00000001
00000000
,
00000000
00000000
00000001
00001000
00000000
00010000
10000000
00000000
,
00000000
00000000
10000000
01000000
00010000
01000000
10000000
01000000
,
00010000
01000000
10000000
01000000
00010000
01000000
10000000
01000000
,
00010000
00000000
00001000
00010000
00000000
00000000
00000100
00000000
00001000
00000000
00000100
00000000
00000001
00000000
00000100
00000000
,
00001000
00000100
00000001
00000100
00001000
00010000
00011000
00000000
,
10000000
01000000
00100000
01000000
10000000
00000000
00100000
00010000
00001000
00000000
00000010
00000000
00000001
00001000
00000000
00000000
,
00000001
00000100
00000010
00000100
00000001
00000000
00000010
00001000
00010000
00000000
00100000
00000000
10000000
00010000
00000000
00000000
,
01000000
00100000
10000000
00100000
01000000
00000000
00100000
00010000
00001000
00000000
00000100
00000000
00000001
00001000
00000000
00000000
,
00000010
00000100
00000010
00000010
00000010
00000010
00000010
00000010
,
00001000
00000001
00000100
00000001
00001000
00000000
00000010
00000100
00001000
00000000
00010000
00000000
01000000
10000000
00000000
00000000
,
00010000
10000000
01000000
10000000
00010000
00000000
01000000
00100000
00010000
00000000
00001000
00000000
00000100
00000001
00000000
00000000
,
00001000
00000010
00000100
00000001
00000010
00000000
00000100
00010000
00001000
00000000
00100000
00000000
00001000
00000000
00000000
00000000
,
00011000
00000000
00000000
00000000
00001000
00100000
00000000
00010000
00000000
00100000
00001000
00000000
00010000
00001000
00010000
00000100
,
00010000
00001000
00010000
00000010
00010000
00000100
00010000
00000010
00010000
00001000
00010000
00000010
00000100
00000001
00000000
00000000
,
00000101
00000000
00000000
00001000
00000010
00000100
00000001
00000000
00000101
00000000
00000000
00000000
00000010
00010000
00000010
00001000
,
00000010
00010000
00000010
00000100
00000010
00001000
00000010
00000100
00000010
00010000
00001000
00000000
01000000
00001000
00000000
00000000
,
01001000
00000000
00000000
01000000
00001000
01000000
00100000
00000000
01100000
00000000
00000000
00000000
00001000
01000000
00001000
00010000
,
00001000
01000000
00001000
00100000
00001000
00010000
00001000
00100000
00001000
01000000
00100000
10000000
00010000
01000000
00000000
00000000
,
10100000
00000000
00000000
00010000
01000000
00100000
10000000
00000000
10100000
00000000
00000000
00000000
10000000
01000000
10000000
00100000
,
10000000
01000000
10000000
00010000
10000000
00100000
10000000
00010000
10000000
01000000
00100000
00001000
00010000
00000000
00000000
00000000
,
00001000
00010000
00000000
00000100
00000000
00010000
00001000
01000000
00001000
00000000
00000000
00000000
00000000
00000000
00000000
00000000
;
