#TITLE:Winter Gift ~クリスヒーからの贈りもの~;
#SUBTITLE:;
#ARTIST:Qrispy Joybox;
#TITLETRANSLIT:Winter Gift ~Qrispy kara no okurimono~;
#SUBTITLETRANSLIT:;
#ARTISTTRANSLIT:;
#GENRE:Hardcore;
#CREDIT:;
#BANNER:wintergift-bn.png;
#BACKGROUND:wintergift-bg.png;
#LYRICSPATH:;
#CDTITLE:;
#MUSIC:Winter Gift.mp3;
#OFFSET:-0.040000;
#SAMPLESTART:53.630001;
#SAMPLELENGTH:11.999990;
#SELECTABLE:YES;
#BPMS:0.000000=178.000000
;
#STOPS:
;
#BGCHANGES:;
#KEYSOUNDS:;
#ATTACKS:;

//---------------dance-single - ----------------
#NOTES:
     dance-single:
     :
     Hard:
     14:
     0.732953,0.807965,0.489956,0.055467,0.804267,555.000000,502.000000,53.000000,6.000000,0.000000,0.000000,0.732953,0.807965,0.489956,0.055467,0.804267,555.000000,502.000000,53.000000,6.000000,0.000000,0.000000:
0000
0000
0000
0000
,
0000
0000
0000
0000
,
0000
0000
0000
0000
,
0000
0000
0000
0000
,
1001
0000
0001
0100
0001
0100
0001
0000
1000
0100
1000
0100
,
1000
0000
0001
0100
0001
0100
0001
0000
1000
0100
1000
0100
,
0010
0000
0001
0010
0001
0010
0001
0000
1000
0010
1000
0010
,
2000
0000
0000
0000
0000
0000
0000
0000
0000
3001
1000
0100
,
0010
0000
0000
0011
0000
0000
1001
0000
0000
0001
0100
0010
,
1000
0000
0000
0110
0000
0000
0101
0000
0000
0010
0100
0001
,
0010
0000
0000
0110
0000
0000
1100
0000
0000
0100
1000
0001
,
0010
0000
0000
0101
0000
0000
1010
0000
0000
1000
0001
1000
,
0001
0000
0000
0011
0000
0000
1001
0000
0000
0001
0000
1000
,
0100
0000
0000
0011
0000
0000
1100
0000
0000
1010
0000
0100
,
0001
0011
0101
0011
,
0201
0000
0000
1000
0000
0000
0001
0000
0000
1300
0100
0001
,
1000
0000
0000
0100
0001
0100
1000
0000
0000
0100
0001
0100
,
1000
0010
0100
0001
0100
0010
1000
0000
0000
0001
0100
1000
,
0100
0001
0010
0100
1000
0100
0010
0001
0100
0010
0100
0001
,
1000
0010
0100
0010
1000
0001
1000
0000
0000
0001
0010
1000
,
0010
0000
0000
0011
0000
0000
0101
0000
0000
1100
0000
0100
,
0001
0000
0000
1010
0000
0000
1100
0000
0000
0101
0000
0100
,
1000
0010
1000
0010
1000
0010
0100
0001
0100
0001
0100
0001
,
0020
0000
0000
0000
,
0130
1000
0100
1000
0100
0010
0100
0010
,
0001
0010
0001
0010
0001
0100
0001
0100
,
0001
1000
0001
1000
0010
0100
0010
0100
,
0010
1000
0010
1000
0100
0001
0100
0001
,
0100
1000
0100
1000
0001
0010
0001
0010
,
1000
0010
1000
0010
0001
0100
0001
0100
,
0010
0100
0010
0100
0001
1000
0001
1000
,
0100
0010
0100
0010
1000
0010
1000
0010
,
0011
0000
1010
0000
1001
0000
0001
0100
,
0010
1000
0100
1000
0010
0100
0001
0100
,
0101
0000
1100
0000
1001
0000
0100
0010
,
1000
0100
0010
0100
0001
0100
0010
0100
,
1000
0010
1000
0100
1000
0010
1000
0100
,
0001
0010
0001
0100
0001
0010
0001
0100
,
1000
0010
1000
0010
1000
0010
0001
0100
0001
0100
0001
0100
,
0001
0000
0000
0000
0000
0000
0000
0000
0000
0100
0010
1000
,
0001
0000
0000
0000
0101
0000
0000
0000
0011
0000
0000
0000
1000
0100
1000
0010
,
1000
0000
0000
0000
1100
0000
0000
0000
1010
0000
0000
0000
0010
0100
0000
0000
,
0101
0000
0000
0000
1001
0000
0000
0000
1010
0000
0000
0000
0100
0010
0100
0001
,
0100
1010
0100
0011
,
0110
0000
0000
0000
1100
0000
0000
0000
1001
0000
0000
0000
0001
0010
0001
0100
,
0001
1100
0101
1100
,
0010
0000
0000
0010
0100
0000
0000
0100
0001
0000
0000
0001
1000
0000
0000
0000
,
1001
0000
0000
0000
0000
0000
0000
0000
0000
0100
0001
1000
,
0010
0000
0000
0100
0010
0000
0000
1000
0010
0000
0000
0000
1000
0100
0010
0001
,
1000
0000
0000
0001
0010
0000
0000
0100
0010
0000
0000
1000
0010
0000
0000
0000
,
0010
0000
0000
0001
0100
0000
0000
0010
1000
0000
0000
1000
0010
0100
0010
1000
,
0001
0000
0000
0001
1000
0000
0000
1000
0001
0000
0000
0000
0011
0000
0000
0000
,
0010
0000
0000
0100
0000
0000
0010
0000
0000
0100
0000
0000
0010
0000
0000
0100
0000
0000
0010
0000
0001
0000
1000
0000
,
0010
0001
0010
1000
0100
0001
0100
1000
,
0001
0000
0000
0000
0100
0000
0000
0000
0010
0000
0000
0000
1000
0000
0000
0000
0001
0000
0000
0000
1000
0000
0000
0000
0100
0000
0000
0010
0000
0000
0100
0000
0000
0010
0000
0000
0001
0000
0000
1000
0000
0000
0001
0000
0000
1000
0000
0000
,
0001
0000
0000
0000
0000
0000
0000
0000
0000
0001
0100
0010
,
1000
0000
0010
1000
0000
0100
1000
0000
0100
0010
0001
1000
,
0001
0000
0010
0001
0000
0100
0001
0000
0100
0010
1000
0001
,
0100
0000
0010
1000
0000
0010
0100
0000
0010
1000
0100
0010
,
0001
0000
0100
0010
0000
1000
0001
0000
0100
0010
0000
1000
,
0010
0000
0001
0010
0000
1000
0010
0000
0100
0010
1000
0001
,
0100
0000
0001
0100
0000
0010
0100
0000
1000
0100
0000
0001
,
1000
0000
0010
0100
0000
0001
1000
0000
0010
0100
0000
0000
,
1001
0000
0000
0000
0000
0000
0000
0000
0000
0100
0010
1000
,
0001
0000
0000
0001
0010
0000
0000
0010
0100
0000
0000
0000
0100
0010
0001
0010
,
0100
0000
0000
0000
0000
0000
0000
0000
0000
0100
0000
0000
1000
0000
0000
0000
0000
0000
0000
0000
0000
1000
0000
0000
0100
0000
0000
0000
0000
0000
0000
0000
0000
0100
0000
0000
0010
0000
0000
0000
0001
0000
0000
0000
1000
0000
0000
0000
,
0100
0000
0000
0100
0010
0000
0000
0010
0100
0000
0000
0000
1000
0001
0010
0001
,
1000
0000
0000
1000
0100
0000
0000
0100
0010
0000
0000
0000
0011
0000
0000
0000
,
0101
0000
0000
0001
0000
0000
1010
0000
0000
1000
0000
0000
0101
0000
0000
0000
0000
0000
0100
0000
0010
0000
1000
0000
,
0001
0000
0000
0001
1000
0000
0000
1000
0010
0000
0000
0000
0110
0000
0000
0000
,
0001
0000
0000
0000
0010
0000
0000
0000
0100
0000
0000
0000
1000
0000
0000
0000
0001
0000
0000
0000
1000
0000
0000
0000
0010
0000
0000
0100
0000
0000
0010
0000
0000
0100
0000
0000
0001
0000
0000
1000
0000
0000
0001
0000
0000
1000
0000
0000
,
0002
0000
0000
0000
,
0023
0000
0000
0000
,
0000
0000
0000
0000
,
0230
0000
0000
0000
,
0000
0000
0000
0000
,
0300
0000
0000
0000
;

//---------------dance-double - ----------------
#NOTES:
     dance-double:
     :
     Hard:
     14:
     0.731632,0.807965,0.600889,0.046222,0.721067,554.000000,489.000000,65.000000,5.000000,0.000000,0.000000,0.731632,0.807965,0.600889,0.046222,0.721067,554.000000,489.000000,65.000000,5.000000,0.000000,0.000000:
00000000
00000000
00000000
00000000
,
00000000
00000000
00000000
00000000
,
00000000
00000000
00000000
00000000
,
00000000
00000000
00000000
00000000
,
10010000
00000000
10000000
01000000
10000000
01000000
10000000
00000000
00010000
01000000
00010000
01000000
,
00010000
00000000
00100000
00001000
00100000
00001000
00100000
00000000
00001000
00010000
00000100
00000010
,
00000001
00000000
00000100
00000010
00000100
00000010
00000100
00000000
00000010
00001000
00000010
00001000
,
00000020
00000000
00000000
00000000
00000000
00000000
00000000
00000000
00000000
00000130
00001000
00010000
,
01000000
00000000
00000000
11000000
00000000
00000000
10010000
00000000
00000000
00010000
00100000
01000000
,
00010000
00000000
00000000
00011000
00000000
00000000
00001100
00000000
00000000
00000100
00000001
00000010
,
00001000
00000000
00000000
00001010
00000000
00000000
00011000
00000000
00000000
00010000
01000000
10000000
,
00100000
00000000
00000000
01100000
00000000
00000000
01001000
00000000
00000000
00001000
00010000
00001000
,
00000010
00000000
00000000
00000011
00000000
00000000
00000101
00000000
00000000
00000001
00000000
00000100
,
00001000
00000000
00000000
00001100
00000000
00000000
00011000
00000000
00000000
01010000
00000000
10000000
,
00010000
10010000
01001000
00011000
,
00000010
00000000
00000000
00000100
00000000
00000000
00000001
00000000
00000000
00000001
00000100
00000001
,
00000100
00000000
00000000
00000100
00001000
00000100
00001000
00000000
00000000
00001000
00010000
00001000
,
00010000
01000000
10000000
01000000
00010000
00001000
00010000
00000000
00000000
00010000
00001000
00000010
,
00000001
00000010
00001000
00010000
00001000
00010000
01000000
10000000
01000000
00010000
00001000
00010000
,
00001000
00000100
00000001
00000100
00001000
00010000
00001000
00000000
00000000
00001000
00100000
01000000
,
10000000
00000000
00000000
01010000
00000000
00000000
11000000
00000000
00000000
10000000
00000000
01000000
,
00010000
00000000
00000000
00011000
00000000
00000000
00001100
00000000
00000000
00000100
00000000
00000001
,
00000010
00000100
00000010
00000100
00010000
00000100
00010000
00001000
00010000
00001000
01000000
00001000
,
01000000
00000000
00000000
00000000
,
00100000
10000000
00100000
10000000
01000000
00010000
01000000
00010000
,
00001000
00000010
00001000
00000010
00000001
00000100
00000001
00000100
,
00001000
00010000
00001000
00010000
01000000
10000000
01000000
10000000
,
00100000
10000000
00100000
10000000
00100000
00010000
00100000
00010000
,
00001000
00000010
00001000
00000010
00000001
00001000
00000001
00001000
,
00000010
00000100
00000010
00000100
00001000
00010000
00001000
00010000
,
01000000
10000000
01000000
10000000
01000000
00010000
01000000
00010000
,
00001000
00000010
00001000
00000010
00000001
00000100
00000001
00000100
,
00000101
00000000
00001100
00000000
00011000
00000000
00010000
01000000
,
11000000
00000000
01010000
00000000
00011000
00000000
00001000
00000100
,
00001100
00000000
00000101
00000000
00001100
00000000
00001000
00010000
,
01010000
00000000
11000000
00000000
01010000
00000000
00010000
00001000
,
01000000
00100000
01000000
00001000
00010000
00100000
01000000
00010000
,
00001000
00000010
00001000
00000100
00000010
00001000
00010000
01000000
,
10000000
00000000
00000000
00000000
01000000
00000000
00000000
00000000
00100000
00000000
00000000
00000000
00001000
00000000
00000000
00000000
00010000
00000000
00000000
00000000
00000010
00000000
00000000
00000000
00000100
00000000
00000000
00000001
00000000
00000000
00000100
00000000
00000000
00000001
00000000
00000000
00001000
00000000
00000000
00000010
00000000
00000000
00001000
00000000
00000000
00000010
00000000
00000000
,
00000200
00000000
00000000
00000000
00000000
00000000
00000000
00000000
00000000
00000301
00001000
00000001
,
00001000
00000000
00000000
00000000
00000101
00000000
00000000
00000000
00001010
00000000
00000000
00000000
00000100
00010000
00001000
00010000
,
00000100
00000000
00000000
00000000
00011000
00000000
00000000
00000000
01010000
00000000
00000000
00000000
11000000
00000000
00000000
01000000
,
00010000
00000000
00000000
00000000
00011000
00000000
00000000
00000000
00001010
00000000
00000000
00000000
00000010
00000001
00000010
00000001
,
00000010
00001001
00010100
00011000
,
01001000
00000000
00000000
00000000
10100000
00000000
00000000
00000000
01001000
00000000
00000000
00000000
00100000
00001000
00010000
00001000
,
00100000
00011000
00001010
00000011
,
00000001
00000000
00000000
00000001
00000100
00000000
00000000
00000100
00000010
00000000
00000000
00000010
00010000
00000000
00000000
00000000
,
00011000
00000000
00000000
00000000
00000000
00000000
00000000
00000000
00000000
10000000
00010000
10000000
,
00010000
00000000
00000000
01000000
00010000
00000000
00000000
00100000
00010000
00000000
00000000
00000000
10000000
01000000
10000000
01000000
,
10000000
01010000
00011000
00001100
,
00001001
00000000
00000000
00000010
00001000
00000000
00000000
00000100
00001000
00000000
00000000
00000000
00000001
00000100
00000001
00000100
,
00000001
00001010
00011000
00110000
,
10000000
00000000
00000000
00100000
00000000
00000000
10000000
00000000
00000000
00100000
00000000
00000000
10000000
00000000
00000000
00100000
00000000
00000000
10000000
00000000
01000000
00000000
00010000
00000000
,
00001000
00000000
00000000
00000010
00000001
00000000
00000000
00000001
00000100
00000000
00000000
00000000
00011000
00000000
00000000
00000000
,
00001000
00000000
00000000
00000000
00010000
00000000
00000000
00000000
00001000
00000000
00000000
00000000
01000000
00000000
00000000
00000000
00100000
00000000
00000000
00000000
01000000
00000000
00000000
00000000
00100000
00000000
00000000
10000000
00000000
00000000
00100000
00000000
00000000
10000000
00000000
00000000
00010000
00000000
00000000
00100000
00000000
00000000
00010000
00000000
00000000
00100000
00000000
00000000
,
00010000
00000000
00000000
00000000
00000000
00000000
00000000
00000000
00000000
00100000
00001000
00010000
,
00000100
00000000
00000100
00001000
00000000
00001000
00000010
00000000
00000010
00000100
00001000
00010000
,
01000000
00000000
01000000
10000000
00000000
10000000
00100000
00000000
00100000
00010000
00001000
00000100
,
00000001
00000000
00000001
00001000
00000000
00001000
00000010
00000000
00000010
00000100
00001000
00010000
,
00100000
00000000
00100000
10000000
00000000
10000000
00100000
00000000
00100000
10000000
00000000
10000000
,
00100000
00000000
00100000
00010000
00000000
00010000
00001000
00000000
00001000
00000010
00000001
00001000
,
00000001
00000000
00000001
00000100
00000000
00000100
00001000
00000000
00001000
00010000
00000000
00010000
,
00100000
10100000
11000000
00101000
,
00011000
00000000
00000000
00000000
00000000
00000000
00000000
00000000
00000000
00010000
00000100
00000010
,
00000001
00000000
00000100
00000000
00000001
00000000
00000010
00000000
00000001
00000000
00000000
00000000
00000100
00000010
00010000
00000010
,
00000100
00000000
00000000
00001000
00000000
00000000
00010000
00000000
00000000
01000000
00000000
00000000
10000000
00000000
00000000
00010000
00000000
00000000
10000000
00000000
01000000
00000000
00100000
00000000
,
00010000
00000000
01000000
00000000
00010000
00000000
00100000
00000000
01000000
00000000
00010000
00000000
00001000
00010000
00001000
00010000
,
00001000
00000010
00000001
00001000
00000010
00010000
00000010
00010000
,
00011000
00000000
00000000
00011000
00000000
00000000
00011000
00000000
00000000
00100000
01000000
10000000
,
00010000
10000000
01000000
00010000
00001000
00000010
00000001
00000000
,
00000100
00000000
00000000
00000000
00000010
00000000
00000000
00000000
00000100
00000000
00000000
00000000
00000010
00000000
00000000
00000000
00001000
00000000
00000000
00000000
00000010
00000000
00000000
00000000
00001000
00000000
00000000
00000001
00000000
00000000
00001000
00000000
00000000
00000001
00000000
00000000
00000100
00000000
00000000
00000010
00000000
00000000
00000100
00000000
00000000
00000010
00000000
00000000
,
00000200
00000000
00000000
00000000
,
00002300
00000000
00000000
00000000
,
00000000
00000000
00000000
00000000
,
00023000
00000000
00000000
00000000
,
00000000
00000000
00000000
00000000
,
00030000
00000000
00000000
00000000
;

//---------------dance-single - ----------------
#NOTES:
     dance-single:
     :
     Beginner:
     4:
     0.203378,0.281031,0.046222,0.036978,0.000000,154.000000,149.000000,5.000000,4.000000,0.000000,0.000000,0.203378,0.281031,0.046222,0.036978,0.000000,154.000000,149.000000,5.000000,4.000000,0.000000,0.000000:
0000
0000
0000
0000
,
0000
0000
0000
0000
,
0000
0000
0000
0000
,
0000
0000
0000
0000
,
0110
0000
0000
0000
,
0000
0000
0000
0000
,
1001
0000
0000
0000
,
0000
0000
0000
0000
,
0010
0010
0010
0000
,
1000
1000
1000
0000
,
0010
0010
0010
0000
,
1000
1000
1000
0000
,
0001
0001
0001
0000
,
0100
0100
0100
0000
,
0001
0001
0001
0000
,
0000
0000
0000
1000
,
1000
0000
1000
0000
,
1000
0000
0000
0001
,
0001
0000
0001
0000
,
0001
0000
0001
0000
,
0100
0100
0100
0000
,
0010
0010
0010
0000
,
0100
0100
0100
0000
,
0110
0000
0000
0000
,
1000
0000
0000
0000
,
0100
0000
0000
0000
,
0010
0000
0000
0000
,
0001
0000
0000
0000
,
0001
0000
0000
0000
,
0010
0000
0000
0000
,
0100
0000
0000
0000
,
1000
0000
0000
0000
,
0010
0000
0010
0000
,
0010
0000
0010
0000
,
1000
0000
1000
0000
,
1000
0000
1000
0000
,
0100
0100
0000
0100
,
0000
0010
0000
0010
,
0010
0000
0000
0000
,
0001
0000
0000
0000
,
1000
1000
1000
0000
,
0010
0010
0010
0000
,
1000
1000
1000
0000
,
0010
0010
0010
0000
,
0100
0100
0100
0000
,
0001
0001
0001
0000
,
0100
0100
0100
0000
,
0100
0000
0000
0000
,
0001
0001
0001
0000
,
0010
0010
0010
0000
,
0001
0001
0001
0000
,
0100
0100
0100
0000
,
0010
0010
0010
0000
,
1000
1000
1000
0000
,
0001
0001
0001
0000
,
0100
0000
0000
0000
,
1000
0000
1000
0000
,
0010
0000
0010
0000
,
0100
0000
0100
0000
,
0001
0000
0001
0000
,
0010
0000
0010
0000
,
0100
0000
0100
0000
,
0010
0000
0010
0000
,
0001
0000
0000
0000
,
1000
1000
1000
0000
,
0100
0100
0100
0000
,
1000
1000
1000
0000
,
0001
0001
0001
0000
,
0010
0010
0010
0000
,
0001
0001
0001
0000
,
0100
0100
0100
0100
,
0100
0000
0000
0000
,
0220
0000
0000
0000
,
0000
0000
0330
0000
,
2002
0000
0000
0000
,
0000
0000
0000
0000
,
3003
0000
0000
0000
;

//---------------dance-double - ----------------
#NOTES:
     dance-double:
     :
     Medium:
     8:
     0.401473,0.632321,0.249600,0.073956,0.166400,304.000000,277.000000,27.000000,8.000000,0.000000,0.000000,0.401473,0.632321,0.249600,0.073956,0.166400,304.000000,277.000000,27.000000,8.000000,0.000000,0.000000:
00000000
00000000
00000000
00000000
,
00000000
00000000
00000000
00000000
,
00000000
00000000
00000000
00000000
,
00000000
00000000
00000000
00000000
,
11000000
10000000
01000000
01000000
,
00010000
00001000
00001000
00000010
,
00000011
00000001
00000100
00000100
,
00002000
00000000
00000000
00000000
00000000
00000000
00003000
00000000
00000000
00010000
00001000
00010000
,
00001000
00000000
00000000
01001000
00000000
00000000
01001000
00000000
00000000
01000000
00100000
01000000
,
00100000
00000000
00000000
10100000
00000000
00000000
10100000
00000000
00000000
10000000
01000000
10000000
,
01000000
00000000
00000000
01100000
00000000
00000000
01100000
00000000
00000000
00100000
00001000
00100000
,
00001000
00000000
00000000
00011000
00000000
00000000
00011000
00000000
00000000
00010000
00000010
00010000
,
00000010
00001010
00001010
00000010
,
00000110
00000101
00001010
00000100
,
00010100
00011000
01001000
10100000
,
10000000
01000000
00010000
00002000
,
00003010
00002000
00003010
00000001
,
00002000
00003002
00002003
00003010
,
00000100
00000010
00010000
00001000
,
00010000
00000010
00000100
00000002
,
00000103
00001000
00010000
01000000
,
10000000
00010000
10000000
00100000
,
01000000
01000000
01000000
01000000
,
01100000
00000000
00000000
00000000
,
00000010
00000000
00000000
00000000
,
00100000
00000000
00000000
00000000
,
00010000
00000000
00000000
00000000
,
00000001
00000000
00000000
00000000
,
00000100
00000000
00000000
00000000
,
01000000
00000000
00000000
00000000
,
10000000
00000000
00000000
00000000
,
00001000
00000000
00000000
00000000
,
00010000
00010000
00010000
00010000
,
00000010
00000100
00000010
00000100
,
00000001
00000001
00000001
00000001
,
00001000
00000100
00001000
00000100
,
00010000
00001000
00100000
01000000
,
10000000
00010000
01000000
00100000
,
01000000
00001000
01000000
00001000
01000000
00001000
00010000
00001000
00010000
00001000
00000000
00000000
,
00011000
00000000
00000000
00000000
00000000
00000000
00000000
00000000
00000000
00000010
00000100
00000010
,
00000100
00000000
00000010
00000000
00001000
00000000
00000001
00000100
,
00000001
00001000
00000100
00010000
,
00001000
00000000
00000000
00001000
00000000
00000000
00001000
00000000
00000000
00100000
00010000
00100000
,
00010000
01000000
00100000
10000000
,
01000000
00000000
01000000
00000000
01000000
00000000
00100000
00010000
,
01000000
00001000
00010000
00000100
,
00001000
00001000
00001000
00000010
,
00000110
00000000
00000000
00000000
00000000
00000000
00000000
00000000
00000000
00000001
00001000
00000001
,
00001000
00000000
00000001
00000000
00000100
00000000
00000010
00010000
,
00001000
00010000
00001000
01000000
,
00100000
00000000
00100000
00000000
10000000
00000000
01000000
00100000
,
00010000
10000000
00010000
00110000
,
00100000
00000000
00000000
00100000
00000000
00000000
00100000
00000000
00000000
00001000
00010000
00001000
,
00010000
00000010
00000100
00000010
,
00001000
00001000
00000001
00000001
,
00000101
00000000
00000000
00000000
00000000
00000000
00000000
00000000
00000000
00000010
00010000
00000010
,
00010000
00000000
00000000
00001000
00000000
00000000
00010000
00000000
00000000
00000100
00000010
00000100
,
00000010
00000000
00000000
00000001
00000000
00000000
00000100
00000000
00000000
00000010
00000100
00000010
,
00000100
00000000
00000000
00000010
00000000
00000000
00010000
00000000
00000000
00001000
00100000
00001000
,
00100000
01000000
10000000
01000000
,
00100000
00000000
00100000
00000000
00100000
00000000
00010000
10000000
,
00010000
01000000
00100000
01000000
,
00001000
00001000
00010000
00000010
,
00000110
00000000
00000000
00000000
00000000
00000000
00000000
00000000
00000000
00001000
00000010
00001000
,
00000010
00000000
00010000
00000000
00001000
00000000
01000000
00100000
,
10000000
00000000
00000000
01000000
00000000
00000000
00100000
00000000
00000000
00001000
00010000
00001000
,
00010000
00000000
00000010
00000000
00000010
00000000
00000100
00000001
,
00001000
00000010
00000100
00000001
,
00000100
00000100
00001000
00010000
,
01000000
01000000
10000000
10010000
,
01000000
01000000
01000000
00100000
,
00011000
00000000
00000000
00000000
,
00000010
00000000
00000000
00000000
,
00000000
00000000
00000000
00000000
,
02000000
00000000
00000000
00000000
,
00000000
00000000
00000000
00000000
,
03000000
00000000
00000000
00000000
;

//---------------dance-single - ----------------
#NOTES:
     dance-single:
     :
     Easy:
     7:
     0.414680,0.632321,0.730312,0.101689,0.064711,314.000000,235.000000,79.000000,11.000000,0.000000,0.000000,0.414680,0.632321,0.730312,0.101689,0.064711,314.000000,235.000000,79.000000,11.000000,0.000000,0.000000:
0000
0000
0000
0000
,
0000
0000
0000
0000
,
0000
0000
0000
0000
,
0000
0000
0000
0000
,
0202
0000
0000
0000
,
0000
0000
0303
0000
,
2200
0000
0000
0000
,
3300
0000
0000
0010
,
0100
0001
0101
0010
,
0100
1000
1100
0010
,
1000
0001
1001
0100
,
0010
1000
1010
0100
,
0001
0010
0011
0100
,
0010
0001
0011
0100
,
1000
1001
0101
0010
,
1000
1100
1010
1001
,
0101
0010
1000
0010
,
0100
0100
0100
0000
,
0100
0001
0100
0010
,
1000
0100
0010
0001
,
0101
1010
1100
0000
,
1010
0101
0011
0000
,
0010
0100
0010
0100
,
0220
0000
0000
0330
,
1000
0000
0000
0000
,
1001
0000
0000
0000
,
0010
0000
0000
0000
,
0101
0000
0000
0000
,
0010
0000
0000
0000
,
1100
0000
0000
0000
,
1000
0000
0000
0000
,
1010
0000
0000
0000
,
0100
0001
0100
0001
,
0011
0001
0010
0001
,
0110
0100
0010
0100
,
1100
1000
0100
1000
,
0010
1010
0010
1010
,
0100
0101
0100
0101
,
0010
0011
0100
1100
,
2002
0000
0000
3003
,
0100
1100
1100
1000
,
0010
1000
1010
1010
,
0100
0001
0101
0101
,
0010
0001
0011
0011
,
0010
0100
0110
0110
,
0100
1000
1100
1100
,
1000
0001
1000
0001
,
1001
0000
0000
0000
0000
0000
0000
0000
0000
0100
0010
0100
,
0010
1010
0101
0000
,
0010
1010
0101
0011
,
0010
1100
0011
0000
,
0100
1100
0011
1001
,
0010
0100
0010
0100
0010
0000
1000
0000
,
1001
0101
1010
1100
,
0010
0010
0010
0010
,
0011
0000
0000
0000
,
0001
0000
0000
0100
0000
0000
0010
0000
0000
1000
0001
1000
,
0001
0000
0000
1000
0000
0000
0100
0000
0000
0010
0001
0010
,
0001
0000
0000
0100
0000
0000
0010
0000
0000
1000
0010
1000
,
0010
1000
0100
0010
,
0110
0000
0000
1100
0000
0000
0110
0000
0000
0010
0001
0010
,
0001
0100
0010
1000
,
0001
0001
1001
1010
,
0110
0000
0000
0000
0000
0000
0000
0000
0000
0010
0100
0010
,
0100
0000
0001
0000
1010
0000
0100
0001
,
0010
0000
0100
0000
1000
0000
0100
0010
,
0001
0000
0100
0000
0010
0000
1000
0001
,
1000
0010
1010
1010
,
0101
0000
0000
0101
0000
0000
0101
0000
0000
0001
1000
0001
,
1000
1100
0101
1100
,
1000
0001
1000
0001
,
1002
0000
0000
0000
,
0203
0000
0000
0000
,
0000
0000
0000
0000
,
0320
0000
0000
0000
,
0000
0000
0000
0000
,
0030
0000
0000
0000
;

//---------------dance-single - ----------------
#NOTES:
     dance-single:
     :
     Medium:
     9:
     0.464864,0.632321,0.351289,0.046222,0.226489,352.000000,314.000000,38.000000,5.000000,0.000000,0.000000,0.464864,0.632321,0.351289,0.046222,0.226489,352.000000,314.000000,38.000000,5.000000,0.000000,0.000000:
0000
0000
0000
0000
,
0000
0000
0000
0000
,
0000
0000
0000
0000
,
0000
0000
0000
0000
,
1000
0000
0010
1000
0000
0000
1000
0000
0100
0010
0000
0000
,
0010
0000
0001
0100
0000
0000
0100
0000
0010
1000
0000
0000
,
1000
0000
0010
0100
0000
0000
0100
0000
0001
0010
0000
0000
,
0000
0000
0000
0000
0000
0000
0000
0000
0000
0010
0001
0010
,
0100
0000
0000
1100
0000
0000
1010
0000
0000
1000
0001
1000
,
0001
0000
0000
0101
0000
0000
1001
0000
0000
0001
0010
0100
,
1000
0000
0000
0011
0000
0000
1100
0000
0000
1000
0100
0010
,
0001
0000
0000
1100
0000
0000
0011
0000
0000
0100
0010
0100
,
0001
0000
0000
0101
0000
0000
0011
0000
0000
0010
0000
0100
,
1000
0000
0000
1010
0000
0000
1100
0000
0000
1000
0000
0001
,
1000
1010
0101
1001
,
0010
0100
0010
0200
,
1300
0200
1300
0001
,
0100
0010
0100
0010
0000
0000
1001
0000
0000
0100
0010
0100
,
0010
0001
0100
0010
,
1000
0000
0000
0001
0000
0000
1001
0000
0000
1000
0001
1000
,
0001
0000
0000
0010
0000
0000
0010
0000
0000
0001
0000
0001
,
1000
0100
0100
0010
,
0001
0100
0010
1000
,
1001
0000
0000
0000
,
0010
1000
0010
1000
0010
0000
0000
0000
,
0100
0000
0001
0000
,
0010
0001
0010
0001
0010
0000
0000
0000
,
0100
0000
1000
0000
,
1000
0100
1000
0100
1000
0000
0000
0000
,
0010
0000
0100
0000
,
0001
0100
0001
0100
0001
0000
0000
0000
,
1000
0000
0000
0000
0001
0000
0100
0010
,
1000
1000
1000
0010
,
0101
1001
1010
1100
,
0001
0001
0001
0100
,
1010
1001
0101
0011
,
0010
0100
1000
0000
0010
0100
1000
0000
,
0100
0010
0001
0000
0100
0010
0001
0000
,
0100
0100
0010
0010
,
1001
0000
0000
0000
0000
0000
0000
0000
0000
0001
0100
0001
,
0100
0000
0010
0000
1000
0000
0010
0100
,
0001
0010
0100
1000
,
0010
0000
0000
0010
0000
0000
0010
0000
0000
1000
0001
1000
,
0001
1000
0010
1000
,
0010
0000
0100
0000
0001
0000
0010
0100
,
1000
0001
0100
0001
,
1000
1000
0010
0010
,
0110
0000
0000
0000
0000
0000
0000
0000
0000
0100
0001
0100
,
0001
0000
0010
0000
0001
0000
0100
0010
,
1000
0100
0010
0100
,
1000
0000
0000
0001
0000
0000
0010
0000
0000
0100
0010
0100
,
0010
0001
1000
0001
,
1001
0000
0000
1001
0000
0000
1001
0000
0000
0100
0001
0100
,
0001
0010
0100
1000
,
0010
0000
0100
0000
0010
0100
0010
0000
,
1001
0000
0000
0000
0000
0000
0000
0000
0000
0100
0001
0100
,
0001
0000
0000
1000
0000
0000
0010
0000
0000
1000
0100
1000
,
0100
0000
0000
1000
0000
0000
0010
0000
0000
0100
0010
0100
,
0010
0000
0000
0100
0000
0000
0001
0000
0000
0010
0100
0010
,
0100
1000
0001
1000
,
0010
0000
0000
0010
0000
0000
0010
0000
0000
1000
0001
1000
,
0001
0010
0100
0010
,
0001
0001
0001
1000
,
1100
0000
0000
0000
0000
0000
0000
0000
0000
1000
0100
0010
,
0001
0000
1000
0000
0100
0000
0010
0001
,
1000
0000
0000
0001
0000
0000
0100
0000
0000
0010
1000
0010
,
1000
0000
0001
0000
0100
0000
0010
0100
,
0001
0100
0010
0010
,
1000
1010
1001
0001
,
0101
1001
0010
0010
,
0100
0100
0100
0010
,
0012
0000
0000
0000
,
2003
0000
0000
0000
,
0000
0000
0000
0000
,
3020
0000
0000
0000
,
0000
0000
0000
0000
,
0030
0000
0000
0000
;

//---------------dance-double - ----------------
#NOTES:
     dance-double:
     :
     Easy:
     5:
     0.283937,0.350134,0.046222,0.055467,0.000000,215.000000,210.000000,5.000000,6.000000,0.000000,0.000000,0.283937,0.350134,0.046222,0.055467,0.000000,215.000000,210.000000,5.000000,6.000000,0.000000,0.000000:
00000000
00000000
00000000
00000000
,
00000000
00000000
00000000
00000000
,
00000000
00000000
00000000
00000000
,
00000000
00000000
00000000
00000000
,
10010000
00000000
00000000
00000000
,
00000000
00000000
00000000
00000000
,
00001001
00000000
00000000
00000000
,
00000020
00000000
00000000
00000000
,
00000130
00000100
00001000
00000000
,
00000100
00000100
00010000
00001000
,
01000000
01000000
00010000
00000000
,
01000000
01000000
00001000
00010000
,
00000010
00000010
00001000
00000000
,
00000010
00000010
00000100
00000000
,
00000001
00000100
00000001
00000100
,
00001000
00010000
01000000
10000000
,
00010000
10000000
00010000
10000000
,
01000000
00100000
00010000
00000000
,
01000000
00100000
00001000
00010000
,
00000100
00000010
00000001
00001000
,
00000001
00000001
00000001
00000010
,
00000100
00000100
00000100
00010000
,
00001000
00001000
00001000
01000000
,
00200000
00000000
00000000
00000000
,
10300000
00000000
00000000
00000000
,
10000000
00000000
00000000
00000000
,
00010000
00000000
00000000
00000000
,
00010000
00000000
00000000
00000000
,
00001000
00000000
00000000
00000000
,
00001000
00000000
00000000
00000000
,
00000001
00000000
00000000
00000000
,
00000001
00000000
00000000
00000000
,
00000010
00000010
00000010
00000010
,
00000100
00000100
00000100
00000100
,
00010000
00010000
00010000
00010000
,
00001000
00001000
00001000
00001000
,
01000000
01000000
00100000
00100000
,
10000000
10000000
00010000
00010000
,
20000000
00000000
00000000
00000000
,
30010000
00000000
00000000
01000000
,
00100000
00100000
00100000
00001000
,
00010000
00010000
00000100
00000010
,
00000001
00000001
00000001
00000100
,
00000010
00001000
00000010
00001000
,
00000100
00000100
00000100
00010000
,
00001000
00001000
00100000
00100000
,
01000000
10000000
01000000
10000000
,
11000000
00000000
00000000
00000000
,
10000000
00010000
10000000
00000000
,
00010000
00100000
00001000
00001000
,
00010000
00000010
00010000
00000000
,
00000010
00000100
00000001
00000001
,
00000010
00000010
00000010
00000100
,
00010000
00010000
00010000
00001000
,
00010000
00100000
10000000
01000000
,
01100000
00000000
00000000
00000000
,
00001000
00001000
00001000
00010000
,
00000100
00000010
00000001
00000100
,
00001000
00010000
01000000
10000000
,
00100000
00100000
00010000
00001000
,
00000010
00000010
00000010
00000001
,
00001000
00000100
00001000
00000100
,
00010000
00010000
00001000
00010000
,
00011000
00000000
00000000
00000000
,
00100000
00100000
00100000
01000000
,
10000000
01000000
00010000
00001000
,
00000010
00000010
00000010
00000001
,
00000100
00000010
00000100
00000010
,
00010000
00010000
00010000
00001000
,
01000000
01000000
00100000
00100000
,
10000000
00100000
00010000
00001000
,
00000200
00000000
00000000
00000000
,
00000302
00000000
00000000
00000000
,
00000000
00000000
00000000
00000000
,
00002003
00000000
00000000
00000000
,
00000000
00000000
00000000
00003000
;
