#TITLE:Werewolf Boyfriend;
#SUBTITLE:(Disko Warp Main Mix);
#ARTIST:Fright Ranger;
#TITLETRANSLIT:;
#SUBTITLETRANSLIT:;
#ARTISTTRANSLIT:;
#GENRE:Hardcore;
#CREDIT:;
#BANNER:werewolfboyfriend-bn.png;
#BACKGROUND:werewolfboyfriend-bg.png;
#LYRICSPATH:;
#CDTITLE:;
#MUSIC:Werewolf Boyfriend (Disko Warp Main Mix).mp3;
#OFFSET:-0.050000;
#SAMPLESTART:34.750000;
#SAMPLELENGTH:11.999990;
#SELECTABLE:YES;
#BPMS:0.000000=172.679993
;
#STOPS:
;
#BGCHANGES:;
#KEYSOUNDS:;
#ATTACKS:;

//---------------dance-single - ----------------
#NOTES:
     dance-single:
     :
     Challenge:
     16:
     0.930882,0.874268,0.464814,0.043850,0.688452,743.000000,690.000000,53.000000,5.000000,0.000000,0.000000,0.930882,0.874268,0.464814,0.043850,0.688452,743.000000,690.000000,53.000000,5.000000,0.000000,0.000000:
// measure 0
0000
0000
0000
0000
,  // measure 1
0000
0000
0000
0000
,  // measure 2
0000
0000
0000
0000
,  // measure 3
1001
0000
0001
0100
0001
0000
1000
0100
1000
0000
0010
0100
0001
0000
0000
0000
,  // measure 4
0011
0000
0010
0000
0001
0000
0010
0000
0001
0000
1000
0001
0000
0001
0100
0010
,  // measure 5
1000
0100
1000
0000
0100
0000
1000
0000
0100
0000
0020
0001
0000
0000
0031
0000
,  // measure 6
1001
0000
1000
0000
0001
0000
1000
0000
0001
0000
0100
0010
0000
0010
1000
0001
,  // measure 7
0100
0010
0100
0000
0010
1000
0010
0000
1000
0001
1000
0010
1000
0000
0000
0000
,  // measure 8
1010
0000
0010
0000
1000
0000
0010
0000
1000
0000
0001
0100
0000
0100
0010
1000
,  // measure 9
0001
0010
0001
0000
0010
0000
0001
0000
0010
0000
0200
1000
0000
0000
1300
0000
,  // measure 10
1001
0000
0001
0000
1000
0000
0001
0000
1000
0000
0010
0100
0000
0100
0001
1000
,  // measure 11
0010
0100
0010
0000
1000
0010
1000
0000
0001
0100
0010
1000
0001
0000
0000
0000
,  // measure 12
0010
1000
0010
0000
0100
0001
0100
0000
0010
1000
0001
0100
0010
0000
0100
0000
,  // measure 13
0001
0000
0010
0001
0010
0000
0001
0000
0010
0000
0001
0010
0001
0000
1000
0000
,  // measure 14
0100
0000
1000
0100
1000
0000
0100
0000
1000
0000
0100
1000
0100
0000
1000
0000
,  // measure 15
0010
0000
0100
0000
0010
0000
0100
0000
0010
0000
1000
0001
0000
0001
0010
0100
,  // measure 16
1000
0000
0010
0000
1000
0000
0010
0000
1000
0000
0001
0100
0010
0000
0100
0000
,  // measure 17
0010
0000
1000
0010
1000
0000
0010
0000
1000
0000
0010
1000
0010
0000
0100
0000
,  // measure 18
0001
0000
0100
0001
0100
0000
0001
0000
0100
0000
0001
0100
0001
0000
0010
0000
,  // measure 19
0100
0000
1000
0000
0100
0000
1000
0000
0100
0000
0010
0100
0000
0100
1000
0010
,  // measure 20
0100
0000
0001
0000
0100
0000
0001
0000
0100
0000
0010
1000
0000
0000
0000
0000
,  // measure 21
0001
0100
0101
0010
1000
0100
1100
0010
,  // measure 22
1000
0001
1001
0100
0001
1000
1001
0010
,  // measure 23
1000
0100
0001
0100
1000
0100
0001
0100
,  // measure 24
1000
0000
0010
0000
0100
0000
0001
0000
0010
0100
1000
0001
0100
0000
0000
0000
,  // measure 25
0011
1100
1010
0101
,  // measure 26
0010
1000
0001
0000
0100
0000
0010
1000
0001
0000
0100
0000
0010
0000
0100
0000
,  // measure 27
0001
0010
0001
0000
0100
0000
0010
0000
1000
0010
1000
0000
0010
0000
0100
0010
,  // measure 28
1000
0001
1000
0001
1000
0000
0010
0000
0100
0000
0001
1000
0001
0000
1000
0000
,  // measure 29
1100
0011
0101
1010
,  // measure 30
0100
0001
1000
0000
0010
0000
0100
0001
1000
0000
0010
0000
0100
0000
0001
0000
,  // measure 31
0011
0000
0101
0000
1001
0001
1000
0000
,  // measure 32
0010
0000
1000
0100
1000
0000
0001
0010
0001
0000
0100
0010
1000
0000
0010
0000
,  // measure 33
1010
1001
0101
1001
,  // measure 34
0100
0001
1000
0000
0010
0000
0100
0001
1000
0000
0010
0000
0100
0000
0010
0000
,  // measure 35
1000
0100
1000
0000
0001
0000
0010
0000
0001
0100
0001
0000
1000
0000
0010
0100
,  // measure 36
0001
1000
0001
1000
0001
0000
0100
0000
0010
0000
1000
0001
1000
0000
0100
0000
,  // measure 37
1100
1001
0101
1001
,  // measure 38
0001
0100
0010
0000
1000
0000
0001
0100
0010
0000
1000
0000
0001
0000
1000
0000
,  // measure 39
1100
0000
1010
0000
1001
0001
1000
0010
,  // measure 40
0100
0000
0001
0010
0001
0000
1000
0100
0010
0000
0100
1000
0010
0000
0100
0000
,  // measure 41
0001
0100
0000
1000
0000
0010
0000
0001
,  // measure 42
0000
1000
0000
0100
0000
0001
0000
0010
,  // measure 43
1000
0000
0100
0000
1000
0000
0010
0000
1000
0000
0100
0010
0000
0001
0100
0010
,  // measure 44
1000
0000
0010
0000
1000
0000
0100
0000
1000
0000
0020
0100
0000
0000
0130
0000
,  // measure 45
0010
0000
1000
0000
0010
0000
0100
0000
0010
0000
1000
0001
0000
0100
0010
1000
,  // measure 46
0001
0010
0001
0000
1000
0010
1000
0000
0001
0100
0001
1000
0001
0000
0000
0000
,  // measure 47
1000
0010
1000
0000
0001
0100
0001
0000
1000
0010
1000
0001
1000
0000
0001
0000
,  // measure 48
0100
0000
0010
0000
0100
0000
0010
1000
0100
1000
0010
0000
0100
0000
0010
0000
,  // measure 49
0100
0000
0001
0000
0100
0000
0001
1000
0100
0010
0001
0000
0100
0000
0001
0000
,  // measure 50
0010
0000
0100
0000
0010
0000
0100
1000
0010
1000
0100
0000
0010
0000
0100
0000
,  // measure 51
1000
0000
0100
0000
1000
0000
0100
0010
0001
0010
0100
1000
0001
0000
0000
0000
,  // measure 52
0000
0000
1000
0010
1000
0000
0001
0010
0001
0100
0010
1000
0001
0000
0000
0000
,  // measure 53
0110
0101
1010
0110
,  // measure 54
1000
0100
0010
0000
0001
0000
1000
0100
0010
0000
0001
0000
0100
0000
0010
0000
,  // measure 55
0100
0001
0100
0000
0010
0000
1000
0000
0100
1000
0100
0000
1000
0000
0010
0100
,  // measure 56
0001
0010
0001
0010
0001
0000
1000
0000
0010
0000
0100
0010
0100
0000
0001
0000
,  // measure 57
0101
1010
1100
0011
,  // measure 58
0010
0100
1000
0000
0001
0000
0010
0100
1000
0000
0010
0000
0100
0000
0001
0000
,  // measure 59
0101
0000
1100
0000
0101
0001
1000
0000
,  // measure 60
0010
0000
1000
0100
1000
0000
0001
0010
0001
0000
0100
0010
0100
0000
0010
0000
,  // measure 61
1100
0000
0101
0000
1100
0000
0101
0001
,  // measure 62
0100
0001
1000
0000
0010
0000
1000
0100
0010
0000
0001
0000
1000
0000
0010
0000
,  // measure 63
1000
0001
1000
0000
0010
0000
0100
0000
0001
1000
0001
0000
0100
0000
0010
1000
,  // measure 64
0100
0010
0100
0010
0100
0000
0010
0000
0001
0000
1000
0010
0100
0000
0001
0000
,  // measure 65
0011
1010
0011
1010
,  // measure 66
0001
0100
0010
0000
1000
0000
0100
0010
0001
0000
0010
0000
0001
0000
1000
0000
,  // measure 67
1010
0000
0011
0000
1001
0001
0100
0010
,  // measure 68
1000
0000
0001
0010
0001
0000
1000
0100
1000
0000
0001
0010
0001
0000
0010
0000
,  // measure 69
0001
0000
0100
0000
0010
0000
1000
0000
0001
0000
1000
0010
0000
0100
0010
1000
,  // measure 70
0010
0000
0100
0000
0001
0000
1000
0000
0010
0000
0200
0001
0000
0000
0310
0000
,  // measure 71
0100
0000
0001
0000
1000
0000
0010
0000
1000
0000
0100
0010
0000
0100
1000
0010
,  // measure 72
1000
0100
0010
0000
0001
0010
0100
0000
1000
0100
0001
0100
1000
0000
0100
0000
,  // measure 73
1000
0000
0010
0000
0100
0000
0001
0000
1000
0000
0001
0010
0000
0100
0010
0001
,  // measure 74
0100
0000
0010
0000
1000
0000
0001
0000
0100
0000
0020
1000
0000
0000
0130
0000
,  // measure 75
0010
0000
1000
0000
0001
0000
0100
0000
0001
0000
0100
0010
0000
0100
0001
0010
,  // measure 76
0001
0100
0010
0000
1000
0100
0010
0000
0001
0010
1000
0010
0001
0000
0000
0000
,  // measure 77
0100
0010
1000
0000
0001
0100
0010
0000
0100
0010
1000
0010
0100
0000
0001
0000
,  // measure 78
0000
1000
0000
0001
0000
1000
0000
0001
,  // measure 79
0000
0000
0100
0000
0000
0000
0010
0000
1000
0001
0100
0010
1000
0000
0000
0000
;

//---------------dance-single - ----------------
#NOTES:
     dance-single:
     :
     Hard:
     13:
     0.681561,0.664443,0.587596,0.105241,0.135936,544.000000,477.000000,67.000000,12.000000,0.000000,0.000000,0.681561,0.664443,0.587596,0.105241,0.135936,544.000000,477.000000,67.000000,12.000000,0.000000,0.000000:
0000
0000
0000
0000
,
0000
0000
0000
0000
,
0000
0000
0000
0000
,
0001
0000
1000
0100
1000
0000
0001
0100
0001
0000
1000
0010
1000
0000
0000
0000
,
0001
0000
0010
0000
0001
0000
0100
0000
0001
0000
0010
0001
0000
0000
0010
0000
,
0100
0000
1000
0000
0100
0000
1000
0000
0100
0000
0010
0001
0000
0000
0000
0000
,
1000
0000
0010
0000
1000
0000
0100
0000
1000
0000
0010
0100
0000
0000
0001
0000
,
1000
0200
0000
0320
0000
0001
0031
0000
,
1000
0000
0100
0000
1000
0000
0010
0000
1000
0000
0100
1000
0000
0000
0100
0000
,
0010
0000
0001
0000
0010
0000
0001
0000
0010
0000
0100
1000
0000
0000
0000
0000
,
0001
0000
0100
0000
0001
0000
0010
0000
0001
0000
0100
0010
0000
0000
1000
0000
,
0001
0020
0000
0230
0000
1000
1300
0000
,
1000
0002
0000
0203
0000
0010
0310
0000
,
1000
0100
0010
0001
1000
0000
0101
0000
,
1000
0100
0000
0010
0000
0001
0000
1000
,
0001
0000
0100
0000
0010
0000
0100
0000
0001
0000
0100
0010
0000
0000
0000
0000
,
1000
0000
0010
0000
0100
0000
0010
0000
1000
0000
0010
0100
0000
0000
0000
0000
,
0001
0000
0010
0100
1000
1100
0000
0000
,
0001
0010
0000
0100
0000
1100
0000
0001
,
1000
0000
0010
0000
0100
0000
0010
0000
1000
0000
0010
0100
0000
0000
0000
0000
,
0001
0000
0100
0000
0010
0000
0100
0000
0001
0000
0100
0010
0000
0000
0000
0000
,
1100
0000
0010
0001
0100
0010
1000
0100
,
0010
0010
0000
0220
0000
0330
1001
0000
,
0001
0100
1000
0100
0001
0100
1000
0100
,
0001
0000
1000
0000
0000
0000
1001
0000
0000
0000
0100
0010
0001
0000
0000
0000
,
0101
1100
0101
1100
,
0001
1000
0000
1010
0000
0010
0100
0001
,
0100
0000
1010
0000
1100
0000
1000
0100
,
0010
1000
0010
1000
0000
0010
0001
0010
,
0011
1010
0011
1010
,
0001
1000
0000
1010
0000
0010
0100
0010
,
0110
0000
0101
0000
1010
0010
1000
0000
,
1001
0000
0001
1000
0000
1000
0100
1000
,
1100
0101
1100
0101
,
1000
0001
0000
0110
0000
0010
1000
0010
,
0100
0000
0100
0010
0100
0000
0100
0001
,
1000
0010
1000
0100
0000
1000
0010
1000
,
1010
0011
1010
0011
,
1000
0001
0000
1001
0000
0100
0010
0100
,
0101
0000
1010
0000
1100
0100
0010
0001
,
1000
0001
0000
1001
0000
0100
0010
1000
,
0000
0100
0000
0001
0000
0010
0000
1000
,
0000
0010
0000
0001
0000
0100
0000
1000
,
0010
0000
0100
0000
0010
0000
0100
0000
0010
0000
1000
0001
0000
0000
1000
0000
,
0001
0000
0010
0000
0001
0000
0010
0000
0001
0000
0100
0010
0000
0000
0000
0000
,
1000
0000
0100
0000
1000
0000
0100
0000
1000
0000
0010
0100
0000
0000
0001
0000
,
1000
0002
0000
0023
0000
0100
0130
0000
,
1000
0010
0000
1100
0000
0010
0001
0000
,
1000
0100
0010
0100
1000
0100
0001
0100
,
1000
0010
0100
0010
0001
0010
1000
0000
,
0001
0100
0010
0100
0001
0100
1000
0100
,
0001
0010
0100
0010
1000
0010
0001
0000
,
0000
0000
1000
0100
1000
0000
0001
0100
0001
0000
1000
0000
1001
0000
0000
0000
,
1010
0011
1100
0101
,
1000
0001
0000
1001
0000
0001
1000
0010
,
0100
0000
0110
0000
0101
0000
0001
0100
,
1000
0100
0001
1000
0000
0010
0100
0001
,
0101
1100
0011
1010
,
0001
1000
0000
1100
0000
0010
0001
0100
,
0010
0000
0010
0000
0010
1000
0001
0000
,
1100
0000
0010
0001
0000
1000
0100
1000
,
1100
0101
1010
0011
,
0100
0001
0000
0101
0000
0100
0010
1000
,
0001
0000
0100
0010
1000
0000
0001
0010
,
1000
0010
0001
1000
0000
0010
0100
0001
,
0011
1010
0101
1100
,
0001
1000
0000
0110
0000
1000
0001
0000
,
0100
0000
0100
0000
0100
0010
1000
0001
,
0100
0001
0000
1010
0000
1000
0001
0000
,
1000
0000
0100
0000
0010
0000
0001
0000
1000
0000
0100
0010
0000
0010
0001
0000
,
0100
0000
1000
0000
0100
0000
0001
0000
1000
0000
0001
1000
0000
0000
1000
0000
,
0001
0000
1000
0000
0010
0000
0100
0000
0001
0000
1000
0010
0000
0010
0100
0000
,
0001
2000
0000
3020
0000
0100
0130
0000
,
0001
0000
0010
0000
0100
0000
1000
0000
0001
0000
0010
0100
0000
0100
1000
0000
,
0100
0000
0001
0000
0100
0000
1000
0000
0001
0000
1000
0001
0000
0000
0001
0000
,
0100
0000
0010
0000
1000
0000
0001
0000
0100
0000
0010
0100
0000
0100
0001
0000
,
0100
0110
0000
1010
0000
0001
0001
0000
,
0100
0101
0000
1001
0000
0010
0010
0100
,
0000
0010
0000
0100
0000
0010
0000
0100
,
0000
0000
0001
0000
0000
0000
1000
0000
0010
0100
0010
0100
0010
0000
0000
0000
;

//---------------dance-single - ----------------
#NOTES:
     dance-single:
     :
     Beginner:
     4:
     0.181666,0.279766,0.008770,0.000000,0.000000,145.000000,144.000000,1.000000,0.000000,0.000000,0.000000,0.181666,0.279766,0.008770,0.000000,0.000000,145.000000,144.000000,1.000000,0.000000,0.000000,0.000000:
0000
0000
0000
0000
,
0000
0000
0000
0000
,
0000
0000
0000
0000
,
0000
0000
0000
0000
,
1000
0000
0000
0000
,
0010
0000
0000
0000
,
1000
0000
0000
0000
,
0001
0001
0001
0001
,
0001
0000
0000
0000
,
0100
0000
0000
0000
,
0001
0000
0000
0000
,
1000
1000
1000
0000
,
0010
0010
0010
0010
,
0010
0000
0000
0100
,
0100
0000
0000
0010
,
0010
0000
0000
0000
,
0100
0000
0000
0000
,
0001
0000
0000
0000
,
1000
0000
0000
0000
,
0001
0001
0000
0000
,
1000
1000
0000
0000
,
0010
0000
1000
0000
,
0001
0000
0100
0000
,
0001
0000
1000
0000
,
0010
0000
0100
0000
,
0010
0000
0010
0000
,
0010
0000
0000
0000
,
1000
1000
1000
0000
,
0001
0001
0001
0000
,
0100
0000
0100
0000
,
0100
0000
0000
0000
,
0001
0001
0001
0000
,
1000
1000
1000
0000
,
0001
0000
0010
0000
,
0001
0000
0000
0000
,
0100
0100
0100
0000
,
0010
0010
0010
0000
,
1000
0000
0100
0000
,
1000
0000
0000
0000
,
0001
0001
0001
0000
,
0100
0100
0100
0100
,
0000
0000
0000
0000
,
0000
0000
0000
0000
,
0010
0000
0000
0000
,
1000
0000
0000
0000
,
0100
0000
0000
0000
,
0010
0010
0010
0000
,
0100
0100
0100
0100
,
0100
0000
0000
0000
,
1000
0000
0000
0000
,
0010
0000
0000
0000
,
0001
0000
0000
0000
,
0000
0000
0000
0100
,
0100
0000
0001
0000
,
0100
0000
0000
0000
,
0010
0010
0010
0000
,
1000
1000
1000
0000
,
0100
0000
0010
0000
,
0100
0000
0000
0000
,
0010
0010
0010
0000
,
0001
0001
0001
0000
,
0001
0000
1000
0000
,
0010
0000
0000
0000
,
0100
0100
0100
0000
,
0001
0001
0001
0000
,
1000
0000
0001
0000
,
0100
0000
0000
0000
,
0010
0010
0010
0000
,
1000
1000
1000
0000
,
0100
0000
0000
0000
,
0010
0000
0000
0000
,
0100
0000
0000
0000
,
1000
1000
1000
1000
,
1000
0000
0000
0000
,
0001
0000
0000
0000
,
1000
0000
0000
0000
,
0010
0010
0010
0000
,
0100
0100
0100
0100
,
0100
0000
0000
0000
,
0000
0000
0000
0110
;

//---------------dance-single - ----------------
#NOTES:
     dance-single:
     :
     Easy:
     6:
     0.285654,0.384678,0.236792,0.000000,0.000000,228.000000,201.000000,27.000000,0.000000,0.000000,0.000000,0.285654,0.384678,0.236792,0.000000,0.000000,228.000000,201.000000,27.000000,0.000000,0.000000,0.000000:
0000
0000
0000
0000
,
0000
0000
0000
0000
,
0000
0000
0000
0000
,
0001
1000
0100
0000
1000
0001
0100
0000
,
0010
0010
0010
0100
,
0010
0010
0010
0010
,
1000
1000
1000
0001
,
1000
0000
0000
0000
,
0100
0100
0100
0010
,
0100
0100
0100
0100
,
0001
0001
0001
1000
,
0001
0000
0000
0000
,
0000
0000
0000
0100
,
0001
1000
0010
1000
,
0001
0100
0001
1000
,
0010
0000
0000
0000
,
0110
0000
0000
0010
,
1000
0001
0100
0001
,
1000
0010
1000
0001
,
0100
0000
0000
0000
,
0110
0000
0000
0000
,
1000
0100
0001
0100
,
1000
0100
0001
0000
,
0001
0100
1000
0100
,
0001
0100
1000
0000
,
1001
0000
1001
0000
,
1001
0000
0000
0000
,
0001
0001
0001
0010
,
0001
0001
0000
0000
,
1001
0000
1001
0000
,
1001
0000
0000
0000
,
1000
1000
1000
0100
,
1000
1000
0000
0000
,
0110
0000
0110
0000
,
0110
0000
0000
0000
,
0100
0100
0100
0001
,
0100
0100
0000
0000
,
0110
0000
0110
0000
,
0110
0000
0000
0000
,
0010
0010
0010
1000
,
0010
0010
0000
0000
,
1001
0000
0000
0000
,
0000
0000
0000
0000
,
1000
1000
1000
0100
,
1000
1000
1000
0000
,
0010
0010
0010
0100
,
0010
0000
0000
0000
,
0001
0000
0000
0000
,
0010
0000
0000
0000
,
1000
0000
0000
0000
,
0100
0000
0000
0000
,
0001
0000
0000
0000
,
0000
0001
0001
0001
,
0101
0000
0101
0000
,
0101
0000
0000
0000
,
0001
0010
0100
1000
,
0100
0010
0000
0000
,
1100
0000
1100
0000
,
1100
0000
0000
0000
,
0001
0100
0010
1000
,
0010
0100
0000
0000
,
1010
0000
1010
0000
,
1010
0000
0000
0000
,
0010
0100
0001
1000
,
0010
0100
0000
0000
,
0011
0000
0011
0000
,
0011
0000
0000
0000
,
1000
1000
0001
0001
,
1000
0001
1000
0001
,
0100
0010
1000
0010
,
0100
0001
0010
0000
,
0001
0100
0010
0100
,
0001
1000
0001
1000
,
0100
0010
0001
0010
,
0100
1000
0001
0000
,
1000
0010
0100
0010
,
1000
0001
1000
0001
,
0100
0010
0100
0010
,
0100
0000
0000
0000
,
0000
0000
0000
0000
0010
1000
0100
0000
;

//---------------dance-double - ----------------
#NOTES:
     dance-double:
     :
     Hard:
     12:
     0.633952,0.594502,0.613906,0.052621,0.092086,506.000000,436.000000,70.000000,6.000000,0.000000,0.000000,0.633952,0.594502,0.613906,0.052621,0.092086,506.000000,436.000000,70.000000,6.000000,0.000000,0.000000:
00000000
00000000
00000000
00000000
,
00000000
00000000
00000000
00000000
,
00000000
00000000
00000000
00000000
,
00000100
00001000
00000010
00000000
00000100
00000001
00001000
00000000
,
00000010
00000000
00000100
00000000
00000010
00000000
00000100
00000000
00000010
00000000
00010000
00001000
00000000
00000000
00000000
00000000
,
00001000
00000000
00100000
00000000
00001000
00000000
00100000
00000000
00001000
00000000
00100000
00010000
00000000
00000000
00000000
00000000
,
01000000
00000000
00100000
00000000
01000000
00000000
00100000
00000000
01000000
00000000
00100000
10000000
00000000
00000000
00000000
00000000
,
10000000
01000000
00000000
00100000
00000000
00010000
01000000
00000000
,
00100000
00000000
01000000
00000000
00100000
00000000
01000000
00000000
00100000
00000000
01000000
00001000
00000000
00000000
00000000
00000000
,
00010000
00000000
00000100
00000000
00010000
00000000
00000100
00000000
00010000
00000000
00000100
00000010
00000000
00000000
00000000
00000000
,
00000001
00000000
00000100
00000000
00000001
00000000
00000100
00000000
00000001
00000000
00000100
00000010
00000000
00000000
00000000
00000000
,
00000001
00000100
00000000
00000010
00000000
00001000
00000001
00000000
,
00000100
00001000
00000000
00010000
00000000
01000000
10000000
00000000
,
00100000
10000000
00100000
01000000
00010000
00000000
01010000
00000000
,
00100000
00001000
00000000
00011000
00000000
00010100
00000000
00000100
,
00000010
00000000
00000001
00000000
00000010
00000000
00000001
00000000
00000010
00000000
00000001
00001000
00000000
00000000
00000000
00000000
,
00000010
00000000
00001000
00000000
00000010
00000000
00001000
00000000
00000010
00000000
00001000
00000001
00000000
00000000
00000000
00000000
,
00000101
00000000
00000010
00001000
00000100
00001000
00000010
00000000
,
00001000
00000100
00000000
00010100
00000000
00011000
00000000
00001000
,
00100000
00000000
01000000
00000000
00100000
00000000
01000000
00000000
00100000
00000000
01000000
10000000
00000000
00000000
00000000
00000000
,
01000000
00000000
00100000
00000000
01000000
00000000
00100000
00000000
01000000
00000000
00100000
00010000
00000000
00000000
00000000
00000000
,
20000000
00000000
32000000
00000000
03020000
00000000
00031000
00000010
,
00000001
00001000
00000000
00001001
00000000
00000000
00000110
00000000
,
00000002
00000000
00000203
00000000
00002300
00000000
00013000
01000000
,
10000000
00010000
00000000
10010000
00000000
00000000
00000000
00000000
,
11000000
00110000
11000000
00110000
,
10000000
01000000
00000000
00110000
00000000
00010000
00010000
10000000
,
01000000
00000000
00010000
00000000
00011000
00000000
00001000
00000100
,
00000001
00001000
00000001
00001000
00000000
00000010
00000100
00000000
,
00000101
00001010
00000101
00001010
,
00000001
00000100
00000000
00001010
00000000
00001000
00001000
00000001
,
00001000
00000000
00001100
00000000
00000100
00010000
00001000
00000000
,
00011000
00000000
00100000
01000000
00000000
10000000
00010000
01000000
,
01100000
01001000
01100000
01001000
,
01000000
00100000
00000000
00011000
00000000
00000100
00000010
00000000
,
00000011
00000000
00000001
00000100
00000010
00000000
00001000
00000010
,
00000100
00000001
00001000
00000001
00000000
00001000
00000010
00000000
,
00000110
00010010
00000110
00010010
,
00000010
00000100
00000000
00011000
00000000
00100000
01000000
00000000
,
11000000
00000000
00110000
00000000
10000000
01000000
00010000
00001000
,
00000010
00000001
00000000
00000011
00000000
00000001
00001000
00000010
,
00000000
00000100
00000000
00001000
00000000
00010000
00000000
01000000
,
00000000
10000000
00000000
00100000
00000000
00010000
00000000
00001000
,
00000010
00000000
00000001
00000000
00000010
00000000
00000001
00000000
00000010
00000000
00000001
00001000
00000000
00000000
00000000
00000000
,
00000010
00000000
00000100
00000000
00000010
00000000
00000100
00000000
00000010
00000000
00000100
00010000
00000000
00000000
00000000
00000000
,
00001000
00000000
00010000
00000000
00001000
00000000
00010000
00000000
00001000
00000000
00010000
00001000
00000000
00000000
00000000
00000000
,
01000000
00100000
00000000
10000000
00000000
00010000
00100000
00000000
,
01000000
00010000
00000000
00001000
00000000
00000010
00000001
00001000
,
00000100
00000000
00001100
00000000
00000100
00010000
00001000
01000000
,
00100000
00000000
10000000
01000000
00000000
11000000
00000000
01000000
,
00010000
00000000
00001000
00000100
00000001
00001000
00000010
00000100
,
00000110
00000000
00001001
00000000
00000010
00000100
00000000
00000000
,
00000000
00000001
00000100
00001000
00010000
01000000
10000000
00000000
,
11000000
00110000
01010000
10100000
,
10000000
00010000
00000000
01010000
00000000
01000000
01000000
00100000
,
01000000
00000000
01001000
00000000
00011000
00000000
00010000
00000010
,
00000100
00000001
00001000
00000010
00000000
00001000
00000001
00000000
,
00000011
00001100
00001010
00000101
,
00000001
00001000
00000000
00001100
00000000
00000100
00010000
00001000
,
00011000
00000000
00101000
00000000
00100000
01000000
10000000
00000000
,
11000000
00000000
00100000
00010000
00000000
01000000
00100000
01000000
,
01010000
01001000
00011000
00010100
,
00000010
00000001
00000000
00000101
00000000
00000100
00000100
00000010
,
00001000
00000000
00000001
00000100
00001000
00000000
00000100
00000001
,
00001000
00000010
00000001
00000010
00000000
00001000
00000010
00000000
,
00001010
00010010
00011000
00101000
,
00100000
01000000
00000000
11000000
00000000
00100000
00100000
00000000
,
10100000
00000000
00110000
00000000
00100000
10000000
00010000
01000000
,
10000000
01000000
00000000
01010000
00000000
00000000
00000000
00000000
,
10000000
00000000
01000000
00000000
10000000
00000000
01000000
00000000
10000000
00000000
01000000
00100000
00000000
00000000
00000000
00000000
,
00001000
00000000
00010000
00000000
00001000
00000000
00010000
00000000
00001000
00000000
00010000
00000010
00000000
00000000
00000000
00000000
,
00000100
00000000
00000001
00000000
00000100
00000000
00000001
00000000
00000100
00000000
00000001
00001000
00000000
00000000
00000000
00000000
,
00000001
00000100
00000000
00001010
00000000
00000001
00000100
00000000
,
00000010
00000000
00000100
00000000
00000010
00000000
00000100
00000000
00000010
00000000
00000100
00010000
00000000
00010000
00001000
00000000
,
00001000
00000000
00100000
00000000
00001000
00000000
00100000
00000000
00001000
00000000
00100000
01000000
00000000
00000000
00000000
00000000
,
10000000
00000000
00010000
00000000
10000000
00000000
00010000
00000000
10000000
00000000
00010000
01000000
00000000
01000000
00100000
00000000
,
00100000
10000000
00000000
01010000
00000000
10000000
00100000
00000000
,
10000000
01000000
00000000
00010000
00000000
00001000
00000010
00000001
,
00001000
00000010
00000000
00000100
00000000
00001000
00000000
00010000
,
00000000
01000000
00000000
10000000
00100000
01000000
00010000
00000000
;

//---------------dance-double - ----------------
#NOTES:
     dance-double:
     :
     Challenge:
     17:
     0.974732,1.154033,0.613906,0.000000,0.811233,778.000000,708.000000,70.000000,0.000000,0.000000,0.000000,0.974732,1.154033,0.613906,0.000000,0.811233,778.000000,708.000000,70.000000,0.000000,0.000000,0.000000:
00000000
00000000
00000000
00000000
,
00000000
00000000
00000000
00000000
,
00000000
00000000
00000000
00000000
,
10100000
00000000
00010000
01000000
00100000
00000000
00010000
00001000
00000100
00000000
00000001
00000010
00000100
00000000
00000101
00000000
,
00001010
00000000
00000001
00000000
00000100
00000000
00001000
00000000
00000100
00000000
00001000
00010000
00000000
01000000
10000000
01000000
,
10000000
00000000
00010000
00000000
10000000
00000000
01000000
00000000
00010000
00000000
00001000
00100000
00000000
00000000
11000000
00000000
,
00100000
00000000
10000000
00000000
01000000
00000000
00010000
00000000
01000000
00000000
00010000
00001000
00000000
00000100
00000001
00000100
,
00000001
00001000
00000010
00000100
00000001
00001000
00000010
00000100
00000001
00000010
00000100
00001000
00000001
00000010
00000100
00000000
,
00001100
00000000
00000001
00000000
00000010
00000000
00001000
00000000
00000010
00000000
00001000
00010000
00000000
00100000
10000000
00100000
,
10000000
00000000
00010000
00000000
10000000
00000000
01000000
00000000
00010000
00000000
00001000
00000100
00000000
00000000
00001100
00000000
,
00010000
00000000
00001000
00000000
00000100
00000000
00001000
00000000
00000100
00000000
00001000
00010000
00000000
00100000
10000000
00100000
,
10000000
00010000
01000000
00100000
10000000
00010000
01000000
00100000
10000000
01000000
00100000
00001000
00010000
00000100
00000010
00000001
,
00000100
00000010
00001000
00000001
00000100
00000010
00001000
00000001
00000100
00000001
00001000
00000010
00000100
00000001
00001000
00000000
,
00001010
00000000
00000100
00000010
00000001
00000000
00000100
00000000
00000010
00000000
00010000
00000000
00011000
00000000
00000000
00000000
,
00110000
00000000
01000000
10000000
00100000
00000000
01000000
00000000
00010000
00000000
10000000
00000000
11000000
00000000
00010000
00000000
,
00010000
00000000
10000000
00000000
01000000
00000000
00010000
00000000
01000000
00000000
00010000
00001000
00000000
00000100
00000001
00000100
,
00000001
00000000
00000100
00000000
00001000
00000000
00000100
00000000
00001000
00000000
00010000
01000000
10000000
01000000
10000000
00000000
,
10100000
00000000
01000000
00010000
00100000
00000000
01000000
00000000
00100000
00000000
00001000
00000000
00011000
00000000
00000000
00000000
,
00010010
00000000
00000010
00000100
00000001
00000000
00000100
00000000
00001000
00000000
00010000
00000000
00001000
00000000
00001000
00000000
,
00000010
00000000
00000001
00000000
00000100
00000000
00001000
00000000
00000100
00000000
00001000
00010000
00000000
01000000
10000000
01000000
,
10000000
00000000
01000000
00000000
00010000
00000000
00001000
00000000
00000100
00000000
00000001
00001000
00000000
00000000
00000000
00000000
,
00000010
00000001
00000101
00000010
00001000
00000100
00001100
00000010
,
00010000
00001000
00011000
00100000
00010000
01000000
01010000
00100000
,
10000000
01000000
11000000
00100000
00001000
00010000
00011000
00010000
,
00000100
00000000
00000010
00000000
00000011
00000000
00001000
00000000
00000010
00000100
00000001
00001000
00000001
00000000
00000000
00000000
,
00000100
00000001
00000010
00000000
00000100
00001000
00000010
00000000
00000100
00000001
00000010
00000000
00000100
00001000
00000010
00000000
,
00000100
00000001
00000000
00001100
00000000
00000010
00000100
00001000
,
00011000
00000000
00000000
00000000
00000110
00000000
00000000
00000000
00000101
00000000
00000000
00000000
00000001
00001000
00000001
00001000
,
00000001
00000010
00000100
00010000
00001000
00000100
00000001
00000000
00000000
00000000
00001000
00000001
00001000
00000000
00000010
00000000
,
00000100
00000001
00000010
00000000
00000100
00001000
00000010
00000000
00000100
00000001
00000010
00000000
00000100
00001000
00000010
00000000
,
00000100
00001000
00000000
00011000
00000000
00010000
01000000
10000000
,
10100000
00000000
00110000
00000000
10100000
10000000
00010000
00000000
,
01010000
00000000
00100000
10000000
01000000
00000000
00100000
00010000
01000000
00000000
00001000
00010000
00000100
00000000
00001000
00000000
,
00000010
00001000
00000001
00000000
00000100
00000001
00001000
00000000
00000010
00001000
00000001
00000000
00000100
00000001
00001000
00000000
,
00000010
00000100
00000000
00001100
00000000
00001000
00010000
01000000
,
11000000
00000000
00000000
00000000
00100000
00000000
01000000
00000000
01100000
00000000
00000000
00000000
01000000
00100000
01000000
00100000
,
10000000
01000000
00100000
00001000
00010000
01000000
10000000
00000000
00000000
00000000
00100000
01000000
00100000
00000000
10000000
00000000
,
00100000
01000000
00010000
00000000
01000000
00100000
10000000
00000000
00100000
01000000
00010000
00000000
01000000
00100000
10000000
00000000
,
00100000
00010000
00000000
00011000
00000000
00001000
00000010
00000000
,
00000011
00000000
00001010
00000000
00000011
00000001
00000100
00001000
,
00010000
00000000
00000010
00000100
00001000
00000000
00010000
00000010
00000100
00000000
00001000
00010000
01000000
00000000
10000000
00000000
,
00010000
10000000
00000000
01000000
00000000
00001000
00000000
00000100
,
00000000
00000001
00000000
00000010
00000000
00010000
00000000
00001000
,
01000000
00000000
10000000
00000000
00100000
00000000
00010000
00000000
00100000
00000000
00010000
00001000
00000000
00000010
00000001
00000010
,
00000001
00000000
00001000
00000000
00000001
00000000
00000010
00000000
00001000
00000000
00010000
00000100
00000000
00000000
00000011
00000000
,
00000100
00000000
00000001
00000000
00000010
00000000
00001000
00000000
00000010
00000000
00001000
00010000
00000000
00100000
10000000
00100000
,
10000000
00010000
01000000
00100000
10000000
00010000
01000000
00100000
10000000
01000000
00100000
00010000
10000000
01000000
00100000
00001000
,
00010000
00000010
00000100
00000001
00001000
00000010
00000100
00000001
00000100
00000010
00001000
00000001
00000100
00000010
00001000
00000000
,
00000000
00000011
00000000
00001010
00000000
00110000
00000000
10100000
,
00000000
11000000
00000000
01010000
00000000
00001100
00000000
00000101
,
00000000
00001001
00000000
00010100
00000000
01001000
00000000
00101000
,
00000000
00010010
00000000
00001001
00000000
00001000
00000001
00000000
,
00001000
00000000
00000100
00000001
00000100
00000000
00001000
00010000
00001000
00000000
00010000
01000000
10000000
00000000
00000000
00000000
,
10000000
01000000
00010000
00000000
00010000
01000000
10000000
00000000
10000000
00100000
00010000
00000000
00010000
00100000
10000000
00000000
,
01000000
00010000
00000000
00011000
00000000
00001000
00000100
00000001
,
00000101
00000000
00000000
00000000
00001010
00000000
00000000
00000000
00000101
00000000
00000000
00000000
00000010
00000100
00000010
00000100
,
00000001
00000010
00000100
00000010
00000001
00001000
00000001
00000000
00000000
00000000
00000100
00000010
00010000
00000000
00000100
00000000
,
00001000
00000010
00000001
00000000
00000001
00000010
00001000
00000000
00001000
00000100
00000001
00000000
00000001
00000100
00001000
00000000
,
00000010
00000100
00000000
00001100
00000000
00001000
00010000
01000000
,
01010000
00000000
11000000
00000000
10100000
00100000
01000000
00000000
,
10100000
00000000
00010000
01000000
00100000
00000000
00010000
00001000
00000100
00000000
00000001
00001000
00000010
00000000
00000100
00000000
,
00000001
00000010
00001000
00000000
00001000
00000010
00000001
00000000
00000001
00000100
00001000
00000000
00001000
00000100
00000001
00000000
,
00000100
00001000
00000000
00011000
00000000
00000010
00000100
00001000
,
00011000
00000000
00110000
00100000
10000000
00000000
11000000
01000000
,
00010000
00001000
00010000
00001000
01000000
00100000
10000000
01000000
00100000
00000000
00010000
10000000
01000000
00000000
00100000
00000000
,
00010000
01000000
10000000
00000000
10000000
01000000
00010000
00000000
00010000
00100000
10000000
00000000
10000000
00100000
00010000
00000000
,
01000000
00100000
00000000
00011000
00000000
00000010
00000001
00000000
,
00000101
00000000
00001100
00000000
00000101
00000001
00001000
00000010
,
00000100
00000000
00001000
00010000
01000000
00000000
10000000
01000000
00010000
00000000
00001000
00000100
00000001
00000000
00001000
00000000
,
00000101
00000000
00000010
00000000
00001000
00000000
00000100
00000000
00000010
00000000
00001000
00010000
00000000
01000000
10000000
01000000
,
10000000
00000000
00100000
00000000
01000000
00000000
10000000
00000000
01000000
00000000
00010000
00100000
00000000
00000000
01000000
00000000
,
00010000
00000000
00001000
00000000
00000100
00000000
00000001
00000000
00001000
00000000
00000010
00000100
00000000
00001000
00010000
00001000
,
01000000
00100000
10000000
00010000
01000000
00100000
10000000
00010000
10000000
01000000
00100000
00010000
10000000
01000000
00100000
00000000
,
01010000
00000000
00100000
00000000
00010000
00000000
00001000
00000000
00000010
00000000
00000001
00001000
00000000
00000010
00000100
00001000
,
00010000
00000000
00000010
00000000
00000100
00000000
00000001
00000000
00000010
00000000
00001000
00010000
00000000
00000000
00100000
00000000
,
10000000
00000000
01000000
00000000
00010000
00000000
00001000
00000000
00100000
00000000
01000000
00010000
00000000
00001000
00000100
00000001
,
00001000
00000010
00000100
00000001
00001000
00000010
00000100
00000001
00001000
00000001
00000100
00000010
00001000
00000001
00000100
00000010
,
00010000
00001000
01000000
00100000
10000000
01000000
00100000
00010000
01000000
00100000
10000000
00010000
01000000
00100000
00010000
00001000
,
00000010
00000001
00000000
00000010
00000000
00001000
00000000
00010000
,
00000000
00000000
01000000
00000000
00000000
00000000
10000000
00000000
01000000
00010000
01000000
00010000
01000000
00000000
00000000
00000000
;

//---------------dance-single - ----------------
#NOTES:
     dance-single:
     :
     Medium:
     11:
     0.532469,0.629473,0.420964,0.236792,0.000000,425.000000,377.000000,48.000000,27.000000,0.000000,0.000000,0.532469,0.629473,0.420964,0.236792,0.000000,425.000000,377.000000,48.000000,27.000000,0.000000,0.000000:
0000
0000
0000
0000
,
0000
0000
0000
0000
,
0000
0000
0000
0000
,
0010
0100
0010
0000
0010
1000
0010
0000
,
1000
0100
0010
0001
0010
0100
1000
0000
,
0001
0010
0100
1000
0100
0010
0001
0000
,
0100
0010
1000
0001
1000
0010
0100
0000
,
0000
0020
0000
0230
0000
0310
0010
0000
,
1000
0010
0100
0001
0100
0010
1000
0000
,
0001
0100
0010
1000
0010
0100
0001
0000
,
1000
0001
0100
0010
0100
0001
1000
0000
,
0000
0002
0000
0023
0000
0031
0001
0000
,
0000
2000
0000
3200
0000
1300
1000
0000
,
0010
1000
0010
0000
0100
0000
0010
0000
,
1000
0100
0000
0010
0000
0001
0000
0001
,
1000
0100
1000
0100
1000
0010
1000
0000
,
0001
0100
0001
0100
0001
1000
0001
0000
,
0010
0000
0100
0000
0010
0001
0000
0000
,
0001
0100
0000
0010
0000
1000
0000
1000
,
0001
0100
0001
0100
0001
1000
0001
0000
,
1000
0100
1000
0100
1000
0001
0000
0000
,
1000
0100
0001
0100
,
1000
0001
0000
1001
0000
0000
0110
0000
,
0001
0100
1000
0100
,
0001
1000
0000
1001
0000
0000
0000
0000
,
1010
0101
1010
0101
,
0001
1000
0000
0110
0000
0000
0000
0100
,
0001
0000
0100
0000
0010
0000
1000
0100
,
0010
0001
0100
0010
0000
0000
0000
0000
,
0011
1100
0011
1100
,
0001
1000
0000
0110
0000
0000
0000
0100
,
0010
0000
0010
0000
0010
1000
0001
0000
,
0100
0000
0100
0001
0000
0000
0000
0000
,
1100
0011
1100
0011
,
1000
0001
0000
0110
0000
0000
0000
0010
,
0100
0000
0010
0000
1000
0000
0001
0010
,
0100
1000
0100
0010
0000
0000
0000
0000
,
0101
1010
0101
1010
,
0010
0100
0000
1001
0000
0000
0000
0000
,
0100
0000
0100
0000
0100
0001
1000
0000
,
0010
1000
0000
1001
0000
0000
0000
0000
,
1000
0200
0000
0320
0000
0032
0000
0203
,
0000
0320
0000
0032
0000
0023
0000
1030
,
0001
1000
0010
0100
0010
1000
0001
0000
,
1000
0001
0100
0010
0100
0001
1000
0000
,
0010
1000
0001
0100
0001
1000
0010
0000
,
0000
2000
0000
3200
0000
1300
1000
0000
,
0000
0002
0000
0023
0000
0031
0001
0000
,
0000
1100
0000
0110
0000
1100
0000
0110
,
0000
0101
0000
0110
0000
0101
0000
0110
,
0000
1010
0000
1001
0000
1010
0000
1001
,
0000
0101
0000
1001
0000
0100
0100
0000
,
0000
0100
0010
1000
0001
0000
0110
0000
,
2010
0001
0010
3001
,
1000
0010
0000
0101
0000
0000
0000
0100
,
0001
0000
0100
0000
0010
0000
1000
0100
,
0010
0001
0100
0010
0000
0000
0000
0000
,
0102
1000
0100
1003
,
0001
0100
0000
1010
0000
0000
0000
0010
,
0100
0000
0100
0000
0100
1000
0001
0000
,
0010
0000
0001
1000
0000
0000
0000
0000
,
0201
1000
0001
1300
,
0001
1000
0000
0110
0000
0000
0000
0100
,
0010
0000
1000
0100
0010
0000
0010
0001
,
1000
0100
0010
0100
0000
0000
0000
0000
,
1020
0001
1000
0031
,
1000
0010
0000
0101
0000
0000
0000
0000
,
0001
0000
0001
0000
0001
0100
0010
0000
,
1000
0010
0000
0101
0000
0000
0000
0000
,
0001
1000
0100
1000
0001
0010
0001
0000
,
1000
0001
0100
0001
1000
0010
1000
0000
,
0010
0100
0001
0100
0010
1000
0010
0010
,
0000
2000
0000
3200
0000
0310
0010
0000
,
0001
0100
0010
0100
0001
0010
0100
0000
,
1000
0010
0100
0010
1000
0100
0010
0000
,
0001
0100
0010
1000
0100
0010
0001
0001
,
0000
0200
0000
0320
0000
1030
1000
0000
,
0000
0020
0000
0230
0000
0301
1000
0010
,
0000
1000
0000
0001
0000
1000
0000
0001
,
0000
0100
0000
0010
1000
0100
0001
0000
;

//---------------dance-double - ----------------
#NOTES:
     dance-double:
     :
     Easy:
     7:
     0.379619,0.454619,0.105241,0.184172,0.000000,303.000000,291.000000,12.000000,21.000000,0.000000,0.000000,0.379619,0.454619,0.105241,0.184172,0.000000,303.000000,291.000000,12.000000,21.000000,0.000000,0.000000:
00000000
00000000
00000000
00000000
,
00000000
00000000
00000000
00000000
,
00000000
00000000
00000000
00000000
,
00100000
00100000
10000000
00010000
,
01000000
00001000
01000000
00001000
,
00010000
00000000
00000010
00000000
00010000
00000020
00000000
00000000
,
00000130
00000001
00000100
00000001
,
00000000
00001000
00000000
00001000
00000000
00001000
00001000
00000000
,
00000001
00000100
00000001
00000100
,
00000010
00000000
00010000
00000000
00000010
00020000
00000000
00000000
,
00031000
01000000
00001000
01000000
,
00000000
00100000
00000000
00100000
00000000
00100000
00100000
00000000
,
00000000
01000000
00000000
01000000
00000000
01000000
01000000
00000000
,
10000000
01000000
00010000
01000000
,
20000000
00000000
00000000
00010000
00000000
00010000
00000000
30010000
,
10000000
01000000
00010000
00001000
,
00010000
00001000
00000100
00000001
,
00001000
00000100
00000010
00000000
,
00000002
00000000
00000000
00001000
00000000
00001000
00000000
00001003
,
00000001
00000100
00001000
00010000
,
00001000
00010000
01000000
00000000
,
10000000
00010000
10000000
10000000
,
00010000
10000000
00010000
00010000
,
01000000
00001000
00010000
00000100
,
00001000
00000001
00000000
00000110
,
00000020
00000130
00000020
00000130
,
00000010
00000100
00000000
00000001
00000000
00000000
00000000
00000000
,
00000001
00000100
00001000
00010000
,
01000000
00000000
10000000
00010000
00000000
00000000
00000000
00000000
,
02000000
03100000
02000000
03100000
,
01000000
00100000
00000000
00010000
00000000
00000000
00000000
00000000
,
10000000
01000000
00010000
00001000
,
00000100
00000000
00000001
00001000
00000000
00000000
00000000
00000000
,
00000002
00000013
00000002
00000013
,
00000001
00000010
00000000
00000100
00000000
00000000
00000000
00000000
,
00000001
00000010
00001000
00010000
,
00100000
00000000
10000000
01000000
00000000
00000000
00000000
00000000
,
20000000
30100000
20000000
30100000
,
10000000
00100000
00000000
01000000
00000000
00000000
00000000
00000000
,
10000000
01000000
00010000
00001000
,
00000010
00000001
00000000
00000100
00000000
00000000
00000000
00000001
,
00000000
00000010
00000000
00000100
00000000
00001000
00000000
00000100
,
00000000
00010000
00000000
00001000
00000000
00100000
00000000
00010000
,
01000000
00100000
01000000
00100000
,
00001000
00010000
00001000
00010000
,
00000010
00001000
00000010
00001000
,
00000000
00000001
00000000
00000001
00000000
00000001
00000001
00000000
,
00000000
00001000
00000000
00001000
00000000
00001000
00001000
00000000
,
00000000
00000001
00000000
00000100
00000000
00000001
00000000
00000100
,
00000000
00001000
00000000
00010000
00000000
00001000
00000000
00010000
,
00000000
01000000
00000000
10000000
00000000
01000000
00000000
10000000
,
00000000
00100000
00000000
01000000
00000000
00100000
00100000
00000000
,
00000000
10000000
00000000
01000000
00000000
00100000
00010000
00000000
,
10000000
11000000
10000000
11000000
,
10000000
01000000
00000000
00100000
00000000
00000000
00000000
00000000
,
20000000
00000000
32000000
00000000
03200000
00000000
00301000
00010000
,
00001000
00010000
00001000
00010000
00000000
00000000
00000000
00000000
,
00000010
00000110
00000010
00000110
,
00000010
00000100
00000000
00000001
00000000
00000000
00000000
00000000
,
00000200
00000320
00020030
00031000
,
00010000
00000000
00001000
00010000
00000000
00000000
00000000
00000000
,
00100000
00110000
00100000
00110000
,
00100000
00010000
00000000
01000000
00000000
00000000
00000000
00000000
,
20000000
00000000
30200000
00000000
02300000
00000000
03001000
00010000
,
00001000
00010000
00001000
00010000
00000000
00000000
00000000
00000000
,
00000100
00001100
00000100
00001100
,
00000100
00001000
00000000
00000010
00000000
00000000
00000000
00000000
,
00000101
00000000
00001010
00000000
00000100
00000010
00000100
00000010
,
00001000
00000001
00000000
00001001
00000000
00000000
00000000
00000000
,
00000001
00000100
00000001
00000100
,
00000010
00010000
00000010
00010000
,
00001000
00010000
00001000
00010000
,
00000000
00001000
00000000
00001000
00000000
00001000
00001000
00000000
,
00100000
01000000
00100000
01000000
,
10000000
00100000
10000000
00100000
,
01000000
00001000
01000000
00001000
,
00000000
00010000
00000000
00010000
00000000
00010000
00010000
00000000
,
00000000
00000010
00000000
00000010
00000000
00000010
00000010
00000000
,
00000000
00000000
00000000
00000000
,
00000000
00000000
00000000
00000000
10000000
01000000
00010000
00000000
;

//---------------dance-double - ----------------
#NOTES:
     dance-double:
     :
     Medium:
     10:
     0.429734,0.489590,0.043850,0.280643,0.000000,343.000000,338.000000,5.000000,32.000000,0.000000,0.000000,0.429734,0.489590,0.043850,0.280643,0.000000,343.000000,338.000000,5.000000,32.000000,0.000000,0.000000:
00000000
00000000
00000000
00000000
,
00000000
00000000
00000000
00000000
,
00000000
00000000
00000000
00000000
,
00100000
10000000
00010000
00000000
01000000
00001000
00010000
00000000
,
00000010
00000100
00000010
00001000
00000010
00000100
00000000
00000000
,
00000001
00000100
00000010
00001000
00000010
00000100
00000000
00000000
,
00010000
00001000
00010000
00000100
00010000
00001000
00000000
00000000
,
00000000
00200000
00000000
02300000
00000000
13000000
10000000
00000000
,
00100000
01000000
00100000
10000000
00100000
01000000
00000000
00000000
,
00010000
00100000
01000000
10000000
01000000
00100000
00000000
00000000
,
00001000
00010000
00001000
00100000
00001000
00010000
00000000
00000000
,
00000000
00000200
00000000
00000320
00000000
00000031
00000001
00000000
,
00000000
00000200
00000000
00000320
00000000
00001030
00001000
00000000
,
00000100
00000010
00000100
00001000
,
00000010
00000100
00000000
00000001
00000000
00000100
00000000
00000010
,
00010000
00001000
00100000
00000000
00100000
00001000
00010000
00000000
,
00001000
00010000
00000100
00000000
00000100
00010000
00001000
00000000
,
00100000
00000000
01000000
10000000
00100000
01000000
00000000
00000000
,
00100000
01000000
00000000
00010000
00000000
00010000
00000000
00100000
,
00001000
00010000
00000100
00000000
00000100
00010000
00001000
00000000
,
00001000
00100000
00010000
00000000
00010000
00100000
00000000
00000000
,
00001000
00001000
00010000
00010000
,
00000010
00000100
00000000
00000001
00000000
00000000
00000000
00000000
,
00000010
00000010
00000100
00000100
,
00010000
00001000
00000000
01000000
00000000
00000000
00000000
00000000
,
00200000
10300000
00200000
01300000
,
00100000
00010000
00000000
00100000
00000000
00000000
00000000
00000000
,
10000000
01000000
00010000
00001000
,
00000100
00000001
00000100
00000001
00000000
00000000
00000000
00000000
,
00000200
00000301
00000200
00000310
,
00000100
00001000
00000000
00000100
00000000
00000000
00000000
00000000
,
00000001
00000010
00001000
00010000
,
00100000
00000000
10000000
00010000
00000000
00000000
00000000
00000000
,
20000000
31000000
00020000
01030000
,
10000000
01000000
00000000
00010000
00000000
00000000
00000000
00000000
,
00001000
00000000
00000100
00000000
00000001
00000000
00001000
00000001
,
00000100
00000010
00000100
00000010
00000000
00000000
00000000
00000000
,
00000002
00000013
00002000
00003010
,
00000001
00000010
00000000
00001000
00000000
00000000
00000000
00000000
,
00010000
00010000
00100000
00100000
,
10000000
00010000
00000000
10010000
00000000
00000000
01000000
00100000
,
10000000
00010000
00000000
10000000
00000000
00010000
00000000
10000000
,
00000000
01000000
00000000
00010000
00000000
00001000
00000000
00000010
,
00000001
00000100
00000010
00001000
00000010
00000100
00000000
00000000
,
00000010
00000100
00001000
00010000
00001000
00000100
00000000
00000000
,
00010000
00001000
00100000
01000000
10000000
01000000
00000000
00000000
,
00000000
20000000
00000000
30020000
00000000
01030000
01000000
00000000
,
00000000
00002000
00000000
00023000
00000000
00030100
00000100
00000000
,
00000000
00000010
00000000
00000001
00000000
00000100
00000000
00001000
,
00000000
00010000
00000000
01000000
00000000
10000000
00000000
01000000
,
00000000
00010000
00000000
00001000
00000000
00000100
00000000
00000001
,
00000000
00001000
00000000
00000010
00000000
00000100
00000100
00000000
,
00000000
00000000
00000000
01100000
,
00200000
10300000
02000000
03010000
,
00001000
00000100
00000000
00000001
00000000
00000000
00000000
00000010
,
00000100
00000000
00000001
00000000
00000100
00000000
00000010
00000100
,
00001000
00000100
00000010
00000100
00000000
00000000
00000000
00000000
,
00000020
00000031
00000200
00001300
,
00010000
01000000
00000000
10000000
00000000
00000000
00000000
00100000
,
01000000
01000000
01000000
10010000
,
10000000
00000000
00100000
01000000
00000000
00000000
00000000
00000000
,
00200000
10300000
02000000
03010000
,
00001000
00000100
00000000
00000001
00000000
00000000
00000000
00001000
,
00000010
00000000
00000100
00000000
00000001
00000000
00001000
00000100
,
00010000
00001000
00100000
01000000
00000000
00000000
00000000
00000000
,
20000000
31000000
00020000
00031000
,
00000010
00000001
00000000
00001001
00000000
00000000
00000000
00000000
,
00000010
00000000
00000010
00000000
00000010
00000100
00000001
00000000
,
00000100
00000010
00000000
00001010
00000000
00000000
00000000
00000000
,
00000100
00001000
00000100
00000010
00000100
00001000
00000000
00000000
,
00000010
00000100
00001000
00010000
00001000
00000100
00000000
00000000
,
00010000
00001000
00010000
00000100
00010000
00001000
00000000
00000000
,
00000000
00200000
00000000
02300000
00000000
13000000
10000000
00000000
,
00100000
01000000
00100000
10000000
00100000
01000000
00000000
00000000
,
00100000
01000000
00001000
00010000
00001000
01000000
00000000
00000000
,
00010000
00100000
00010000
01000000
00010000
00100000
00000000
00000000
,
00000000
00200000
00000000
00302000
00000000
00013000
00010000
00000000
,
00000000
00000200
00000000
00002300
00000000
00003010
00000010
00000000
,
00000000
00000000
00000000
00000000
,
00000000
00000000
00000000
00000000
00000100
00000001
00001000
00000000
;
