#TITLE:Welcome!!;
#SUBTITLE:;
#ARTIST:kors k;
#TITLETRANSLIT:;
#SUBTITLETRANSLIT:;
#ARTISTTRANSLIT:;
#GENRE:Hardcore;
#CREDIT:;
#BANNER:welcome-bn.png;
#BACKGROUND:welcome-bg.png;
#LYRICSPATH:;
#CDTITLE:;
#MUSIC:Welcome!!.mp3;
#OFFSET:-0.040000;
#SAMPLESTART:10.659998;
#SAMPLELENGTH:12.000000;
#SELECTABLE:YES;
#BPMS:0.000000=180.000000
;
#STOPS:
;
#BGCHANGES:;
#KEYSOUNDS:;
#ATTACKS:;

//---------------dance-single - ----------------
#NOTES:
     dance-single:
     :
     Challenge:
     15:
     0.737163,0.870622,0.440202,0.122278,0.419822,633.000000,579.000000,54.000000,15.000000,0.000000,0.000000,0.737163,0.870622,0.440202,0.122278,0.419822,633.000000,579.000000,54.000000,15.000000,0.000000,0.000000:
0000
0000
0000
0000
,
0000
0000
0000
0000
,
0000
0000
0000
0000
,
0010
0000
0010
0000
0010
1000
1001
0000
,
0110
0000
0110
0000
1000
0000
0001
1000
,
0110
0000
0110
0000
0001
0010
0100
0010
,
1100
0000
0010
0100
0011
0000
0100
0010
,
1000
0000
0100
0000
0010
0000
0001
0010
0100
0000
1000
0010
0100
0000
0000
0000
,
0010
0000
0000
0010
0000
0000
1000
0100
0010
0000
0001
0000
0010
0000
0100
0000
,
1000
0000
0000
1000
0000
0000
0001
0010
0001
0000
1000
0100
1000
0100
1000
0000
,
0001
0000
0010
0000
0100
0000
0010
0001
0100
0000
0010
1000
0100
0000
0010
0000
,
0001
0000
0000
1000
0000
0000
0010
0000
0100
0000
0001
1000
0001
0000
0000
0000
,
0100
0000
0000
0100
0000
0000
0001
0010
0100
0000
1000
0000
0100
0000
0010
0000
,
0001
0000
0000
0001
0000
0000
1000
0100
1000
0000
0001
0010
0001
0010
0001
0000
,
1000
0000
0100
0000
0010
0000
0100
1000
0010
0000
0100
0001
0010
0000
0100
0000
,
1000
0000
0000
0001
0000
0000
0100
0000
0010
1000
0001
1000
0010
0000
0000
0000
,
1000
0000
0000
0100
0000
0000
1000
0000
0000
0010
0000
0000
1000
0000
0001
0000
,
1000
0000
0000
0010
0000
0000
0001
0000
0000
0010
0000
0000
1000
0000
0001
0000
,
1000
0000
0000
0001
0000
0000
1000
0000
0000
0100
0000
0000
0010
0001
0010
0000
,
0100
0000
0000
0100
0000
0000
1000
0000
0000
0010
0000
0000
0100
0000
0001
0000
,
0001
0000
0000
0010
0000
0000
0001
0000
0000
0100
0000
0100
0001
0000
0010
0000
,
0001
0000
0000
0100
0000
0000
1000
0000
0000
0100
0000
0000
0001
1000
0001
1000
,
0001
0000
0000
0100
0000
0000
0001
0000
0000
0100
0000
0000
0010
0000
1000
0100
,
1000
0000
0000
0100
0000
0000
1000
0000
0000
0100
0000
0000
0010
0000
0000
0000
,
0110
0000
0110
0000
1000
0001
0110
0000
,
0100
0001
1000
0010
1000
0001
0100
0000
,
1001
0000
1001
0000
0010
0100
1001
0000
,
0001
0010
0100
0010
1000
0010
0001
0000
,
0101
0000
0101
0000
1000
0010
0101
0000
,
1000
0010
0100
0001
0100
0010
1000
0000
,
0002
0023
0230
2300
,
3010
0100
0010
0100
0101
0000
1100
0000
,
1010
0000
1010
0000
0001
0100
1010
0000
,
0100
0010
1000
0001
1000
0010
0100
0000
,
0011
0000
0011
0000
1000
0100
0011
0000
,
0001
0100
0010
0100
1000
0100
0001
0000
,
0101
0000
1010
0000
1000
0001
1100
0000
,
0001
0100
1000
0100
0001
0010
0100
0000
,
2000
3200
0320
0032
,
0000
0100
0000
0100
0000
0103
0010
0100
,
0001
0011
0000
0001
0010
1000
0000
0001
,
0100
0010
1000
0100
0010
0001
0100
0010
,
1000
0000
1010
0000
0000
0000
1000
0000
0010
0000
0001
0000
0010
0000
1000
0100
,
0000
0000
0100
0010
0000
0000
0010
0001
0000
0000
0001
0000
1000
0000
0100
0000
,
0010
1100
0000
0011
0000
0101
0010
1000
,
1100
0100
0001
0100
1000
0010
0001
0010
,
1000
0001
0000
0100
1000
0100
0001
1000
,
0000
0010
0000
0010
0000
0010
1100
0000
,
1000
1100
0000
1000
0100
0001
0000
1000
,
0010
0100
0001
0010
0100
1000
0010
0100
,
0001
0000
0101
0000
0000
0000
0001
0000
0100
0000
1000
0000
0100
0000
0001
0010
,
0000
0000
0010
0100
0000
0000
0100
1000
0000
0000
1000
0000
0010
0000
0100
0000
,
0001
1001
0000
1010
0000
1001
0010
0100
,
0001
0100
0010
0001
0010
1000
0100
0010
,
0100
1100
0000
0010
0001
0100
0010
0100
,
0000
0100
0000
0100
0001
0000
1000
0000
,
1200
0000
0000
0000
0000
0000
0000
0000
0010
0000
0000
0010
0000
0000
0010
0000
,
0000
0000
0001
0000
0000
0001
0000
0000
0010
0000
0000
0010
0000
0000
0010
0000
,
0000
0000
1000
0000
0000
1000
0000
0000
0010
0000
0000
0010
0000
0000
0010
0000
,
0000
0000
0001
0000
0000
0001
0000
0000
0320
0000
0000
0000
0000
0000
0000
0000
,
0230
0000
0000
0000
0000
0001
0000
0010
,
0000
0000
1000
0000
,
0010
0000
0001
0300
,
1001
0000
0011
0000
,
1100
0000
1000
0000
0010
1000
0101
0001
,
0000
0100
0001
0000
0001
0000
1010
0000
,
0001
0000
0001
0000
1000
0001
0110
0100
,
0000
0010
1000
0000
1000
0000
1100
0000
,
0010
0000
0010
0000
0100
1000
1100
0100
,
0000
0010
0001
0000
0001
0000
1001
0000
,
0100
0000
0100
0000
0010
1000
0000
0000
,
0001
1000
0100
1000
0001
0000
0000
0000
1000
0001
0100
0001
1000
0000
0000
0000
,
0010
1000
0000
1000
0010
0000
0100
0000
0001
0000
1000
0000
0010
0000
0100
0000
,
0100
0001
0000
0001
0100
0000
0010
1000
0010
0000
1000
0000
0100
0000
0010
0000
,
0001
0000
0100
0000
0010
0000
1000
0100
1000
0000
0001
0100
0001
0000
1000
0000
,
0001
0000
1000
0001
0000
0001
0010
0000
0010
0000
0001
0000
1000
0000
0000
0000
,
1000
0010
0000
0010
0100
0000
0001
0000
0010
0000
0100
0000
0010
0000
0001
0000
,
0100
0001
0000
0001
1000
0000
0010
1000
0010
0000
0100
0000
0001
0000
1000
0000
,
0100
0000
0010
0000
0100
0000
1000
0010
1000
0000
0001
0010
0001
0000
1000
0000
,
0001
0000
0011
0000
0011
0000
0100
0000
1000
0010
0100
0000
0001
0000
0000
0000
,
1000
0000
0010
1000
0010
0000
0100
0001
0100
0000
0001
0010
0001
0000
1000
0100
,
1000
0000
0010
0100
0010
0000
0100
0001
0100
0000
0001
0010
0001
0000
1000
0000
,
0001
0000
1000
0010
1000
0000
0001
0100
0001
0000
0010
0001
0010
0000
0100
1000
,
0100
0000
1000
0010
1000
0000
0010
0100
0010
0000
0100
0001
0100
0000
0001
0000
,
1000
0000
0100
1000
0100
0000
0010
0001
0010
0000
0100
1000
0100
0000
0010
0000
,
0001
0000
0100
0001
0100
0000
0010
1000
0010
0000
0100
0001
0100
0000
0001
0000
,
2002
0000
0000
0000
0000
0000
0000
3003
,
0001
0100
0010
1000
0010
0100
0001
0010
0100
1000
0100
0010
0001
0000
0000
0000
,
0220
0000
0000
0000
,
0330
0000
0000
0000
;

//---------------dance-single - ----------------
#NOTES:
     dance-single:
     :
     Hard:
     13:
     0.614885,0.645629,0.301620,0.163038,0.207873,528.000000,491.000000,37.000000,20.000000,0.000000,0.000000,0.614885,0.645629,0.301620,0.163038,0.207873,528.000000,491.000000,37.000000,20.000000,0.000000,0.000000:
0000
0000
0000
0000
,
0000
0000
0000
0000
,
0000
0000
0000
0000
,
1000
0000
1000
0000
1000
0100
0010
0000
,
0101
0000
0101
0000
0001
1000
0001
0100
,
0110
0000
0110
0000
1000
0001
1000
0010
,
1010
0000
0100
0001
0101
0000
0001
0010
,
0001
0100
1000
0100
0001
1000
0001
0000
,
0010
0000
0000
0001
0000
0000
0010
0000
0100
0000
1000
0000
0100
0000
0010
0000
,
0001
0000
0000
0001
0000
0000
0001
0000
1000
0000
0010
0000
1000
0000
0100
0000
,
0010
0001
0100
0010
1000
0010
0100
0001
,
0100
0000
0000
0100
0000
0000
0010
0000
0100
0000
0000
0010
0000
0000
1000
0000
,
0100
0000
0000
1000
0000
0000
0100
0000
0010
0000
0001
0000
0010
0000
0100
0000
,
1000
0000
0000
1000
0000
0000
1000
0000
0001
0000
0100
0000
0001
0000
0010
0000
,
0100
1000
0010
0100
0001
0100
0010
1000
,
0010
0000
0000
0010
0000
0000
0100
0000
0010
0000
1000
0000
0001
0000
1000
0000
,
0010
0000
0000
0010
0000
0000
1000
0000
0000
0001
0000
0000
0100
0000
0001
0000
,
0100
0000
0000
0100
0000
0000
0001
0000
0000
1000
0000
0000
0010
0000
1000
0000
,
0001
0000
0000
0001
0000
0000
0010
0000
0000
0100
0000
0000
1000
0000
0001
0000
,
1000
0000
0000
0010
0000
0000
1000
0000
0000
0001
0000
0000
0100
0000
0001
0000
,
0010
0000
0000
0100
0000
0000
1000
0000
0000
0100
0000
0000
0010
0000
0000
0000
,
0001
0000
0000
0100
0000
0000
0010
0000
0000
0100
0000
0000
0001
0000
1000
0000
,
0100
0000
0000
0100
0000
0000
1000
0000
0000
1000
0000
0000
0010
0000
0100
0000
,
0001
0000
0000
0001
0000
0000
0010
0000
0000
0010
0000
0000
0100
0000
0000
0000
,
0011
0000
0011
0000
0010
0001
0011
0000
,
0001
1000
0010
0100
0001
0100
0010
1000
,
1010
0000
1010
0000
1000
0010
1010
0000
,
1000
0100
0001
0100
1000
0100
0010
0000
,
1100
0000
1100
0000
0100
1000
1100
0000
,
0010
0001
0100
0010
1000
0010
0100
0000
,
0002
2003
3020
0230
,
0301
1000
0010
1000
0001
0100
0001
1000
,
1001
0000
1001
0000
0010
1000
1100
0000
,
0010
0100
1000
0010
0100
0001
0010
0000
,
0011
0000
0011
0000
0100
0001
1001
0000
,
0001
0100
0010
0100
1000
0100
0001
0000
,
1100
0000
0011
0000
1000
0001
0101
0000
,
0001
0100
0010
1000
0010
0100
0001
1000
,
0200
0320
0032
2003
,
0000
0010
0000
0010
0000
3010
0100
0010
,
1000
0010
0000
0100
1000
0100
0000
0001
,
0010
0100
0001
0100
1000
0010
0100
0001
,
0010
0100
0000
1000
0010
0100
0010
1000
,
0000
1010
0000
0101
0000
1010
0000
0000
,
0001
0010
0000
0100
0000
0001
0100
1000
,
0010
0100
1000
0100
0001
0010
0100
1000
,
0010
0100
0000
0010
0100
0001
1000
0010
,
0000
1100
0000
0110
0000
0010
0001
0100
,
0010
0010
0000
1000
0001
0010
0000
0001
,
1000
0010
1000
0001
0010
0001
1000
0010
,
0100
0001
0000
0010
0100
1000
0100
0010
,
0000
0110
0000
1100
0000
1010
0000
0000
,
0100
0100
0000
0001
0000
0100
1000
0100
,
0001
0100
0010
0100
1000
0100
0010
0100
,
0001
1000
0000
0100
0010
0001
1000
0010
,
0000
1010
0000
0100
0002
0000
2003
0000
,
3010
0000
0000
0000
,
0000
0000
0000
0000
,
0000
0000
0000
0000
,
0000
0000
0020
0000
,
0230
0000
0000
0000
0000
0001
0000
1000
,
0000
0000
0001
0000
,
0302
0000
0023
0000
,
0230
0000
2300
0000
,
3001
0000
0010
0000
0001
0010
0100
1000
,
0000
1000
1000
0000
2000
0000
3001
0000
,
1000
0000
0100
0000
1000
0100
0010
0001
,
0000
0001
0001
0000
0002
0000
1003
0000
,
0010
0000
0100
0000
0010
0100
0001
1000
,
0000
0001
1000
0000
0001
0000
0110
0000
,
0100
0000
0010
0000
1000
0001
0000
0000
,
1000
0100
0010
0001
0010
0100
1000
0000
,
0010
0000
0000
1000
0000
0000
0100
0000
1000
0000
0010
0000
0100
0000
0001
0000
,
0010
0000
0000
0100
0000
0000
0010
0000
0001
0000
0100
0000
0010
0000
1000
0000
,
0100
0010
0001
0000
0010
0100
1000
0000
,
1000
0100
0001
0100
1000
0000
1001
0000
,
0100
0000
0000
0001
0000
0000
0010
0000
0001
0000
0100
0000
0010
0000
1000
0000
,
0100
0000
0000
0010
0000
0000
0100
0000
1000
0000
0010
0000
0100
0000
0001
0000
,
0010
0100
1000
1000
0100
0010
0001
0001
,
0001
0000
0010
0000
0001
0000
0010
0000
0100
1000
0000
0000
1100
0000
0000
0000
,
0000
0000
1000
0010
0000
0000
0010
0100
0000
0000
0100
0001
0000
0000
0001
1000
,
0000
0000
1000
0001
0000
0000
0001
0010
0000
0000
0010
0100
0000
0000
0100
0010
,
0000
0000
0010
0001
0000
0000
0001
0100
0000
0000
0100
0010
0000
0000
0010
1000
,
0000
0000
1000
0100
0000
0000
0100
0010
0000
0000
0010
0100
0000
0000
0100
1000
,
0000
0000
1000
0010
0000
0000
0010
0001
0000
0000
0001
0010
0000
0000
0010
1000
,
0000
0000
1000
0100
0000
0000
0100
0001
0000
0000
0001
0100
0000
0000
0100
0000
,
1000
0010
0100
0001
0010
0100
1000
0001
,
2002
0000
0003
3010
,
1000
0000
0000
0000
;

//---------------dance-single - ----------------
#NOTES:
     dance-single:
     :
     Medium:
     10:
     0.441366,0.573893,0.220101,0.220101,0.057063,379.000000,352.000000,27.000000,27.000000,0.000000,0.000000,0.441366,0.573893,0.220101,0.220101,0.057063,379.000000,352.000000,27.000000,27.000000,0.000000,0.000000:
0000
0000
0000
0000
,
0000
0000
0000
0000
,
0000
0000
0000
0000
,
0010
0000
0010
0000
0010
1000
0001
0000
,
0101
0000
0101
0000
0010
0000
1000
0100
,
1100
0000
1100
0000
0010
0001
0010
0000
,
1001
0100
1001
0100
,
0001
0100
0001
0000
1000
0100
1000
0000
,
0020
0000
0000
0000
0130
0001
1000
0010
,
0200
0000
0000
0000
0310
1000
0001
0100
,
0001
0010
0100
1000
,
1000
0100
0010
0001
,
2000
0000
0000
0000
3001
0010
0100
1000
,
0002
0000
0000
0000
1003
0100
0010
0001
,
1000
0010
0100
0001
,
0001
0100
0010
1000
,
0001
0000
0000
0010
0000
0000
0001
0000
0000
0010
0000
0000
0001
0000
0010
0000
,
0100
0000
0000
1000
0000
0000
0100
0000
0000
1000
0000
0000
0100
0000
1000
0000
,
0001
0000
0000
1000
0000
0000
0001
0000
0000
1000
0000
0000
0001
0000
1000
0000
,
0010
0000
0000
0010
0000
0000
0100
0000
0000
0100
0000
0000
0010
0000
0000
0000
,
1000
0000
0000
1000
0000
0000
2000
0000
0000
0000
3001
0000
1000
0000
0000
0000
,
0001
0000
0000
0001
0000
0000
0002
0000
0000
0000
1003
0000
0001
0000
0000
0000
,
0100
0000
0000
0010
0000
0000
0100
0000
0000
0010
0000
0000
0100
0000
0000
0000
,
0001
0000
0000
1000
0000
0000
0001
0000
0000
1000
0000
0000
0001
0000
0000
0000
,
0101
0101
0010
0101
,
0020
0000
0000
0000
1030
0001
1000
0000
,
1100
1100
0010
1100
,
1000
0100
0010
0001
,
0011
0011
0100
0011
,
0200
0000
0000
0000
1300
0001
0100
0000
,
0002
0203
0320
2030
,
3001
0001
0010
0100
,
1100
1100
0010
1100
,
0020
0000
0000
0000
0031
1000
0010
0000
,
0101
0101
0010
0101
,
0001
1000
0010
0100
,
0110
0110
1000
0110
,
2000
0000
0000
0000
3001
0010
0100
0000
,
2000
3020
0230
0302
,
0003
0100
0000
0100
0000
0100
0000
0100
,
0001
1000
0000
1000
0001
1000
0000
0001
,
1000
0001
1000
0000
0001
0000
0100
0000
,
0010
0100
0000
0010
0100
0010
0100
0010
,
0000
1000
0000
0001
0000
1000
0000
0000
,
1000
0001
0000
1001
0000
0001
1000
0001
,
1000
0010
1000
1000
,
0100
0010
0000
0100
0010
0100
0010
0100
,
0000
1000
0000
0001
0000
1000
0000
0000
,
0001
0100
0000
0010
1000
0010
0000
0100
,
0001
0100
0001
0000
0010
0000
0010
0000
,
0001
1000
0000
1000
0010
1000
0010
1000
,
0000
0100
0000
0100
0000
0100
0000
0000
,
0010
0100
0000
1000
0000
1000
0001
0000
,
0100
0001
1000
1000
,
0010
0100
0000
0001
0010
0001
0010
0001
,
0000
0100
0000
0100
0010
0000
0010
0000
,
0010
0000
0000
0000
,
0000
0000
0000
0000
,
0000
0000
0000
0000
,
0000
0000
2000
0000
,
3002
0000
0003
0000
,
0000
0000
0000
0000
,
0000
0000
0000
0000
,
0000
0000
0020
0000
,
0130
0000
1000
0000
0100
1000
0100
1000
,
0000
1000
0001
0000
0001
0000
0000
0000
,
0010
0000
0001
0000
0010
0001
0010
0001
,
0000
0001
1000
0000
1000
0000
0000
0000
,
0100
0000
1000
0000
0100
1000
0100
1000
,
0000
1000
0001
0000
0001
0000
0000
0000
,
0100
0000
0100
0000
0100
0001
1000
0000
,
0010
0000
0100
0000
,
0002
0000
0000
0000
0103
0010
1000
0001
,
2000
0000
0000
0000
3010
0100
0001
1000
,
0001
0010
0100
1000
,
1000
0100
0010
0001
,
0200
0000
0000
0000
0301
0010
0100
1000
,
0020
0000
0000
0000
1030
0100
0010
0001
,
0100
0010
1000
0001
,
0001
1000
0010
0100
,
0000
0001
0000
0010
0000
0001
0000
0010
,
0000
0100
0000
1000
0000
0100
0000
1000
,
0000
1000
0000
0010
0000
1000
0000
0010
,
0000
0100
0000
0001
0000
0100
0000
0001
,
0000
1000
0000
0100
0000
0001
0000
0100
,
0000
1000
0000
0010
0000
0001
0000
0010
,
2000
0000
0000
0000
,
0002
0000
3003
0110
,
0101
0000
0000
0000
;

//---------------dance-single - ----------------
#NOTES:
     dance-single:
     :
     Easy:
     5:
     0.236405,0.322815,0.146734,0.285316,0.000000,203.000000,185.000000,18.000000,35.000000,0.000000,0.000000,0.236405,0.322815,0.146734,0.285316,0.000000,203.000000,185.000000,18.000000,35.000000,0.000000,0.000000:
0000
0000
0000
0000
,
0000
0000
0000
0000
,
0000
0000
0000
0000
,
0000
0000
0000
0000
,
0001
0001
0200
0000
,
0310
0010
2000
0000
,
3100
0000
0110
0000
,
0001
1000
0100
0100
,
1000
0010
1000
0000
,
0100
0010
0001
0000
,
0020
0000
0130
0000
,
1000
0001
0100
0010
,
0100
0001
0100
0000
,
0010
1000
0001
0000
,
2000
0000
3001
0000
,
0100
0001
0001
1000
,
0020
0000
0000
2030
0000
0000
0000
0000
,
3200
0000
0000
0320
0000
0000
0000
0000
,
0032
0000
0000
2003
0000
0000
0000
0000
,
3002
0000
0000
0023
0000
0000
0000
0000
,
0130
1000
1000
0000
,
0001
0010
0010
0000
,
1001
0000
0000
0000
,
0110
0000
0000
0000
,
0100
0100
0000
0100
,
0001
0000
1000
0000
,
0010
0010
0000
0010
,
1000
0000
0000
0000
,
0001
0001
0000
0001
,
1000
0000
0100
0000
,
2000
3200
0320
0032
,
0103
0100
0001
0000
,
1000
1000
0000
1000
,
0001
0000
0010
0000
,
0001
0001
0000
0001
,
0100
0000
0010
0000
,
0100
0100
0000
0100
,
0001
0000
1000
0000
,
0002
0023
0230
2300
,
3000
0000
0000
0000
,
1010
0000
1100
0000
,
1010
0000
0000
0000
,
0100
0000
0001
0000
,
0000
0010
0000
0010
0000
0010
0000
0000
,
0011
0000
0000
0000
,
0001
0100
0010
1000
,
0001
0000
0000
0000
,
0000
0100
0000
0100
0000
0100
0000
0000
,
0101
0000
0011
0000
,
0101
0000
0010
0010
,
1000
0000
0001
0000
,
0000
1000
0000
1000
0000
1000
0000
0000
,
1010
0000
0000
0000
,
0001
0000
0010
0000
,
0100
0000
0010
0000
,
0000
0001
0000
0001
0000
0000
0000
0000
,
2000
0000
0000
0000
,
0000
0000
0000
0000
,
0000
0000
0000
0000
,
3000
0000
0001
0000
,
0002
0000
0000
0000
,
0000
0000
0000
0000
,
0000
0000
0000
0000
,
0003
0000
1000
0000
,
1000
0000
0000
1100
,
0100
0000
0000
0011
,
0010
0000
0000
1001
,
0001
0000
0000
1010
,
1000
0000
0000
0110
,
0100
0000
0000
0000
,
0001
0001
0001
0000
,
0000
0000
0000
0000
,
0001
0100
0001
0000
,
0010
0100
1000
0000
,
0200
0000
0310
0000
,
0001
1000
0010
0100
,
0010
1000
0010
0000
,
0100
0001
1000
0000
,
0002
0000
1003
1000
,
0010
0010
0010
0100
,
0002
0000
0000
0013
,
0200
0000
2300
0000
,
3020
0000
0130
0001
,
2000
0000
3002
0000
,
0023
0000
0000
0000
,
0032
0000
0203
0000
,
0320
0000
0000
0000
,
0200
0000
0330
0110
,
0101
0000
0000
0000
;

//---------------dance-single - ----------------
#NOTES:
     dance-single:
     :
     Beginner:
     3:
     0.137418,0.215210,0.032608,0.114126,0.000000,118.000000,114.000000,4.000000,14.000000,0.000000,0.000000,0.137418,0.215210,0.032608,0.114126,0.000000,118.000000,114.000000,4.000000,14.000000,0.000000,0.000000:
// measure 0
0000
0000
0000
0000
,  // measure 1
0000
0000
0000
0000
,  // measure 2
0000
0000
0000
0000
,  // measure 3
0000
0000
0000
0000
,  // measure 4
0100
0100
0000
0000
,  // measure 5
0001
0001
0000
0000
,  // measure 6
0100
0000
0001
0000
,  // measure 7
0100
0100
0100
0000
,  // measure 8
0010
0000
0000
0000
,  // measure 9
1000
0000
0000
0000
,  // measure 10
0100
0000
0010
0000
,  // measure 11
0100
0000
0000
0000
,  // measure 12
1000
0000
0000
0000
,  // measure 13
0001
0000
0000
0000
,  // measure 14
0010
0000
0100
0000
,  // measure 15
0010
0000
0000
0000
,  // measure 16
0002
0000
0003
0000
,  // measure 17
0200
0000
0300
0000
,  // measure 18
0002
0000
0003
0000
,  // measure 19
0010
0000
0010
0000
,  // measure 20
0200
0000
0300
0000
,  // measure 21
2000
0000
3000
0000
,  // measure 22
0200
0000
0300
0000
,  // measure 23
0020
0000
0030
0000
,  // measure 24
0010
0010
0000
0010
,  // measure 25
0000
0000
0000
0000
,  // measure 26
0001
0001
0000
0001
,  // measure 27
0000
0000
0000
0000
,  // measure 28
1000
1000
0000
1000
,  // measure 29
0000
0000
0000
0000
,  // measure 30
0010
0000
0000
0000
,  // measure 31
0010
0000
0000
0000
,  // measure 32
0100
0100
0000
0100
,  // measure 33
0000
0000
0000
0000
,  // measure 34
0001
0001
0000
0001
,  // measure 35
0000
0000
0000
0000
,  // measure 36
0010
0010
0000
0010
,  // measure 37
0000
0000
0000
0000
,  // measure 38
0100
0000
0000
0000
,  // measure 39
0000
0000
0000
0000
,  // measure 40
1001
0000
0000
0000
,  // measure 41
0000
0000
0001
0001
,  // measure 42
0001
0000
0010
0000
,  // measure 43
0000
0000
0000
0000
,  // measure 44
0110
0000
0000
0000
,  // measure 45
0000
0000
1000
1000
,  // measure 46
1000
0000
0100
0000
,  // measure 47
0000
0000
0000
0000
,  // measure 48
1000
0000
0010
0000
,  // measure 49
1000
0000
0010
0010
,  // measure 50
0010
0000
0000
0000
,  // measure 51
0000
0000
0000
0000
,  // measure 52
0100
0000
0001
0000
,  // measure 53
0100
0000
0001
0001
,  // measure 54
0001
0000
0000
0000
,  // measure 55
0000
0000
0010
0010
,  // measure 56
0010
0000
0000
0000
,  // measure 57
0000
0000
0000
0000
,  // measure 58
0000
0000
0000
0000
,  // measure 59
0000
0000
0100
0000
,  // measure 60
0100
0000
0000
0000
,  // measure 61
0000
0000
0000
0000
,  // measure 62
0000
0000
0000
0000
,  // measure 63
0000
0000
1000
0000
,  // measure 64
1000
1000
1000
0000
,  // measure 65
0000
1000
1000
0000
,  // measure 66
0001
0001
0001
0000
,  // measure 67
0000
0001
0001
0000
,  // measure 68
0100
0100
0100
0000
,  // measure 69
0000
0100
0100
0000
,  // measure 70
0010
0010
0010
0000
,  // measure 71
0000
0000
0000
0000
,  // measure 72
0100
0000
0000
0000
,  // measure 73
0001
0000
0000
0000
,  // measure 74
0010
0000
0100
0000
,  // measure 75
0010
0000
0000
0000
,  // measure 76
0001
0000
0000
0000
,  // measure 77
1000
0000
0000
0000
,  // measure 78
0100
0000
0010
0000
,  // measure 79
0100
0000
0000
0000
,  // measure 80
2000
0000
3000
0000
,  // measure 81
0020
0000
0030
0000
,  // measure 82
2000
0000
3000
0000
,  // measure 83
0200
0000
0300
0000
,  // measure 84
0020
0000
0030
0000
,  // measure 85
0002
0000
0003
0000
,  // measure 86
2000
0000
3000
0000
,  // measure 87
0000
0000
0000
1001
,  // measure 88
1001
0000
0000
0000
;

//---------------dance-double - ----------------
#NOTES:
     dance-double:
     :
     Challenge:
     15:
     0.698733,0.940524,0.317924,0.171190,0.346455,600.000000,561.000000,39.000000,21.000000,0.000000,0.000000,0.698733,0.940524,0.317924,0.171190,0.346455,600.000000,561.000000,39.000000,21.000000,0.000000,0.000000:
00000000
00000000
00000000
00000000
,
00000000
00000000
00000000
00000000
,
00000000
00000000
00000000
00000000
,
00000000
00000000
00000000
00000000
,
00001010
00000000
00001010
00000000
00000100
00000001
00001010
00000000
,
00000101
00000000
00000101
00000000
00000010
00010000
00011000
00000000
,
00001000
01000000
00100000
00000000
10000000
01000000
00100000
00000000
,
01000000
10000000
00100000
01000000
00010000
00100000
01000000
00000000
,
10000000
00000000
00000000
01000000
00000000
00000000
00100000
00001000
00100000
00000000
01000000
00000000
00010000
00000000
00001000
00000000
,
00000100
00000000
00000000
00000001
00000000
00000000
00001000
00000010
00001000
00000000
00000001
00000000
00000100
00000000
00001000
00000000
,
00010000
00000000
01000000
00000000
10000000
00000000
00010000
10000000
00010000
00000000
10000000
00000000
01000000
00000000
00010000
00000000
,
00001000
00000000
00000000
00000010
00000000
00000000
00000001
00000100
00000001
00000000
00000010
00000001
00000010
00000000
00000000
00000000
,
00000001
00000000
00000000
00000010
00000000
00000000
00000100
00010000
00000100
00000000
00000010
00000000
00001000
00000000
00010000
00000000
,
00100000
00000000
00000000
10000000
00000000
00000000
00010000
01000000
00010000
00000000
10000000
00000000
01000000
00000000
00010000
00000000
,
00001000
00000000
00000100
00000000
00000001
00000000
00001000
00000001
00001000
00000000
00000001
00000000
00000010
00000000
00001000
00000000
,
00010000
00000000
00000000
01000000
00000000
00000000
10000000
00100000
10000000
00000000
01000000
00000000
10000000
00000000
00100000
00000000
,
01000000
00000000
00000000
00010000
00000000
00000000
01000000
00000000
00000000
00010000
00000000
00000000
10000000
00000000
00100000
00000000
,
10000000
00000000
00000000
01000000
00000000
00000000
10000000
00000000
00000000
01000000
00000000
00000000
00010000
00000000
00001000
00000000
,
00000010
00000000
00000000
00000001
00000000
00000000
00000010
00000000
00000000
00000001
00000000
00000000
00000100
00000010
00001000
00000000
,
00000001
00000000
00000000
00000010
00000000
00000000
00000001
00000000
00000000
00000010
00000000
00000000
00001000
00000000
00010000
00000000
,
00100000
00000000
00000000
10000000
00000000
00000000
00100000
00000000
00000000
10000000
00000000
00000000
01000000
00100000
00010000
00000000
,
01000000
00000000
00000000
00100000
00000000
00000000
01000000
00000000
00000000
00100000
00000000
00000000
00010000
00000000
00001000
00000100
,
00000001
00000000
00000000
00000010
00000000
00000000
00000001
00000000
00000000
00000010
00000000
00000000
00000001
00000000
00000100
00001000
,
00010000
00000000
00000000
01000000
00000000
00000000
00010000
00000000
00000000
01000000
00000000
00000000
10000000
00000000
00000000
00000000
,
10100000
00000000
10100000
00000000
01000000
00010000
10100000
00000000
,
10000000
00100000
01000000
00010000
01000000
00100000
10000000
01000000
,
11000000
00000000
11000000
00000000
00010000
00001000
00000100
00000000
,
00000001
00000010
00000001
00000010
00000001
00001000
00000001
00000000
,
00000011
00000000
00000011
00000000
00001000
00000100
00000011
00000000
,
00000001
00000100
00001000
00000100
00000001
00000010
00001000
00000010
,
00000002
00000203
00000320
00020030
,
00031000
00000010
00000001
00001000
00000001
00000010
00000001
00000100
,
00000101
00000000
00000101
00000000
00000010
00001000
00000101
00000000
,
00000001
00000100
00000010
00001000
00000010
00000100
00000001
00000010
,
00000011
00000000
00000011
00000000
00001000
00010000
00100000
00000000
,
10000000
01000000
10000000
01000000
10000000
00100000
10000000
00000000
,
11000000
00000000
11000000
00000000
00010000
10000000
11000000
00000000
,
10000000
00100000
00010000
00100000
10000000
01000000
00010000
01000000
,
20000000
30200000
02300000
03002000
,
00003000
00010000
00000000
01000000
00000000
10000000
00000000
00000000
,
00100000
01000000
00000000
00100000
00010000
00001000
00000000
00000010
,
00000001
00000010
00000001
00000100
00001000
00000100
00000001
00001000
,
00000010
00000100
00000000
00001000
00010000
01000000
10000000
01000000
,
00000000
00010000
00000000
00001000
00000000
00000100
00000001
00000100
,
00000010
00010000
00000000
00001000
00000000
01000000
00100000
10000000
,
01000000
00010000
01000000
10000000
00100000
01000000
00100000
01000000
,
00100000
00010000
00000000
00100000
10000000
01000000
00010000
00001000
,
00000000
00000100
00000000
00000001
00000000
00001001
00000000
00000110
,
00000100
00000010
00000000
00000100
00001000
00010000
00000000
01000000
,
10000000
01000000
10000000
00100000
00010000
00100000
10000000
00010000
,
01000000
00100000
00000000
00010000
00001000
00000010
00000001
00000010
,
00000000
00001000
00000000
00010000
00000000
00100000
10000000
00100000
,
01000000
00001000
00000000
00011000
00000000
00000010
00000100
00000001
,
00000010
00001000
00000010
00000001
00000100
00000010
00000100
00000010
,
00000100
00001000
00000000
00000100
00000001
00000010
00001000
00010000
,
00000000
00000100
00000000
00000010
00000001
00000000
00001001
00000000
,
00000200
00000000
00000000
00000000
00000000
00000000
00000000
00000000
00000301
00000000
00000000
00000010
00000000
00000000
00001000
00000000
,
00000000
00000000
00010000
00000000
00000000
00010000
00000000
00000000
00100000
00000000
00000000
10000000
00000000
00000000
00100000
00000000
,
00000000
00000000
10000000
00000000
00000000
10000000
00000000
00000000
01000000
00000000
00000000
00010000
00000000
00000000
00001000
00000000
,
00000000
00000000
00000100
00000000
00000000
00000100
00000000
00000000
00000002
00000000
00000000
00000000
00000003
00000000
00000000
00000000
,
00000202
00000000
00000000
00000000
00000303
00000002
00000000
00000023
,
00000000
00000000
00002030
00000000
,
00023000
00000000
00230000
00000000
,
20300000
00000000
00000000
00000000
00020000
00000000
00000000
30030000
,
10010000
00000000
01100000
00000000
10000000
00010000
01100000
10000000
,
00000000
01000000
00010000
00000000
00001000
00000000
00000100
00000000
,
00001001
00000000
00000110
00000000
00000001
00001000
00000110
00000001
,
00000000
00000100
00001000
00000000
00010000
00000000
01000000
00000000
,
10010000
00000000
01100000
00000000
10000000
00010000
01100000
10000000
,
00000000
01000000
00010000
00000000
00001000
00000000
00000100
00000000
,
00000001
00000000
00000001
00000000
00000001
00001000
00000101
00000000
,
00000001
00000010
00000100
00000010
00000001
00000000
00000000
00000000
00000001
00000100
00000010
00000100
00000001
00000000
00000000
00000000
,
00000100
00000000
00000000
00000001
00000000
00000000
00000010
00000001
00000100
00000000
00000001
00000000
00000100
00000000
00001000
00000000
,
00010000
00000000
00000000
01000000
00000000
00000000
10000000
00010000
00100000
00000000
00010000
00000000
10000000
00000000
00010000
00000000
,
10000000
00000000
01000000
00000000
00100000
00000000
00001000
00010000
00100000
00000000
01000000
00000000
10000000
00000000
00010000
00000000
,
01000000
00000000
00000000
01000000
00000000
00000000
00100000
00000000
01000000
00000000
00000000
01000000
00000000
00000000
00100000
00000000
,
00100000
00000000
00000000
10000000
00000000
00000000
01000000
10000000
00100000
00000000
10000000
00000000
00100000
00000000
00010000
00000000
,
00001000
00000000
00000000
00000010
00000000
00000000
00000001
00001000
00000100
00000000
00001000
00000000
00000001
00000000
00001000
00000000
,
00000001
00000000
00000010
00000000
00000100
00000000
00010000
00001000
00000100
00000000
00000010
00000000
00000001
00000000
00001000
00000000
,
00000010
00000000
00000100
00000000
00000001
00000000
00001000
00000000
00000010
00001000
00000000
00000000
00001001
00000000
00000000
00000000
,
00000001
00000000
00000100
00000001
00000100
00000000
00000010
00001000
00000010
00000000
00000100
00000001
00000100
00000000
00000010
00000000
,
00010000
00000000
00001000
01000000
00001000
00000000
01000000
00100000
01000000
00000000
00001000
01000000
00001000
00000000
01000000
00000000
,
00100000
00000000
10000000
00010000
10000000
00000000
00010000
01000000
00010000
00000000
10000000
00010000
10000000
00000000
00010000
00000000
,
10000000
00000000
01000000
00100000
01000000
00000000
00100000
00010000
00100000
00000000
00010000
01000000
00010000
00000000
00100000
00000000
,
10000000
00000000
01000000
00100000
01000000
00000000
00100000
00001000
00100000
00000000
01000000
00100000
01000000
00000000
00100000
00000000
,
00001000
00000000
00010000
00000100
00010000
00000000
00000100
00001000
00000100
00000000
00010000
00000100
00010000
00000000
00001000
00000000
,
00000100
00000000
00000010
00000001
00000010
00000000
00000100
00001000
00000100
00000000
00000010
00000001
00000010
00000000
00000100
00000000
,
00001000
00000010
00000100
00000001
00000010
00000100
00001000
00000010
00000100
00000001
00000010
00000100
00001000
00000000
00000000
00000000
,
00000202
00000000
00000000
00000303
;

//---------------dance-double - ----------------
#NOTES:
     dance-double:
     :
     Hard:
     13:
     0.575290,0.609761,0.464658,0.048911,0.114126,494.000000,437.000000,57.000000,6.000000,0.000000,0.000000,0.575290,0.609761,0.464658,0.048911,0.114126,494.000000,437.000000,57.000000,6.000000,0.000000,0.000000:
00000000
00000000
00000000
00000000
,
00000000
00000000
00000000
00000000
,
00000000
00000000
00000000
00000000
,
00100000
00000000
00100000
00000000
00100000
10000000
00010000
00000000
,
11000000
00000000
01010000
00000000
00000000
00000000
00000000
00010000
,
00011000
00000000
00001100
00000000
00000000
00000000
00000000
00000100
,
00000101
00000000
00000001
00000100
00000101
00000000
00000100
00000001
,
00001000
00000010
00001000
00000000
00000001
00000100
00001000
00000000
,
00010000
00000000
00000000
01000000
00000000
00000000
10000000
00000000
00100000
00000000
01000000
00000000
00100000
00000000
10000000
00000000
,
01000000
00000000
00000000
00010000
00000000
00000000
00001000
00000000
00000100
00000000
00000001
00000000
00000100
00000000
00001000
00000000
,
00010000
00000100
00000010
00000000
00000001
00000100
00001000
00000000
,
00010000
00000000
00000000
01000000
00000000
00000000
10000000
00000000
01000000
00000000
00100000
00000000
00001000
00000000
00010000
00000000
,
00001000
00000000
00000000
00000010
00000000
00000000
00000001
00000000
00000100
00000000
00000010
00000000
00000100
00000000
00000001
00000000
,
00000010
00000000
00000000
00001000
00000000
00000000
00010000
00000000
00100000
00000000
10000000
00000000
00100000
00000000
00010000
00000000
,
00001000
00100000
01000000
00000000
10000000
00100000
01000000
00000000
,
00010000
00000000
00000000
01000000
00000000
00000000
10000000
00000000
01000000
00000000
00010000
00000000
10000000
00000000
00000000
00000000
,
00100000
00000000
00000000
10000000
00000000
00000000
00100000
00000000
00000000
10000000
00000000
00000000
01000000
00000000
00010000
00000000
,
00001000
00000000
00000000
00000100
00000000
00000000
00001000
00000000
00000000
00000100
00000000
00000000
00000001
00000000
00000010
00000000
,
00001000
00000000
00000000
00010000
00000000
00000000
00001000
00000000
00000000
00010000
00000000
00000000
00100000
00000000
10000000
00000000
,
00010000
00000000
00000000
00010000
00000000
00000000
00100000
00000000
00000000
00100000
00000000
00000000
01000000
00000000
10000000
00000000
,
00100000
00000000
00000000
00010000
00000000
00000000
00100000
00000000
00000000
00010000
00000000
00000000
00001000
00000000
00000100
00000000
,
00000001
00000000
00000000
00001000
00000000
00000000
00000001
00000000
00000000
00001000
00000000
00000000
00000001
00000000
00000100
00000000
,
00001000
00000000
00000000
00010000
00000000
00000000
00001000
00000000
00000000
00010000
00000000
00000000
01000000
00000000
10000000
00000000
,
00100000
00000000
00000000
01000000
00000000
00000000
00100000
00000000
00000000
01000000
00000000
00000000
00100000
00000000
00000000
00000000
,
11000000
00000000
11000000
00000000
00100000
01000000
10000000
00000000
,
00100000
00010000
00001000
00000010
00000100
00000010
00000001
00000100
,
00000101
00000000
00000101
00000000
00000010
00000100
00000001
00001000
,
00000000
00001000
00000001
00000100
00001000
00010000
01000000
00000000
,
11000000
00000000
11000000
00000000
00100000
00010000
10000000
00000000
,
00010000
01000000
00100000
10000000
01000000
00100000
00010000
01000000
,
00100000
01000000
00100000
01000000
,
00100000
00010000
00001000
00000010
00000001
00000000
00000100
00000001
,
00000011
00000000
00000011
00000000
00000100
00000010
00000001
00000000
,
00000100
00001000
00010000
01000000
00100000
01000000
10000000
00100000
,
10100000
00000000
10100000
00000000
01000000
00100000
10000000
00010000
,
00000000
00010000
10000000
00100000
00010000
00001000
00000010
00000000
,
00000011
00000000
00000011
00000000
00000100
00001000
00000001
00000000
,
00001000
00000010
00000100
00000001
00000010
00000100
00001000
00000010
,
00000100
00000010
00000100
00000010
,
00000100
00001000
00000000
00010000
00000000
01000000
00000000
10000000
,
00010000
00100000
00000000
00010000
00100000
00010000
00000000
00100000
,
00010000
00100000
01000000
10000000
00100000
00010000
00001000
00000010
,
00000001
00001000
00000000
00001000
00000001
00001000
00000001
00000100
,
00000000
00000101
00000000
00001010
00000000
00000101
00000000
00000001
,
00000010
00000100
00000000
00001100
00000000
00000100
00000010
00000001
,
00000100
00001000
00010000
01000000
10000000
00000000
10010000
00000000
,
00010000
01000000
00000000
00100000
00010000
00001000
00000010
00000001
,
00000000
00001001
00000000
00000101
00000000
00000011
00000000
00000000
,
00001000
00000100
00000000
00001000
00000100
00001000
00000000
00000100
,
00001000
00000100
00000010
00000001
00000100
00001000
00010000
01000000
,
10000000
00010000
00000000
00010000
10000000
00010000
10000000
00100000
,
00000000
10100000
00000000
01010000
00000000
10100000
00000000
10000000
,
01000000
00100000
00000000
00110000
00000000
00100000
01000000
10000000
,
00100000
00010000
00001000
00000010
00000001
00000000
00001001
00000000
,
00001000
00000010
00000000
00000100
00001000
00010000
01000000
10000000
,
00000000
10010000
00000000
10100000
20000000
00000000
30020000
00000000
,
02030000
00000000
00000000
00000000
,
00000000
03000000
00000000
00000000
,
00000000
00000000
00000000
00000000
,
00000000
00000000
00000100
00000000
,
00000200
00000000
00000000
00000000
,
00000000
00000000
00000000
00000000
,
00000000
00000000
00000000
00000000
,
00000000
00000000
00000310
00000000
,
00000011
00000000
00000101
00000000
00000100
00001000
00010000
01000000
,
00000000
10000000
00010000
00000000
10010000
00000000
01100000
00000000
,
10100000
00000000
11000000
00000000
01000000
00010000
00001000
00000100
,
00000000
00000001
00001000
00000000
00001001
00000000
00000110
00000000
,
00000101
00000000
00001010
00000000
00000001
00000100
00001000
00010000
,
00000000
01000000
10000000
00000000
10010000
00000000
01010000
00000000
,
10000000
00000000
00010000
00000000
10000000
00010000
00000000
00000000
,
01000000
00100000
10000000
00000000
00100000
01000000
00010000
00000000
,
10000000
00000000
00000000
01000000
00000000
00000000
10000000
00000000
00100000
00000000
01000000
00000000
00010000
00000000
00000000
00000000
,
01000000
00000000
00000000
00100000
00000000
00000000
00010000
00000000
00001000
00000000
00000100
00000000
00000001
00000000
00000000
00000000
,
00001000
00000010
00001000
00000000
00000001
00000100
00000001
00000000
,
00001000
00000000
00000000
00001000
00000000
00000000
00000001
00000000
00001000
00000000
00000000
00001000
00000000
00000000
00000001
00000000
,
00000100
00000000
00000000
00000001
00000000
00000000
00000100
00000000
00000010
00000000
00001000
00000000
00000001
00000000
00000000
00000000
,
00000100
00000000
00000000
00001000
00000000
00000000
00010000
00000000
01000000
00000000
10000000
00000000
00010000
00000000
00000000
00000000
,
10000000
01000000
10000000
00000000
00010000
01000000
00010000
00000000
,
01000000
00100000
00100000
00100000
10000000
00000000
10010000
00000000
,
00000000
10000000
00000000
01000000
00000000
11000000
00000000
01010000
,
00000000
00010000
00000000
00001000
00000000
00011000
00000000
00001100
,
00000000
00000100
00000000
00000001
00000000
00000101
00000000
00001010
,
00000000
00000001
00000000
00001000
00000000
00000001
00000000
00001000
,
00000000
00000001
00000000
00000100
00000000
00000101
00000000
00001100
,
00000000
00001000
00000000
00010000
00000000
01010000
00000000
11000000
,
00000000
00100000
00000000
01000000
00000000
00100000
00000000
01000000
,
02200000
00000000
00300000
00010000
,
13000000
00000000
00000000
00000000
;

//---------------dance-double - ----------------
#NOTES:
     dance-double:
     :
     Medium:
     8:
     0.381974,0.466288,0.203797,0.211949,0.000000,328.000000,303.000000,25.000000,26.000000,0.000000,0.000000,0.381974,0.466288,0.203797,0.211949,0.000000,328.000000,303.000000,25.000000,26.000000,0.000000,0.000000:
00000000
00000000
00000000
00000000
,
00000000
00000000
00000000
00000000
,
00000000
00000000
00000000
00000000
,
00000001
00000000
00000001
00000000
00000001
00000100
00000010
00000000
,
00001000
00001000
00000000
00000000
,
00000100
00000100
00000000
00000000
,
00010000
00001000
00010000
00001000
,
01000000
00000000
01000000
00000000
00100000
10000000
00100000
00000000
,
20000000
00000000
00000000
00000000
30010000
00100000
01000000
00000000
,
20000000
00000000
00000000
00000000
31000000
00010000
00001000
00000000
,
00000100
00000000
00000001
00000000
00001000
00000010
00001000
00000000
,
00000001
00000100
00001000
00010000
,
02000000
00000000
00000000
00000000
13000000
00100000
01000000
00000000
,
02000000
00000000
00000000
00000000
03010000
00100000
00010000
00000000
,
01000000
00100000
00010000
00001000
,
00000010
00000001
00000010
00000000
00000001
00000000
00000001
00000000
,
00002001
00000000
00000000
00000000
00003000
00000000
00000001
00001000
,
00001002
00000000
00000003
00000010
,
00001000
00010000
00100000
10000000
,
00020000
00000000
00000000
00000000
00030000
00000000
10000000
00010000
,
20010000
00000000
00000000
00000000
30000000
00000000
00010000
10000000
,
10020000
00000000
00030000
01000000
,
00100000
00010000
00001000
00000100
,
00000002
00000000
00000003
00000000
,
00000101
00000101
00000000
00000101
,
00000001
00000000
00000100
00000000
00001000
00010000
01000000
00000000
,
11000000
11000000
00000000
11000000
,
00000000
00000000
10000000
00010000
10000000
00100000
10000000
00000000
,
00110000
00110000
00000000
00110000
,
10000000
00000000
00100000
00000000
00010000
00001000
00000010
00000000
,
00000001
00000001
00001000
00001000
,
00000020
00000230
00000320
00001030
,
00001010
00001010
00000000
00001010
,
00000001
00000000
00000010
00000000
00001000
00010000
00100000
00000000
,
11000000
11000000
00000000
11000000
,
00000000
00000000
00100000
01000000
00100000
10000000
00100000
00000000
,
01100000
01100000
00000000
01100000
,
10000000
00000000
01000000
00000000
00010000
00001000
00000100
00000000
,
00000001
00000001
00001000
00001000
,
00000000
00000001
00000000
00001000
00000000
00000001
00000000
00000000
,
00000100
00000010
00000000
00000010
00001000
00000010
00000000
00000010
,
00000100
00000010
00000100
00000000
00000001
00000000
00001000
00000000
,
00000001
00000000
00000100
00001000
,
00000000
00010000
00000000
01000000
00000000
10000000
00000000
00000000
,
00100000
01000000
00000000
00010000
00000000
01000000
00100000
00000000
,
10000000
10000000
00010000
00010000
,
10000000
00000000
01000000
00000000
,
00000000
00100000
00000000
01000000
00000000
00100000
00000000
00000000
,
00010000
00100000
00000000
00100000
01000000
00100000
00000000
00100000
,
00010000
00100000
00010000
00000000
10000000
00000000
01000000
00000000
,
00010000
00000000
00001000
00000100
,
00000000
00000001
00000000
00000010
00000000
00000001
00000000
00000000
,
00000100
00000010
00000000
00001000
00000000
00000010
00000100
00000000
,
00000001
00000010
00001000
00010000
,
00100000
00000000
10000000
01000000
,
00000000
10000000
00000000
10000000
00010000
00000000
00010000
00000000
,
02000000
00000000
00000000
00000000
,
03000000
00000000
00000000
00000000
,
00000000
00000000
00000000
00000000
,
00000000
00000000
00000100
00000000
,
00000200
00000000
00000000
00000000
,
00000000
00000000
00000000
00000000
,
00000000
00000000
00000000
00000000
,
00000300
00000000
00000010
00000000
,
00000001
00000000
00000001
00000000
00000001
00001000
00000001
00000100
,
00000000
00001000
00010000
00000000
01000000
00000000
00000000
00000000
,
10000000
00000000
10000000
00000000
10000000
00100000
10000000
01000000
,
00000000
00010000
00001000
00000000
00000100
00000000
00000000
00000000
,
00000001
00000000
00000001
00000000
00000001
00000010
00000001
00000100
,
00000000
00001000
00010000
00000000
01000000
00000000
00000000
00000000
,
10000000
00000000
10000000
00000000
10000000
00010000
00000000
00000000
,
01000000
00100000
00010000
00000000
00001000
00000100
00000001
00000000
,
00000002
00000000
00000000
00000000
00001003
00000100
00000010
00000000
,
00000002
00000000
00000000
00000000
00000013
00001000
00010000
00000000
,
00100000
00000000
10000000
00000000
00010000
01000000
00010000
00000000
,
10000000
00100000
00010000
00001000
,
00000020
00000000
00000000
00000000
00000031
00000100
00000010
00000000
,
00000020
00000000
00000000
00000000
00001030
00000100
00001000
00000000
,
00000010
00000100
00001000
00010000
,
01000000
10000000
01000000
00000000
10000000
00000000
00010000
00000000
,
10020000
00000000
00000000
00000000
00030000
00000000
10000000
00010000
,
20010000
00000000
30000000
00000000
,
00100000
00000000
00010000
00000000
00001000
00000010
00000001
00000000
,
00002000
00000000
00003002
00000000
,
00000203
00000000
00000000
00000000
00000301
00000010
00000100
00001000
,
00000002
00000000
00000000
00000000
00000103
00001000
00010000
00000000
,
01000000
10000000
01000000
10000000
,
00020000
00000000
00000000
01030000
,
01100000
00000000
00000000
00000000
;

//---------------dance-double - ----------------
#NOTES:
     dance-double:
     :
     Easy:
     5:
     0.274835,0.358683,0.122278,0.228253,0.000000,236.000000,221.000000,15.000000,28.000000,0.000000,0.000000,0.274835,0.358683,0.122278,0.228253,0.000000,236.000000,221.000000,15.000000,28.000000,0.000000,0.000000:
00000000
00000000
00000000
00000000
,
00000000
00000000
00000000
00000000
,
00000000
00000000
00000000
00000000
,
10000000
00000000
10000000
00000000
10000000
00010000
10000000
00000000
,
01000000
01000000
00000000
00000000
,
00010000
00010000
00000000
00000000
,
00001000
00000100
00000001
00000000
,
00000001
00000100
00001000
00010000
,
02000000
00000000
13000000
00100000
,
02000000
00000000
03010000
00100000
,
00010000
10000000
01000000
00010000
,
00001000
00000010
00000001
00000000
,
00000020
00000000
00000031
00001000
,
00000020
00000000
00000130
00000001
,
00000010
00001000
00010000
01000000
,
10000000
10000000
10000000
10000000
,
10020000
00000000
00030000
01000000
,
02010000
00000000
03000000
00010000
,
00210000
00000000
00300000
00001000
,
00010000
00000100
00000010
00000001
,
00000201
00000000
00000300
00000010
,
00002010
00000000
00003000
00000001
,
00001002
00000000
00000003
00000010
,
00001000
00010000
00100000
00000000
,
10000000
10000000
00000000
10010000
,
10000000
01000000
00100000
00010000
,
01000000
01000000
00000000
01100000
,
00000000
10000000
01000000
00010000
,
00001000
00001000
00000000
00011000
,
00010000
00000100
00000010
00000001
,
00000100
00000100
00000100
00000100
,
00000002
00000000
00000000
00000003
,
00001000
00001000
00000000
00001010
,
00000010
00000100
00000001
00001000
,
00000001
00000001
00000000
00000011
,
00000000
00000001
00000100
00001000
,
00010000
00010000
00000000
00011000
,
00001000
01000000
00100000
10000000
,
00200000
00000000
00000000
00000000
,
00300000
01000000
00000000
00100000
00000000
01000000
00000000
00000000
,
10010000
00000000
01000000
00000000
,
00100000
00010000
00001000
00000100
,
00000001
00000000
00001000
00000000
,
00000000
00000001
00000000
00001000
00000000
00000001
00000000
00000000
,
00000100
00000000
00000000
00000010
,
00001000
00000001
00000100
00001000
,
00010000
00000000
01000000
10000000
,
00000000
00100000
00000000
01000000
00000000
00100000
00000000
00000000
,
10100000
00000000
10000000
00000000
,
01000000
00010000
00001000
00000010
,
00000001
00000000
00001000
00000000
,
00000000
00000010
00000000
00001000
00000000
00000010
00000000
00000000
,
00000100
00000000
00000000
00000001
,
00001000
00000001
00000100
00000010
,
00000100
00000000
00000010
00000000
,
00000000
00000000
00010000
00001000
,
00020000
00000000
00000000
00000000
,
00000000
00000000
00000000
00000000
,
00030000
00000000
00000000
00000000
,
00000000
00000000
00001000
00000000
,
00002000
00000000
00000000
00000000
,
00000000
00000000
00000000
00000000
,
00003000
00000000
00000000
00000000
,
00000000
00000000
01000000
00000000
,
01000000
01000000
01000000
00000000
,
00100000
00000000
00010000
00000000
,
00001000
00001000
00001000
00000000
,
00000100
00000000
00000001
00000000
,
00001000
00001000
00001000
00000000
,
00000010
00000000
00000100
00000000
,
00000001
00000000
00000001
00000000
00000001
00001000
00000000
00000000
,
00000000
00000000
00000000
00000000
,
00000020
00000000
00000031
00000100
,
00000020
00000000
00001030
00000100
,
00001000
00000001
00000010
00001000
,
00010000
01000000
10000000
00000000
,
02000000
00000000
13000000
00010000
,
02000000
00000000
03100000
10000000
,
01000000
00010000
00001000
00000010
,
00000001
00000010
00000010
00000100
,
00002000
00000000
00000000
00003010
,
00000200
00000000
00000000
00000301
,
00000020
00000000
00000000
00001030
,
00020000
00000000
00230000
00000000
,
20300000
00000000
00000000
31000000
,
00200000
00000000
00000000
00310000
,
02000000
00000000
00000000
03000000
,
02200000
00000000
03300000
10000000
,
00010000
00000000
00000000
00000000
;
