#TITLE:Vulkan;
#SUBTITLE:;
#ARTIST:Hommarju;
#TITLETRANSLIT:;
#SUBTITLETRANSLIT:;
#ARTISTTRANSLIT:;
#GENRE:Hardcore;
#CREDIT:;
#BANNER:;
#BACKGROUND:;
#LYRICSPATH:;
#CDTITLE:;
#MUSIC:Vulkan.mp3;
#OFFSET:-0.040000;
#SAMPLESTART:11.740000;
#SAMPLELENGTH:12.000000;
#SELECTABLE:YES;
#BPMS:0.000000=205.000000
,55.000000=102.500000
,55.500000=205.000000
,70.500000=102.500000
,71.000000=205.000000
,151.000000=102.500000
,155.000000=205.000000
,379.000000=102.500000
;
#STOPS:
;
#BGCHANGES:;
#KEYSOUNDS:;
#ATTACKS:;

//---------------dance-single - ----------------
#NOTES:
     dance-single:
     :
     Challenge:
     18:
     1.100849,1.141764,0.556540,0.059935,0.659286,900.000000,835.000000,65.000000,7.000000,0.000000,0.000000,1.100849,1.141764,0.556540,0.059935,0.659286,900.000000,835.000000,65.000000,7.000000,0.000000,0.000000:
// measure 0
0000
0000
0000
0000
,  // measure 1
0000
0000
0000
0000
,  // measure 2
1100
0010
0001
0010
0001
0010
0001
0010
,  // measure 3
0001
0000
0010
0100
1000
0000
0010
0000
1000
0000
0010
0000
1000
0000
0010
0000
,  // measure 4
1000
0000
0100
0010
0001
0000
0100
0000
0001
0000
0100
0000
0001
0000
0100
0000
,  // measure 5
0001
0000
0100
0010
1000
0000
0100
0000
0010
0000
0100
0000
1000
0000
0100
0000
,  // measure 6
1100
0000
0010
0001
0010
0000
0001
0000
1000
0000
0001
0000
1001
0000
0000
0000
,  // measure 7
0000
0000
0001
0100
0001
0000
0100
0000
0010
0000
1000
0000
0010
0000
0100
0000
,  // measure 8
0101
1010
1100
0011
,  // measure 9
1001
0000
0000
0000
0110
0000
0000
0000
1000
0001
1000
0001
1000
0001
1000
0001
,  // measure 10
1000
0000
0100
0010
0001
0000
0100
0000
0010
0000
1000
0001
0100
0000
0010
0000
,  // measure 11
0100
0000
0001
0010
0100
0000
1000
0000
0001
0000
1000
0010
0100
0000
0000
0000
,  // measure 12
0001
0000
1000
0001
0100
0000
0010
0000
0100
0000
0001
0010
0100
0000
1000
0000
,  // measure 13
0010
0000
0100
0001
1000
0000
0010
0000
0100
0000
0000
0000
0100
1010
0100
0000
,  // measure 14
0001
1000
0010
0000
0100
0000
0001
0000
0010
0100
1000
0000
0010
0000
0100
0000
,  // measure 15
0001
1000
0010
0000
0100
0000
0001
0000
1000
0000
0001
0000
0000
0000
0100
0000
,  // measure 16
0001
0000
0100
0000
0010
0000
0100
0000
1000
0000
0100
0000
0010
0000
0100
0001
,  // measure 17
0100
0001
0100
0001
0100
0001
0100
0001
0100
0001
0100
0000
1001
0000
0010
0100
,  // measure 18
0001
0000
1000
0000
1001
0000
0010
0100
1000
0000
0001
0000
1001
0000
0010
0100
,  // measure 19
0001
0000
0100
0000
1000
0000
0100
0000
0001
0000
1000
0000
1001
0000
0100
0010
,  // measure 20
1000
0000
0001
0000
1001
0000
0010
0100
0001
0000
1000
0000
1001
0000
0100
0010
,  // measure 21
1000
0000
0100
0000
0001
0000
0100
0000
1000
0001
1000
0000
1010
0000
0100
0001
,  // measure 22
0010
0000
0100
0000
0011
0000
0100
0001
1000
0000
0010
0000
1100
0000
0001
1000
,  // measure 23
0010
0000
0100
0000
1000
0000
0100
0000
0001
0000
0010
0000
0011
0000
0100
1000
,  // measure 24
0010
0000
0100
0000
1010
0000
0100
0001
1000
0000
0010
0000
0101
0000
0010
0100
,  // measure 25
1000
0000
0001
0000
1000
0010
1000
0010
1000
0010
1000
0010
1000
0000
0100
0010
,  // measure 26
0001
0000
0100
0000
0010
0000
1000
0001
0100
0000
0010
0000
0100
0000
0001
1000
,  // measure 27
0010
0000
1000
0000
0100
0000
0010
0001
0100
0000
0000
0000
0010
0000
0100
0001
,  // measure 28
1000
0000
0010
0000
1000
0000
0001
0100
0010
0000
1000
0000
0001
0000
1000
0100
,  // measure 29
0010
0001
1000
0000
1001
1000
0001
0100
,  // measure 30
0010
0100
0001
0100
1000
0000
1000
0100
,  // measure 31
0001
0100
0010
0100
0001
0000
1000
0100
,  // measure 32
0001
0000
0100
0000
1000
0000
0100
0000
0001
0000
0100
0000
1000
0001
1000
0001
,  // measure 33
1000
0001
1000
0001
0100
0010
1000
0001
1000
0001
1000
0001
1000
0010
0000
0100
,  // measure 34
0001
0100
0000
0010
1000
0000
0000
0000
1001
0000
0000
0000
0001
0010
0000
0100
,  // measure 35
1000
0000
0010
0000
1000
0100
0000
0010
0001
0000
0100
0000
0001
0010
0000
0100
,  // measure 36
1000
0100
0000
0010
0001
0000
0000
0000
0110
0000
0000
0000
1000
0001
0000
0100
,  // measure 37
0010
0000
0100
0000
0001
1000
0000
0010
0100
0000
0010
0000
1000
0001
1000
0001
,  // measure 38
0100
0010
1000
0001
0000
0001
1000
0001
1000
0010
0100
0001
1000
0000
0100
1000
,  // measure 39
0100
0000
1000
0000
0100
0000
1000
0100
1000
0000
0100
0000
1000
0000
0100
1000
,  // measure 40
0100
0000
1000
0000
0100
0000
1000
0100
0001
0100
1000
0000
0010
0000
0100
0010
,  // measure 41
0100
0000
0010
0000
0100
0000
0010
0100
0010
0000
0100
0000
0001
0000
0100
0001
,  // measure 42
0100
0000
0001
0000
0100
0000
0001
0100
0010
0000
1000
0000
0001
0000
0100
0001
,  // measure 43
0100
0000
0001
0000
0100
0000
0001
0100
0001
0000
0100
0000
0001
0000
0100
0001
,  // measure 44
0100
0000
0001
0000
0100
0000
0001
0100
1000
0100
0001
0000
0100
0000
0010
0100
,  // measure 45
0010
0000
0100
0000
0010
0000
0100
0010
0100
0000
0010
0000
0100
0000
0001
0000
,  // measure 46
1000
0000
0010
0000
0100
0000
0100
0000
0100
0000
0100
0000
0001
0000
0010
0100
,  // measure 47
1000
0000
0001
0000
1000
0000
0100
0010
0001
0000
0010
0000
0100
0000
1000
0010
,  // measure 48
0100
0000
0001
0000
1000
0000
0001
0010
1000
0010
0001
0000
1000
0000
0100
0010
,  // measure 49
0001
0000
0010
0000
0100
0000
1000
0100
0010
0000
0001
0000
0100
0000
0010
1000
,  // measure 50
0100
0000
0010
0000
0001
0000
1000
0001
0100
0000
0010
0000
0010
0000
0100
1000
,  // measure 51
0001
0000
0010
0000
0001
0000
0100
0010
1000
0000
0001
0000
0100
0000
0001
1000
,  // measure 52
0010
0000
1000
0000
0001
0000
1000
0010
0001
0010
1000
0000
1001
0000
0000
0000
,  // measure 53
0000
0100
0000
0010
0000
1000
0100
0001
,  // measure 54
0000
0000
0100
0000
1000
0001
1000
0001
1000
0001
1000
0001
1000
0000
0010
0000
,  // measure 55
0001
0000
0010
0000
1000
0000
1000
0000
0001
0000
0001
0000
0000
0000
0001
0010
,  // measure 56
1000
0000
0010
0000
0001
0000
0001
0000
1000
0000
1000
0000
1001
0000
1000
0010
,  // measure 57
0001
0000
0010
0000
1000
0000
1000
0000
0001
0000
0001
0000
0000
0000
0001
0100
,  // measure 58
1000
0100
0001
0000
1000
0000
0100
0000
0010
0000
0001
0000
0101
0000
0010
1000
,  // measure 59
0100
0000
0001
0000
0100
0000
1000
0000
1001
0000
0000
0000
0010
0000
0100
0010
,  // measure 60
1000
0100
0001
0100
1000
0001
0101
0010
,  // measure 61
1000
0010
1100
0010
0001
0000
1001
0010
,  // measure 62
0100
0000
0010
0000
1000
0010
1000
0010
1000
0010
1000
0010
1000
0000
0001
0100
,  // measure 63
0001
0000
1000
0000
0010
0000
0100
0001
0100
0000
0010
0000
1000
0000
0001
0100
,  // measure 64
0001
0000
0010
0000
1000
0000
0010
0000
0001
0000
0000
0000
0001
0000
1000
0010
,  // measure 65
1000
0000
0001
0000
0100
0000
0010
1000
0010
0000
0100
0000
0001
0000
1000
0010
,  // measure 66
1000
0000
0010
0000
0001
0000
0010
0000
1000
0000
0000
0000
0001
0000
0100
0010
,  // measure 67
0100
0000
0001
0000
1000
0000
0010
0100
0010
0000
1000
0000
0001
0000
0100
0010
,  // measure 68
0100
0000
0010
0000
0001
0000
0010
0000
1000
0000
0000
0000
0001
0000
1000
0100
,  // measure 69
1000
0000
0001
0000
0010
0000
0001
0100
0001
0000
1000
0000
0100
0000
0010
0000
,  // measure 70
0100
0000
0010
0000
0100
0000
0010
0001
1000
0000
0010
0000
1000
0000
0100
0000
,  // measure 71
0010
1000
0010
0001
0100
0010
0001
0010
,  // measure 72
1000
0000
0100
0000
0010
0000
1000
0000
0010
0000
0001
1000
0001
0000
0100
0000
,  // measure 73
0010
0001
0010
1000
0100
0010
1000
0010
,  // measure 74
0001
0000
0100
0000
0010
0000
0001
0000
0010
0000
1000
0001
1000
0000
0100
0000
,  // measure 75
0001
0100
1000
0001
0010
1000
0010
0001
,  // measure 76
1000
0000
0100
0000
0001
0000
0100
0000
1000
0000
0001
1000
0001
0000
0100
0000
,  // measure 77
0010
0000
0100
0000
0010
0000
0100
0000
0010
0000
0100
0000
0001
1000
0001
1000
,  // measure 78
0001
1000
0001
1000
0001
0100
0010
1000
0001
0000
1000
0001
1000
0000
0010
0000
,  // measure 79
0100
1000
0100
0001
0100
0000
0001
0010
,  // measure 80
0100
0001
0100
1000
0100
0000
1020
0000
,  // measure 81
0130
0021
0130
1020
,  // measure 82
0100
0000
0000
0000
0130
0000
0000
0000
0100
0010
1000
0000
0001
0000
0100
0000
,  // measure 83
0010
0001
0010
1000
0010
0000
1000
0100
,  // measure 84
0010
1000
0010
0001
0010
0000
0021
0000
,  // measure 85
0130
1020
0130
0021
,  // measure 86
0100
0000
0100
0000
0130
1000
1001
0001
,  // measure 87
0101
0001
0011
0001
1001
0000
1001
1000
,  // measure 88
1010
1000
1100
1000
1001
0000
0101
0001
,  // measure 89
0011
0001
1001
1000
1010
1000
1001
0010
,  // measure 90
0100
0000
0010
0000
0100
0000
0010
0000
0100
0010
0100
0000
0101
0000
0100
0000
,  // measure 91
0110
0100
1100
0100
0110
0000
1010
0010
,  // measure 92
0110
0010
0011
0010
0110
0000
0101
0100
,  // measure 93
0110
0010
1010
0010
0110
0100
0101
0001
,  // measure 94
1001
0000
0001
0000
1000
0001
1000
0001
1000
0001
1000
0001
2000
0000
0000
0000
,  // measure 95
0000
3000
0000
0000
;

//---------------dance-single - ----------------
#NOTES:
     dance-single:
     :
     Hard:
     16:
     0.889241,0.978655,0.342486,0.094184,0.325362,727.000000,687.000000,40.000000,11.000000,0.000000,0.000000,0.889241,0.978655,0.342486,0.094184,0.325362,727.000000,687.000000,40.000000,11.000000,0.000000,0.000000:
0000
0000
0000
0000
,
0000
0000
0000
0000
,
1100
0010
0001
0010
0001
0010
0001
0010
,
0000
0001
0100
0001
0100
0001
0100
0001
,
1000
0010
1000
0010
1000
0010
1000
0010
,
0100
0001
1000
0010
1000
0001
0100
0001
,
0010
0100
1000
0100
0010
0001
1001
0000
,
0000
0100
0010
1000
0001
0100
0010
0000
,
1100
0010
0001
0000
0101
0010
1000
0000
,
1001
0000
0010
0000
0100
0000
1000
0000
0001
1000
0001
1000
0001
1000
0001
1000
,
0001
0100
0010
0100
0001
0010
0100
0010
,
0001
0100
0010
0100
0001
0010
0100
0000
,
1000
0010
0100
0010
1000
0100
0010
0100
,
1000
0000
0010
0000
0100
0000
0010
0000
1000
0000
0100
0000
0010
1001
0010
0000
,
0100
0001
0100
0010
1000
0100
1000
0010
,
0100
0001
0100
0010
1000
0010
0000
1000
,
0100
0000
0001
0000
0100
0000
1000
0000
0010
0000
0001
0000
0010
0000
1000
0001
,
1000
0001
1000
0001
1000
0001
1000
0001
1000
0001
1000
0000
0001
0000
0010
0000
,
0100
0000
0001
0010
0100
0000
0001
0010
,
1000
0001
0100
0010
0100
0000
1000
0100
,
0010
0000
1000
0100
0010
0000
1000
0100
,
0001
1000
0010
0100
0010
0100
0010
0001
,
0100
0000
0010
0001
0100
0000
0010
0100
,
1000
0100
0001
1000
0001
0000
0100
0010
,
1000
0000
0100
0010
1000
0000
0100
0010
,
0001
0000
0010
0000
1000
0000
0001
0000
1000
0000
0001
0000
1000
0000
0100
0010
,
0100
0000
1000
0000
0001
0000
0010
0000
0100
0000
1000
0000
0001
0000
0100
0010
,
0100
0000
0001
0000
0010
0000
0100
0000
1000
0000
0000
0000
1000
0000
0001
0100
,
0001
0000
1000
0000
0100
0000
1000
0000
0001
0000
0000
0000
0001
0000
1000
0100
,
1000
0000
0001
0000
0100
0000
0001
0000
1000
0000
1000
0000
0001
0000
0010
0100
,
0010
0000
0001
0000
1000
0000
0100
0000
0010
0000
0001
0000
1000
0000
0010
0100
,
0010
0000
1000
0000
0100
0000
0010
0000
0001
0000
0000
0000
0001
0000
1000
0010
,
1000
0000
0001
0000
0010
0000
0001
0000
1000
0000
0000
0000
0001
1000
0001
1000
,
0001
1000
0001
1000
0001
1000
0001
1000
0001
0000
0000
0000
1000
0000
0000
0000
,
0001
0000
0110
0000
1000
0000
0001
0010
,
0001
0000
1000
0100
1000
0000
0001
0000
,
1000
0000
0110
0000
0001
0000
1000
0100
,
0001
0000
1000
0010
0001
0000
0000
0000
,
0000
0000
0000
0000
0000
0000
0000
0000
0000
0000
0000
0000
0001
0000
0100
0010
,
0100
0000
0001
0000
0100
0000
0010
0100
0010
0000
0100
0000
0001
0000
0100
0010
,
0100
0000
0001
0000
0100
0000
0010
1000
0010
0000
1000
0000
1000
0000
0100
0010
,
0100
0000
1000
0000
0010
0000
0100
0010
0100
0000
0010
0000
1000
0000
0100
0010
,
0100
0000
0010
0000
0001
0000
1000
0000
0001
0000
0010
0000
0001
0000
1000
0100
,
1000
0000
0001
0000
1000
0000
0001
0100
0001
0000
1000
0000
0001
0000
1000
0100
,
1000
0000
0001
0000
1000
0000
0010
0100
0010
0000
0100
0000
0001
0000
0010
0000
,
1000
0010
0001
0100
1000
0000
1000
0100
,
0001
0000
0010
0000
1000
0000
0010
0000
0001
0000
0000
0000
1000
0000
0010
0100
,
0010
0000
1000
0000
0010
0000
0100
0010
0100
0000
0010
0000
1000
0000
0010
0100
,
0010
0000
1000
0000
0010
0000
0100
0001
0100
0000
0001
0000
0001
0000
0010
0100
,
0010
0000
0001
0000
0100
0000
0010
0100
0010
0000
0100
0000
0001
0000
0010
0100
,
0010
0000
0100
0000
1000
0000
0001
0000
1000
0000
0100
0000
1000
0000
0001
0010
,
0001
0000
1000
0000
0001
0000
1000
0010
1000
0000
0001
0000
1000
0000
0001
0010
,
0001
0000
1000
0000
0001
0000
0100
0010
0100
0000
0010
0000
0110
0000
0000
0000
,
0000
1010
0000
1001
0000
0010
0100
0010
,
0000
0000
0100
0000
0001
1000
0001
1000
0001
1000
0001
1000
0001
0000
0010
0000
,
0001
0010
0001
0010
0001
0010
0000
0100
,
1000
0100
1000
0100
1000
0100
1000
0010
,
1000
0010
1000
0010
1000
0010
0100
0001
,
1000
0001
0100
0010
0100
0000
0001
0010
,
1000
0000
0010
0000
0001
0000
0100
0000
0010
0000
0000
0000
0000
0000
0001
0010
,
1000
0100
0010
1000
0010
0000
0101
0000
,
1010
1100
0011
1001
,
0110
0000
0000
0000
0100
0010
0100
0010
0100
0010
0100
0010
0100
0000
0001
1000
,
0100
0000
1000
0000
0001
0000
1000
0001
0100
0000
0001
0000
1000
0000
0001
1000
,
0100
0000
1000
0000
0001
0000
0000
0000
0100
0000
0010
0000
1000
0000
0100
0010
,
0001
0000
0010
0000
0100
0000
0000
0000
1001
0000
0000
0000
0001
0000
1000
0010
,
0100
0000
0001
0000
0010
0000
0000
0000
0100
0000
1000
0000
0010
0000
1000
0001
,
0010
0000
0001
0000
1000
0000
0001
1000
0010
0000
1000
0000
0001
0000
1000
0001
,
0010
0000
0001
0000
1000
0000
0000
0000
0010
0000
0100
0000
0001
0000
0010
0100
,
1000
0000
0100
0000
0010
0000
0000
0000
1001
0000
0000
0000
1000
0000
0001
0100
,
0010
0000
1000
0000
0100
0000
0010
0100
1000
0000
1000
0000
0001
0000
0100
0000
,
1000
0100
0001
0010
1000
0010
0001
0100
,
1000
0100
0001
0010
0100
0000
1000
0010
,
0100
1000
0100
0000
0101
0000
0001
0010
,
0100
0001
0100
0000
1100
0000
1000
0100
,
0001
0100
1000
0010
0001
0010
1000
0100
,
0001
0100
1000
0010
0100
0000
0001
0100
,
0010
0000
0001
0000
0010
0000
0000
0000
1010
0000
0000
0000
1000
0010
1000
0010
,
1000
0010
1000
0010
1000
0100
1000
0010
1000
0000
0000
0000
0201
0000
0000
0000
,
0010
1000
0310
0021
,
0100
1000
0130
0002
,
0000
2000
0003
0200
,
0000
0000
3300
1200
,
0010
0001
0310
1020
,
0100
0001
0130
2000
,
0000
0002
3000
0200
,
0000
0000
0000
0000
0303
0000
0101
0001
,
1001
0000
1100
1000
1001
0000
1000
0100
,
0010
0001
0100
0010
1000
0000
1000
0100
,
0010
0001
0100
0010
1000
0000
1001
0000
,
0010
0000
0100
0000
0010
0100
0110
0010
,
1010
0000
1010
0010
0110
0000
0101
0001
,
0011
0000
0110
0100
1100
0000
1000
0100
,
0001
0100
1000
0000
1001
0000
0001
0100
,
1000
0000
0100
0000
0001
1000
0001
1000
0001
1000
0001
1000
0002
0000
0000
0000
,
0000
0003
0000
0000
;

//---------------dance-single - ----------------
#NOTES:
     dance-single:
     :
     Medium:
     15:
     0.784049,0.856323,0.299675,0.094184,0.119870,641.000000,606.000000,35.000000,11.000000,0.000000,0.000000,0.784049,0.856323,0.299675,0.094184,0.119870,641.000000,606.000000,35.000000,11.000000,0.000000,0.000000:
0000
0000
0000
0000
,
0000
0000
0000
0000
,
1000
0100
1000
0100
1000
0100
1000
0100
,
0000
0010
0001
0010
0001
0010
0001
0010
,
0001
0100
0001
0100
0001
0100
0001
0100
,
0000
0010
1000
0001
1000
0010
1000
0010
,
0100
0001
0100
0010
0100
0001
1000
0000
,
0010
0100
0010
1000
0010
0100
0001
1000
,
1001
1100
1001
0101
,
1001
0000
0000
0000
1100
0000
0000
0000
1000
0001
1000
0001
1000
0001
1000
0001
,
1000
0000
0100
0010
0001
0010
0100
0000
,
1000
0000
0000
0001
0000
0000
1000
0000
0001
0000
0000
0000
1001
0000
0000
0000
,
0001
0100
0000
0010
0100
0000
0101
0000
,
1000
0000
0010
0000
0000
0000
0100
0000
0001
0000
0000
0000
1001
1000
0001
0000
,
0000
0100
0010
1000
0010
0100
0000
0001
,
0000
1000
0000
0000
0001
0000
1000
0000
0000
0000
1001
0000
0000
0000
1000
0000
,
0100
0000
0010
0100
0000
1100
0000
0001
,
0010
0100
0010
0001
0010
0100
1000
0100
,
0010
0000
1000
0100
0010
0000
1000
0100
,
0010
0001
0100
0010
1000
0000
0001
0010
,
0100
0000
0001
0010
0100
0000
0001
0010
,
0100
1000
0100
0010
0001
0000
1000
0001
,
0100
0000
1000
0001
0100
0000
1000
0001
,
0100
0010
0100
0001
1000
0000
0010
0100
,
0001
0000
0010
0100
0001
0000
0010
0100
,
0001
1000
0001
0100
0010
0000
0100
0000
,
0010
0000
1000
0000
0001
0000
1000
0000
0010
0000
0000
0000
0100
0000
0000
0001
,
0000
0100
0010
0000
1001
0000
0010
1000
,
0000
1000
0001
0000
1001
0000
1000
0100
,
0000
0001
0100
0000
1000
0001
0100
0010
,
0001
0000
0010
0000
1000
0000
0100
0000
0010
0000
1000
0000
0010
0000
0000
0001
,
0000
1000
0010
0000
0010
0100
0001
0010
,
0000
0010
0100
0000
1000
0010
0100
0001
,
0010
0100
1000
0010
0100
0001
1001
0000
,
0100
0000
1001
0000
0020
0000
1030
0100
,
0001
0100
1000
0010
0100
0001
1001
0000
,
0100
0000
1001
0000
0020
0000
0031
0010
,
1000
0010
0001
0100
1000
0100
0001
0000
,
0000
0000
0000
0000
0000
0000
1000
0100
,
0010
0001
0100
0010
1000
0100
0010
0001
,
0100
0000
0010
0000
1000
0000
0001
1000
0001
0000
0100
0000
0010
0000
0100
0000
,
0001
0010
0100
1000
0010
0100
0010
1000
,
0001
0100
0010
1000
0001
0100
0001
1000
,
0010
0100
0001
0010
0001
1000
0010
0100
,
0001
0000
0010
0000
0001
0000
1000
0010
0100
0000
0001
0000
1000
0000
0001
0000
,
0100
0010
1000
0100
1000
0001
0100
0010
,
1000
0000
0100
0000
1000
0000
0000
0010
0000
0000
0100
0000
0001
0000
0010
0000
,
0100
1000
0010
0100
0001
0010
0100
1000
,
0010
0000
0100
0000
0001
0000
1000
0001
1000
0000
0001
0000
0100
0000
0001
0000
,
1000
0010
1000
0001
0100
0001
0010
0100
,
1000
0001
0010
0001
0010
0100
1000
0010
,
0100
0001
1000
0001
1000
0010
0100
0001
,
1000
0000
0001
0000
1000
0000
0010
0100
0001
0000
1000
0000
1001
0000
0000
0000
,
0000
0010
0000
0100
0000
0001
1000
0100
,
0000
0010
0001
1000
0001
1000
0001
0100
,
1000
0000
0100
0000
0001
0000
0010
0000
0001
0000
0010
0000
0000
0000
0001
0010
,
0100
1000
0100
0010
0001
0000
1000
0100
,
0001
0000
0100
0000
1000
0000
0010
0000
1000
0000
0010
0000
0000
0000
1000
0010
,
0100
0001
0010
0100
1000
0001
0100
0010
,
1000
0000
0010
0000
0100
0000
0001
0000
0100
0000
0000
0000
0000
0000
0001
1000
,
0001
0010
0100
0010
0001
0000
1001
0000
,
0101
1001
1100
1001
,
0101
0000
0000
0000
0001
1000
0001
1000
0001
1000
0001
1000
0001
0000
0010
0000
,
0100
1000
0100
0010
0001
0000
1000
0100
,
0000
0001
0100
0000
1001
0000
0001
0100
,
0000
1000
0100
0000
1001
0000
1000
0010
,
0000
0100
0010
0000
0101
0000
1000
0100
,
0010
0001
0010
0100
1000
0000
0001
0100
,
0000
1000
0100
0000
1001
0000
1000
0100
,
0000
0001
0100
0000
1001
0000
0001
0100
,
0001
0000
0100
0000
0001
0000
1000
0001
1000
0000
0000
0000
0001
0000
0100
0000
,
1000
0100
0001
0010
1000
0010
0001
0100
,
0010
1000
0001
0000
1001
0000
1000
0100
,
0000
0010
0001
0000
0011
0000
0001
0100
,
0000
0010
0001
0000
1010
0000
1000
0100
,
0001
0100
1000
0010
0001
0010
1000
0100
,
0010
0001
1000
0000
1001
0000
0100
0010
,
0000
0001
1000
0000
1001
0000
1000
0001
,
1000
0001
0100
0010
1000
0001
1000
0000
,
0100
0010
0001
0100
,
1000
0100
0001
2000
,
0001
3002
1000
0203
,
0010
0000
0010
0000
0310
0100
0001
0000
,
0010
0100
1000
0100
,
0001
0100
1000
0002
,
1000
2003
0100
3200
,
0010
0000
0010
0000
0310
0100
1000
0010
,
0001
0010
1000
0100
0010
0000
0001
0010
,
1000
0010
0001
0100
0010
0000
1000
0100
,
0001
0100
1000
0000
0001
0000
2002
0000
,
0000
0000
0000
0000
3003
0000
0000
0000
0001
1000
0001
1000
0001
0000
0010
0000
,
1000
0010
0001
1000
0100
0000
1000
0100
,
0001
0100
1000
0001
0100
0000
0001
0100
,
0010
0100
1000
0100
0010
0100
0001
0000
,
0001
0000
0000
0000
1000
0001
0100
0010
1000
0001
0100
0010
2000
0000
0000
0000
,
0000
3000
0000
0000
;

//---------------dance-single - ----------------
#NOTES:
     dance-single:
     :
     Easy:
     13:
     0.634823,0.693214,0.316800,0.368173,0.038530,519.000000,482.000000,37.000000,43.000000,0.000000,0.000000,0.634823,0.693214,0.316800,0.368173,0.038530,519.000000,482.000000,37.000000,43.000000,0.000000,0.000000:
0000
0000
0000
0000
,
0000
0000
0000
0000
,
1000
0100
1000
0000
0001
0000
0001
0000
,
1000
0010
1000
0000
0001
0000
0001
0000
,
1000
0100
0010
0000
0001
0000
1000
0000
,
0001
0010
0100
1000
0100
0010
0001
1000
,
0001
0010
0001
0000
1000
0000
1000
0000
,
0001
0100
0001
0000
1000
0000
1000
0000
,
1001
1100
1001
0101
,
1001
0000
1100
0000
1000
0001
1000
0001
,
0200
0000
0000
0010
0310
0000
1010
0000
,
1000
0000
0000
0100
0000
0000
0010
0000
0001
0000
0000
0000
0100
0000
0000
0000
,
0020
0000
0000
1030
0001
0000
1001
0000
,
0200
0000
0000
0301
1000
0000
0000
2000
,
0000
0000
0001
3001
0000
0101
0000
0100
,
0000
0010
0000
0000
1000
0000
0001
0000
0000
0000
0000
0000
0000
0000
0002
0000
,
0000
0000
0013
1000
0000
0000
0000
2000
,
0000
0000
3010
0001
0000
0000
1000
0100
,
0010
0000
0001
0010
0100
0000
1000
0100
,
0010
0000
0001
0010
0100
1000
0010
0100
,
0001
0000
0100
0010
1000
0000
0010
0100
,
0001
0000
0100
0010
1000
0010
0100
0001
,
0010
0000
0100
1000
0010
0000
0100
0001
,
0010
0100
1000
0010
0100
0000
0001
1000
,
0010
0000
1000
0001
0100
0000
0001
1000
,
0010
0100
0010
1000
0001
0000
2000
0000
,
0000
0000
0100
0000
3100
0000
0000
0000
0011
0000
0000
0000
0001
0000
0000
0100
,
0000
0010
1000
0000
0000
0000
0020
0000
,
0000
0130
0001
0000
0000
0000
0200
0000
,
0000
0310
1000
0000
0000
0000
0002
0000
,
0013
0000
0100
0000
1000
0000
0000
0000
1001
0000
0000
0000
1000
0000
0000
0100
,
0000
0010
0001
0000
1000
0000
0001
0010
,
0001
1000
0001
0100
0100
0000
1000
0010
,
1000
0100
1000
0010
0100
0000
0001
0000
,
1000
0000
0101
0000
0010
0000
1000
0100
,
0001
0000
0001
0100
1000
0000
0001
0000
,
1000
0000
0101
0000
0010
0000
0100
0001
,
0010
0000
0010
0100
1000
0000
0000
0000
,
0000
0000
0000
2000
,
0010
0001
0010
0100
,
0001
0000
3100
1000
0010
0100
0002
0000
,
0010
0000
0103
0000
0010
0001
1000
0000
,
0020
0000
0100
0000
1030
0010
0200
0000
,
0001
1000
0001
0010
,
1000
0000
0310
0001
0100
0010
2000
0000
,
0010
0100
0010
0100
,
0001
0000
0000
0000
3100
0000
0000
0010
0000
0000
0001
0000
0002
0000
0000
0000
,
0100
1000
0100
0010
,
1000
0000
0013
0001
0100
0010
2000
0000
,
0100
0000
3010
0000
0100
1000
0001
0000
,
0200
0000
0010
0000
0301
0100
0020
0000
,
1000
0001
1000
0100
,
0001
0000
0130
1000
0010
0100
0002
0000
,
0000
0100
0000
0103
0000
0000
0010
2000
,
0000
0000
0100
0000
0100
0000
3100
0010
,
0001
0010
0100
1000
0100
0010
0000
0001
,
0100
0010
1000
0010
0100
0001
1000
0010
,
0100
0001
0100
0010
1000
0010
0000
0100
,
0001
0010
0001
0100
0010
0000
1000
0100
,
0010
0100
1000
0000
0001
0000
0001
0010
,
0100
0010
0001
0000
1000
0000
1010
0000
,
1001
0101
1001
0010
,
0010
0000
0010
0001
1000
0000
1002
0000
,
0000
0000
0100
0000
0100
0000
0000
0000
0013
0000
0000
0000
0001
0000
0000
0100
,
0000
0010
1000
0000
1010
0000
1000
0020
,
0000
0100
0130
0000
0101
0000
0002
0010
,
0000
0100
0103
0000
1100
0000
2001
0000
,
0000
0000
0010
0000
0010
0000
0000
0000
3100
0000
0000
0000
1000
0000
0000
0010
,
0000
0100
0001
0000
0101
0000
0002
0000
,
0000
0010
0013
0000
0100
0000
1000
0010
,
0000
0010
0100
0001
1000
0001
0100
0010
,
1000
0000
0000
0000
0010
0000
0100
0000
0001
0000
0000
0000
0100
0000
0000
0010
,
0000
1000
0100
0000
0011
0000
0001
1000
,
0000
0010
0010
0000
1001
0000
1000
0001
,
0000
0010
0010
0000
0101
0001
0100
0010
,
0000
0000
0010
0000
1000
0000
0100
0000
0010
0000
0001
0000
0100
0000
0000
0010
,
0000
1000
0001
0000
1001
0000
0001
0100
,
0000
1000
0100
0000
1001
0000
1000
0100
,
0000
0001
0100
0000
1001
0000
2000
0000
,
3020
0230
0302
0023
,
0230
0000
2300
0000
3002
0000
0103
0001
,
1000
0000
1000
0001
0100
0000
0100
0010
,
1000
0010
0100
0000
1001
0000
0002
0000
,
0203
0320
2030
3200
,
0320
0000
0032
0000
2003
0000
3100
1000
,
0001
0000
0001
1000
0100
0000
0010
0001
,
1000
0001
0010
0000
1001
0000
0001
0100
,
0010
1000
0010
0100
0001
0000
1000
0010
,
0100
0001
0100
0010
1000
0000
0101
0000
,
0010
1100
0010
1001
,
0010
0000
1001
0000
0010
0100
0001
0010
,
0100
1000
0100
0010
0001
0000
1000
0100
,
0010
0001
0010
0100
1000
0000
1010
0000
,
0100
0000
0011
0000
0100
0000
1000
0010
,
0100
0001
0010
0100
1000
0010
0200
0000
,
0000
0300
0000
0000
;

//---------------dance-single - ----------------
#NOTES:
     dance-single:
     :
     Beginner:
     5:
     0.287444,0.365069,0.017124,0.034249,0.000000,235.000000,233.000000,2.000000,4.000000,0.000000,0.000000,0.287444,0.365069,0.017124,0.034249,0.000000,235.000000,233.000000,2.000000,4.000000,0.000000,0.000000:
0000
0000
0000
0000
,
0000
0000
0000
0000
,
1000
1000
1000
1000
,
0000
0001
0001
0001
,
0001
0000
0100
0100
,
0100
0000
0010
0010
,
0010
0000
1000
1000
,
0000
0001
0001
0000
,
0100
0100
0100
0100
,
0100
0100
0100
0100
,
0100
0000
0010
0000
,
1000
0000
0001
0000
,
1000
0000
0010
0000
,
0100
0000
0001
0000
,
0000
0000
0000
0000
,
0001
0000
0000
0000
,
0000
1000
0000
0000
,
0000
0010
0000
0100
,
0000
0000
0100
0000
,
0100
0000
0000
0000
,
0001
0000
0001
0000
,
0001
0000
0000
0000
,
0010
0000
0010
0000
,
0010
0000
0000
0000
,
0100
0000
0100
0000
,
0100
0000
0000
1000
,
0000
0010
0000
0100
,
0000
0001
0000
0001
,
0000
1000
0000
1000
,
0000
0001
0000
0001
,
0000
0010
0000
0100
,
0000
1000
0000
1000
,
0000
0001
0000
0001
,
0000
1000
0000
0010
,
0010
0010
0000
0100
,
0000
0100
0000
0010
,
0010
0010
0000
1000
,
0000
0001
0000
1001
,
0000
0000
0000
1000
,
1000
1000
1000
1000
,
1000
1000
0000
0001
,
0001
0001
0000
0100
,
0100
0100
0000
0010
,
0010
0010
0010
0010
,
0010
0010
0000
1000
,
1000
1000
1000
1000
,
0000
0001
0000
0001
,
0001
0001
0001
0001
,
0001
0001
0000
0010
,
0010
0010
0000
0100
,
0100
0100
0000
1000
,
1000
1000
1000
1000
,
1000
1000
0000
0001
,
0000
1000
0000
0001
,
0000
1000
0000
0010
,
0010
0010
0010
0000
,
0100
0100
0000
0001
,
0001
0001
0001
0000
,
0010
0010
0000
0100
,
0100
0100
0100
0000
,
1000
1000
0000
0010
,
0010
0010
0010
0000
,
0100
0100
0000
0001
,
0000
0010
0000
0100
,
0000
1000
0000
0010
,
0000
0100
0000
0100
,
0000
0010
0000
1000
,
0000
0100
0000
0010
,
0000
0001
0000
0100
,
0000
0010
0000
0010
,
0000
0100
0000
0001
,
0001
0001
0000
1000
,
1000
1000
0000
0010
,
0000
0010
0000
0100
,
0000
0100
0000
0010
,
0010
0010
0000
0100
,
0100
0100
0000
0001
,
0000
0001
0000
1000
,
0000
1000
0000
0001
,
0001
0001
0001
0001
,
0001
0001
0001
0001
,
0000
1000
0000
0002
,
0000
0003
0000
1000
,
1000
1000
1000
1000
,
1000
1000
1000
1000
,
0000
0001
0000
2000
,
0000
3000
0000
0010
,
0010
0010
0010
0010
,
0010
0010
0010
0010
,
0010
0010
0000
0200
,
0000
0300
0000
0100
,
0100
0100
0100
0100
,
0100
0100
0100
0100
,
0100
0100
0000
0020
,
0000
0030
0000
0110
;

//---------------dance-double - ----------------
#NOTES:
     dance-double:
     :
     Easy:
     14:
     0.693535,0.693214,0.214054,0.171243,0.029968,567.000000,542.000000,25.000000,20.000000,0.000000,0.000000,0.693535,0.693214,0.214054,0.171243,0.029968,567.000000,542.000000,25.000000,20.000000,0.000000,0.000000:
00000000
00000000
00000000
00000000
,
00000000
00000000
00000000
00000000
,
10000000
01000000
00100000
01000000
10000000
01000000
00010000
00000000
,
00001000
00000000
00000100
00000000
00000001
00000100
00000010
00000000
,
00001000
00000010
00000100
00000010
00001000
00000010
00000100
00000000
,
00000010
00000000
00000100
00000000
00001000
00000000
00010000
01000000
,
10000000
00010000
10000000
00000000
00010000
10000000
00010000
00000000
,
10000000
01000000
00010000
00000000
00001000
00000100
00000001
00000000
,
00000100
00000100
00001000
00001000
,
00010000
00000000
01000000
00000000
10000000
00010000
10000000
00010000
,
20000000
00000000
00000000
31000000
00010000
00000000
00011000
00000000
,
00001000
00000000
00000000
00000100
00000000
00000000
00000001
00000000
00000010
00000000
00000000
00000000
00000000
00000000
00000000
00000000
,
00000002
00000000
00000003
00000100
00001000
00000000
00000000
00000000
,
00020000
00000000
00030000
01000000
10000000
00000000
00000000
20000000
,
00000000
00000000
30100000
00010000
00000000
00011000
00000000
00001000
,
00000000
00000100
00000000
00000000
00000001
00000000
00001000
00000000
00000000
00000000
00000000
00000000
00000000
00000000
00000002
00000000
,
00000000
00000000
00000013
00001000
00000000
00000000
00000000
00020000
,
00000000
00000000
00130000
10000000
00000000
00000000
10000000
01000000
,
00100000
00000000
10000000
01000000
00100000
00000000
10000000
01000000
,
00010000
00001000
00000100
00000001
00001000
00000000
00000001
00000010
,
00000100
00000000
00000001
00000010
00000100
00000000
00000001
00000100
,
00001000
00010000
01000000
10000000
00010000
00000000
10000000
01000000
,
00100000
00000000
10000000
01000000
00100000
00000000
10000000
01000000
,
00010000
00001000
00000100
00000001
00001000
00000000
00000001
00000010
,
00000100
00000000
00000001
00000010
00000100
00000000
00000001
00000100
,
00001000
00010000
01000000
10000000
00010000
00000000
20000000
00000000
,
30000000
00100000
10000000
00000000
10010000
00000000
01000000
00010000
,
00000000
00100000
01000000
00000000
00010000
00000000
00001000
00000100
,
00000000
00000001
00001000
00000000
00000010
00000000
00000100
00000001
,
00000000
00001000
00000010
00000000
00000100
00000100
00000001
00000010
,
00000000
00001000
00010000
00000000
00100000
00000000
10000000
01000000
,
00000000
00010000
01000000
00000000
10000000
00010000
10000000
00100000
,
00000000
00010000
00001000
00000000
00011000
00010000
00001000
00000010
,
00000001
00000100
00001000
00000100
00000001
00000000
00001000
00000000
,
00000010
00000000
00000101
00000000
00000010
00000000
00000100
00001000
,
00010000
00000000
01000000
10000000
01000000
00000000
10000000
00000000
,
00100000
00000000
01010000
00000000
00100000
00000000
10000000
01000000
,
00010000
00000000
00001000
00000100
00000001
00000010
00000000
00000000
,
00000000
00000000
00000000
00000000
00000000
00000000
00001000
00010000
,
00001000
00010000
00001000
00010000
00001000
00010000
00001000
00010000
,
00001000
00010000
00100000
10000000
01000000
00010000
01000000
00100000
,
01000000
00100000
01000000
00100000
01000000
00010000
00001000
00000100
,
00001000
00000100
00001000
00000100
00001000
00000100
00000001
00001000
,
00000001
00001000
00000001
00001000
00000001
00001000
00000001
00001000
,
00000001
00001000
00000001
00001000
00000010
00000100
00001000
00010000
,
00001000
00010000
00001000
00010000
00001000
00010000
00001000
00010000
,
00001000
00000000
00010000
00000000
01000000
00000000
00000000
10000000
00000000
00000000
00010000
00000000
01000000
00000000
00100000
00000000
,
01000000
00010000
01000000
00100000
01000000
00010000
01000000
00100000
,
01000000
00010000
01000000
00100000
00010000
00001000
00000100
00000001
,
00000100
00000010
00000100
00000001
00000100
00000010
00000001
00000100
,
00001000
00010000
00001000
00100000
00001000
00010000
00001000
01000000
,
00001000
00100000
00001000
01000000
00001000
00100000
00001000
01000000
,
00001000
00100000
00001000
01000000
00100000
10000000
01000000
00010000
,
00000000
00001000
00000100
00000001
00000000
00001000
00000010
00001000
,
00000000
00000010
00000100
00000000
00001000
00000000
00010000
01000000
,
00010000
01000000
10000000
00100000
10000000
00100000
00000000
00010000
,
00001000
00010000
00001000
00000100
00001000
00000100
00000001
00001000
,
00000001
00001000
00000010
00000100
00000010
00000100
00000000
00001000
,
00010000
00001000
00010000
01000000
00010000
01000000
10000000
00100000
,
10000000
00100000
00010000
00001000
00010000
00000000
00000000
00001000
,
00000010
00001000
00000010
00000001
00000010
00000001
00000100
00000000
,
00000110
00001001
00001010
00000101
,
00001001
00000000
00000001
00000100
00001000
00010000
01000000
10000000
,
00000000
00100000
01000000
00000000
01010000
00000000
01000000
00100000
,
00000000
00010000
00001000
00000000
00000100
00000000
00000001
00001000
,
00000000
00000010
00000100
00000000
00000101
00000000
00000100
00000010
,
00000000
00001000
00000001
00000000
00001100
00000000
00000001
00000100
,
00000010
00000100
00000001
00000010
00000100
00000010
00000001
00000100
,
00000000
00001000
00010000
00000000
01000000
10000000
11000000
00000000
,
10000000
00100000
01000000
00000000
01010000
00000000
00010000
00100000
,
00000000
01000000
10000000
00000000
10010000
00000000
10000000
00100000
,
00010000
00100000
10000000
00100000
00010000
00100000
10000000
00100000
,
00000000
00010000
00001000
00000000
00000010
00000000
00000001
00001000
,
00000000
00000001
00001000
00000000
00000110
00000010
00001000
00000001
,
00000000
00001000
00000001
00000000
00000110
00000100
00000001
00000010
,
00001000
00000010
00000001
00000010
00001000
00000010
00000001
00000010
,
00000000
00001000
00010000
00000000
00100000
00000000
10000000
00010000
,
00000000
10000000
00010000
00000000
01100000
00000000
00010000
10000000
,
00100000
01000000
00010000
10000000
01100000
00100000
20000000
00000000
,
31000000
02000000
03010000
00020000
,
00031000
00002000
00003100
00000100
,
00000001
00000100
00000010
00001010
,
00000101
00000000
00001000
00000010
00000100
00000001
00000020
00000000
,
00001030
00002000
00013000
00020000
,
00130000
00200000
10300000
10000000
,
01000000
00010000
01000000
11000000
,
00110000
00000000
01000000
00100000
00010000
00001000
00000200
00000000
,
00000301
00000002
00000013
00000020
,
00001030
00002000
00013000
00100000
,
10000000
00000000
01000000
00000000
00010000
00000000
00001000
00000100
,
00000001
00000000
00000100
00001000
00010000
00000000
00100000
00000000
,
10000000
00000000
01000000
00010000
00001000
00000000
00000100
00000000
,
00000001
00000000
00000010
00001000
00010000
00000000
00100000
00000000
,
10000000
00000000
00100000
00010000
00001000
00000000
00000100
00000000
,
00000001
00000000
00000000
00000000
00001000
00000001
00001000
00000001
00001000
00000001
00001000
00000001
00000200
00000000
00000000
00000000
,
00000000
00000300
00000000
00000000
;

//---------------dance-double - ----------------
#NOTES:
     dance-double:
     :
     Medium:
     15:
     0.735122,0.937877,0.308238,0.239740,0.188367,601.000000,565.000000,36.000000,28.000000,0.000000,0.000000,0.735122,0.937877,0.308238,0.239740,0.188367,601.000000,565.000000,36.000000,28.000000,0.000000,0.000000:
00000000
00000000
00000000
00000000
,
00000000
00000000
00000000
00000000
,
10000000
01000000
00100000
00010000
01000000
00100000
01000000
00100000
,
00000000
00010000
00001000
00000010
00000001
00000100
00000001
00000100
,
00000001
00000010
00000100
00001000
00000010
00000100
00000010
00000100
,
00000000
00001000
00010000
00100000
10000000
01000000
00100000
00010000
,
01000000
00000000
00010000
00100000
00010000
00000000
01000000
00000000
00100000
00000000
00010000
00000000
00001000
00000000
00000000
00000000
,
00000000
00000000
00000100
00000001
00000100
00000000
00000001
00000000
00000010
00000000
00000100
00000000
00001000
00000000
00000010
00000000
,
00000110
00010010
00011000
00101000
,
01100000
00000000
00000000
00000000
11000000
00000000
00000000
00000000
10000000
00010000
10000000
00010000
10000000
00010000
10000000
00010000
,
10000000
01000000
00000000
01000000
00100000
00000000
01100000
00000000
,
01000000
00000000
00000000
10000000
00000000
00000000
00100000
00000000
00010000
00000000
00000000
00000000
00001000
00000000
00000000
00000000
,
00000020
00000000
00000000
00000001
00000031
00000000
00001001
00000000
,
00000002
00000000
00000000
00000000
00000000
00000000
00000100
00000000
00000103
00000000
00000000
00000000
00001000
00010000
01000000
00000000
,
10000000
00000000
10000000
00100000
00000000
01100000
00000000
01000000
,
00000000
00010000
00000000
00000000
10000000
00000000
00100000
00000000
00000000
00000000
01100000
00000000
00000000
00000000
01000000
00000000
,
00010000
00000000
00100000
00000000
00010000
00000000
01000000
00000000
00010000
00000000
00100000
00000000
00010000
00000000
01000000
00001000
,
01000000
00001000
01000000
00001000
01000000
00001000
01000000
00001000
01000000
00001000
01000000
00000000
00001000
00000000
00010000
00000000
,
00000100
00000000
00010000
00001000
01000000
00000000
00001000
00010000
,
00000100
00000000
00001000
00000000
00000010
00000000
00000100
00000001
00000100
00000000
00000010
00000000
00010000
00000000
00001000
00000000
,
00100000
00000000
00001000
00010000
00000010
00000000
00010000
00001000
,
00100000
00000000
00010000
00000000
01000000
00000000
00100000
00000000
01000000
00001000
01000000
00001000
00010000
00000000
00001000
00000000
,
01000000
00000000
00001000
00010000
00000100
00000000
00010000
00001000
,
01000000
00000000
00001000
00000000
00010000
00000000
00000100
00000010
00000100
00000000
00010000
00000000
00001000
00000000
00010000
00000000
,
00000010
00000000
00010000
00001000
00100000
00000000
00001000
00010000
,
00000010
00000000
00000100
00000000
00000001
00001000
00000001
00001000
00000001
00001000
00000001
00001000
00000001
00000000
00000100
00000000
,
00000000
00000000
00000100
00000000
00000010
00000000
00000000
00000000
00000110
00000000
00000000
00000000
00000010
00000000
00000000
00000100
,
00000000
00000001
00001000
00000000
00001100
00000000
00000200
00000000
,
00000000
00010000
00010300
00000000
00011000
00000000
02000000
00000000
,
00000000
00001000
03001000
00000000
00001000
00100000
01000000
10000000
,
01000000
00100000
01000000
10000000
01000000
00100000
00001000
00010000
,
00001000
01000000
00001000
00010000
00001000
01000000
00001000
00001000
,
00010000
00000000
00010000
00000000
00000100
00000000
00000100
00000000
00001000
00000000
00001000
00000000
00000010
00000100
00000010
00000100
,
00000010
00000100
00000010
00000100
00000010
00000000
00000000
00000000
00001000
00000000
00000001
00000000
00000100
00000000
00000000
00000000
,
00000001
00000000
00001010
00000000
00000100
00000000
00010000
00001000
,
00010000
00000000
00001000
00010000
00001000
00000000
01000000
00000000
,
00100000
00000000
11000000
00000000
00100000
00000000
00010000
01000000
,
00100000
00000000
10000000
01000000
00100000
00010000
00000000
00000000
,
00000000
00000000
00000000
00000002
,
00000100
00001000
00000103
00000101
,
00001010
00000000
00000001
00000100
00001000
00010000
02000000
00000000
,
10000000
00000000
00010000
00000000
13000000
00100000
01000000
00010000
,
00100000
00010000
01000000
00100000
10000000
00100000
20000000
00000000
,
01000000
00010000
31000000
10010000
,
10100000
00000000
10000000
01000000
00010000
00001000
00000200
00000000
,
00000001
00000000
00001000
00000000
00000301
00000000
00000100
00000010
,
00010000
00000000
00001000
00000000
01000000
00000000
00000000
01000000
00000000
00000000
01000000
00000000
00020000
00000000
00000000
00000000
,
01000000
10000000
01030000
01010000
,
00001000
00000000
00010000
00001000
00000010
00000001
00000200
00000000
,
00000001
00000000
00001000
00000000
00000301
00000010
00000100
00010000
,
00001000
00010000
00000100
00000010
00000001
00000010
00000200
00000000
,
00001000
00000001
00001300
00001100
,
00010000
00000000
00001000
00010000
01000000
10000000
00200000
00000000
,
00000000
01000000
00000000
01300000
00000000
01000000
00001000
00010000
,
00000000
00000000
00010000
00000000
00001000
00010000
00001000
00010000
00001000
00010000
00001000
00010000
00001000
00000000
01000000
00000000
,
00001000
00100000
00001000
01000000
00001000
01000000
00000000
01000000
,
00001000
00010000
00000010
00000100
00000010
00001000
00000100
00010000
,
00000100
00001000
00000100
00010000
00000100
00001000
00000000
00001000
,
00000010
00000100
00001000
00010000
01000000
10000000
00200000
01300000
,
00010000
10000000
01000000
00010000
00001000
00000000
00000100
00000001
,
00001000
00000010
00000100
00001000
00010000
01000000
10000000
00000000
,
10100000
01010000
00101000
00011000
,
00010100
00000000
00000000
00000000
00001000
00000010
00001000
00000010
00001000
00000010
00001000
00000010
00001000
00000000
00000100
00000000
,
00000000
00000010
00000001
00000000
00000100
00000000
00001000
00010000
,
00000000
01000000
10000000
00000000
10010000
00000000
10000000
01000000
,
00000000
00100000
00010000
00000000
10010000
00000000
00010000
01000000
,
00000000
00100000
10000000
00000000
10010000
00000000
00100000
10000000
,
00000000
10000000
00010000
00000000
01010000
00000000
01000000
00100000
,
00000000
00010000
00001000
00000000
00000010
00000000
00000001
00000100
,
00000000
00000010
00001000
00000000
00000101
00000000
00001000
00000010
,
00000100
00000000
00000001
00000000
00000010
00000000
00000100
00001000
00000100
00000000
00001000
00000000
00000010
00000000
00000100
00000000
,
00000000
00000010
00001000
00000000
00010100
00000000
00010000
00001000
,
00000000
00010000
00100000
00000000
10100000
00000000
10000000
01000000
,
00000000
00010000
01000000
00000000
10010000
00000000
00010000
01000000
,
00000000
10000000
01000000
00000000
00010000
00100000
01000000
10000000
,
01000000
00100000
00001000
00010000
00000100
00001000
00000010
00000100
,
00000000
00000100
00000001
00000000
00001000
00000010
00000100
00000001
,
00000000
00000000
00000010
00000000
00001000
00000000
00000000
00000000
00010000
00000000
00100000
00000000
10000000
00010000
10000000
00010000
,
10000000
00010000
10000000
00010000
10000000
00000000
00000000
00000000
01100000
00000000
00000000
00000000
10000000
00000000
00000000
00000000
,
01000000
00010000
01000000
10000000
,
00100000
00010000
00001000
00000020
,
00000000
00000032
00000000
00002003
,
00000000
00003000
00000000
00000001
,
00000100
00001000
00000100
00000001
,
00000010
00001000
00010000
00200000
,
00000000
20300000
00000000
30020000
,
00000000
00000000
00030000
00000000
00000000
00000000
10000000
01000000
,
00010000
01000000
10000000
00100000
00010000
00001000
00000010
00000001
,
00000100
00001000
00000100
00000001
00000010
00000000
00000200
00000000
,
00002300
00003020
00000000
00000230
,
00000000
00000000
00000000
00000000
00000300
00000000
00000000
00000000
00000001
00001000
00000001
00001000
00000001
00000000
00000100
00000000
,
00001000
00000100
00000001
00000010
00001000
00010000
00100000
10000000
,
01000000
00010000
01000000
10000000
00100000
01000000
00020000
00000000
,
20030000
32000000
00000000
03200000
,
00000000
00000000
00301000
00010000
00001000
00010000
00012000
00000000
,
00000000
00003000
00000000
00000000
;

//---------------dance-double - ----------------
#NOTES:
     dance-double:
     :
     Hard:
     16:
     0.793834,0.978655,0.256865,0.111308,0.214054,649.000000,619.000000,30.000000,13.000000,0.000000,0.000000,0.793834,0.978655,0.256865,0.111308,0.214054,649.000000,619.000000,30.000000,13.000000,0.000000,0.000000:
00000000
00000000
00000000
00000000
,
00000000
00000000
00000000
00000000
,
00000000
00000000
00000000
00000000
,
00000000
00000000
00000000
00000000
,
10000000
01000000
00100000
00010000
01000000
00100000
01000000
00100000
,
00010000
00001000
00000100
00000001
00001000
00000010
00001000
00000010
,
00000100
00000000
00000001
00001000
00000001
00000000
00000100
00000000
00000010
00000000
00001000
00000000
00000001
00000000
00000000
00000000
,
00000000
00000000
00000100
00000010
00000100
00000000
00000001
00000000
00001000
00000000
00000010
00000000
00000100
00000000
00000001
00000000
,
00000101
00001100
00010100
00011000
,
00101000
00000000
00000000
00000000
01100000
00000000
00000000
00000000
01000000
10000000
01000000
10000000
01000000
10000000
01000000
10000000
,
00100000
01000000
00000000
00100000
00010000
00000000
00001000
00000000
,
00000010
00000000
00000000
00000001
00000000
00000000
00000010
00000000
00000001
00000000
00000000
00000000
00001001
00000000
00000000
00000000
,
00000001
00000100
00000000
00001000
00010000
00000000
00001000
00000000
,
00000100
00000000
00001000
00000000
00000000
00000000
00010000
00000000
01000000
00000000
00000000
00000000
10000000
10000000
00010000
00000000
,
01000000
00000000
00100000
00010000
00000000
00001000
00000000
00000100
,
00000000
00000001
00000000
00000000
00000100
00000000
00000010
00000000
00000000
00000000
00000100
00000000
00001000
00000000
00010000
00000000
,
01000000
00000000
00000000
00000000
10000000
00000000
00010000
00000000
00000000
00000000
01100000
00000000
00000000
00000000
01000000
00010000
,
01000000
00010000
01000000
00010000
01000000
00010000
01000000
00010000
01000000
00010000
00100000
00000000
00100000
00000000
00001000
00000000
,
00000010
00000000
00000010
00001000
00100000
00000000
00100000
00001000
,
00000010
00000000
00000100
00000000
00000010
00000000
00000100
00010000
,
01000000
00000000
01000000
00010000
00000100
00000000
00000100
00010000
,
01000000
00000000
00100000
00000000
01000000
00000000
00100000
00001000
,
00000010
00000000
00000010
00001000
00100000
00000000
00100000
00001000
,
00000010
00000000
00000100
00000000
00000010
00000000
00000100
00010000
,
01000000
00000000
01000000
00010000
00000100
00000000
00000100
00010000
,
01000000
00000000
00100000
01000000
00100000
01000000
00010000
00100000
,
00000000
01000000
10000000
00000000
01010000
00000000
00100000
00010000
,
00000000
00001000
00000010
00000000
00000100
00000001
00000010
00001000
,
00000000
00000010
00000001
00000000
00001001
00000000
00000001
00000100
,
00000000
00001000
00000100
00000000
00000001
00000001
00001000
00000100
,
00000010
00000100
00001000
00000100
00000010
00000100
00001000
00000010
,
00000000
00000100
00000001
00000010
00000100
00000010
00000001
00000010
,
00000000
00000000
00001000
00000000
00010000
00000000
00100000
00000000
10000000
00000000
00010000
00000000
01000000
00100000
01000000
00100000
,
01000000
00100000
01000000
00100000
10000000
00000000
00000000
00000000
01010000
00000000
00000000
00000000
10000000
00000000
00000000
00000000
,
00010000
00000000
00001000
00000000
00001001
00000000
00000010
00000100
,
00000010
00000000
00001000
00000001
00001000
00000000
00000001
00000000
,
00001000
00000000
00010000
00000000
10010000
00000000
01000000
00010000
,
10000000
00000000
00100000
10000000
00010000
01000000
00000000
00000000
,
00000000
00000000
00000000
00000000
00000000
00000000
00000100
00001000
,
00000010
00000100
00000001
00000010
00000100
00001000
00000010
00000100
,
00000001
00000000
00000010
00000000
00000100
00000000
00001000
00000010
00000100
00000000
00001000
00000000
00010000
00000000
01000000
00000000
,
10000000
00100000
01000000
00010000
00100000
01000000
10000000
00010000
,
01000000
00100000
01000000
00010000
10000000
00100000
01000000
00010000
,
00100000
01000000
00100000
00010000
10000000
01000000
10000000
00010000
,
00100000
00000000
01000000
00000000
00100000
00000000
00010000
01000000
00100000
00000000
00010000
00000000
00001000
00000000
00000010
00000000
,
00000001
00000100
00000010
00001000
00000100
00000010
00000001
00000100
,
00000010
00000000
00001000
00000000
00000001
00000000
00000000
00001000
00000000
00000000
00000001
00000000
00001000
00000000
00000100
00000000
,
00000010
00000001
00000100
00000010
00001000
00000100
00000010
00000001
,
00000100
00000000
00000010
00000000
00001000
00000000
00000010
00000100
00001000
00000000
00010000
00000000
01000000
00000000
10000000
00000000
,
00100000
01000000
00010000
10000000
00010000
00100000
01000000
10000000
,
00010000
10000000
01000000
00100000
00010000
10000000
00010000
01000000
,
00100000
10000000
01000000
00100000
00010000
01000000
00100000
10000000
,
01000000
00000000
00100000
00000000
00010000
00000000
01000000
00100000
00010000
00000000
00001000
00000000
00000100
00000000
00000001
00000000
,
00000000
00000001
00001000
00000100
00000000
00000100
00000010
00001000
,
00000000
00001000
00010000
01000000
10000000
00100000
01000000
00010000
,
01000000
00000000
00010000
00000000
10000000
00000000
01000000
00000000
00010000
00000000
00001000
00000000
00000000
00000000
00000010
00000001
,
00000010
00000001
00001000
00000010
00001000
00000010
00000100
00000001
,
00000100
00000000
00000001
00000000
00000010
00000000
00001000
00000000
00010000
00000000
00100000
00000000
00000000
00000000
10000000
01000000
,
10000000
00000000
00010000
00000000
01000000
00000000
00100000
00000000
10000000
00000000
00010000
00000000
01000000
00000000
00100000
10000000
,
00100000
00000000
01000000
00000000
00001000
00000000
00010000
00000000
00000010
00000000
00000000
00000000
00000000
00000000
00000010
00000100
,
00000010
00001000
00000100
00010000
00001000
00100000
01100000
00000000
,
11000000
01010000
00011000
00010100
,
00001010
00000000
00000000
00000000
00000100
00000001
00000100
00000001
00000100
00000001
00000100
00000001
00000100
00000000
00000010
00000000
,
00000000
00001000
00000001
00000000
00001100
00000000
00000001
00000100
,
00000000
00001000
00010000
00000000
01000000
10000000
00010000
10000000
,
00000000
01000000
00010000
00000000
00001100
00000000
00000100
00000001
,
00000000
00001000
00000010
00000000
00000100
00000010
00001000
00000001
,
00000000
00000100
00001000
00000000
00011000
00000000
00010000
01000000
,
00000000
10000000
00100000
00000000
01010000
00000000
00100000
10000000
,
00000000
01000000
00010000
00000000
00011000
00000000
00001000
00000100
,
00000001
00000000
00001000
00000000
00000010
00000000
00000001
00000010
00001000
00000000
00000100
00000000
00000010
00000000
00000001
00000000
,
00001000
00000001
00000010
00000001
00001000
00000001
00000100
00001000
,
00010000
01000000
10000000
00100000
01000000
00100000
10000000
01000000
,
00010000
00001000
00000100
00000001
00000100
00000010
00000100
00001000
,
00010000
01000000
10000000
00010000
01000000
00010000
10000000
00010000
,
01000000
00100000
10000000
00100000
01000000
00100000
10000000
00100000
,
00010000
00001000
00000010
00000001
00001000
00000001
00000100
00000010
,
00000100
00000000
00001000
00000000
00010000
00000000
01000000
00000000
10000000
00000000
00100000
00000000
10000000
00010000
10000000
00010000
,
10000000
00010000
10000000
00010000
10000000
00100000
01000000
00010000
10000000
00010000
10000000
00000000
00010000
00000000
00000000
00000000
,
10000000
01010000
00100000
10000000
,
01000000
00000000
00011000
00000000
00000100
00000000
00001000
00000010
,
00000100
00000000
00000001
00000010
00000100
00000000
00002000
00000000
,
00000001
00000000
00000000
00000000
00000010
00000000
00000000
00000000
00003001
00001000
00000001
00001000
00000001
00000000
00000000
00000000
,
00001100
00000100
00000010
00000001
,
00000100
00000000
00011000
00000000
01000000
00000000
00100000
10000000
,
01000000
00000000
00100000
00010000
01000000
00000000
00200000
00000000
,
10000000
00000000
00000000
00000000
00010000
00000000
00000000
00000000
10300000
00010000
10000000
00010000
10000000
00000000
10000000
00000000
,
01000000
01000000
00100000
00100000
00010000
00010000
01000000
01000000
,
00100000
00100000
00010000
00010000
00001000
00001000
00000020
00000000
,
00000032
00000203
00000300
00002020
,
00000000
00000000
00000000
00000000
00003030
00000000
00000000
00000000
00001000
00000001
00001000
00000001
00001000
00000000
00001000
00000000
,
00000010
00000010
00000100
00000100
00001000
00001000
00010000
00010000
,
01000000
01000000
10000000
10000000
00010000
00010000
02000000
00000000
,
03200000
20300000
30000000
20020000
,
30030000
00000000
00000000
00000000
01000000
00010000
01000000
00010000
01000000
00010000
01000000
00010000
00200000
00000000
00000000
00000000
,
00000000
00300000
00000000
00000000
;

//---------------dance-double - ----------------
#NOTES:
     dance-double:
     :
     Challenge:
     18:
     0.995657,1.100986,0.308238,0.008562,0.505167,814.000000,778.000000,36.000000,1.000000,0.000000,0.000000,0.995657,1.100986,0.308238,0.008562,0.505167,814.000000,778.000000,36.000000,1.000000,0.000000,0.000000:
00000000
00000000
00000000
00000000
,
00000000
00000000
00000000
00000000
,
10000000
01000000
00010000
01000000
10000000
00100000
00010000
00001000
,
00000000
00000000
00000010
00000001
00000010
00000000
00000001
00000000
00001000
00000000
00000001
00000000
00000100
00000000
00000010
00000000
,
00001000
00000100
00000001
00000100
00001000
00000010
00000100
00001000
,
00000000
00000000
00010000
01000000
00010000
00000000
01000000
00000000
10000000
00000000
00100000
00000000
01000000
00000000
00010000
00000000
,
10000000
00000000
00010000
01000000
00010000
00000000
01000000
00000000
00100000
00000000
00010000
00000000
00001000
00000000
00000000
00000000
,
00000000
00000000
00000010
00000001
00000010
00000000
00000001
00000000
00000100
00000000
00000010
00000000
00001000
00000000
00000100
00000000
,
00000011
00001001
00010100
00011000
,
00101000
00000000
00000000
00000000
01100000
00000000
00000000
00000000
01000000
10000000
01000000
10000000
01000000
10000000
01000000
10000000
,
01000000
00100000
01000000
10000000
00100000
00010000
00001000
00000010
,
00000001
00000100
00000010
00001000
00000010
00000100
00000001
00000000
,
00001000
00000100
00000010
00000001
00000010
00000100
00001000
00000000
,
00000001
00000000
00001000
00000000
00000000
00000000
00010000
00000000
10000000
00000000
00000000
00000000
00100000
10010000
01000000
00000000
,
00100000
00010000
00100000
01000000
10000000
00100000
01000000
00100000
,
00010000
00001000
00000010
00000001
00000000
00000100
00000010
00010000
,
00001000
00000000
00010000
00000000
00100000
00000000
10000000
00000000
00010000
00000000
10000000
00000000
01000000
00000000
00100000
00010000
,
00100000
00010000
00100000
00010000
00100000
00010000
00100000
00010000
00100000
00010000
00100000
00000000
01000000
00000000
10000000
00000000
,
00110000
00000000
01000000
00001000
00110000
00000000
00001000
00010000
,
00001010
00000000
00000000
00000000
00000100
00000000
00000001
00000000
00001000
00000100
00001000
00000100
00001000
00000000
00000010
00000000
,
00010100
00000000
00010000
00001000
00010100
00000000
00001000
00100000
,
01010000
00000000
00000000
00000000
00100000
00000000
10000000
00000000
00010000
10000000
00010000
10000000
00010000
00000000
01000000
00000000
,
00110000
00000000
00100000
00010000
01001000
00000000
00010000
00000100
,
00011000
00000000
00000000
00000000
00000010
00000000
00000100
00000000
00000001
00001000
00000001
00001000
00000001
00000000
00000100
00000000
,
00010010
00000000
00000100
00010000
00101000
00000000
00010000
01000000
,
10100000
00000000
00000000
00000000
10000000
00010000
10000000
00010000
10000000
00010000
10000000
00010000
10000000
00000000
01000000
00000000
,
00100000
00010000
01000000
00100000
10000000
01000000
00100000
00010000
,
01000000
00100000
00010000
00001000
00000010
00000001
00001000
00000100
,
00000010
00000100
00001000
00000100
00000010
00000000
00000001
00000100
,
00000010
00000100
00000001
00000100
00000010
00001000
00000001
00000010
,
00000100
00001000
00000010
00000100
00000001
00000010
00000100
00001000
,
00000010
00000100
00001000
00010000
01000000
10000000
00010000
10000000
,
00010000
00000000
10000000
00000000
00010000
00000000
10000000
00000000
00010000
00000000
10000000
00000000
00100000
01000000
00100000
01000000
,
00100000
01000000
00100000
01000000
00010000
10000000
00100000
01000000
00100000
01000000
00010000
10000000
00100000
10000000
00000000
10000000
,
00010000
10000000
00000000
00010000
01000000
00000000
00000000
00000000
00011000
00000000
00000000
00000000
00001000
00010000
00000000
00010000
,
00000100
00000000
00001000
00000000
00000010
00000100
00000000
00000100
00000001
00000000
00001000
00000000
00000001
00000010
00000000
00000010
,
00000100
00000010
00000000
00000100
00001000
00000000
00000000
00000000
00011000
00000000
00000000
00000000
00100000
01000000
00000000
01000000
,
10000000
00000000
00100000
00000000
01000000
00010000
00000000
00010000
10000000
00000000
00100000
00000000
01010000
00000000
00000000
00000000
,
00000000
00000000
00000000
00000000
00000000
00000000
00000000
00000000
00000000
00000000
00000000
00000000
00000100
00000000
00000001
00001000
,
00000010
00000000
00000100
00000000
00000010
00000000
00001000
00000001
00000100
00000000
00000010
00000000
00000100
00000000
00000001
00001000
,
00000010
00000000
00000100
00000000
00000010
00000000
00001000
00000001
00000100
00000000
00001000
00000000
00010000
00000000
01000000
10000000
,
01000000
00000000
10000000
00000000
00100000
00000000
01000000
00010000
01000000
00000000
00010000
00000000
10000000
00000000
01000000
00010000
,
01000000
00000000
00010000
00000000
00001000
00000000
00000100
00000001
00000100
00000000
00000001
00000000
00001000
00000000
00000010
00000100
,
00000001
00000000
00001000
00000000
00000001
00000000
00000100
00000010
00001000
00000000
00000001
00000000
00001000
00000000
00000010
00000100
,
00000001
00000000
00001000
00000000
00000001
00000000
00001000
00000100
00000010
00000000
00001000
00000000
00010000
00000000
00100000
00000000
,
10000000
01000000
00010000
01000000
10000000
00100000
00010000
00100000
,
10000000
00000000
00010000
00000000
01000000
00000000
00000000
00100000
00000000
00000000
10000000
00000000
00100000
00000000
10000000
00010000
,
01000000
00000000
00100000
00000000
01000000
00000000
00010000
10000000
00100000
00000000
01000000
00000000
00100000
00000000
10000000
00010000
,
01000000
00000000
00100000
00000000
01000000
00000000
00010000
10000000
00100000
00000000
00010000
00000000
00001000
00000000
00000100
00000001
,
00000100
00000000
00000001
00000000
00000010
00000000
00000100
00001000
00000100
00000000
00001000
00000000
00000001
00000000
00000010
00001000
,
00000010
00000000
00001000
00000000
00010000
00000000
00100000
10000000
00100000
00000000
10000000
00000000
00010000
00000000
01000000
00100000
,
10000000
00000000
00010000
00000000
10000000
00000000
00100000
01000000
00010000
00000000
10000000
00000000
00010000
00000000
01000000
00100000
,
10000000
00000000
00010000
00000000
10000000
00000000
00010000
00100000
01000000
00000000
00010000
00000000
00001000
00000000
00000100
00000000
,
00000000
00000100
00000001
00000100
00000000
00000001
00001000
00000001
,
00000000
00000000
00001000
00000000
00000100
00000010
00000100
00000010
00000100
00000010
00000100
00000010
00000001
00000000
00000100
00000000
,
00000001
00000000
00000100
00000000
00001000
00000000
00010000
00000000
01000000
00000000
10000000
00000000
00000000
00000000
10000000
00010000
,
10000000
00100000
10000000
00010000
10000000
00010000
10000000
01000000
,
10000000
00000000
01000000
00000000
00010000
00000000
00001000
00000000
00000100
00000000
00000001
00000000
00000000
00000000
00000001
00001000
,
00000010
00000000
00000100
00000000
00000001
00000010
00000100
00001000
00000010
00000000
00000100
00000000
00000001
00000000
00001000
00000100
,
00000010
00000000
00000001
00000000
00000100
00000000
00001000
00000000
00010000
00000000
00000000
00000000
01000000
00000000
10000000
00010000
,
10000000
00100000
01000000
00100000
00010000
00001000
00011000
00000000
,
00101000
00011000
00010100
00001010
,
00000101
00000000
00000000
00000000
00001000
00000001
00001000
00000001
00001000
00000001
00001000
00000001
00001000
00000000
00000010
00000100
,
00000001
00000000
00000010
00000000
00000100
00000000
00010000
00001000
00100000
00000000
01000000
00000000
10000000
00000000
00010000
01000000
,
00100000
00000000
10000000
00000000
01000000
00000000
00100000
00010000
10000000
00000000
00100000
00000000
01000000
00000000
00001000
00010000
,
00001000
00000000
00010000
00000000
00000100
00000000
00010000
00001000
00010000
00000000
00001000
00000000
00100000
00000000
01000000
10000000
,
00100000
00000000
00010000
00000000
00001000
00000000
00000010
00000001
00001000
00000000
00000010
00000000
00000100
00000000
00000001
00001000
,
00000100
00000000
00010000
00000000
00001000
00000000
00100000
00010000
01000000
00000000
00100000
00000000
00010000
00000000
00001000
00010000
,
00000100
00000000
00001000
00000000
00000010
00000000
00000100
00000001
00000010
00000000
00000001
00000000
00000100
00000000
00000010
00010000
,
00000010
00000000
00010000
00000000
00001000
00000000
00100000
00001000
00100000
00000000
00010000
00000000
01000000
00000000
00100000
00000000
,
01000000
00000000
00100000
00000000
01000000
00000000
00100000
10000000
00010000
00000000
01000000
00000000
00100000
00000000
10000000
00000000
,
01000000
00010000
00001000
00000100
00000001
00001000
00000010
00000100
,
00000010
00001000
00000010
00000100
00000001
00001000
00000100
00000010
,
00000100
00001000
00000100
00000010
00000001
00000100
00001000
00010000
,
00001000
00100000
00001000
00010000
00000100
00001000
00000010
00000100
,
00000001
00000010
00001000
00010000
00100000
10000000
01000000
00100000
,
01000000
10000000
01000000
00100000
00010000
10000000
00100000
01000000
,
00100000
00000000
10000000
00000000
00100000
00000000
01000000
00000000
00010000
00000000
00100000
00000000
00001000
00010000
00001000
00010000
,
00001000
00010000
00001000
00010000
00001000
00000000
00100000
00001000
00010000
00000000
00000100
00000000
00001000
00000000
00000010
00000000
,
00010000
00000000
00001000
00100000
00010000
00000000
01000000
00100000
,
00010000
00000000
00001000
00000100
00000001
00000000
00000101
00000010
,
00001000
00000000
00001100
00000010
00000001
00000000
00000001
00000100
,
00001000
00000000
00010000
00000000
01000000
00000000
10000000
00000000
01000000
00100000
01000000
00100000
00001000
00000000
00010000
00000000
,
00000100
00000000
00010000
00001000
01000000
00000000
00100000
10000000
,
01000000
00000000
00010000
00001000
00000100
00000000
00011000
00100000
,
01000000
00000000
10100000
01000000
00010000
00000000
10000000
01000000
,
00010000
00000000
00001000
00000000
00000100
00000000
00000001
00000000
00001000
00000010
00001000
00000010
00001000
00000000
00000100
00000000
,
00000010
00000100
00001000
00000001
00000100
00000001
00001000
00010000
,
10000000
01000000
00100000
01000000
10000000
00000000
00100000
00010000
,
00000010
00000000
00000011
00000000
00000001
00001000
00001001
00000000
,
00000001
00000000
00000100
00000000
00001000
00000000
00010000
00000000
01000000
10000000
01000000
10000000
00100000
00000000
01000000
00000000
,
00010000
01000000
00100000
10000000
01000000
10000000
01000000
00010000
,
00000100
00000000
00000100
00010000
01000000
00000000
10000000
00010000
,
00001000
00000000
00001001
00000000
00000010
00000100
00001001
00000000
,
00000010
00000000
00000000
00000000
00010000
00001000
00010000
00001000
00010000
00001000
00010000
00001000
00020000
00000000
00000000
00000000
,
00000000
00030000
00000000
00000000
;
