#TITLE:Virus Funk;
#SUBTITLE:;
#ARTIST:Nhato;
#TITLETRANSLIT:;
#SUBTITLETRANSLIT:;
#ARTISTTRANSLIT:;
#GENRE:House;
#CREDIT:;
#BANNER:virusfunk-bn.png;
#BACKGROUND:virusfunk-bg.png;
#LYRICSPATH:;
#CDTITLE:;
#MUSIC:Virus Funk.mp3;
#OFFSET:-1.400000;
#SAMPLESTART:26.820000;
#SAMPLELENGTH:12.000000;
#SELECTABLE:YES;
#BPMS:0.000000=132.000000
;
#STOPS:
;
#BGCHANGES:;
#KEYSOUNDS:;
#ATTACKS:;

//---------------dance-single - ----------------
#NOTES:
     dance-single:
     :
     Hard:
     14:
     0.602218,0.736183,0.525845,0.227866,0.503935,481.000000,421.000000,60.000000,26.000000,0.000000,0.000000,0.602218,0.736183,0.525845,0.227866,0.503935,481.000000,421.000000,60.000000,26.000000,0.000000,0.000000:
0000
0000
0000
0000
,
0000
0000
0000
0000
,
0000
0000
0000
0000
,
0101
1100
1010
0011
,
0001
0100
1000
0100
0000
0001
0100
1000
,
0100
0001
0010
0100
0000
1000
0001
1001
,
0000
1000
0100
0001
0000
1000
0010
0001
,
0000
1000
0100
0001
0100
1000
1001
0000
,
1000
0010
0001
0010
0000
1000
0010
0001
,
0010
1000
0100
0011
0000
0001
0100
0010
,
0210
0000
0000
0000
0001
0000
0000
1000
0000
0000
0001
0000
0300
0000
0000
0000
,
1010
0011
0101
1100
,
0001
0100
1000
0010
0001
0100
1000
0010
,
0011
0000
0000
0000
0000
0000
0000
0000
0010
0100
1000
0100
0010
0000
0000
0000
,
2200
0000
0000
0000
3300
0000
0000
0000
1000
0010
0100
0001
0100
0010
1000
0010
,
0100
0000
0000
0001
0000
0000
1010
0000
0000
0100
0000
0000
0011
0000
0000
0000
,
1002
0000
0000
0000
0103
0000
0000
0000
0001
0010
0100
1000
0100
0010
0001
0010
,
0100
1000
0100
1000
0010
1000
0010
1000
0010
0100
0010
0100
0020
0200
0330
0000
,
0220
0000
0000
0000
0330
0000
0000
0000
1000
0001
0100
0010
0100
0001
1000
0010
,
0100
0000
0000
0010
0000
0000
1001
0000
0000
0010
0000
0000
1100
0000
0000
0000
,
2001
0000
0000
0000
3010
0000
0000
0000
0010
0100
0010
1000
0010
0001
0010
0000
,
0101
1100
1010
0011
,
0001
0000
1000
0100
1000
0000
0010
0000
0000
0000
1000
0100
1000
0000
0010
0000
,
0000
0000
0001
0100
0001
0000
0010
0000
0000
0000
0001
0100
0001
0000
0010
0000
,
0000
1000
0100
0011
0000
0001
0100
1010
,
0000
1000
0001
0100
0101
1010
0020
0000
,
0130
0000
0001
0100
0001
0000
0010
0000
0000
0000
0001
0100
0001
0000
0010
0000
,
0000
0000
1000
0100
1000
0000
0010
0000
0000
0000
1000
0100
1000
0000
0010
0000
,
1100
0000
0000
0010
0000
0000
0011
0000
0000
0000
0202
0000
0000
0000
0303
0000
,
0011
1010
1100
0101
,
0001
0000
0000
0000
0001
0000
0100
0010
1000
0000
0001
0000
0000
0000
2001
0000
,
0000
0000
0000
0000
,
0010
0000
0000
0000
0000
0000
0000
0000
0000
0000
3100
0010
0001
0000
1000
0000
,
1200
0000
0000
0000
,
0320
0000
0000
0000
0000
0000
0031
1000
0001
0000
0000
1100
0000
0000
0012
0000
,
0000
0000
0000
0000
,
0100
0000
0000
0000
0000
0000
1003
0010
0000
0000
0001
0000
0010
0000
1000
0000
,
2002
0000
0000
3003
1200
0000
0000
0000
,
0010
0000
0000
0300
,
1100
0000
0000
0100
1000
0000
0010
0100
0001
0000
0200
0020
0000
0000
0330
0000
,
1000
1000
0001
0001
1000
1000
0001
0001
,
1000
0010
0100
0001
0100
0010
1000
0100
0010
0001
0010
0100
1000
0010
0100
0001
,
0020
0000
0001
0000
0230
0000
1000
0000
0310
0001
0010
0001
0010
0000
0100
0000
,
1100
0000
0000
0000
2002
0000
0000
0000
3003
0000
0001
0010
0100
0000
1000
0010
,
0100
0000
0000
0011
0000
0000
1000
0000
0000
1100
0000
0000
0010
0100
0010
0100
,
0010
0000
0010
0000
0100
0010
0100
0001
1000
0000
1000
0000
1100
0000
0010
0000
,
0001
0000
0001
0000
1000
0000
1000
0000
0010
0100
0010
0100
0010
1000
0001
0000
,
1001
0000
0000
0000
1100
0000
0010
0000
0100
0000
0001
0010
0100
0010
0001
0010
,
0100
0000
0000
0000
0000
0000
1000
0000
0000
0010
0000
0000
0000
0000
0000
0100
0000
0000
0000
0000
0000
0000
0000
0000
0010
0000
0000
0000
0000
0000
1000
0000
0100
0000
1000
0000
0100
0000
0000
0000
0000
0000
0001
0000
0000
0010
0000
0000
,
0001
0100
0001
0010
0001
0000
2001
0000
0000
0000
3010
0000
0100
0001
1000
0010
,
1000
0000
0000
1100
0000
0000
1100
0000
0001
0000
0000
0000
1100
0000
0000
0000
,
0110
0000
0000
0000
1000
0000
0000
0000
0001
0010
0100
1000
0001
0010
0100
1000
,
0001
0000
0000
0100
0000
0000
1100
0000
0000
0100
0000
0000
0001
0000
0000
0000
,
0100
0000
0000
0000
0110
0000
0000
0000
1000
0100
0010
0001
1000
0100
0010
0001
,
1000
0010
0100
0001
1000
0010
0100
0001
1000
0100
0001
0100
1000
0001
0000
0000
,
1001
0000
0000
0000
0011
0000
0000
0000
0001
1000
0010
0100
0001
1000
0010
0100
,
0001
1000
0001
0000
1000
0000
0001
0000
1000
0001
1000
0000
0001
0000
1000
0000
,
0010
0100
0010
0100
0010
0100
0010
0100
0001
0010
0100
1000
0001
0010
0100
1000
,
0010
0000
0000
0000
0010
0000
0000
0000
0100
0000
0001
1000
0000
0010
0100
0000
,
0010
0000
1000
0001
1000
0000
0010
0000
1000
0001
1000
0000
0010
0000
0100
0000
,
1001
0000
0000
0000
;

//---------------dance-single - ----------------
#NOTES:
     dance-single:
     :
     Medium:
     10:
     0.398140,0.499553,0.254159,0.122697,0.096405,318.000000,289.000000,29.000000,14.000000,0.000000,0.000000,0.398140,0.499553,0.254159,0.122697,0.096405,318.000000,289.000000,29.000000,14.000000,0.000000,0.000000:
0000
0000
0000
0000
,
0000
0000
0000
0000
,
0000
0000
0000
0000
,
1001
0110
1001
0110
,
0000
1000
0100
0001
0000
0001
0100
1000
,
0000
0001
0100
1000
0000
1000
0100
0001
,
0000
1000
0100
0010
0000
0001
0100
0010
,
0000
1000
0100
0010
0010
0010
0001
0000
,
0000
0001
0010
1000
0000
1000
0010
0001
,
0000
1000
0010
0001
0000
0001
0010
1000
,
0001
0000
0000
1000
0000
0000
0100
0000
0000
0000
0200
0000
0000
0000
0300
0000
,
1010
0101
1010
0101
,
0001
1000
0001
1000
0001
1000
0001
1000
,
0000
0000
0000
0000
0010
0100
1001
0000
,
1100
0000
0000
0000
0001
0100
1000
0100
,
0001
0000
0000
0001
0000
0000
1000
0000
0000
1000
0000
0000
0001
0000
0000
0000
,
0000
0000
0000
0000
1000
0100
0001
0100
,
1000
0010
1000
0010
0100
0001
0100
0000
,
1001
0000
0000
0000
0001
0010
1000
0010
,
0001
0000
0000
0001
0000
0000
1000
0000
0000
1000
0000
0000
0001
0000
0000
0000
,
0000
0000
0000
0000
0100
0010
1000
0100
,
0011
1100
0011
1100
,
0000
0010
1000
0100
0000
0001
0100
1000
,
0000
0010
0100
1000
0000
0100
0001
1000
,
0000
0100
0010
0001
0000
0100
0010
0001
,
0000
0100
0010
0001
1000
1000
1000
0000
,
0000
0010
0100
0001
0000
0010
1000
0010
,
0000
0001
0100
0010
0000
0001
0010
0001
,
0010
0000
0000
1000
0000
0000
0001
0000
0000
0000
0002
0000
0000
0000
0003
0000
,
1100
0011
1100
0011
,
0000
0000
0000
0001
1000
0010
0000
0210
,
0000
0000
0000
0000
,
0000
0000
0000
0000
0300
0000
0000
0000
0000
0000
0010
0000
0000
1000
0000
0000
,
0201
0000
0000
0000
,
0320
0000
0000
0000
0000
0000
1030
0000
0100
0000
0000
0010
0000
0000
0210
0000
,
0000
0000
0000
0000
,
0300
0000
0000
2000
0000
3010
0100
0001
,
1002
0000
0023
0000
,
0000
0000
0000
0030
,
0001
0000
0000
0100
0000
0000
0020
0000
0000
0000
2000
0000
0000
0000
3030
0000
,
1000
0100
0010
0001
0100
0010
1000
0001
,
1000
1000
0001
0001
1000
1000
0001
0001
,
1000
0000
0010
0000
0001
0000
0010
0000
1000
0001
1000
0001
1000
0000
0000
0000
,
0101
0000
0000
0000
1100
0000
0000
0000
0000
0000
0010
0100
0010
0000
0000
0000
,
1000
0000
0000
1000
0000
0000
0001
0000
0000
0001
0000
0000
0000
0000
0000
0000
,
1000
0010
0000
0000
0001
0010
1000
0001
,
0100
0000
0100
0000
0010
0000
0010
0000
1000
0000
0001
0000
1000
0010
1000
0000
,
0000
0000
0000
0000
0010
0100
0001
0010
,
0100
0000
1000
0100
0000
0000
0010
0000
0001
0000
1000
0001
1000
0000
0000
0000
,
0001
0000
1000
0000
0010
0000
0200
0000
0000
0000
0301
0000
0010
0001
0000
0000
,
0100
0000
0000
0100
0000
0000
0100
0000
0010
0000
0000
0000
0110
0000
0000
0000
,
1001
0000
0000
0000
1000
0100
0001
0100
,
1000
0000
0000
0010
0000
0000
0001
0000
0000
0010
0000
0000
1000
0000
0000
0000
,
0000
0000
0000
0000
0001
0100
1000
0100
,
0001
0010
1000
0010
0001
0100
1000
0000
,
0101
0000
0000
0000
1000
0010
0001
0010
,
1000
0001
1000
0001
0100
0010
0100
0010
,
2000
0000
3002
0000
0103
0010
1000
0010
,
0100
0000
0000
0000
0100
0000
0000
0000
0001
0000
0000
1000
0000
0000
0010
0000
,
0000
1000
0100
0000
0001
0100
1000
0001
,
0110
0000
0000
0000
;

//---------------dance-single - ----------------
#NOTES:
     dance-single:
     :
     Beginner:
     3:
     0.174030,0.236630,0.131461,0.008764,0.000000,139.000000,124.000000,15.000000,1.000000,0.000000,0.000000,0.174030,0.236630,0.131461,0.008764,0.000000,139.000000,124.000000,15.000000,1.000000,0.000000,0.000000:
0000
0000
0000
0000
,
0000
0000
0000
0000
,
0000
0000
0000
0000
,
0001
0001
0001
0001
,
0001
0001
0000
0000
,
0010
0010
0000
0000
,
0000
1000
0000
0010
,
0000
0001
0000
0000
,
1000
1000
0000
0000
,
0100
0100
0000
0000
,
0001
0000
0100
0000
,
1000
1000
1000
1000
,
1000
1000
1000
1000
,
1000
0000
0000
0000
,
1001
0000
0100
0100
,
0100
0000
0000
0000
,
1001
0000
0010
0010
,
0010
0010
0010
0000
,
0110
0000
1000
1000
,
1000
0000
0000
0000
,
0110
0000
0001
0001
,
0001
0001
0001
0001
,
0001
0000
0000
0000
,
1000
1000
0000
0000
,
0000
0010
0000
0100
,
0000
0001
0000
0000
,
0010
0010
0000
0000
,
0100
0100
0000
0000
,
1000
0000
0010
0000
,
0100
0100
0100
0100
,
0100
0000
0000
0000
,
1001
0000
0000
0000
,
0000
0000
0000
0100
,
0100
0000
0000
0000
,
0110
0000
0010
0000
,
1001
0000
0000
0000
,
0000
0000
0000
0001
,
0001
0000
0000
0000
,
1001
0000
0000
0000
,
0020
0000
0000
0030
,
0010
0010
0010
0010
,
0010
0010
0010
0010
,
0000
0000
0000
0000
,
1001
0000
0000
1000
,
1000
0000
0001
0000
,
0100
0000
0100
0000
,
0100
0100
0100
0000
,
0110
0000
0010
0000
,
1000
0000
0001
0000
,
0010
0010
0000
0100
,
0100
0000
0000
1001
,
1001
0000
1000
1000
,
1000
0000
0000
0000
,
0110
0000
0001
0001
,
0001
0001
0001
0000
,
1001
0000
0010
0010
,
0010
0000
0100
0000
,
1000
1000
1000
1000
,
1000
0000
0010
0000
,
0100
0000
0100
0000
,
0110
0000
0000
0000
;

//---------------dance-single - ----------------
#NOTES:
     dance-single:
     :
     Easy:
     7:
     0.309247,0.368092,0.192810,0.219102,0.000000,247.000000,225.000000,22.000000,25.000000,0.000000,0.000000,0.309247,0.368092,0.192810,0.219102,0.000000,247.000000,225.000000,22.000000,25.000000,0.000000,0.000000:
0000
0000
0000
0000
,
0000
0000
0000
0000
,
0000
0000
0000
0000
,
1001
0110
1001
0110
,
0000
1000
0100
1000
0000
1000
0100
1000
,
0000
0001
0100
0001
0000
0001
0100
0001
,
0000
1000
0100
1000
0000
0001
0100
0001
,
0000
1000
0100
1000
0100
0000
0000
0000
,
0000
1000
0010
1000
0000
1000
0010
1000
,
0000
0001
0010
0001
0000
0001
0010
0001
,
0020
0000
0000
0030
,
1100
0011
1100
0011
,
1000
1000
1000
1000
,
0001
0000
0000
1001
,
0101
0000
0000
0000
0010
1000
0010
1000
,
0010
0000
0000
0000
,
2200
0000
3300
0000
0010
0001
0010
0001
,
0010
0000
0001
0000
0100
0100
0010
0000
,
0110
0000
0000
0000
0100
0001
0100
0001
,
0100
0000
0000
0000
,
2020
0000
3030
0000
0001
1000
0100
1000
,
0001
0001
0001
0001
,
0000
1000
0100
1000
0000
1000
0010
1000
,
0000
0001
0100
0001
0000
0001
0010
0001
,
0000
1000
0100
1000
0000
0001
0010
0001
,
0000
1000
0100
1000
0010
0000
0000
0000
,
0000
0100
0001
0100
0000
0010
1000
0010
,
0000
0100
0001
0100
0000
0010
1000
0010
,
2000
0000
0000
3000
,
0101
1010
0101
1010
,
0000
0000
0000
0001
1000
0001
0000
0200
,
0000
0000
0000
0000
,
0000
0000
0300
0000
0000
0020
0000
0000
,
2030
0000
0000
0000
,
3100
0000
0000
0010
0001
0010
0000
0002
,
0000
0000
0000
0000
,
0003
0000
0000
0010
0000
0010
0100
1000
,
0020
0000
0230
0000
,
0000
0000
0000
0300
,
1000
0010
0100
0001
,
0002
0203
0320
2030
,
3001
1000
0001
1000
0001
1000
0001
1000
,
0000
0000
0010
0110
,
0100
0000
0000
0000
0000
0001
1000
0000
,
0020
0000
0000
0030
,
1000
0100
0000
0000
0001
0100
0000
0000
,
1000
0000
1000
0000
0001
1000
0001
0000
,
0100
0000
0020
2030
,
3200
0000
0300
0000
0010
0100
0010
0000
,
0010
0100
2000
0020
0000
3030
0010
0100
,
0002
0000
0003
0001
1000
0000
1001
0000
,
0010
0000
0000
0000
0100
0001
0100
0001
,
0100
0000
0000
0010
,
2200
0000
3300
0000
0100
1000
0100
1000
,
0100
0000
0010
0000
0001
0001
1000
0000
,
1001
0000
0000
0000
0010
1000
0010
1000
,
0010
0010
0100
0100
,
0001
0000
1000
0000
0001
0010
0100
1000
,
0001
0001
1000
0000
,
0000
1000
0010
0000
0100
0001
1000
0000
,
1001
0000
0000
0000
;

//---------------dance-double - ----------------
#NOTES:
     dance-double:
     :
     Easy:
     5:
     0.240386,0.289215,0.096405,0.078877,0.000000,192.000000,181.000000,11.000000,9.000000,0.000000,0.000000,0.240386,0.289215,0.096405,0.078877,0.000000,192.000000,181.000000,11.000000,9.000000,0.000000,0.000000:
00000000
00000000
00000000
00000000
,
00000000
00000000
00000000
00000000
,
00000000
00000000
00000000
00000000
,
00000001
00000001
00000101
00001010
,
00000001
00000100
00000000
00001000
,
00010000
00100000
00000000
10000000
,
00000000
00010000
01000000
00010000
00000000
00010000
01000000
00010000
,
00000000
00010000
01000000
00010000
01000000
00000000
00000000
00000000
,
00100000
00010000
00000000
00000000
,
00001000
00000100
00000000
00000000
,
00000001
00000001
00000001
00001000
,
00000010
00000010
00000010
00000010
,
00010000
00001000
00010000
00001000
,
01000000
01000000
01000000
00100000
,
01100000
00000000
00000000
00000000
10000000
01000000
10000000
01000000
,
10000000
00000000
00010000
00100000
,
00001000
00000000
00010000
00000100
,
00001000
00000010
00000100
00000001
,
00001001
00000000
00000000
00000000
00000100
00000010
00000100
00000010
,
00000100
00000000
00000001
00000100
,
00000000
00000000
00001000
00010000
,
01000000
01000000
01000000
01000000
,
10000000
00100000
00000000
00010000
,
00001000
00000100
00000000
00000000
,
00000000
00000001
00001000
00000001
00000000
00000001
00001000
00000001
,
00000000
00000001
00001000
00000001
00000000
00000000
00000000
00000000
,
00000010
00000100
00000000
00000000
,
00000001
00000100
00000000
00000000
,
00001000
00000010
00010000
00001000
,
00100000
01000000
00100000
01000000
,
00000000
00000000
00000000
00000000
10000000
00010000
00000000
20000000
,
00000000
00000000
00000000
00000000
,
30000000
00000000
00000000
00000000
00000000
00100000
00000000
01000000
,
00002000
00000000
00003000
00000000
,
00011000
00000000
00000000
00000000
00010000
00000000
00000010
00000200
,
00000000
00000000
00000000
00000000
,
00000300
00000000
00000000
00000001
00000000
00001000
00000001
00000000
,
00002000
00000000
00003020
00000000
,
00000030
00000000
00000000
00000000
,
00000100
00000100
00000100
00000100
,
00000010
00000010
00000010
00000010
,
00020000
00000000
00000000
00000000
,
00031000
00000000
00000000
00000000
00001000
00100000
00010000
00000000
,
00110000
00000000
00000000
00000000
00000000
01000000
10000000
00000000
,
01000000
00100000
00010000
00000000
,
00100000
00001000
00000000
00000000
00010000
00000100
00000000
00000000
,
00001000
00001000
00000100
00000010
,
00000001
00000000
00000200
00000000
,
00000310
00000000
00000100
00000000
,
00001000
00010000
02000000
13000000
,
00010000
00000000
00000000
10010000
,
01100000
00000000
00000000
00000000
01000000
00100000
01000000
00100000
,
01000000
00000000
00010000
01000000
,
00001000
00000000
00010000
00000100
,
00001000
00000010
00000100
00000100
,
00000110
00000000
00000000
00000000
00000010
00001000
00000010
00001000
,
00000010
00010000
00001000
00100000
,
02000000
00000000
10000000
13000000
,
00010000
00000000
10010000
00000000
,
00000000
01000000
00001000
00000000
00001000
00010000
00000000
00000000
,
00011000
00000000
00000000
00000000
;

//---------------dance-double - ----------------
#NOTES:
     dance-double:
     :
     Medium:
     10:
     0.408156,0.473261,0.262923,0.140225,0.078877,326.000000,296.000000,30.000000,16.000000,0.000000,0.000000,0.408156,0.473261,0.262923,0.140225,0.078877,326.000000,296.000000,30.000000,16.000000,0.000000,0.000000:
00000000
00000000
00000000
00000000
,
00000000
00000000
00000000
00000000
,
00000000
00000000
00000000
00000000
,
10100000
01010000
00101000
00010100
,
00001000
00000010
00000100
00000001
00000000
00000010
00000100
00001000
,
00000000
00000010
00000100
00000001
00000000
00000100
00000010
00001000
,
00000000
00000001
00000100
00001000
00000000
00000100
00001000
00010000
,
00000000
00001000
00010000
01000000
10000000
01000000
10000000
00000000
,
10000000
00100000
01000000
00010000
00000000
01000000
00100000
10000000
,
00000000
01000000
00100000
00010000
00000000
00100000
01000000
10000000
,
00010000
00000000
00000000
00100000
00000000
00000000
00001000
00000000
00000000
00000000
00012000
00000000
00000000
00000000
00000000
00000000
,
00010000
00010000
00010000
00013000
,
00000010
00000100
00000001
00000100
00000010
00000100
00000001
00000100
,
00000010
00000000
00000000
00000000
00001000
00000001
00001001
00000000
,
00000101
00000000
00000000
00000000
00000010
00010000
00001000
00010000
,
00000010
00000000
00000000
00010000
00000000
00000000
00001000
00000000
00000000
00100000
00000000
00000000
00001000
00000000
00000000
00000000
,
00100000
00000000
00110000
00000000
01000000
00001000
00010000
00001000
,
01000000
00000000
00001000
00000000
00100000
00000000
01000000
00000000
10000000
00000000
01000000
00000000
00100000
00010000
00000000
00000000
,
10010000
00000000
01001000
00000000
00100000
00001000
00010000
00001000
,
00100000
00000000
00000000
00001000
00000000
00000000
00010000
00000000
00000000
00000100
00000000
00000000
00010000
00000000
00000000
00000000
,
00011000
00010000
00000010
00000000
00001000
00000010
00000100
00000001
,
00000101
00001010
00010100
00101000
,
00010000
01000000
00100000
10000000
00000000
00100000
01000000
00010000
,
00000000
10000000
01000000
00100000
00000000
00010000
00100000
01000000
,
00000000
10000000
01000000
00010000
00000000
01000000
00010000
00001000
,
00000000
00010000
00001000
00000100
00000001
00000100
00000001
00000000
,
00001001
00000001
00000100
00000001
00000000
00001000
00000010
00001000
,
00000000
00000100
00010000
00000100
00000000
00010000
00001000
00010000
,
00001000
00000000
00000000
00100000
00000000
00000000
00010000
00000000
00000000
00000000
02000000
00000000
00000000
00000000
03000000
00000000
,
10100000
01010000
00101000
00010100
,
00001000
00000000
00000000
00000000
00001000
00000000
00000010
00000100
00000010
00000000
00001000
00000000
00000000
00000000
00002002
00000000
,
00000000
00000000
00000000
00000000
,
00003003
00000000
00000000
00000000
00000000
00000010
00000000
00000100
,
00020000
00000000
00000000
00030000
,
00011000
00000000
00000000
00000000
00000000
00000000
00001000
00000000
01000000
00000000
00000000
00100000
00000000
00000000
02200000
00000000
,
00000000
00000000
00000000
00000000
,
03300000
00000000
00000000
20000000
00000000
30010000
00100000
01000000
,
20000000
00000000
32000000
00000000
,
03020000
00000000
00030000
00000000
,
00001000
00000000
00000000
00000100
00000000
00000000
00000001
00000000
00000000
00000000
00000001
00000000
00000000
00000000
00000000
00000000
,
00000100
00000010
00000100
00000010
00000100
00000010
00000100
00000010
,
00002000
00000000
00000000
00000000
,
00003100
00010000
00000100
00010000
00001000
00010000
00011000
00000000
,
00101000
00000000
00000000
00000000
00000000
00100000
00001000
00010000
,
00000010
00000000
00000000
00000100
00000000
00000000
00000010
00000000
00000000
00000100
00000000
00000000
00000010
00000000
00000000
00000000
,
00001000
00000200
00000000
00000300
00000010
00000001
00001000
00001000
,
00000001
00000100
00000001
00000100
00001000
00010000
01000000
10000000
,
00020000
00000000
00000000
00000000
00030000
00000000
00000000
00000000
01000000
00000000
00000000
01000000
00000000
00000000
01000000
00000000
,
00010000
00000000
00000000
00010000
00000000
00000000
00000000
00000000
01000000
00000000
00010000
00000000
10000000
00000000
00000000
00000000
,
00100000
10000000
00010000
02000000
00000000
03001000
00010000
00000100
,
00001000
00000000
00000000
00000001
00000000
00000000
00001000
00000000
00000001
00000000
00000000
00000000
00001001
00000000
00000000
00000000
,
00000110
00000000
00000000
00000000
00000001
00000010
00001000
00010000
,
00100000
00000000
00000000
10000000
00000000
00000000
00100000
00000000
00000000
10000000
00000000
00000000
10010000
00000000
00000000
00000000
,
01100000
00000000
00000000
00000000
10000000
00100000
00010000
00001000
,
00000010
00000001
00000010
00000001
00000100
00001000
00010000
00000000
,
02000000
00000000
13000000
00000000
10000000
00100000
00010000
00001000
,
00000010
00000001
00000010
00000001
00000100
00000010
00000100
00000010
,
00000100
00001000
00010000
01000000
10000000
00010000
00100000
01000000
,
00010000
00000000
00000000
00000000
00001000
00000000
00000000
00000000
00000100
00000000
00000000
00000001
00000000
00000000
00001000
00000000
,
00000000
00000010
00000100
00000000
00000010
00000100
00000001
00000001
,
00000101
00000000
00000000
00000000
;

//---------------dance-double - ----------------
#NOTES:
     dance-double:
     :
     Hard:
     14:
     0.555894,0.709891,0.473261,0.210338,0.438204,444.000000,390.000000,54.000000,24.000000,0.000000,0.000000,0.555894,0.709891,0.473261,0.210338,0.438204,444.000000,390.000000,54.000000,24.000000,0.000000,0.000000:
// measure 0
00000000
00000000
00000000
00000000
,  // measure 1
00000000
00000000
00000000
00000000
,  // measure 2
00000000
00000000
00000000
00000000
,  // measure 3
00101000
00011000
00010100
00011000
,  // measure 4
00001000
00010000
00100000
10000000
00000000
00010000
00100000
10000000
,  // measure 5
00000000
00010000
01000000
10000000
00000000
00010000
01000000
10000000
,  // measure 6
00000000
01000000
00010000
00100000
00000000
00001000
00010000
00000100
,  // measure 7
00000000
00001000
00000010
00000100
00000101
00001010
00000100
00000000
,  // measure 8
00000001
00000100
00001000
00010000
00000000
00000100
00001000
00010000
,  // measure 9
00000000
00001000
00010000
00100000
00000000
10000000
00010000
10000000
,  // measure 10
00010000
00000000
00000000
01100000
00000000
00000000
10000000
00000000
00000000
00000000
22000000
00000000
00000000
00000000
33000000
00000000
,  // measure 11
01010000
00011000
00001100
00000101
,  // measure 12
00000001
00001000
00000010
00000100
00000001
00001000
00000010
00000100
,  // measure 13
00000001
00000000
00000000
00000000
00000001
00000000
00000000
00000000
00000001
00000100
00001000
00000100
00000001
00000000
00000000
00000000
,  // measure 14
00001001
00000000
00000000
00000000
00000000
00000000
00000000
00000000
00000010
00010000
00000010
00010000
00000010
00000100
00000010
00000100
,  // measure 15
00000010
00000000
00000000
00001000
00000000
00000000
00000100
00000000
00000000
00010000
00000000
00000000
00011000
00000000
00000000
00000000
,  // measure 16
00201000
00000000
00000000
00000000
00310000
00000000
00000000
00000000
00100000
01000000
00100000
01000000
00100000
00001000
00100000
00001000
,  // measure 17
00010000
00001000
00010000
00001000
01000000
00010000
01000000
00010000
01000000
00100000
01000000
00100000
10000000
00010000
00000000
00000000
,  // measure 18
20020000
00000000
00000000
00000000
30030000
00000000
00000000
00000000
01000000
00001000
01000000
00001000
01000000
00100000
01000000
00100000
,  // measure 19
01000000
00000000
00000000
00100000
00000000
00000000
00001000
00000000
00000000
00010000
00000000
00000000
00011000
00000000
00000000
00000000
,  // measure 20
00010020
00000000
00000000
00000000
00001030
00000000
00000000
00000000
00000010
00000100
00000001
00001000
00000010
00000100
00000001
00000000
,  // measure 21
00000101
00001010
00010100
00011000
,  // measure 22
00010000
00001000
00000010
00000001
00000000
00001000
00000010
00000001
,  // measure 23
00000000
00001000
00000100
00000001
00000000
00001000
00000100
00000001
,  // measure 24
00000000
00000100
00001000
00000010
00000000
00010000
00001000
01000000
,  // measure 25
00000000
00100000
10000000
00010000
01000000
00100000
10010000
00000000
,  // measure 26
10000000
01000000
00010000
00001000
00000000
01000000
00010000
00001000
,  // measure 27
00000000
00010000
00001000
00000100
00000000
00001000
00000100
00000001
,  // measure 28
00001001
00000000
00000000
00000000
00001010
00000000
00000000
00001100
00000000
00000000
00000022
00000000
00000000
00000000
00000033
00000000
,  // measure 29
00001010
00011000
00110000
10100000
,  // measure 30
00000000
00000000
00000000
00000000
00000000
00000000
10000000
01000000
00100000
00000000
00001000
00000000
00000000
00000000
01002000
00000000
,  // measure 31
00000000
00000000
00000000
00000000
,  // measure 32
00003100
00000000
00000000
00000000
00000000
00000000
00000000
00000000
00000000
00000000
00010000
00000000
00000000
00001000
00000000
00000000
,  // measure 33
00000020
00000000
00000000
00000000
,  // measure 34
00002030
00000000
00000000
00000000
00000000
00000000
00103000
00000000
00001000
00000000
00000000
00010000
00000000
00000000
00020100
00000000
,  // measure 35
00000000
00000000
00000000
00000000
,  // measure 36
01030000
00000000
00000000
00002000
00000000
01003000
00100000
10000000
,  // measure 37
10020000
00000000
00032000
00000000
,  // measure 38
00003002
00000000
00000000
00000000
,  // measure 39
00000103
00000000
00000000
00001000
00000000
00000000
00010000
00000000
00000000
00000000
00011000
00000000
00000000
00000000
00101000
00000000
,  // measure 40
00100000
01000000
10000000
00010000
01000000
00100000
00010000
00100000
,  // measure 41
10000000
00010000
10000000
00010000
01000000
00001000
01000000
00001000
00010000
00001000
00010000
00001000
00010000
00000010
00010000
00000010
,  // measure 42
00000100
00000000
00000001
00000000
00000100
00000000
00001000
00000000
00000100
00000001
00000100
00000001
00000100
00000000
00000000
00000000
,  // measure 43
00001001
00000000
00000000
00000000
00000110
00000000
00000000
00000000
00000000
00000000
00000010
00000100
00000001
00000000
00000100
00000010
,  // measure 44
00001000
00000000
00000000
00010010
00000000
00000000
00010000
00000000
00000000
00101000
00000000
00000000
00001000
00000000
00100000
01000000
,  // measure 45
10000000
00000000
01000000
00000000
00100000
00000000
00010000
01000000
00100000
00000000
10000000
00000000
00010000
00000000
01000000
00000000
,  // measure 46
10000000
00000000
01000000
00000000
10000000
00000000
01000000
00000000
00010000
10000000
00010000
10000000
00010000
10000000
00100000
00000000
,  // measure 47
02200000
00000000
00000000
00000000
03300000
00000000
00000000
00000000
01000000
00000000
00001000
00010000
00001000
00000000
00010000
00000100
,  // measure 48
00010000
00000000
00000100
00001000
00000000
00000010
00000000
00000000
00000110
00000000
00000100
00000001
00001000
00000000
00000010
00001000
,  // measure 49
00000001
00000010
00000001
00000100
00000001
00000010
00000001
00000200
00000000
00000000
00000310
00000000
00010000
00001000
00010000
00001000
,  // measure 50
01000000
00000000
00000000
01001000
00000000
00000000
01100000
00000000
10100000
00000000
00000000
00000000
10010000
00000000
00000000
00000000
,  // measure 51
02200000
00000000
00000000
00000000
03300000
00000000
00000000
00000000
10000000
01000000
10000000
01000000
00100000
00001000
00100000
00001000
,  // measure 52
00010000
00000000
00000000
00010100
00000000
00000000
00000100
00000000
00000000
00001100
00000000
00000000
00001000
00000000
00000000
00000000
,  // measure 53
00000120
00000000
00000000
00000000
00001030
00000000
00000000
00000000
00000001
00000100
00000010
00001000
00000010
00000100
00000001
00001000
,  // measure 54
00000010
00001000
00000010
00001000
00000001
00000100
00000001
00000100
00000001
00000010
00000001
00000010
00000100
00001000
00000000
00000000
,  // measure 55
00002200
00000000
00000000
00000000
00003300
00000000
00000000
00000000
00000001
00000100
00000001
00000100
00000010
00010000
00000010
00010000
,  // measure 56
00001000
00000000
00000000
01001000
00000000
00000000
01000000
00000000
00000000
01010000
00000000
00000000
00010000
00000000
00100000
00000000
,  // measure 57
01000000
10000000
01000000
10000000
01000000
10000000
01000000
10000000
01000000
00100000
01000000
00100000
01000000
00100000
01000000
00100000
,  // measure 58
00010000
00000000
00000000
00000000
00010000
00000000
00000000
00000000
01000000
00000000
00000000
00100000
00000000
00000000
00010000
00000000
,  // measure 59
00001000
00000000
00000010
00000001
00000010
00000000
00000100
00000000
00000010
00000001
00000010
00000000
00001000
00000000
00010000
00000000
,  // measure 60
00011000
00000000
00000000
00000000
;
