#TITLE:Unisil;
#SUBTITLE:;
#ARTIST:SOPHIE;
#TITLETRANSLIT:;
#SUBTITLETRANSLIT:;
#ARTISTTRANSLIT:;
#GENRE:Pop;
#CREDIT:;
#BANNER:unisil-bn.png;
#BACKGROUND:unisil-bg.png;
#LYRICSPATH:;
#CDTITLE:;
#MUSIC:Unisil.mp3;
#OFFSET:-0.060000;
#SAMPLESTART:12.430000;
#SAMPLELENGTH:12.000000;
#SELECTABLE:YES;
#BPMS:0.000000=160.000000
;
#STOPS:
;
#BGCHANGES:;
#KEYSOUNDS:;
#ATTACKS:;

//---------------dance-single - ----------------
#NOTES:
     dance-single:
     :
     Hard:
     15:
     0.695429,0.788980,0.165686,0.007890,0.907326,617.000000,596.000000,21.000000,1.000000,0.000000,0.000000,0.695429,0.788980,0.165686,0.007890,0.907326,617.000000,596.000000,21.000000,1.000000,0.000000,0.000000:
0000
0000
0000
0000
,
0000
0000
0000
0000
,
0000
0000
0000
0000
,
0000
0000
0000
0000
,
0000
0000
0000
0000
1000
0100
1000
0100
0000
0000
0010
0000
0000
0100
1000
0100
,
1000
0000
0000
0000
0001
0010
0001
0010
0000
0000
0100
0000
0000
0010
0001
0010
,
0001
0000
0000
0000
1000
0001
0100
0010
0000
0000
0000
0000
0000
0000
0000
0000
,
0000
0000
0000
0000
0000
0010
0100
0010
,
1001
0000
0000
0000
1000
0010
1000
0010
0000
0000
0100
0000
0000
0010
1000
0010
,
1000
0000
0000
0000
0001
0010
0001
0010
0000
0000
0100
0000
0000
0010
0001
0010
,
0001
0000
0000
0000
0001
0100
0001
0100
0000
0000
0010
0000
0000
0100
0001
0100
,
0001
0000
0000
0000
1000
0100
1000
0100
0000
0000
0010
0000
0000
0100
1000
0100
,
1000
0000
0000
0000
0010
1000
0010
1000
0000
0000
0001
0000
0000
1000
0010
1000
,
0010
0000
0000
0000
0100
0001
0100
0001
0000
0000
1000
0000
0000
0001
0100
0001
,
0100
0000
0000
0000
0001
0010
0100
1000
0000
0000
0001
0000
0000
1000
0100
0010
,
0001
0000
0000
0000
0000
0000
0000
0100
,
1001
0000
0000
0000
0001
0100
0001
0100
0000
0000
0010
0000
0000
1000
0010
1000
,
0010
0000
0000
0000
1000
0100
1000
0100
0000
0000
0010
0000
0000
0001
0010
0001
,
0010
0000
0000
0000
0001
1000
0001
1000
0000
0000
0010
0000
0000
0100
0010
0100
,
0010
0000
0000
0000
0010
0100
0010
0100
0000
0000
0001
0000
0000
1000
0001
1000
,
0001
0000
0000
0000
0001
0010
0001
0010
0000
0000
0100
0000
0000
1000
0100
1000
,
0100
0000
0000
0000
1000
0010
1000
0010
0000
0000
0100
0000
0000
0001
0100
0001
,
0100
0000
0000
0000
,
0000
0000
0000
0000
0000
0010
0100
0010
,
1001
0000
0000
0000
1000
0100
0010
0001
0000
0000
0001
0000
0000
1000
0100
0010
,
0001
0000
0000
0000
0001
0010
0100
1000
0000
0000
1000
0000
0000
0001
0010
0100
,
1000
0000
0000
0000
0010
0100
0001
1000
0000
0000
0010
0000
0000
0010
0100
0001
,
1000
0000
0000
0000
1000
0001
0100
0010
0000
0000
0100
0000
0011
0000
0000
0000
,
0101
0000
0000
0000
0010
1000
0001
0100
0000
0000
0100
0000
0000
0010
1000
0001
,
0100
0000
0000
0000
0100
0001
1000
0010
0000
0000
0010
0000
0000
0100
0001
1000
,
0010
0000
0000
0000
1000
0010
0100
0001
0000
0000
0001
0000
0000
1000
0010
0100
,
0001
0000
0000
0000
1001
0000
0000
0000
0010
0100
0010
0100
0010
0000
1001
0000
,
1000
0100
0001
0010
,
1000
0100
0001
0010
,
1000
0010
0001
0100
,
1000
0010
0001
0100
,
1000
0100
0001
0010
,
1000
0100
0001
0010
,
1001
0000
0000
0000
,
0100
0000
0000
0100
0000
0000
0100
0000
0000
0100
0000
0000
0100
0000
0000
0000
,
1001
0000
0000
0000
1000
0010
0100
0010
0000
0000
1000
0000
0000
0010
0100
0010
,
1000
0000
0000
0000
0001
0010
0100
0010
0000
0000
0001
0000
0000
0010
0100
0010
,
0001
0000
0000
0000
0100
0001
0010
0001
0000
0000
0100
0000
0000
0001
0010
0001
,
0100
0000
0000
0000
0010
1000
0100
1000
0000
0000
0010
0000
0200
0000
0310
0100
,
0001
0000
0000
0000
1000
0001
0100
0001
0000
0000
1000
0000
0000
0001
0100
0001
,
1000
0000
0000
0000
0001
1000
0010
1000
0000
0000
0001
0000
0000
1000
0010
1000
,
0001
0000
0000
0000
0100
0001
1000
0001
0000
0000
0100
0000
0000
0001
1000
0001
,
0100
0000
0000
0000
,
1001
0000
0000
0000
0001
0100
0010
1000
0000
0000
0010
0000
0000
1000
0010
0100
,
0001
0000
0000
0000
1000
0100
0010
0001
0000
0000
0100
0000
0000
0001
0010
0100
,
1000
0000
0000
0000
0010
0100
0001
1000
0000
0000
0010
0000
0000
0100
0010
1000
,
0001
0000
0000
0000
0010
0001
1000
0100
0000
0000
0010
0000
0000
0100
1000
0001
,
0010
0001
1000
0010
1000
0001
0100
0010
0000
0000
1000
0000
0000
0001
0100
0010
,
1000
0000
0000
0000
0001
1000
0010
0100
0000
0000
0001
0000
0000
1000
0100
0010
,
0001
0000
0000
0000
0100
0010
1000
0001
0000
0000
0100
0000
0000
0001
0010
0100
,
1000
0000
0000
0000
0000
0010
0100
0010
,
1001
0100
0010
0100
0000
0000
0000
0011
,
0000
0100
1010
0000
0000
0000
0001
0010
,
1000
0001
0100
1000
0000
0000
0000
1010
,
0000
0100
0011
0000
0000
0000
1000
0100
,
0001
1000
0010
0001
0000
0000
0000
0101
,
0000
0010
1100
0000
0000
0000
0001
0010
,
1000
0001
0100
1000
0000
0000
0000
1010
,
0000
0000
0100
0000
0011
0000
0000
0000
0001
0010
0100
1000
0010
0100
0001
1000
,
0010
0000
0000
0000
0100
0001
1000
0010
1000
0100
0010
0001
0100
0010
1000
0010
,
0100
0000
0000
0000
0000
0000
0000
0000
0010
0100
0001
1000
0001
0100
0010
1000
,
0100
0000
0000
0000
0010
0100
1000
0100
0010
0001
1000
0010
0100
0001
1000
0001
,
0010
0000
0000
0000
0000
0000
0000
0000
0001
1000
0100
1000
0010
0100
0001
1000
,
0100
0000
0000
0000
0100
1000
0010
1000
0100
0010
0001
0100
0010
1000
0001
0100
,
0001
0000
0000
0000
0000
0000
0000
0000
0010
0001
1000
0010
0100
0001
0010
0100
,
1000
0000
0000
0000
0010
0100
0001
0100
0010
1000
0100
0010
0001
1000
0100
0010
,
0100
0000
0000
0000
0000
0000
0000
0000
0100
1000
0100
1000
0100
0000
0011
0000
,
0000
0000
0000
0000
0001
0100
0010
0100
0001
0010
0100
1000
0010
0100
0010
1000
,
0001
0000
0000
0000
0000
0000
0000
0000
0010
0001
1000
0001
0100
0010
1000
0010
,
0100
0000
0000
0000
0000
0000
0000
0000
0010
1000
0100
1000
0010
0100
0001
0010
,
0100
0000
0000
0000
0000
0000
0000
0000
1000
0001
0100
0001
1000
0100
0010
0001
,
0100
0000
0001
0010
0100
1000
0100
0010
0001
0100
0010
0100
0001
0010
0100
1000
,
0100
0000
0000
0000
0000
0000
0000
0000
1000
0010
0100
0001
0010
0100
1000
0010
,
0100
0000
0010
0100
0001
1000
0001
0100
0010
1000
0100
1000
0010
0100
0001
0010
,
0100
0000
0000
0000
0000
0000
0000
0000
1000
0001
0100
0010
1000
0010
0100
0000
,
1001
0000
0000
0000
;

//---------------dance-single - ----------------
#NOTES:
     dance-single:
     :
     Medium:
     12:
     0.480150,0.504947,0.110457,0.000000,0.185410,426.000000,412.000000,14.000000,0.000000,0.000000,0.000000,0.480150,0.504947,0.110457,0.000000,0.185410,426.000000,412.000000,14.000000,0.000000,0.000000,0.000000:
0000
0000
0000
0000
,
0000
0000
0000
0000
,
0000
0000
0000
0000
,
0000
0000
0000
0000
,
0000
0000
0000
0000
1000
0000
0100
0010
0000
0000
0010
0000
0000
0010
0100
0000
,
1000
0000
0000
0000
0001
0000
0100
0010
0000
0000
0010
0000
0000
0010
0100
0000
,
0001
0000
1000
0001
0000
0000
0000
0000
,
0000
0000
0000
0000
0000
0001
0010
0100
,
1000
0000
0000
0000
0001
0000
0010
0100
0000
0000
0100
0000
0000
0100
0010
0000
,
0001
0000
0000
0000
1000
0000
0010
0100
0000
0000
0100
0000
0000
0100
0010
0000
,
1000
0000
0000
0000
0010
0000
1000
0001
0000
0000
0001
0000
0000
0001
1000
0000
,
0010
0000
0000
0000
0100
0000
0001
1000
0000
0000
1000
0000
0000
1000
0001
0000
,
0100
0000
0000
0000
0001
0000
0100
0010
0000
0000
0010
0000
0000
0010
0100
0000
,
0001
0000
0000
0000
1000
0000
0100
0010
0000
0000
0010
0000
0000
0010
0100
0000
,
1000
0000
0001
0100
0000
1010
0000
0100
,
0001
0000
0000
0000
0000
0000
0000
0010
,
0100
0000
0000
0000
1000
0000
0100
0010
0000
0000
0001
0000
0000
0010
0100
0000
,
1000
0000
0000
0000
0001
0000
0010
0100
0000
0000
1000
0000
0000
0100
0010
0000
,
0001
0000
0000
0000
0100
0000
0010
1000
0000
0000
0001
0000
0000
1000
0010
0000
,
0100
0000
0000
0000
0010
0000
0100
0001
0000
0000
1000
0000
0000
0001
0100
0000
,
0010
0000
0000
0000
0100
0000
0001
0010
0000
0000
0001
0000
0000
0100
0010
0000
,
1000
0000
0000
0000
0010
0000
1000
0100
0000
0000
0010
0000
0000
0100
1000
0000
,
0001
0000
0000
0000
,
0000
0000
0000
0000
0000
1000
0100
0010
,
0001
0000
1000
0100
0000
0001
0000
0100
,
1000
0000
0001
0100
0000
1000
0000
0100
,
0001
0000
1000
0010
0000
0100
0000
1000
,
0100
0000
0001
0010
0000
0100
1000
0000
,
1001
0000
0001
0100
0000
1000
0000
0100
,
0010
0000
1000
0100
0000
0001
0000
0100
,
0010
0000
0001
0100
0000
0010
0000
0001
,
0010
0000
1000
0100
0010
0001
0100
0110
,
0010
1000
0001
0100
,
0010
0010
0100
0001
,
1000
0001
0100
0010
,
1000
1000
0010
0100
,
0001
1000
0100
0010
,
0001
0001
0010
0100
,
1000
0000
0000
0000
,
0000
0000
0000
0000
,
1001
0000
0000
0000
0001
0000
0100
0010
0000
0000
1000
0000
0000
0010
0100
0000
,
0001
0000
0000
0000
1000
0000
0100
0010
0000
0000
0001
0000
0000
0010
0100
0000
,
1000
0000
0000
0000
0010
0000
0100
0001
0000
0000
0001
0000
0000
0001
0100
0000
,
0010
0000
0000
0000
0100
0000
0010
1000
0000
0000
1000
0000
0010
0000
0100
0000
,
0001
0000
0000
0000
1000
0000
0100
0010
0000
0000
0001
0000
0000
0100
0010
0000
,
1000
0000
0000
0000
0001
0000
0010
0100
0000
0000
1000
0000
0000
0010
0100
0000
,
0001
0000
0000
0000
0100
0000
0010
1000
0000
0000
0001
0000
0000
1000
0010
0000
,
0100
0000
0000
0000
,
1001
0000
0001
0100
0000
1000
0000
0100
,
0010
0000
1000
0100
0000
0001
0000
0100
,
0010
0000
1000
0010
0000
0001
0000
0010
,
0100
0000
0001
0010
0000
1000
0000
0010
,
0100
0000
0001
0000
1000
0000
0100
0001
0000
0000
0001
0000
0000
0001
0100
0000
,
1000
0000
0000
0000
0001
0000
0100
1000
0000
0000
1000
0000
0000
1000
0100
0000
,
0001
0000
0000
0000
1000
0000
0010
0001
0000
0000
0001
0000
0000
0001
0010
0000
,
1000
0000
0000
0000
0000
0001
0010
0100
,
1000
0010
0100
0001
0000
0000
0000
0011
,
0000
0010
0011
0000
0000
0000
0001
0100
,
0010
1000
0100
0010
0000
0000
0000
0110
,
0000
0010
0110
0000
0000
0000
1000
0010
,
0100
0001
0010
0100
0000
0000
0000
1100
,
0000
0100
1100
0000
0000
0000
1000
0010
,
0100
0001
0100
0010
0000
0000
0000
1001
,
0000
0001
1001
0000
0010
0100
0001
1000
,
0010
0000
1000
0100
0001
0100
0010
0100
,
1000
0000
0000
0000
0001
0100
1000
0100
,
0001
0000
0001
0010
0100
0010
1000
0010
,
0001
0000
0000
0000
0100
0010
1000
0010
,
0100
0000
0100
0010
1000
0010
0001
0010
,
1000
0000
0000
0000
1000
0100
0010
0100
,
1000
0000
1000
0100
0010
0100
0001
0100
,
1000
0000
0000
0000
0001
0100
1000
0010
,
0001
0000
1000
0010
0001
0010
0100
0010
,
1000
0000
0000
0000
0001
0100
0010
1000
,
0001
0000
0000
0000
0001
0100
1000
0100
,
0001
0000
0000
0000
1000
0100
0001
0100
,
1000
0010
0100
0010
0001
0010
1000
0100
,
0010
0000
0000
0000
0001
0100
0010
0001
,
0010
1000
0100
0010
0001
0100
0010
0100
,
0001
0000
0000
0000
0001
0010
0100
1000
,
1001
0000
0000
0000
;

//---------------dance-single - ----------------
#NOTES:
     dance-single:
     :
     Easy:
     8:
     0.346024,0.347151,0.047339,0.078898,0.000000,307.000000,301.000000,6.000000,10.000000,0.000000,0.000000,0.346024,0.347151,0.047339,0.078898,0.000000,307.000000,301.000000,6.000000,10.000000,0.000000,0.000000:
0000
0000
0000
0000
,
0000
0000
0000
0000
,
0000
0000
0000
0000
,
0000
0000
0000
0000
,
0000
1000
0100
0010
,
0001
0001
0010
0100
,
1000
1001
0000
0000
,
0000
0000
0000
0000
0000
0010
0100
0010
,
0100
0001
1000
1000
,
0010
1000
0001
0001
,
0010
0001
1000
1000
,
0100
1000
0001
0001
,
0100
0000
0010
1000
0000
0001
0000
1000
,
0010
0000
0100
0001
0000
1000
0000
0001
,
0100
0000
0002
0000
0000
0000
0000
1003
,
0000
0000
0000
0000
,
1001
1000
0100
0010
,
0100
1000
0010
0100
,
0001
0001
0010
0100
,
0010
0001
0100
0010
,
1000
0000
0001
0100
0000
0010
0000
0100
,
0001
0000
1000
0100
0000
0010
0000
0100
,
2000
0000
0000
0000
,
3000
0000
0000
0000
0000
0001
1000
0001
,
2000
0000
0100
0000
0000
0000
3010
0001
,
2000
0000
0010
0000
0000
0000
3100
0010
,
0002
0000
0100
0000
0000
0000
0013
1000
,
0002
0010
0000
0103
,
0200
0000
0010
0000
0000
0000
0310
1000
,
0200
0000
0010
0000
0000
0000
0310
0001
,
0020
0000
0001
0000
0000
0000
0031
0100
,
0020
0000
0100
0000
0000
0000
0030
0100
,
0010
0001
1000
0010
,
0010
1000
0001
0100
,
0100
0001
1000
0010
,
0010
1000
0001
0100
,
0100
0001
1000
0010
,
0010
1000
0001
0100
,
0100
0000
0000
0000
,
0000
0000
0000
0000
,
1001
1000
0100
0001
,
0100
1000
0010
0100
,
0001
0001
0100
1000
,
0100
0000
0001
0000
0010
0000
0100
1000
,
0100
0000
1000
0010
0000
0100
0000
0001
,
0010
0000
0001
0100
0000
0010
0000
1000
,
0100
0000
1000
0100
0000
0010
0000
0001
,
1000
0000
0000
0000
,
1001
0001
0100
0010
,
0001
0010
1000
0001
,
1001
1000
0100
0010
,
1000
0000
0010
0000
0001
0000
1000
0001
,
1000
0000
0010
1000
0000
0100
0000
1000
,
0010
0000
0100
0001
0000
0010
0000
0001
,
0100
0000
0010
1000
0000
0001
0000
0100
,
0010
0000
0000
0000
0000
1000
0100
1000
,
0100
0010
0001
0010
0001
0000
0000
0100
,
0000
0100
0100
0000
0000
0000
0010
1000
,
0010
0100
0001
0100
0000
0000
0000
0010
,
0000
0010
0010
0000
0000
0000
1000
0001
,
1000
0010
0100
0010
0000
0000
0000
1000
,
0000
1000
1000
0000
0000
0000
0001
0010
,
0001
1000
0100
1000
0000
0000
0000
0001
,
0000
0001
0001
0000
0000
0000
0000
0000
,
0110
0100
0001
1000
,
0000
0000
0000
0000
0010
1000
0010
1000
,
0000
0000
1000
0000
0001
0010
0100
0000
,
1000
0000
0000
0000
0001
0100
0001
0100
,
0000
0000
0010
0000
0100
0010
1000
0000
,
0001
0000
0000
0000
0010
0100
0010
0100
,
0000
0000
1000
0000
0100
0010
0001
0000
,
1000
0000
0000
0000
0100
1000
0100
0010
,
0000
0000
0001
0000
0010
0100
0010
0000
,
0001
0000
0000
0000
1000
0100
0010
0000
,
0100
0000
0000
0000
1000
0010
0100
0001
,
0000
0000
0000
0000
0001
0010
0100
1000
,
0000
0000
0010
0000
0100
0010
1000
0001
,
0000
0000
0000
0000
0001
1000
0010
0100
,
0000
0000
0010
0000
0100
0001
1000
0010
,
0000
0000
0000
0000
0010
0100
0010
0100
,
0010
0000
0000
0000
;

//---------------dance-single - ----------------
#NOTES:
     dance-single:
     :
     Beginner:
     4:
     0.143143,0.189355,0.023669,0.000000,0.000000,127.000000,124.000000,3.000000,0.000000,0.000000,0.000000,0.143143,0.189355,0.023669,0.000000,0.000000,127.000000,124.000000,3.000000,0.000000,0.000000,0.000000:
0000
0000
0000
0000
,
0000
0000
0000
0000
,
0000
0000
0000
0000
,
0000
0000
0000
0000
,
0000
1000
0000
0001
,
0000
0001
0000
1000
,
0000
1001
0000
0000
,
0000
0000
0000
0000
,
0001
0001
0000
0100
,
0000
0010
0000
0100
,
0000
0001
0000
0010
,
0000
0100
0000
1000
,
0000
1000
0000
0010
,
0000
0100
0000
0010
,
0000
1000
0000
0001
,
0000
0000
0000
0000
,
0100
0000
0001
0000
,
0010
0000
0001
0000
,
0100
0000
0010
0000
,
1000
0000
0001
0000
,
0010
0000
0100
0000
,
1000
0000
0100
0000
,
0010
0000
0000
0000
,
0000
0000
0000
0000
,
0001
0001
0000
1000
,
0000
0001
0000
1000
,
0000
0010
0000
0100
,
0000
0010
0000
0100
,
0000
0001
0000
0010
,
0000
0001
0000
1000
,
0000
1000
0000
0010
,
0000
1000
0000
0000
,
0001
0001
0000
0000
,
0000
0010
0000
0000
,
0000
1000
0000
0000
,
0000
0100
0000
0000
,
0000
0001
0000
0000
,
0000
1000
0000
0000
,
1001
0000
0000
0000
,
0000
0000
0000
0000
,
0100
0100
0000
0001
,
0000
0010
0000
0001
,
0000
0100
0000
0010
,
0000
1000
0000
0001
,
0000
0010
0000
0001
,
0000
1000
0000
0001
,
0000
0010
0000
0100
,
0100
0000
0000
0000
,
1000
1000
0000
0010
,
0000
0100
0000
0001
,
0000
0001
0000
0010
,
0000
0100
0000
1000
,
0000
1000
0000
0001
,
0000
0100
0000
0010
,
0000
0010
0000
0100
,
0100
0000
0000
0000
,
0001
0001
0000
0000
,
0000
1000
0000
0000
,
0010
0010
0000
0000
,
0000
0100
0000
0000
,
0010
0010
0000
0000
,
0000
1000
0000
0000
,
1000
1000
0000
0000
,
0000
0100
0000
0000
,
0010
0010
0000
0000
,
0000
0000
0001
0000
,
0000
1000
1000
0000
,
0000
0000
0010
0000
,
0000
0100
0100
0000
,
0000
0000
0001
0000
,
0000
0010
0010
0000
,
0000
0000
0100
0000
,
0000
1000
1000
0000
,
0000
0000
0010
0000
,
0000
0000
0100
0000
,
0000
0000
0001
0000
,
0000
0000
0010
0000
,
0000
0000
0100
0000
,
0000
1000
1000
0000
,
0000
0000
0001
0000
,
1001
0000
0000
0000
;

//---------------dance-double - ----------------
#NOTES:
     dance-double:
     :
     Easy:
     8:
     0.337007,0.378710,0.023669,0.055229,0.000000,299.000000,296.000000,3.000000,7.000000,0.000000,0.000000,0.337007,0.378710,0.023669,0.055229,0.000000,299.000000,296.000000,3.000000,7.000000,0.000000,0.000000:
00000000
00000000
00000000
00000000
,
00000000
00000000
00000000
00000000
,
00000000
00000000
00000000
00000000
,
00000000
00000000
00000000
00000000
,
00000000
00000001
00000100
00001000
,
00000000
00010000
01000000
10000000
,
00000000
00100000
00000000
00000000
,
00000000
00000000
00000000
00000000
00000000
00100000
01000000
00100000
,
01000000
00100000
00010000
00001000
,
00000010
00000010
00001000
00010000
,
00100000
01000000
00010000
00001000
,
00000100
00000100
00001000
00010000
,
01000000
00000000
10000000
00100000
00000000
01000000
00000000
00100000
,
00010000
00000000
00001000
00000100
00000000
00000010
00000000
00000100
,
00000001
00001000
00000000
00000001
,
00000000
00000000
00000000
00000000
,
00001001
00000001
00000100
00001000
,
00010000
00001000
00010000
01000000
,
10000000
10000000
00100000
00010000
,
00001000
00010000
00001000
00000010
,
00000001
00000000
00000100
00000010
00000000
00000100
00000000
00001000
,
00010000
00000000
01000000
00100000
00000000
00010000
00000000
10000000
,
00100000
00000000
00000000
00000000
,
00000000
00000000
00000000
00000000
00000000
00010000
10000000
00010000
,
20000000
00000000
00100000
00000000
00000000
00000000
30100000
00010000
,
00002000
00000000
00000010
00000000
00000000
00000000
00003010
00000001
,
00000200
00000000
00000001
00000000
00000000
00000000
00000301
00000010
,
00002000
00010000
00000000
00013000
,
00200000
00000000
10000000
00000000
00000000
00000000
10300000
01000000
,
00020000
00000000
00001000
00000000
00000000
00000000
00031000
00000010
,
00000002
00000000
00000100
00000000
00000000
00000000
00000013
00001000
,
00010000
00100000
10000000
00010000
,
10000000
01000000
00010000
00001000
,
00000100
00000001
00000010
00001000
,
00010000
01000000
10000000
00100000
,
00010000
00001000
00000010
00000001
,
00000100
00001000
00010000
01000000
,
10000000
00100000
00010000
00001000
,
00011000
00000000
00000000
00000000
,
00000000
00000000
00000000
00000000
,
00000001
00000100
00000010
00000100
,
00001000
00010000
01000000
10000000
,
10000000
00100000
01000000
00100000
,
00010000
00000000
00001000
00000000
00000100
00000000
00000001
00001000
,
00000001
00000000
00000001
00000100
00000000
00001000
00000000
00010000
,
01000000
00000000
10000000
01000000
00000000
00010000
00000000
00001000
,
00000100
00000000
00000001
00000010
00000000
00001000
00000000
00010000
,
00100000
00000000
00000000
00000000
,
10000000
00010000
01000000
00100000
,
00010000
00001000
00000100
00000001
,
00000001
00001000
00000010
00000100
,
00001000
00000000
00010000
00000000
01000000
00000000
10000000
00100000
,
01000000
00010000
10000000
00000000
01000000
00000000
00100000
00000000
,
00010000
01000000
00100000
00010000
,
00001000
00000100
00000001
00001000
,
00000010
00000000
00000000
00000000
00000000
00010000
00001000
00010000
,
00001000
01000000
00010000
01000000
00000000
00000000
00000000
00100000
,
00000000
00100000
00100000
00000000
00000000
00000000
10000000
01000000
,
10000000
01000000
00010000
01000000
00000000
00000000
00000000
00010000
,
00000000
00010000
00010000
00000000
00000000
00000000
00001000
00000100
,
00001000
00000100
00000001
00000100
00000000
00000000
00000000
00000001
,
00000000
00000001
00000001
00000000
00000000
00000000
00000010
00001000
,
00000010
00001000
00010000
00001000
00000000
00000000
00000000
00010000
,
00000000
00010000
00010000
00000000
00100000
00000000
10000000
00000000
,
10010000
00000000
10000000
00000000
01000000
00100000
00010000
01000000
,
00000000
00000000
00100000
00010000
,
00001000
00000000
00000010
00000000
00000001
00001000
00000010
00000100
,
00000000
00000000
00001000
00010000
,
01000000
00000000
10000000
00000000
00100000
01000000
00010000
10000000
,
00000000
00100000
00010000
00001000
,
00000010
00000000
00000001
00000000
00001000
00000010
00000100
00000001
,
00000000
00000000
00000000
00000000
00000010
00000000
00001000
00010000
,
00100000
00000000
10000000
00000000
00010000
01000000
00100000
10000000
,
00000000
00000000
00100000
00010000
,
00001000
00000000
00000010
00000001
,
00001000
00000000
00000100
00010000
,
00001000
01000000
00100000
10000000
00010000
00000000
01000000
00000000
,
00100000
00000000
10000000
01000000
,
00010000
00001000
00000100
00000000
00000001
00000000
00000010
00000000
,
00001000
00000000
00000000
00000000
00010000
00100000
10000000
01000000
,
00100000
00000000
00000000
00000000
;

//---------------dance-double - ----------------
#NOTES:
     dance-double:
     :
     Hard:
     16:
     0.670633,0.788980,0.126237,0.000000,0.808704,595.000000,579.000000,16.000000,0.000000,0.000000,0.000000,0.670633,0.788980,0.126237,0.000000,0.808704,595.000000,579.000000,16.000000,0.000000,0.000000,0.000000:
// measure 0
00000000
00000000
00000000
00000000
,  // measure 1
00000000
00000000
00000000
00000000
,  // measure 2
00000000
00000000
00000000
00000000
,  // measure 3
00000000
00000000
00000000
00000000
,  // measure 4
00000000
00000000
00000000
00000000
00000001
00000100
00000001
00000100
00000000
00000000
00000010
00000000
00000000
00001000
00000100
00001000
,  // measure 5
00000100
00000000
00000000
00000000
00010000
00001000
00010000
00001000
00000000
00000000
01000000
00000000
00000000
00100000
10000000
00100000
,  // measure 6
10000000
00000000
00000000
00000000
10000000
00010000
01000000
00100000
00000000
00000000
00000000
00000000
00000000
00000000
00000000
00000000
,  // measure 7
00000000
00000000
00000000
00000000
00000000
00010000
00001000
00000010
,  // measure 8
00000001
00000000
00000000
00000000
00001000
00000010
00001000
00000010
00000000
00000000
00000100
00000000
00000000
00000010
00001000
00000010
,  // measure 9
00001000
00000000
00000000
00000000
00000001
00000100
00000001
00000100
00000000
00000000
00001000
00000000
00000000
00010000
01000000
00010000
,  // measure 10
01000000
00000000
00000000
00000000
10000000
00100000
10000000
00100000
00000000
00000000
01000000
00000000
00000000
00100000
10000000
00100000
,  // measure 11
10000000
00000000
00000000
00000000
01000000
00010000
01000000
00010000
00000000
00000000
00001000
00000000
00000000
00000100
00000001
00000100
,  // measure 12
00000001
00000000
00000000
00000000
00000100
00000001
00000100
00000001
00000000
00000000
00000010
00000000
00000000
00000001
00000100
00000001
,  // measure 13
00000100
00000000
00000000
00000000
00001000
00010000
00001000
00010000
00000000
00000000
01000000
00000000
00000000
10000000
00010000
10000000
,  // measure 14
00010000
00000000
00000000
00000000
01000000
00100000
10000000
00010000
00000000
00000000
01000000
00000000
00000000
00100000
01000000
00010000
,  // measure 15
10000000
00000000
00000000
00000000
,  // measure 16
10010000
00000000
00000000
00000000
10000000
00100000
01000000
00010000
00000000
00000000
10000000
00000000
00000000
10000000
00100000
01000000
,  // measure 17
00010000
00000000
00000000
00000000
01000000
00100000
01000000
00100000
00000000
00000000
00010000
00000000
00000000
00001000
00000010
00001000
,  // measure 18
00000010
00000000
00000000
00000000
00000001
00001000
00000010
00000100
00000000
00000000
00000010
00000000
00000000
00000001
00001000
00000010
,  // measure 19
00000100
00000000
00000000
00000000
00000010
00000100
00000010
00000100
00000000
00000000
00001000
00000000
00000000
00010000
01000000
00010000
,  // measure 20
01000000
00000000
00000000
00000000
10000000
00010000
01000000
00100000
00000000
00000000
10000000
00000000
00000000
00100000
01000000
00010000
,  // measure 21
10000000
00000000
00000000
00000000
01000000
00010000
01000000
00010000
00000000
00000000
00001000
00000000
00000000
00000100
00000001
00000100
,  // measure 22
00000001
00000000
00000000
00000000
,  // measure 23
00000000
00000000
00000000
00000000
00000000
00000010
00001000
00010000
,  // measure 24
00100000
00000000
00000000
00000000
10000000
01000000
00100000
00010000
00000000
00000000
01000000
00000000
00000000
00100000
00010000
00001000
,  // measure 25
00000010
00000000
00000000
00000000
00000001
00000100
00000010
00001000
00000000
00000000
00001000
00000000
00000000
00000001
00000100
00000010
,  // measure 26
00001000
00000000
00000000
00000000
00000001
00000010
00000100
00001000
00000000
00000000
00000010
00000000
00000000
00000100
00001000
00010000
,  // measure 27
01000000
00000000
00000000
00000000
10000000
00100000
01000000
00010000
00000000
00000000
00010000
00000000
11000000
00000000
00000000
00000000
,  // measure 28
10010000
00000000
00000000
00000000
10000000
01000000
00010000
00001000
00000000
00000000
00001000
00000000
00000000
00010000
00001000
00000100
,  // measure 29
00000001
00000000
00000000
00000000
00000001
00000100
00001000
00010000
00000000
00000000
00010000
00000000
00000000
00001000
00010000
01000000
,  // measure 30
10000000
00000000
00000000
00000000
10000000
00010000
01000000
00100000
00000000
00000000
01000000
00000000
00000000
01000000
00010000
10000000
,  // measure 31
00100000
00000000
00010000
00001000
00000010
00000001
00001000
00000110
,  // measure 32
00000001
00000000
00000100
00001000
00000000
00010000
00000000
01000000
,  // measure 33
10000000
00000000
01000000
00010000
00000000
00001000
00000000
00000100
,  // measure 34
00000001
00000000
00000100
00001000
00000000
00010000
00000000
01000000
,  // measure 35
10000000
00000000
01000000
00010000
00000000
00001000
00000000
00000100
,  // measure 36
00000001
00000000
00000100
00001000
00000000
00010000
00000000
01000000
,  // measure 37
10000000
00000000
01000000
00010000
00000000
00001000
00000000
00000100
,  // measure 38
00000001
00000000
00000000
00000000
,  // measure 39
00000010
00000000
00000000
00001000
00000000
00000000
00010000
00000000
00000000
00100000
00000000
00000000
10000000
00000000
00000000
00000000
,  // measure 40
10010000
00000000
00000000
00000000
10000000
00010000
01000000
00100000
00000000
00000000
01000000
00000000
00000000
00100000
00010000
00001000
,  // measure 41
00000010
00000000
00000000
00000000
00000001
00001000
00000010
00000100
00000000
00000000
00000100
00000000
00000000
00001000
00010000
01000000
,  // measure 42
10000000
00000000
00000000
00000000
00100000
01000000
00010000
10000000
00000000
00000000
01000000
00000000
00000000
00010000
00001000
00000100
,  // measure 43
00000001
00000000
00000000
00000000
00000100
00000010
00001000
00000001
00000000
00000000
00000100
00000000
00000000
00001000
00010000
01000000
,  // measure 44
10000000
00000000
00000000
00000000
00010000
01000000
00100000
10000000
00000000
00000000
01000000
00000000
00000000
00010000
00001000
00000100
,  // measure 45
00000001
00000000
00000000
00000000
00001000
00000010
00000100
00000001
00000000
00000000
00000010
00000000
00000000
00001000
00010000
00100000
,  // measure 46
10000000
00000000
00000000
00000000
00010000
01000000
00100000
10000000
00000000
00000000
01000000
00000000
00000000
00010000
00001000
00000100
,  // measure 47
00000001
00000000
00000000
00000000
,  // measure 48
00001001
00000000
00000000
00000000
00000010
00000100
00000010
00000100
00000000
00000000
00000001
00000000
00000000
00000100
00000010
00000100
,  // measure 49
00000010
00000000
00000000
00000000
00000100
00001000
00010000
01000000
00000000
00000000
10000000
00000000
00000000
10000000
00010000
10000000
,  // measure 50
00010000
00000000
00000000
00000000
01000000
00100000
01000000
00100000
00000000
00000000
10000000
00000000
00000000
00100000
01000000
00100000
,  // measure 51
01000000
00000000
00000000
00000000
00100000
00010000
00001000
00000010
00000000
00000000
00000001
00000000
00000000
00001000
00000001
00001000
,  // measure 52
00000001
00000100
00000010
00001000
00000001
00000010
00000001
00000010
00000000
00000000
00000100
00000000
00000000
00000010
00000001
00000010
,  // measure 53
00000001
00000000
00000000
00000000
00000001
00000100
00000010
00001000
00000000
00000000
00000010
00000000
00000000
00000100
00001000
00010000
,  // measure 54
01000000
00000000
00000000
00000000
10000000
01000000
10000000
01000000
00000000
00000000
00100000
00000000
00000000
01000000
10000000
01000000
,  // measure 55
10000000
00000000
00000000
00000000
00000000
01000000
00010000
00001000
,  // measure 56
00000100
00000001
00000010
00000001
00000000
00000000
00000000
00000101
,  // measure 57
00000000
00001000
01010000
00000000
00000000
00000000
10000000
01000000
,  // measure 58
00010000
00001000
00000100
00000001
00000000
00000000
00000000
00000101
,  // measure 59
00000000
00000010
00001100
00000000
00000000
00000000
00000001
00000100
,  // measure 60
00001000
00010000
01000000
10000000
00000000
00000000
00000000
11000000
,  // measure 61
00000000
00100000
01010000
00000000
00000000
00000000
10000000
01000000
,  // measure 62
00010000
00001000
00000100
00000001
00000000
00000000
00000000
00000011
,  // measure 63
00000000
00000000
00000100
00000000
00001010
00000000
00000000
00000000
00000010
00000100
00000001
00001000
00000010
00000100
00000001
00001000
,  // measure 64
00000010
00000000
00000000
00000000
00000001
00000100
00000010
00001000
00000010
00000100
00000001
00000010
00000100
00001000
00000100
00000010
,  // measure 65
00000001
00000000
00000000
00000000
00000100
00001000
00010000
01000000
,  // measure 66
00000000
00000000
10000000
00100000
10000000
00100000
10000000
01000000
00100000
00010000
01000000
00100000
01000000
00010000
00100000
01000000
,  // measure 67
10000000
00000000
00000000
00000000
01000000
00010000
00001000
00000100
,  // measure 68
00000001
00000000
00000100
00000010
00000100
00000010
00000100
00000001
00000010
00000100
00001000
00000010
00000100
00000001
00000100
00000010
,  // measure 69
00001000
00000000
00000000
00000000
00000010
00000100
00001000
00010000
,  // measure 70
01000000
00000000
10000000
00010000
10000000
00010000
10000000
00100000
01000000
00100000
10000000
01000000
00100000
00010000
01000000
00100000
,  // measure 71
01000000
00000000
00000000
00000000
00100000
00010000
00001000
00000011
,  // measure 72
00000000
00000000
00000100
00000001
00001000
00000001
00000100
00000010
00001000
00000100
00000010
00000100
00001000
00000001
00000010
00000100
,  // measure 73
00001000
00000000
00000000
00000000
00000010
00000100
00001000
00010000
,  // measure 74
01000000
00000000
00000000
00000000
00000000
00000000
00000000
00000000
10000000
01000000
00010000
01000000
10000000
00100000
01000000
00010000
,  // measure 75
00100000
00000000
00000000
00000000
01000000
00010000
00001000
00000100
,  // measure 76
00000001
00000000
00001000
00000010
00001000
00000010
00001000
00000100
00000010
00000001
00000100
00000010
00000100
00000001
00000010
00000100
,  // measure 77
00001000
00000000
00000000
00000000
00000001
00000100
00001000
00010000
,  // measure 78
01000000
00000000
10000000
00010000
10000000
00010000
10000000
01000000
00100000
00010000
01000000
00100000
01000000
00010000
00100000
01000000
,  // measure 79
10000000
00000000
00000000
00000000
00000000
00000000
00000000
00000000
00100000
00010000
00001000
00000000
00000010
00000000
00000001
00000000
,  // measure 80
00001001
00000000
00000000
00000000
;

//---------------dance-double - ----------------
#NOTES:
     dance-double:
     :
     Medium:
     11:
     0.400125,0.473388,0.031559,0.047339,0.031559,355.000000,351.000000,4.000000,6.000000,0.000000,0.000000,0.400125,0.473388,0.031559,0.047339,0.031559,355.000000,351.000000,4.000000,6.000000,0.000000,0.000000:
00000000
00000000
00000000
00000000
,
00000000
00000000
00000000
00000000
,
00000000
00000000
00000000
00000000
,
00000000
00000000
00000000
00000000
,
00000000
00000000
10000000
01000000
00000000
00100000
00000000
01000000
,
10000000
00000000
00100000
00010000
00000000
00001000
00000000
00000010
,
00000001
00000000
00000100
00001000
00000000
00000000
00000000
00000000
,
00000000
00000000
00000000
00000000
00000000
00010000
01000000
10000000
,
00100000
10000000
00010000
10000000
,
00100000
00010000
00001000
00000010
,
00000001
00000100
00001000
00000100
,
00000001
00000010
00001000
00010000
,
00100000
00000000
10000000
00010000
00000000
01000000
00000000
00010000
,
10000000
00000000
01000000
00010000
00000000
00001000
00000000
00000100
,
00000001
00000000
00001000
00000001
00000000
00001000
00000000
00000001
,
00001000
00000000
00000000
00000000
,
00001001
00000001
00000100
00001000
,
00010000
01000000
10000000
01000000
,
00010000
00001000
00000100
00000001
,
00001000
00000010
00000100
00001000
,
00010000
00000000
01000000
10000000
00000000
00010000
00000000
10000000
,
01000000
00000000
00010000
00001000
00000000
00000100
00000000
00000001
,
00001000
00000000
00000000
00000000
,
00000000
00000000
00000000
00000000
00000000
00000010
00000100
00001000
,
00020000
00000000
01000000
00000000
00000000
00000000
01030000
10000000
,
00200000
00000000
00010000
00000000
00000000
00000000
00310000
00001000
,
00000020
00000000
00000001
00000000
00000000
00000000
00000031
00001000
,
00000020
00000100
00000000
00000130
,
00002000
00000000
00010000
00000000
00000000
00000000
00013000
01000000
,
10000000
00000000
00100000
00010000
00001000
00000000
00000010
00000001
,
00002000
00000000
00000010
00000000
00000000
00000000
00003010
00000100
,
00001000
00000000
00010000
00000000
01000000
10000000
01000000
01000000
,
10000000
00100000
00010000
00001000
,
00001000
00000010
00000001
00000100
,
00000100
00001000
00010000
01000000
,
01000000
10000000
00100000
00010000
,
00010000
00001000
00000100
00000001
,
00000001
00000010
00001000
00010000
,
00100000
00000000
00000000
00000000
,
00000000
00000000
00000000
00000000
,
10010000
00000000
10000000
01000000
00000000
00010000
00000000
00001000
,
00000100
00000000
00000001
00000100
00000000
00001000
00000000
00010000
,
01000000
00000000
10000000
00100000
00000000
00010000
00000000
00001000
,
00000010
00000000
00000001
00001000
00000000
00000100
00001000
00000010
,
00000100
00000000
00000001
00000100
00000000
00000010
00000000
00000100
,
00001000
00000000
00010000
01000000
00000000
00100000
00000000
01000000
,
10000000
00000000
00100000
00010000
00000000
00001000
00000000
00000010
,
00000001
00000000
00000000
00000000
,
00001001
00000000
00000000
00000000
00000001
00000000
00000100
00000010
00000000
00000000
00001000
00000000
00000000
00000010
00000100
00000000
,
00000001
00000000
00000010
00001000
00000000
00010000
00000000
00100000
,
10000000
00000000
00000000
00000000
01000000
00000000
00100000
00010000
00000000
00000000
00100000
00000000
00000000
01000000
10000000
00000000
,
00010000
00000000
01000000
00100000
00000000
00010000
00000000
00001000
,
00000010
00000000
00000001
00000000
00001000
00000000
00000100
00000010
00000000
00000000
00000100
00000000
00000000
00000010
00000100
00000000
,
00001000
00000000
00000010
00000100
00000000
00001000
00000000
00010000
,
01000000
00000000
00000000
00000000
10000000
00000000
00100000
01000000
00000000
00000000
00100000
00000000
00000000
01000000
00100000
00000000
,
10000000
00000000
00000000
00000000
00000000
01000000
00010000
00001000
,
00000100
00000001
00000100
00000001
00000000
00000000
00000000
00001000
,
00000000
00001000
00001000
00000000
00000000
00000000
00000010
00000100
,
00001000
00010000
01000000
10000000
00000000
00000000
00000000
00100000
,
00000000
00100000
00100000
00000000
00000000
00000000
10000000
01000000
,
00010000
00001000
00000100
00000001
00000000
00000000
00000000
00001000
,
00000000
00001000
00001000
00000000
00000000
00000000
00000001
00000010
,
00001000
00010000
00100000
10000000
00000000
00000000
00000000
01000000
,
00000000
01000000
01000000
00000000
10000000
00000000
00010000
00000000
,
10000000
01000000
00100000
00010000
01000000
00100000
10000000
01000000
,
00000000
00000000
00000000
00000000
00010000
00001000
00000100
00000000
,
00000000
00000000
00000001
00001000
00000010
00000100
00000010
00001000
,
00000001
00000000
00000000
00000000
00000100
00001000
00010000
00000000
,
01000000
00000000
10000000
01000000
00010000
01000000
10000000
00100000
,
00010000
00000000
00000000
00000000
00001000
00000010
00000001
00000000
,
00001000
00000000
00000001
00000010
00000100
00000010
00000001
00001000
,
00000100
00000000
00000000
00000000
00000010
00001000
00010000
00100000
,
10000000
01000000
00100000
00010000
01000000
00100000
10000000
01000000
,
00100000
00000000
00000000
00000000
00010000
00001000
00000100
00000000
,
00000001
00000000
00000000
00000000
00001000
00000010
00000100
00000001
,
00000010
00000000
00000000
00000000
00001000
00010000
00100000
10000000
,
00010000
01000000
00100000
00010000
00001000
00000100
00000001
00001000
,
00000010
00000000
00000000
00000000
00000100
00000001
00001000
00000010
,
00001000
00000001
00000100
00001000
00010000
01000000
10000000
00100000
,
01000000
00000000
00000000
00000000
00010000
10000000
00100000
00100000
,
10010000
00000000
00000000
00000000
;
