#TITLE:Ulexite;
#SUBTITLE:;
#ARTIST:ZUKI;
#TITLETRANSLIT:;
#SUBTITLETRANSLIT:;
#ARTISTTRANSLIT:;
#GENRE:Trance;
#CREDIT:;
#BANNER:ulexite-bn.png;
#BACKGROUND:ulexite-bg.png;
#LYRICSPATH:;
#CDTITLE:;
#MUSIC:Ulexite.mp3;
#OFFSET:-0.045000;
#SAMPLESTART:71.364998;
#SAMPLELENGTH:12.000000;
#SELECTABLE:YES;
#BPMS:0.000000=180.000000
;
#STOPS:
;
#BGCHANGES:;
#KEYSOUNDS:;
#ATTACKS:;

//---------------dance-single - ----------------
#NOTES:
     dance-single:
     :
     Challenge:
     15:
     0.819783,1.032038,0.700954,0.439265,0.280382,614.000000,539.000000,75.000000,47.000000,0.000000,0.000000,0.819783,1.032038,0.700954,0.439265,0.280382,614.000000,539.000000,75.000000,47.000000,0.000000,0.000000:
0000
0000
0000
0000
,
0000
0000
0000
0000
,
0000
0000
0000
0000
,
0110
0010
1000
0010
0110
0100
0001
0100
,
0201
0000
0000
0000
0000
0000
1000
0000
0300
0000
0000
0000
0001
1000
0010
0000
,
1020
0000
0000
0000
0000
0000
0001
0000
0000
0000
0000
0000
1030
0001
0100
0000
,
0201
0000
0000
0000
0000
0000
1000
0000
0000
0000
0000
0000
0301
1000
0100
0000
,
1100
1000
0001
1000
0011
0001
1000
0001
,
0200
0010
0310
2000
0000
3100
0020
2000
,
0030
0000
0000
0000
3010
0000
0001
0000
0100
0010
1000
0000
0001
0000
0000
0000
,
0200
0010
0310
1000
0001
0010
0100
0110
,
0000
1100
0000
1000
0010
0010
0100
0100
,
0020
0100
0130
0002
0000
0013
0200
0002
,
0300
0000
0000
0000
0103
0000
1000
0000
0010
0100
0001
0000
1000
0000
0000
0000
,
0020
0100
0130
0001
1000
0100
1000
1100
,
0000
0011
0000
0001
0100
1000
0100
0001
,
1000
0010
0001
0020
0000
1030
1001
0002
,
0000
0000
0100
0000
0100
0000
0000
0000
0100
0000
0000
0100
0000
0000
0103
0000
,
0010
0001
0010
1000
0000
0100
0010
1000
,
0000
0000
1010
0000
0000
0000
0010
0000
0001
1000
0000
0001
1000
0000
0010
0000
,
1000
0100
0001
0200
0000
1300
1010
0020
,
0000
0000
0100
0000
0100
0000
0000
0000
0100
0000
0000
0100
0000
0000
0130
0000
,
0001
0010
0001
1000
0100
0010
0100
1000
,
0010
0100
0110
0000
1001
0001
1000
0000
,
0001
0100
1000
0200
0000
0301
0010
2000
,
0000
0000
0010
0000
0010
0000
0000
0000
0010
0000
0000
0010
0000
0000
3010
0000
,
0001
0100
1000
0100
0000
0001
1000
0001
,
0000
0000
0101
0000
0000
0000
0010
0000
1000
0001
0000
1000
0001
0000
0010
0000
,
0001
0100
1000
0200
0000
0301
1000
0020
,
0000
0000
0001
0000
0001
0000
0000
0000
0001
0000
0000
0001
0000
0000
0031
0000
,
0010
1000
0100
0010
0001
0100
0010
1000
,
0001
0000
1000
0100
1000
0000
0000
0000
1000
0000
0001
0100
0001
0000
0000
0000
,
0011
0011
0101
1001
0000
0000
1010
1010
,
1100
1001
0000
0100
0010
1000
0010
0100
,
0002
0010
0010
0103
0010
0001
0000
0100
,
0010
0000
1000
0000
0100
0000
0010
0000
0001
1000
0001
1000
0001
0000
0000
0000
,
1100
1100
1010
1001
0000
0000
0101
0101
,
0011
0000
1001
0000
0000
0000
0100
0000
0001
0010
0100
0010
0001
0000
1000
0000
,
0100
0010
0012
0000
0103
1000
0000
1100
,
0000
0100
0010
1000
1001
0000
0101
0000
,
0011
0011
0110
1100
0000
0000
1010
1010
,
0110
0101
0000
0001
1000
0100
0010
0001
,
0200
0010
2300
0100
3020
0001
0230
0010
,
2300
0000
0001
0000
3020
0000
0100
0000
1030
0001
1000
0001
1000
0000
0010
0000
,
0110
0110
0101
1001
0000
0000
0110
0110
,
1010
1001
0000
0100
0010
0000
1001
0000
,
0001
0010
0010
1000
0010
0010
0001
0100
,
0100
1000
0100
0100
0001
1000
0010
0010
,
1000
0100
0100
0001
0100
0100
1000
0010
,
0001
1000
0100
0001
0010
1000
0001
0100
,
1000
0100
0100
0001
0100
0100
1000
0010
,
0010
0001
0010
0010
1000
0001
0100
0100
,
0001
0000
0001
0000
0010
0000
0010
0000
1000
0010
0001
0100
1000
0100
0001
0000
,
0000
0000
1100
0011
,
2000
0000
0010
0000
3010
0000
1000
0000
0000
0000
0001
0100
0010
0000
1000
0000
,
0000
0000
0001
0000
1000
0000
0100
0000
0010
0001
0010
0001
0010
0000
0002
0000
,
0000
0003
0001
0200
0000
0310
1000
0002
,
0000
0000
0103
0010
1000
0010
0100
0001
0010
0100
1000
0100
0010
0001
1000
0000
,
0220
0000
0330
0002
0010
0103
2000
0010
,
3000
0000
0010
0100
0001
0000
0010
0000
0011
0000
0000
0000
1100
0000
0000
0000
,
0001
0100
1000
0001
0010
1000
0100
0001
,
0000
0000
0100
1000
0010
0100
0001
0010
0100
1000
0010
0100
0001
0010
0100
1000
,
0010
0100
0001
0011
0000
1100
0100
1000
,
0010
0100
0001
1001
0000
1100
0100
0010
,
0001
1000
0001
0000
0100
0000
0010
0000
1000
0000
0001
0000
2002
0000
0000
0000
,
3003
0000
0000
0000
1000
0000
0001
1000
0001
1000
0001
1000
0001
1000
0001
0000
,
1000
0000
0010
0100
0001
0010
0100
1000
0010
0100
0001
0010
0100
1000
0010
0100
,
0001
0010
0001
2000
0000
3010
0100
0010
,
1020
0000
0030
0201
0000
0300
0120
0000
,
0030
0000
1000
0000
0000
0000
0001
0000
0010
0100
0010
0100
0010
0100
0020
0000
,
0000
0000
0000
0000
0000
0000
0031
1000
,
0200
0000
0010
0010
0000
1000
1000
0000
,
0010
0000
0310
0000
0000
0000
0001
0000
1000
0000
0001
0000
0100
0000
0010
1000
,
0002
0000
0010
0010
0000
0100
0100
0000
,
0010
0000
0013
0000
0000
0000
0001
0000
1000
0001
1000
0001
1000
0000
0001
1000
,
0020
0000
0100
0100
0000
0001
0001
0000
,
0100
0130
0000
0010
1000
0001
0100
0010
,
0110
1010
1001
0101
0000
0000
0110
0101
,
1001
1010
0000
0001
0010
1000
0010
0001
;

//---------------dance-single - ----------------
#NOTES:
     dance-single:
     :
     Hard:
     12:
     0.574115,0.626595,0.289728,0.672916,0.060749,430.000000,399.000000,31.000000,72.000000,0.000000,0.000000,0.574115,0.626595,0.289728,0.672916,0.060749,430.000000,399.000000,31.000000,72.000000,0.000000,0.000000:
0000
0000
0000
0000
,
0000
0000
0000
0000
,
0000
0000
0000
0000
,
0001
0000
0000
0001
1000
0000
0000
0000
1000
0000
0000
1000
0010
0000
0000
0000
,
0120
0000
0000
0001
0000
0000
0130
0010
,
0210
0000
0000
1000
0000
0000
0310
0100
,
0120
0000
0000
0001
0000
0000
0130
0010
,
1000
0000
0000
1000
0100
0000
0000
0100
0010
0000
0000
0010
0001
0000
0000
0000
,
0100
0010
0100
0001
0010
0100
0020
0000
,
0000
0000
0000
0000
0031
1000
0000
0000
0010
0100
0000
0000
1001
0000
0000
0000
,
0001
0100
0001
1000
0010
1000
0001
1000
,
0000
1001
0000
0110
0010
0100
0001
1000
,
0010
0100
0010
1000
0100
0010
0200
0000
,
0000
0000
0000
0000
1300
0010
0000
0000
0100
0001
0000
0000
1010
0000
0000
0000
,
0001
0100
0010
1000
0100
0010
0001
0100
,
0000
0110
0000
0010
0100
0001
1000
0010
,
1000
0100
0010
0002
0000
2003
0000
3000
,
0000
0000
0002
0000
2003
0000
3000
0000
0002
0003
0000
2000
3000
0000
0002
0003
,
1000
0100
0010
0001
0000
0010
0100
1000
,
0000
1010
0000
2002
0000
0000
0000
3003
,
0001
0010
0100
2000
0000
3002
0000
0003
,
0000
0000
2000
0000
3002
0000
0003
0000
2000
3000
0000
0002
0003
0000
2000
3000
,
0001
0100
0001
1000
0001
0010
0001
1000
,
0001
0010
0010
0000
0100
0000
0100
0000
,
1000
0001
0100
0020
0000
0230
0000
0300
,
0000
0000
0020
0000
0230
0000
0300
0000
0020
0030
0000
0200
0300
0000
0020
0030
,
0100
0001
0010
0100
0000
0100
1000
0010
,
0000
0110
0000
0202
0000
0000
0000
0303
,
0001
1000
0010
0200
0000
0320
0000
0030
,
0000
0000
0200
0000
0320
0000
0030
0000
0200
0300
0000
0020
0030
0000
0200
0300
,
0010
1000
0010
0100
0010
0001
0010
0100
,
0010
1000
1000
0000
1001
0000
0110
0000
,
0001
0001
0001
0001
0000
0000
1000
1000
,
1000
1000
0000
0000
0010
0000
0010
0000
,
1000
0100
0010
0001
0100
0020
0000
0130
,
0010
0100
0001
1000
0010
0100
0010
0000
,
1000
1000
1000
1000
0000
0000
0001
0001
,
0001
0001
0000
0000
0200
0000
0320
0000
,
0130
0001
2000
0000
3001
0001
0000
0011
,
0000
0010
0100
0000
2000
0000
3002
0000
,
0103
0100
0100
0100
0000
0000
0010
0010
,
0010
0010
0000
0000
1000
0000
1000
0000
,
0001
1000
0001
1000
0010
1000
0001
0100
,
0001
0010
0100
0010
0100
1000
0100
0000
,
0010
0010
0010
0010
0000
0000
0100
0100
,
0100
0100
0000
0000
2000
0000
3002
0000
,
0023
0000
0000
0000
0000
0000
0031
0200
,
0000
0000
0000
0000
,
2300
0000
0000
0000
0000
0000
3100
0001
,
0000
0011
0000
1100
0000
1001
0000
0100
,
0020
0000
0000
0000
0000
0000
1030
0200
,
0000
0000
0000
0000
,
0301
0100
1000
0010
0100
0001
0100
0001
,
0000
0000
0002
2003
,
3010
1000
0010
1000
0000
1000
0100
0020
,
0000
0031
0100
0001
0010
0001
0100
0020
,
0000
0030
0010
2000
0000
3100
0010
0002
,
0000
0103
0010
1000
0001
0100
0010
1000
,
0002
0000
0003
0001
0100
0000
0100
0020
,
0000
1030
0001
0000
0101
0000
1001
0000
,
1000
0010
1000
0001
0100
0001
1000
0020
,
0000
0130
0010
0000
0110
0000
1001
0000
,
0010
0100
0010
2000
0000
0002
0000
3003
,
0100
0010
0100
0002
0000
2000
0000
3003
,
0001
0010
0001
0000
0011
0000
2200
0000
,
0000
0000
3300
1000
0001
1000
0001
1000
,
0001
0010
0100
1000
0010
0100
0001
0010
,
0100
1000
0100
0020
0000
0031
1000
0001
,
2002
0000
3003
0202
0000
0303
2020
0000
,
3030
1001
0000
1000
0001
1000
0001
1000
,
0000
0000
0000
0000
0000
0000
1000
0100
,
0010
0000
0010
0001
0000
0001
1000
0000
,
1000
0001
0000
0001
0010
0000
1100
0000
,
0010
0000
0010
1000
0000
1000
0001
0000
,
0001
1000
0000
1000
0010
0000
0101
0000
,
0001
0000
1000
0100
0000
0001
0100
0000
,
1000
0010
0000
0001
0010
0000
1001
0000
,
0001
0001
1000
1000
0000
0000
0010
0010
,
0100
0100
0000
0010
1000
0100
1000
0010
;

//---------------dance-single - ----------------
#NOTES:
     dance-single:
     :
     Beginner:
     3:
     0.148202,0.293466,0.037384,0.028038,0.000000,111.000000,107.000000,4.000000,3.000000,0.000000,0.000000,0.148202,0.293466,0.037384,0.028038,0.000000,111.000000,107.000000,4.000000,3.000000,0.000000,0.000000:
// measure 0
0000
0000
0000
0000
,  // measure 1
0000
0000
0000
0000
,  // measure 2
0000
0000
0000
0000
,  // measure 3
0000
0000
0000
0002
,  // measure 4
0000
0003
0000
0000
,  // measure 5
2000
0000
3000
0000
,  // measure 6
0002
0000
0003
0000
,  // measure 7
0100
0100
0100
0100
,  // measure 8
0100
0000
0000
0010
,  // measure 9
0000
0000
0000
0000
,  // measure 10
1000
0000
0000
0100
,  // measure 11
0000
0000
0010
0010
,  // measure 12
0010
0000
0000
0001
,  // measure 13
0000
0000
0000
0000
,  // measure 14
0100
0000
0000
0010
,  // measure 15
0000
0000
0000
0000
,  // measure 16
1000
0000
0000
0000
,  // measure 17
0000
0000
1001
0000
,  // measure 18
0001
0000
0000
0100
,  // measure 19
0000
0000
0000
0000
,  // measure 20
0010
0000
0000
0000
,  // measure 21
0000
0000
0110
0000
,  // measure 22
0010
0010
0010
0010
,  // measure 23
0010
0000
0100
0000
,  // measure 24
0001
0000
0000
0000
,  // measure 25
0000
0000
1001
0000
,  // measure 26
1000
0000
0000
0010
,  // measure 27
0000
0000
0000
0000
,  // measure 28
0100
0000
0000
0000
,  // measure 29
0000
0000
0110
0000
,  // measure 30
0010
0010
0010
0010
,  // measure 31
0010
0000
1000
0000
,  // measure 32
0001
0000
0000
0001
,  // measure 33
0000
0000
1000
1000
,  // measure 34
1000
0000
0000
0000
,  // measure 35
0100
0000
0010
0000
,  // measure 36
0010
0000
0000
0010
,  // measure 37
0000
0000
0001
0001
,  // measure 38
0001
0000
0000
0000
,  // measure 39
0000
0000
1000
0000
,  // measure 40
1000
0000
0000
1000
,  // measure 41
0000
0000
0010
0010
,  // measure 42
0010
0000
0000
0000
,  // measure 43
0000
0000
0100
0000
,  // measure 44
0100
0000
0000
0100
,  // measure 45
0000
0000
0001
0001
,  // measure 46
0001
0000
0000
0010
,  // measure 47
0000
0000
0000
0000
,  // measure 48
0100
0000
0000
1000
,  // measure 49
0000
0000
0000
0000
,  // measure 50
1000
0000
0000
0001
,  // measure 51
0000
0000
0000
0000
,  // measure 52
0100
0100
0100
0100
,  // measure 53
0000
0000
0000
0000
,  // measure 54
0010
0000
0000
1000
,  // measure 55
0000
0000
0000
1000
,  // measure 56
0000
0000
0000
0100
,  // measure 57
0000
0000
0000
0000
,  // measure 58
0010
0000
0000
0000
,  // measure 59
0010
0000
0000
0000
,  // measure 60
0001
0000
0000
0001
,  // measure 61
0000
0000
0000
0000
,  // measure 62
0010
0000
0000
0000
,  // measure 63
0100
0000
0000
0000
,  // measure 64
1000
0000
0000
0000
,  // measure 65
0000
0000
1000
1000
,  // measure 66
1000
0000
0000
0000
,  // measure 67
0010
0000
0000
0000
,  // measure 68
0100
0000
0000
0000
,  // measure 69
0000
0000
0001
0001
,  // measure 70
0000
0000
0000
0000
,  // measure 71
0100
0000
0100
0000
,  // measure 72
0100
0000
0100
0000
,  // measure 73
0010
0000
0010
0000
,  // measure 74
0010
0000
0010
0000
,  // measure 75
1000
0000
1000
0000
,  // measure 76
1000
0000
1000
0000
,  // measure 77
0001
0000
0000
0001
,  // measure 78
0000
0000
0001
0000
;

//---------------dance-single - ----------------
#NOTES:
     dance-single:
     :
     Easy:
     7:
     0.355150,0.442302,0.158883,0.401880,0.014019,266.000000,249.000000,17.000000,43.000000,0.000000,0.000000,0.355150,0.442302,0.158883,0.401880,0.014019,266.000000,249.000000,17.000000,43.000000,0.000000,0.000000:
0000
0000
0000
0000
,
0000
0000
0000
0000
,
0000
0000
0000
0000
,
0020
0032
2003
3020
,
1030
0000
0000
0100
0000
0000
0010
0000
,
0100
0000
0000
1000
0000
0000
0010
0000
,
0100
0000
0000
0001
0000
0000
1000
0000
,
0002
0023
0230
2300
,
3010
0000
0000
0100
0000
0000
0020
0000
,
0000
0000
1030
0001
1000
0000
0001
0000
,
0002
0000
0013
0100
,
0000
1000
0000
0000
0100
0000
0100
0000
,
1000
0000
0000
0010
0000
0000
2000
0000
,
0000
0000
3001
1000
0001
0000
0100
0000
,
0020
0000
0000
0000
0130
0000
0000
0010
,
0000
0010
0000
0000
1000
0000
0001
0000
,
0200
0000
0000
0000
0300
0101
0000
0000
,
0000
0000
0001
0000
1000
0000
0000
0000
0001
0000
0000
0001
0000
0000
0001
0000
,
0001
0000
0000
0000
0000
1000
0000
0000
,
0000
0010
0000
0100
0000
0000
0000
0000
,
0020
0000
0000
0000
0030
1001
0000
0000
,
0000
1000
0100
0000
0010
0000
0000
0000
,
0001
0001
0100
0100
,
1000
1000
0010
0010
,
0002
0000
0000
0000
0003
0011
0000
0000
,
0000
0000
0100
0000
1000
0000
0000
0000
0100
0000
0000
0100
0000
0000
0100
0000
,
1000
0000
0000
0000
0000
0010
0000
0000
,
0000
0100
0000
0001
0000
0000
0000
0000
,
0020
0000
0000
0000
0030
1100
0000
0000
,
0000
0000
1000
0000
0010
0000
0000
0000
0100
0000
0000
0100
0000
0000
0100
0000
,
0001
0001
0010
0010
,
1000
1000
0100
0100
,
0001
0000
0000
1001
0000
0000
0001
0000
,
0000
1001
0000
0000
1000
0000
1000
0000
,
0010
0100
0001
0000
,
0100
0010
1000
1000
,
1000
0000
0000
1001
0000
0000
1000
0000
,
0000
1001
0000
0000
0020
0000
0100
0000
,
0130
0000
0001
0000
,
0010
0000
0100
1000
,
0001
0000
0000
0011
0000
0000
0001
0000
,
0000
0011
0000
0000
0010
0000
0001
0000
,
1000
0000
0000
0010
0000
0000
0100
0000
,
0000
0001
0000
0000
0010
0000
0100
0000
,
1000
0000
0000
1100
0000
0000
1000
0000
,
0000
1100
0000
0000
0010
0000
0001
0000
,
2000
0000
0000
0000
3000
0000
0010
0200
,
0000
0000
0000
0300
,
0202
0000
0000
0000
0303
0000
0001
0010
,
0000
0011
0000
0110
0000
1100
0000
1000
,
0002
0000
0000
0000
0003
0000
0001
0200
,
0000
0000
0000
0000
,
0310
0010
1000
0002
,
0000
0000
1003
0100
,
2000
0000
0000
0000
3000
0000
1000
0020
,
0000
0000
0000
0000
0030
0000
0010
0200
,
0000
0300
0100
0002
0000
0013
0100
2000
,
0000
0000
0000
3000
,
2002
0000
3003
0010
0200
0000
0301
2000
,
0000
3100
0010
0000
0010
0000
0001
0000
,
0100
0000
0000
0100
0000
0000
0100
0000
,
0000
0010
1000
0000
0010
0000
1000
0000
,
0200
0000
0310
0001
0000
1000
0000
0000
,
0020
0000
1030
0100
0000
0010
0000
0000
,
0002
0203
0320
2030
,
0000
0000
3000
1000
0001
1000
0001
1000
,
0001
0010
0001
1000
,
0100
1000
0010
0100
,
0002
0000
0003
0020
0000
0030
0200
0000
,
0300
2000
0000
3000
1000
0001
1000
0001
,
0000
0000
0000
0000
,
0001
0100
1000
0100
,
0001
0010
1000
0010
,
0001
0100
0010
1000
,
1000
0010
0100
0001
,
1000
0100
0001
0100
,
1000
0010
0001
0010
,
1000
0001
1000
0001
0000
0000
0001
1000
,
0001
1000
0000
0000
0010
0100
0001
1000
;

//---------------dance-single - ----------------
#NOTES:
     dance-single:
     :
     Medium:
     10:
     0.423243,0.516019,0.102807,0.327112,0.018692,317.000000,306.000000,11.000000,35.000000,0.000000,0.000000,0.423243,0.516019,0.102807,0.327112,0.018692,317.000000,306.000000,11.000000,35.000000,0.000000,0.000000:
0000
0000
0000
0000
,
0000
0000
0000
0000
,
0000
0000
0000
0000
,
0101
1001
1100
1001
,
0002
0000
0000
0013
0000
0000
0000
0000
,
2000
0000
0000
3010
0000
0000
0000
0000
,
0002
0000
0000
0013
0000
0000
0000
0000
,
0011
1001
1010
1001
,
1000
0100
0000
0010
0100
1000
0200
0000
,
0000
0000
0310
0000
0001
1000
0001
0000
,
0100
0001
0100
0010
1000
0000
1000
0001
,
0000
1001
0000
0001
1000
0000
0001
0000
,
0001
0010
0000
0100
0010
0001
0020
0000
,
0000
0000
0130
0000
1000
0001
1000
0000
,
0001
0010
0000
0100
1000
0100
0010
0001
,
0000
1000
0000
0001
0100
0000
0100
0000
,
0010
0000
0020
0000
0000
2030
0000
0000
,
0000
0000
0001
0000
3001
0000
0000
0000
1000
0000
0000
0001
0000
0000
1000
0000
,
0001
0100
0010
1000
0000
1000
0010
1000
,
0000
0001
0000
1001
0000
0000
0000
0000
,
0100
0000
0200
0000
0000
0302
0000
0000
,
0000
0000
1000
0000
1003
0000
0000
0000
0001
0000
0000
1000
0000
0000
0001
0000
,
1000
1000
0100
0100
,
0010
0010
0001
0001
,
1000
0000
2000
0000
0000
3020
0000
0000
,
0000
0000
0100
0000
0130
0000
0000
0000
0010
0000
0000
0100
0000
0000
0010
0000
,
1000
0001
0100
0010
0000
0100
0001
0100
,
0000
0001
0000
0101
0000
0000
0000
0000
,
0001
0000
0002
0000
0000
0203
0000
0000
,
0000
0000
0010
0000
0310
0000
0000
0000
0100
0000
0000
0010
0000
0000
0100
0000
,
0010
0010
1000
1000
,
0001
0001
0100
0100
,
0001
1000
0001
1000
0000
0000
0001
1000
,
0001
1000
0000
0000
0010
0000
0010
0000
,
1000
0000
0000
0100
0000
0000
0000
0000
,
0010
0000
0000
0000
0001
1000
0001
0000
,
1000
0001
1000
0001
0000
0000
1000
0001
,
1000
0001
0000
0000
0100
0000
0100
0000
,
0001
0000
0000
0000
0010
0000
0000
0100
,
0000
0000
1000
1000
,
0010
0100
0010
0100
0000
0000
0010
0100
,
0010
0100
0000
0000
0001
0000
0001
0000
,
0100
0000
0000
0001
0000
0000
1000
0000
,
0010
0000
0100
0100
,
0100
0010
0100
0010
0000
0000
0100
0010
,
0100
0010
0000
0000
0001
0000
0001
0000
,
2000
0000
0000
0000
0000
3000
0001
0020
,
0000
0000
0000
0000
,
0230
0000
0000
0000
0000
0000
0310
0001
,
0000
0100
0000
0010
0000
1000
0000
0100
,
0020
0000
0000
0000
0000
0000
0130
2000
,
0000
0000
0000
3000
,
1000
0000
1000
0000
1000
0001
1000
0001
,
0000
0000
0200
0320
,
0230
0000
0000
0000
0000
0000
0301
0020
,
0000
0000
0000
0000
0000
0000
0130
2000
,
0000
3000
1000
0020
0000
0130
0001
0020
,
0000
0100
0100
0130
,
2000
0000
3000
1000
0002
0000
0103
0001
,
0000
0010
0100
0000
1000
0000
0001
0000
,
0200
0000
0000
0320
0000
0000
0230
0000
,
0000
0001
0001
0301
,
1000
0000
0100
0010
0000
0001
0000
0000
,
0001
0000
0010
0100
0000
1000
0000
0000
,
0010
0000
0100
0001
0100
0000
0020
0000
,
0000
1000
1000
1030
,
0001
0000
1000
0100
1000
0000
0001
0000
,
1000
0000
0001
0100
0001
0000
1000
0000
,
0020
0000
0000
0230
0000
0000
0302
0000
,
0000
0023
0000
0130
1000
0000
1000
0000
,
0000
0000
0000
0000
0000
0000
1000
0100
,
0010
0000
0001
0100
0000
0001
0100
0000
,
0010
1000
0000
0010
1000
0000
0001
0000
,
1000
0000
0100
0010
0000
0100
0010
0000
,
0001
1000
0000
0001
1000
0000
0010
0000
,
0100
0000
0001
0010
0000
0001
0010
0000
,
0100
1000
0000
0100
1000
0000
0010
0000
,
0100
0010
1000
0001
0000
0000
0100
0010
,
1000
0001
0000
0100
0010
1000
0010
0100
;

//---------------dance-double - ----------------
#NOTES:
     dance-double:
     :
     Easy:
     6:
     0.289728,0.442302,0.000000,0.196267,0.000000,217.000000,217.000000,0.000000,21.000000,0.000000,0.000000,0.289728,0.442302,0.000000,0.196267,0.000000,217.000000,217.000000,0.000000,21.000000,0.000000,0.000000:
00000000
00000000
00000000
00000000
,
00000000
00000000
00000000
00000000
,
00000000
00000000
00000000
00000000
,
00001000
00001000
00000001
00000001
,
00000020
00000000
00000000
00000130
00000000
00000000
00000000
00000000
,
00000200
00000000
00000000
00010300
00000000
00000000
00000000
00000000
,
00020000
00000000
00000000
00031000
00000000
00000000
00001000
00000000
,
01000000
01000000
00100000
00100000
,
10000000
00000000
00000000
01000000
00000000
00000000
00100000
00000000
,
00000000
00010000
01000000
00100000
,
10000000
00000000
00000000
00000000
00000000
01000000
00000000
00010000
,
00000000
00001000
00000000
00000000
00000100
00000000
00000001
00000000
,
00001000
00000000
00000000
00000010
00000000
00000000
00000100
00000000
,
00000001
00001000
00000010
00000100
,
00000001
00000000
00000000
00000000
00000000
00000010
00000000
00001000
,
00000000
00010000
00000000
00000000
00100000
00000000
10000000
00000000
,
00010000
00000000
00000000
00000000
00000000
01000000
00000000
00000000
,
00000000
00100000
00000000
00000000
01000000
00000000
00100000
00000000
,
10000000
00000000
00000000
00000000
00000000
01000000
00000000
00000000
,
00000000
00100000
00000000
00010000
00000000
00000000
00000000
00000000
,
01000000
00000000
00000000
00000000
00000000
00001000
00000000
00000000
,
00000000
00010000
00000000
00000000
00000100
00000000
00000000
00000000
,
00000010
00000010
00000001
00000001
,
00001000
00001000
00000100
00000100
,
00001000
00000000
00000000
00000000
00000000
00000010
00000000
00000000
,
00000000
00000100
00000000
00000000
00000010
00000000
00000000
00000000
,
00010000
00000000
00000000
00000000
00000000
00001000
00000000
00000000
,
00000000
00100000
00000000
01000000
00000000
00000000
00000000
00000000
,
10000000
00000000
00000000
00000000
00000000
00010000
00000000
00000000
,
00000000
01000000
00000000
00000000
00100000
00000000
00000000
00000000
,
01000000
01000000
00001000
00001000
,
00010000
00010000
00000100
00000100
,
00000010
00000000
00000000
00000010
00000000
00000000
00000001
00000000
,
00000000
00000001
00000000
00000000
00000100
00000000
00001000
00000000
,
00010000
00000000
00000000
01000000
00000000
00000000
00000000
00000000
,
10000000
00000000
00010000
00000000
,
10000000
00000000
00000000
10000000
00000000
00000000
01000000
00000000
,
00000000
01000000
00000000
00000000
00010000
00000000
00001000
00000000
,
00000100
00000000
00000001
00000000
,
00001000
00000000
00000010
00000000
,
00000100
00000000
00000000
00000100
00000000
00000000
00001000
00000000
,
00000000
00001000
00000000
00000000
00010000
00000000
01000000
00000000
,
10000000
00000000
00000000
00100000
00000000
00000000
01000000
00000000
,
00000000
00000000
00010000
10000000
,
00100000
00000000
00000000
00100000
00000000
00000000
01000000
00000000
,
00000000
01000000
00000000
00000000
00100000
00000000
00010000
00000000
,
00002000
00000000
00000000
00000000
00000000
00000000
00000000
00003020
,
00000000
00000000
00000000
00000000
,
00000032
00000000
00000000
00000000
00000000
00000000
00000000
00000103
,
00000000
00001000
00000000
00010000
00000000
01000000
00000000
00000000
,
20000000
00000000
00000000
00000000
00000000
00000000
00000000
30200000
,
00000000
00000000
00000000
00000000
,
00310000
00001000
00000010
00000001
,
00000000
00000000
00000100
00000100
,
00000200
00000000
00000000
00000000
00000000
00000000
00000310
00000200
,
00000000
00000000
00000000
00000000
00000000
00000000
00000310
00020000
,
00000000
00000000
00000000
00032000
00000000
01003000
00100000
02000000
,
00000000
00000000
00000000
00000000
,
03200000
00000000
00300000
10000000
00200000
00000000
10300000
00200000
,
00000000
01300000
00010000
01000000
00010000
00000000
10000000
00000000
,
01000000
00000000
00000000
00010000
00000000
00000000
00001000
00000000
,
00000000
00000100
00000001
00000100
,
00000001
00000000
00000000
00001000
00000000
00000000
00000000
00000000
,
00000010
00000000
00000000
00000100
00000000
00000000
00000000
00000000
,
00001000
00010000
01000000
20000000
,
00000000
00000000
00100000
30100000
,
01000000
00000000
00010000
00000000
,
00100000
00000000
00001000
00010000
,
00002000
00000000
00000000
00003200
00000000
00000000
00000302
00000000
,
00000000
00002003
00000000
00000000
00003100
00001000
00000100
00001000
,
00000000
00000000
00000000
00000000
,
00000100
00000100
00010000
00010000
,
00001000
00001000
01000000
01000000
,
00100000
10000000
00010000
01000000
,
00100000
10000000
00010000
01000000
,
01000000
01000000
00001000
00001000
,
00010000
00010000
00000100
00000100
,
00001000
00000010
00000100
00000001
00000000
00000000
00001000
00000010
,
00000100
00000001
00000000
00000000
00001000
00000001
00001000
00000001
;

//---------------dance-double - ----------------
#NOTES:
     dance-double:
     :
     Challenge:
     15:
     0.790409,0.884604,0.700954,0.336458,0.228978,592.000000,517.000000,75.000000,36.000000,0.000000,0.000000,0.790409,0.884604,0.700954,0.336458,0.228978,592.000000,517.000000,75.000000,36.000000,0.000000,0.000000:
00000000
00000000
00000000
00000000
,
00000000
00000000
00000000
00000000
,
00000000
00000000
00000000
00000000
,
11000000
00100000
00010000
00100000
01010000
00100000
10000000
00100000
,
20000000
00000000
00000000
00000000
00000000
00000000
32000000
00000000
00000000
00000000
00000000
00000000
03010000
00001000
00000100
00000000
,
00000002
00000000
00000000
00000000
00000000
00000000
00000203
00000000
00000000
00000000
00000000
00000000
00001300
00010000
01000000
00000000
,
20000000
00000000
00000000
00000000
00000000
00000000
32000000
00000000
00000000
00000000
00000000
00000000
03010000
00001000
00000100
00000000
,
00000001
00000010
00000100
00000010
00001100
00000010
00000001
00000010
,
00000002
00000100
00000103
00000020
00000100
00000130
00000001
00002000
,
00000000
00000000
00000000
00000000
00003100
00001000
00000100
00000000
00010000
00001000
00010000
00000000
00011000
00000000
00000000
00000000
,
00200000
00010000
00310000
02000000
00100000
03100000
10000000
00010000
,
00000000
10010000
00000000
10000000
00100000
00010000
00001000
00000010
,
00000002
00000010
00000013
00000200
00001000
00001300
00000010
00020000
,
00000000
00000000
00000000
00000000
00031000
00010000
00001000
00000000
01000000
00100000
01000000
00000000
01100000
00000000
00000000
00000000
,
10000000
00100000
00010000
00100000
10000000
01000000
00010000
00001000
,
00000000
00011000
00000000
00010000
00001000
00000100
00000001
00000010
,
00001000
00010000
00001000
00000010
00000000
00000011
00000001
00000001
,
00000000
00000000
00000100
00000000
00000100
00000000
00000000
00000000
00001000
00000000
00000000
00010000
00000000
00000000
01000000
00000000
,
10000000
00100000
00010000
00001000
00000000
00001000
00010000
00100000
,
00000000
00000000
00100000
00000000
10000000
00000000
00010000
00000000
01000000
00100000
00000000
01000000
00100000
00000000
10000000
00000000
,
00100000
00010000
00001000
00010000
00000000
00110000
00100000
00100000
,
00000000
00000000
10000000
00000000
10000000
00000000
00000000
00000000
01000000
00000000
00000000
01000000
00000000
00000000
01000000
00000000
,
00010000
00001000
00000100
00000001
00000100
00000010
00001000
00000001
,
00000100
00001000
00010000
00000000
01000000
10000000
01000000
00000000
,
10000000
00100000
00010000
00001000
00000000
00011000
00010000
00010000
,
00000000
00000000
00100000
00000000
00100000
00000000
00000000
00000000
10000000
00000000
00000000
10000000
00000000
00000000
10000000
00000000
,
01000000
00010000
00001000
00000100
00000000
00000001
00000010
00000011
,
00000000
00000000
00000100
00000000
00001000
00000000
00000010
00000000
00000100
00000001
00000000
00000100
00000001
00000000
00001000
00000000
,
00000001
00000010
00001000
00010000
00000000
00011000
00001000
00001000
,
00000000
00000000
00000010
00000000
00000010
00000000
00000000
00000000
00000001
00000000
00000000
00000001
00000000
00000000
00000001
00000000
,
00000100
00001000
00010000
00100000
10000000
01000000
00010000
01000000
,
10000000
00100000
10100000
00000000
01010000
00010000
10000000
00000000
,
10100000
10100000
01100000
01010000
00000000
00000000
01010000
01010000
,
01001000
00011000
00000000
00010000
00001000
00000000
00000100
00000000
,
00000001
00000010
00000100
00000010
00000001
00000100
00000000
00000010
,
00001000
00000000
00000100
00000000
00001000
00000000
00000010
00000000
00000100
00000001
00000100
00000001
00000100
00000000
00000000
00000000
,
00000101
00000101
00001001
00001100
00000000
00000000
00001100
00001100
,
00010100
00011000
00000000
00001000
00010000
01000000
10000000
00000000
,
00100000
01000000
00020000
00000000
00130000
01000000
00000000
01010000
,
00000000
00010000
00002000
00000000
00003200
00000000
00000301
00000000
,
00000011
00000011
00000110
00001100
00000000
00000000
00001100
00001100
,
00010100
00011000
00000000
00001000
00010000
00000000
01000000
00000000
,
10000000
01000000
00010000
00001000
00010000
01000000
00100000
10000000
,
01000000
00000000
00100000
00000000
00001000
00000000
00010000
00000000
01000000
10000000
01000000
10000000
01000000
00000000
00000000
00000000
,
11000000
11000000
01100000
00110000
00000000
00000000
00110000
00110000
,
00101000
00011000
00000000
00010000
00001000
00000000
00000010
00000000
,
00000001
00000100
00000010
00001000
00000100
00000010
00000001
00000100
,
00001000
00010000
01000000
10000000
00100000
01000000
00100000
10000000
,
00010000
01000000
00100000
10000000
01000000
00100000
00010000
10000000
,
01000000
00010000
00001000
00000100
00001000
00010000
01000000
00010000
,
00001000
00000010
00000100
00001000
00000010
00000100
00000001
00000010
,
00001000
00010000
00100000
10000000
00100000
01000000
00010000
00100000
,
00010000
00000000
00010000
00000000
10000000
00000000
10000000
00000000
00100000
01000000
00100000
01000000
00100000
01000000
00200000
00000000
,
00000000
00300000
10010000
01100000
,
10010000
10000000
00010000
02000000
00000000
03100000
00010000
00002000
,
00000000
00000000
00003010
00000000
00000001
00000000
00000100
00000000
00000010
00001000
00000010
00001000
00000010
00000000
00000200
00000000
,
00000000
00000300
00000100
00000002
00000000
00000013
00001000
00020000
,
00000000
00000000
00031000
01000000
00100000
10000000
01000000
00100000
00010000
01000000
00100000
10000000
01000000
00100000
00010000
01000000
,
00200000
00000000
00300000
01000000
00200000
00000000
00310000
00001000
,
00000000
00000100
00000001
00000100
00000001
00000000
00001001
00000000
,
00000001
00000001
00000010
00001000
00001000
00010000
00100000
20000000
,
00000000
00000000
30100000
01000000
00100000
01000000
00010000
10000000
00010000
10000000
00100000
01000000
00100000
01000000
00010000
10000000
,
01000000
00010000
00001000
00010000
00000000
02020000
00000000
03030000
,
00010000
00001000
00000100
00001000
00000000
00010000
00000100
00000010
,
00000001
00001000
00000001
00000000
00000100
00000000
00000010
00000000
00001000
00000000
00000000
00000000
00002002
00000000
00000000
00000000
,
00000000
00000000
00000000
00000000
00003003
00000000
00000001
00001000
00000001
00001000
00000001
00001000
00000001
00001000
00000001
00001000
,
00000001
00000000
00000010
00000100
00001000
00000000
00000010
00000000
00000100
00000000
00001000
00000000
00010000
00000000
01000000
00000000
,
10000000
00000000
00100000
01000000
00010000
00000000
00100000
00000000
01000000
00000000
00010000
00000000
00001000
00000000
00000100
00000000
,
00000002
00000000
00000003
00002020
00000000
00003030
00022000
00000000
,
00033000
00000000
00110000
00000000
00000000
00000000
00100000
00000000
10000000
00010000
10000000
00010000
10000000
00010000
20000000
00000000
,
00000000
00000000
00000000
00000000
30000000
00000000
00010000
01000000
,
01010000
00000000
01000000
00100000
00000000
00010000
00001000
00000000
,
00000010
00000011
00000000
00000010
00000011
00000000
00001001
00000000
,
00000101
00000000
00001000
00010000
00000000
01000000
10000000
00000000
,
00100000
01100000
00000000
00100000
01100000
00000000
10010000
00000000
,
11000000
00000000
01000000
00010000
00000000
00001000
00000100
00000000
,
00000001
00001001
00000000
00000001
00001001
00000010
00000100
00000010
,
00010010
00010010
00011000
01001000
00000000
00000000
01001000
01001000
,
00011000
00010010
00000000
00000010
00000100
00001000
00010000
01000000
;

//---------------dance-double - ----------------
#NOTES:
     dance-double:
     :
     Hard:
     12:
     0.548747,0.626595,0.271036,0.373842,0.018692,411.000000,382.000000,29.000000,40.000000,0.000000,0.000000,0.548747,0.626595,0.271036,0.373842,0.018692,411.000000,382.000000,29.000000,40.000000,0.000000,0.000000:
00000000
00000000
00000000
00000000
,
00000000
00000000
00000000
00000000
,
00000000
00000000
00000000
00000000
,
01010000
01001000
00011000
00010100
,
00000200
00000000
00000000
00000310
00000000
00000000
00001000
00010000
,
00200000
00000000
00000000
01300000
00000000
00000000
00010000
00001000
,
00000020
00000000
00000000
00000130
00000000
00000000
00000001
00001000
,
00001100
00010100
00011000
01001000
,
01000000
00100000
10000000
00100000
01000000
00010000
00200000
00000000
,
00000000
10300000
00010000
10000000
,
01000000
00100000
01000000
10000000
00100000
01000000
00010000
01000000
,
00000000
00100000
00000000
00010000
00001000
00000010
00000001
00000100
,
00000010
00001000
00000100
00001000
00000010
00000100
00000002
00000000
,
00000000
00001003
00000100
00001000
,
00000001
00000010
00000100
00000010
00000001
00000100
00000010
00000200
,
00000000
00002300
00000000
00013000
01000000
10000000
00100000
01000000
,
00010000
00100000
00010000
02000000
00000000
03200000
00000000
00300000
,
00000000
00000000
00010000
00000000
00010000
00000000
00000000
00000000
00001000
00000000
00000000
00000010
00000000
00000000
00000001
00000000
,
00000100
00000010
00000100
00000001
00000000
00000001
00001000
00000010
,
00000000
00001010
00000000
00000202
00000000
00000000
00000303
00000000
,
00001000
00000100
00001000
00000020
00000000
00000230
00000000
00000300
,
00000000
00000000
00001000
00000000
00001000
00000000
00000000
00000000
00010000
00000000
00000000
00100000
00000000
00000000
10000000
00000000
,
00100000
01000000
00010000
00000000
00100000
01000000
10000000
00000000
,
00010000
00010000
00010000
00000000
10000000
00000000
10000000
00000000
,
01000000
00010000
01000000
20000000
00000000
30200000
00000000
00300000
,
00000000
00000000
00010000
00000000
00010000
00000000
00000000
00000000
00001000
00000000
00000000
00000100
00000000
00000000
00000001
00000000
,
00001000
00000010
00000100
00000001
00000000
00000010
00000100
00001000
,
00000000
00001100
00000000
00002002
00000000
00000000
00003003
00000000
,
00001000
00000100
00000010
00000002
00000000
00000023
00000000
00000030
,
00000000
00000000
00001000
00000000
00001000
00000000
00000000
00000000
00010000
00000000
00000000
01000000
00000000
00000000
10000000
00000000
,
00010000
01000000
00100000
00000000
10000000
01000000
00010000
00000000
,
00001000
00000100
00000001
00000000
00001001
00000000
00000110
00000000
,
00000001
00000100
00001000
00010000
00000000
00000000
00000100
00001000
,
00010000
01000000
00000000
00000000
10000000
00000000
10000000
00000000
,
00010000
01000000
00100000
10000000
01000000
00200000
00000000
00310000
,
10000000
00010000
01000000
00000000
00100000
10000000
00100000
00000000
,
10000000
01000000
00010000
00001000
00000000
00000000
01000000
00010000
,
00001000
00000100
00000000
00000000
00000001
00000000
00000001
00000000
,
00001000
00000010
00002000
00000000
00003001
00000001
00000000
00000101
,
00000000
00000100
00000100
00000000
00000110
00000000
00001010
00000000
,
00000001
00000100
00001000
00010000
00000000
00000000
00000100
00001000
,
00010000
01000000
00000000
00000000
10000000
00000000
10000000
00000000
,
00100000
01000000
00010000
10000000
01000000
00100000
00010000
01000000
,
00100000
10000000
00010000
01000000
00100000
10000000
00010000
00000000
,
10000000
01000000
00010000
00001000
00000000
00000000
01000000
00010000
,
00001000
00000100
00000000
00000000
00000001
00000000
00000001
00000000
,
00000020
00000000
00000000
00000000
00000000
00000000
00001030
00020000
,
00000000
00000000
00000000
00000000
00000000
00000000
00000000
00030000
,
20200000
00000000
00000000
00000000
30300000
00000000
10000000
01000000
,
00000000
01010000
00000000
00011000
00000000
00001100
00000000
00000100
,
00000002
00000000
00000000
00000000
00000000
00000000
00001003
00020000
,
00000000
00000000
00000000
00000000
,
01030000
01000000
00100000
10000000
00010000
01000000
00100000
02200000
,
00000000
03300000
10000000
00010000
,
01010000
00000000
00010000
10000000
00000000
01000000
00010000
00001000
,
00000000
00000100
00000001
00000000
00001000
00000000
00001000
00000020
,
00000000
00000030
00000100
00001000
00000000
00010000
01000000
20000000
,
00000000
30100000
01000000
00000000
00010000
00000000
10000000
00000000
,
12000000
00000000
00000000
00100000
00100000
00000000
10000000
13000000
,
00000000
00100000
00010000
00001000
00000010
00000000
00000011
00000000
,
00001000
00001000
00000001
00001000
00001000
00000001
00000100
00000020
,
00000000
00001030
00000001
00000100
00000010
00001000
00000001
00000100
,
00000010
00001000
00000010
00000100
00000000
00000101
00000000
00000000
,
00000010
00001000
00000010
00000100
00000000
00000101
00000000
00000000
,
00000001
00000010
00001000
00010000
00100000
00000000
20200000
00000000
,
00000000
00000000
30300000
10000000
00010000
01000000
00100000
10000000
,
00010000
00100000
00010000
01000000
00010000
00000000
10010000
00000000
,
10000000
00100000
10000000
02000000
00000000
03100000
00010000
00100000
,
00020000
00000000
00030000
02000000
00000000
03000000
00200000
00000000
,
00300000
00020000
00000000
00031000
00000100
00000001
00000100
00001000
,
00000000
00000000
00000000
00000000
00000000
00000000
00010000
00001000
,
00010000
00000000
00000010
00001000
00000000
00001000
00000001
00000000
,
00000100
00001000
00000000
00010000
01000000
00000000
10000000
00000000
,
00010000
00000000
01000000
00100000
00000000
00100000
10000000
00000000
,
01000000
00010000
00000000
00001000
00000100
00000000
00000001
00000000
,
00001000
00000000
00000010
00001000
00000000
00001000
00000001
00000000
,
00000100
00001000
00000000
00010000
01000000
00000000
10000000
00000000
,
00010000
00100000
01000000
10000000
00000000
00000000
10000000
01000000
,
00100000
00010000
00000000
01000000
00100000
00010000
00001000
00000100
;

//---------------dance-double - ----------------
#NOTES:
     dance-double:
     :
     Medium:
     10:
     0.455286,0.479161,0.065422,0.457957,0.018692,341.000000,334.000000,7.000000,49.000000,0.000000,0.000000,0.455286,0.479161,0.065422,0.457957,0.018692,341.000000,334.000000,7.000000,49.000000,0.000000,0.000000:
00000000
00000000
00000000
00000000
,
00000000
00000000
00000000
00000000
,
00000000
00000000
00000000
00000000
,
10000000
00010000
00001000
00000001
,
00002000
00000000
00000000
00003100
00000000
00000000
00000010
00000000
,
00002000
00000000
00000000
00013000
00000000
00000000
00100000
00000000
,
20000000
00000000
00000000
30010000
00000000
00000000
01000000
00000000
,
00100000
00010000
00001000
00000010
,
00000001
00000100
00000000
00000100
00000010
00001000
00000002
00000000
,
00000000
00000103
00001000
00010000
,
01000000
10000000
01000000
00000000
10000000
00100000
10000000
00100000
,
00000000
01010000
00000000
00100000
10000000
00000000
00010000
00000000
,
01000000
00100000
00000000
00100000
10000000
00010000
02000000
00000000
,
00000000
03100000
00010000
00001000
,
00000100
00000001
00000100
00000000
00000001
00001000
00000001
00001000
,
00000000
00000110
00000000
00000010
00001000
00000000
00001000
00000000
,
00000001
00000010
00000001
00000200
00000000
00000320
00000000
00000000
,
00000000
00000000
00010030
00000000
00010000
00000000
00000000
00000000
00001000
00000000
00000000
00010000
00000000
00000000
00001000
00000000
,
01000000
00100000
01000000
00010000
00000000
00010000
01000000
00200000
,
00000000
10000000
00000000
20000000
00000000
00000000
00000000
30300000
,
10000000
00100000
10000000
02000000
00000000
03200000
00000000
00000000
,
00000000
00000000
00301000
00000000
00001000
00000000
00000000
00000000
00010000
00000000
00000000
00001000
00000000
00000000
00010000
00000000
,
00000100
00001000
00000010
00000100
,
00000001
00001000
00000001
00000000
00000100
00000000
00000110
00000000
,
00000010
00001000
00000001
00002000
00000000
00003200
00000000
00000000
,
00000000
00000000
00010300
00000000
00010000
00000000
00000000
00000000
00001000
00000000
00000000
00100000
00000000
00000000
00001000
00000000
,
01000000
00100000
01000000
00010000
00000000
10000000
00010000
10000000
,
00000000
00200000
00000000
02000000
00000000
00000000
00000000
03300000
,
00100000
10000000
00100000
02000000
00000000
00000000
00000000
03020000
,
00000000
00000000
00100000
00000000
00130000
00000000
00000000
00000000
00001000
00000000
00000000
00010000
00000000
00000000
00001000
00000000
,
00010000
00000100
00000010
00000001
,
00000100
00000100
00000100
00000000
00000010
00000000
00001000
00000000
,
00000001
00000100
00000010
00001000
00000000
00000000
00000001
00000100
,
00000010
00001000
00000000
00000000
00000001
00000000
00000001
00000000
,
00000100
00001000
00010000
00000000
01000000
20000000
00000000
30000000
,
00010000
00000000
10000000
00000000
00100000
00100000
00100000
00000000
,
10000000
01000000
00100000
00010000
00000000
00000000
10000000
01000000
,
00100000
00010000
00000000
00000000
01000000
00000000
00100000
00000000
,
10000000
01000000
00010000
00000000
00001000
00000200
00000000
00000301
,
00000000
00001000
00000010
00000000
00001000
00000000
00000001
00000000
,
00000100
00000010
00001000
00000001
00000000
00000000
00000100
00000010
,
00001000
00000001
00000000
00000000
00000100
00000000
00000100
00000000
,
00000001
00000010
00000001
00000000
00000010
00001000
00000010
00000000
,
00001000
00000000
00010000
00000000
00100000
10000000
00100000
00000000
,
10000000
00010000
01000000
00100000
00000000
00000000
10000000
00010000
,
01000000
00100000
00000000
10000000
00010000
00000000
01000000
00000000
,
00020000
00000000
00000000
00000000
00000000
00030000
00100000
00200000
,
00000000
00000000
00000000
00000000
,
00302000
00000000
00000000
00000000
00000000
00000000
00013000
00020000
,
00000000
00030200
00000000
00000320
00000000
00000032
00000000
00000103
,
00000020
00000000
00000000
00000000
00000000
00000000
00010030
00020000
,
00000000
00000000
00000000
00000000
,
00031000
00000000
00001000
00000000
01000000
00100000
01000000
00100000
,
00000000
00000000
20000000
30020000
,
02030000
00000000
00000000
00000000
00000000
00000000
03010000
00200000
,
00000000
00000000
00000000
00000000
00000000
00000000
01300000
20000000
,
00000000
00000000
30100000
00020000
00000000
00031000
00000010
00000002
,
00000000
00000000
00000000
00000003
,
00000202
00000000
00000303
00000100
00000020
00000000
00000130
00000020
,
00000000
00010030
00001000
00010000
01000000
00000000
10000000
00000000
,
00100000
01000000
00000000
01000000
00010000
00000000
00010000
10000000
,
00000000
01000000
00010000
00000000
00001000
00000000
00000100
00000000
,
00000001
00000010
00000001
00001000
00000000
00002000
00000000
00000000
,
00003100
00010000
00001000
00010000
00000000
00002000
00000000
00003000
,
01000000
00100000
10000000
00000000
00010000
00000000
00020000
00000000
,
00000000
00000000
00030000
01000000
00010000
01000000
00010000
00000000
,
00100000
00000000
00001000
00010000
00000100
00000000
00000010
00000000
,
00000001
00000000
00000100
00000010
00000000
00010000
00000000
00001000
,
02000000
00000000
03000000
02200000
00000000
03300000
20200000
00000000
,
30300000
10010000
00000000
20000000
00020000
00000000
00000000
00000000
,
30030000
00000000
00000000
00000000
,
01000000
00000000
00100000
01000000
00000000
01000000
00001000
00000000
,
00001000
00010000
00000000
00010000
00000100
00000000
00000100
00000000
,
00000010
00000000
00000001
00001000
00000000
00001000
00000100
00000000
,
00000100
00010000
00000000
00010000
00001000
00000000
00001000
00000000
,
01000000
00000000
00100000
10000000
00000000
00010000
01000000
00000000
,
00010000
00100000
00000000
00001000
00010000
00000000
00000010
00000000
,
00000100
00000001
00001000
00000010
00000000
00000000
00000100
00000001
,
00001000
00000010
00000000
00000010
00010000
00001000
00010000
00001000
;
