#TITLE:Total XTC With U;
#SUBTITLE:;
#ARTIST:JAKAZiD;
#TITLETRANSLIT:;
#SUBTITLETRANSLIT:;
#ARTISTTRANSLIT:;
#GENRE:Breakbeat;
#CREDIT:;
#BANNER:totalxtcwithu-bn.png;
#BACKGROUND:totalxtcwithu-bg.png;
#LYRICSPATH:;
#CDTITLE:;
#MUSIC:Total XTC With U.mp3;
#OFFSET:-0.040000;
#SAMPLESTART:48.013332;
#SAMPLELENGTH:11.999990;
#SELECTABLE:YES;
#BPMS:0.000000=140.000000
;
#STOPS:
;
#BGCHANGES:;
#KEYSOUNDS:;
#ATTACKS:;

//---------------dance-single - ----------------
#NOTES:
     dance-single:
     :
     Challenge:
     16:
     0.852487,0.945766,0.640731,0.019126,1.051947,624.000000,557.000000,67.000000,2.000000,0.000000,0.000000,0.852487,0.945766,0.640731,0.019126,1.051947,624.000000,557.000000,67.000000,2.000000,0.000000,0.000000:
0000
0000
0000
0000
,
0000
0000
0000
0000
,
0000
0000
0000
0000
,
0000
0000
0000
0000
,
0011
0000
0001
0100
0000
0000
0011
0000
0001
0100
0000
0000
0010
0000
1000
0000
,
1010
0000
1000
0100
0000
0000
1010
0000
1000
0100
0000
0000
0010
0000
0001
0000
,
0110
0000
1000
0001
0000
0000
0110
0000
0001
1000
0000
0000
0010
0000
0100
0001
,
1000
0100
0010
0001
1000
0100
0010
0001
1000
0100
0010
0001
2000
0000
0000
0000
,
3001
0000
0001
1000
0000
0000
0110
0000
0000
1000
0000
0000
0010
0000
0010
1000
,
0100
0000
0000
0010
0000
0000
1100
0000
0000
0010
0000
0000
0100
0000
0100
0010
,
0001
0000
0000
0100
0000
0000
1010
0000
0000
0100
0000
0000
0001
0000
0001
0100
,
0010
0000
0000
1000
0000
0000
1010
0000
1000
0001
1000
0000
0001
0100
0001
1000
,
0001
0000
0010
1000
0000
0000
0001
0000
0000
0100
0000
0000
1000
0000
0001
0010
,
1000
0000
0010
0001
0000
0000
1000
0000
0000
0100
0000
0000
0001
0000
1000
0010
,
0001
0000
1000
0010
0000
0000
1100
0000
0000
0101
0000
0000
1000
0000
0010
0100
,
0001
0000
1000
0000
0110
0000
0000
0000
0001
0000
1100
0000
0010
0100
0010
0100
,
0001
0010
0001
0100
0001
0100
0001
0010
0001
0100
0010
1000
0100
0010
0001
0000
,
1000
0100
1000
0010
1000
0010
1000
0100
1000
0010
0100
0001
0010
0100
1000
0001
,
0100
0010
1000
0001
1000
0010
0100
0001
1000
0100
0001
0100
1000
0100
0001
0100
,
1000
0001
1000
0001
1000
0001
1000
0001
0100
0010
0100
0010
0100
0010
0100
0010
,
1000
0100
0001
0010
1000
0000
0000
0000
,
0001
0100
1000
0010
0001
0001
0001
0000
,
1000
0000
0010
0000
0001
0000
0100
0000
1000
0000
0000
0000
0010
0000
0100
0010
,
1000
0000
0000
0000
1100
0000
0000
0000
0101
0000
0000
0000
0010
0100
0001
0000
,
1000
0000
0000
0100
0000
0000
1100
0000
0010
0001
0000
0010
0001
0000
0100
0000
,
0001
0000
0000
0100
0000
0000
0101
0000
0000
1100
0000
0000
1001
0000
0010
0000
,
0100
0000
0000
0001
0000
0000
0101
0000
1000
0010
0000
1000
0010
0000
0100
0000
,
0001
0010
0100
1000
0100
0010
0001
1000
0010
1000
0010
1000
0010
0100
0010
0000
,
1000
0000
1000
0001
0000
0001
0100
0000
0010
1000
0000
0010
1000
0000
0100
0010
,
0001
0000
0001
0010
0000
0010
0100
0000
1000
0100
0000
0010
0001
0000
0100
0000
,
0010
0000
1000
0100
0000
0100
0010
0000
0001
0010
0000
0001
0010
0000
0001
1000
,
0100
0000
0010
0100
0000
0100
1000
0000
0010
1000
0001
0000
0100
0001
1000
0000
,
0010
1000
0010
0100
0010
0100
0010
1000
0001
0100
0010
1000
0010
0100
0001
0000
,
0100
0010
0100
0001
0100
0001
0100
0010
1000
0100
0010
0001
0010
0100
1000
0000
,
0001
0010
0001
0010
0001
1000
0001
1000
0100
0001
0100
0001
0100
1000
0100
1000
,
0010
0100
0010
0100
0010
0100
0010
0100
0001
1000
0001
1000
0001
0000
0000
0000
,
1100
0000
0000
1010
0000
0000
1001
0000
0000
0011
0000
0000
0101
0000
1001
0000
,
1010
0000
0000
0110
0000
0000
0011
0000
0000
1010
0000
0000
1100
0000
0110
0000
,
0011
0000
0000
0101
0000
0000
1001
0000
0000
1100
0000
0000
1010
0000
1001
0000
,
0101
0000
0000
0110
0000
0000
1100
0000
0000
0101
0000
0000
1000
0010
1000
0000
,
0101
0000
0100
1000
0000
0000
0101
0000
0100
1000
0000
0000
0100
0000
0010
0000
,
1010
0000
0010
0001
0000
0000
1010
0000
0010
0001
0000
0000
0010
0000
1000
0000
,
0101
0000
1000
0010
0000
0000
1100
0000
0010
0001
0000
0000
0001
0000
1000
0000
,
0001
0100
0001
0100
0001
0100
0001
0100
0001
0100
0001
0100
0002
0000
0003
0000
,
1001
0000
0010
1000
0000
0000
1001
0000
0100
0001
0000
0000
0001
0000
1000
0000
,
1010
0000
0100
0001
0000
0000
0011
0000
0100
1000
0000
0000
0010
0000
0100
0000
,
0101
0000
1000
0010
0000
0000
1100
0000
0001
0010
0000
0000
0100
0000
0010
0000
,
0011
0000
0001
1000
0000
0000
1100
0000
1000
0001
0000
0000
0100
0001
0100
0000
,
0010
0001
0010
1000
0100
0010
1000
0010
0001
0100
0010
0001
0010
1000
0001
0000
,
1000
0100
0010
1000
0010
0001
0100
0010
0001
0010
1000
0100
0001
0100
1000
0000
,
0101
0000
0000
1010
0000
0000
1100
0000
0000
0011
0000
0000
1100
0000
0101
0000
,
0011
0000
0000
1010
0000
0000
1001
0000
0000
0101
0000
0000
1000
0001
1000
0000
,
0010
0000
0010
0000
0100
0010
0000
0010
0000
0100
0010
0000
0010
0100
0010
0100
,
0001
0000
0010
0000
0001
0100
0000
0100
0000
0001
0100
0000
0010
1000
0010
1000
,
0100
0000
1000
0000
0100
1000
0000
1000
0000
0010
1000
0000
0100
0010
0100
0010
,
0001
0000
0001
0000
0100
0001
0000
0001
0000
0100
0001
0000
0100
0001
1000
0010
,
1000
0000
0100
0000
0010
0100
0000
0100
0000
1000
0100
0000
0010
0001
1000
0100
,
1000
0000
0010
0000
0100
0001
0000
0001
0000
0010
0001
0000
0100
0001
1000
0010
,
0100
0000
0001
0000
1000
0010
0000
0010
0000
1000
0100
0000
1000
0010
0100
0001
,
0010
0000
0100
0000
1000
0001
0000
0001
0000
0010
0100
0000
0010
0001
0010
0001
;

//---------------dance-single - ----------------
#NOTES:
     dance-single:
     :
     Beginner:
     2:
     0.132518,0.171420,0.028689,0.086068,0.000000,97.000000,94.000000,3.000000,9.000000,0.000000,0.000000,0.132518,0.171420,0.028689,0.086068,0.000000,97.000000,94.000000,3.000000,9.000000,0.000000,0.000000:
0000
0000
0000
0000
,
0000
0000
0000
0000
,
0000
0000
0000
0000
,
0000
0000
0000
0000
,
0010
0000
0010
0000
,
0001
0000
0001
0000
,
0010
0000
0010
0000
,
0100
0000
0000
0100
,
0100
0000
0000
1000
,
1000
0000
0000
0001
,
0001
0000
0000
0010
,
0010
0000
0001
0000
,
0001
0000
0000
0100
,
0100
0000
0000
0010
,
0010
0000
0000
1000
,
1000
0000
0000
0000
,
0010
0000
0000
0100
,
0100
0000
0000
0010
,
0010
0000
0100
0000
,
0220
0000
0330
0000
,
1000
0000
0000
0000
,
0010
0010
0010
0000
,
0100
0000
0000
0001
,
0001
0000
0000
0000
,
0001
0000
0000
0000
,
0100
0100
0100
0000
,
0010
0000
0000
0000
,
2002
0000
3003
0000
,
0100
0000
0000
0000
,
0001
0001
0001
0000
,
1000
0000
0000
0010
,
0010
0000
0000
0000
,
0100
0000
0000
0000
,
1000
0000
0000
0000
,
0100
0000
0010
0000
,
0220
0000
0330
0000
,
0001
0000
0000
0001
,
0001
0000
0000
1000
,
1000
0000
0000
1000
,
1000
0000
0000
0010
,
0010
0000
0010
0000
,
0100
0000
0100
0000
,
0010
0000
0010
0000
,
0002
0000
0003
0001
,
0001
0000
0000
1000
,
1000
0000
0000
0010
,
0010
0000
0000
0100
,
0100
0000
0000
0010
,
0020
0000
0030
0000
,
0020
0000
0030
0000
,
0100
0000
0000
1000
,
1000
0000
0000
0001
,
0001
0000
0000
0000
,
0100
0000
0000
0000
,
0010
0000
0000
0000
,
0010
0000
0000
0000
,
1000
0000
0000
0000
,
0010
0000
0000
0000
,
0100
0000
0000
0000
,
0100
0000
0000
0010
;

//---------------dance-single - ----------------
#NOTES:
     dance-single:
     :
     Hard:
     12:
     0.519143,0.572594,0.200826,0.105195,0.382526,380.000000,359.000000,21.000000,11.000000,0.000000,0.000000,0.519143,0.572594,0.200826,0.105195,0.382526,380.000000,359.000000,21.000000,11.000000,0.000000,0.000000:
0000
0000
0000
0000
,
0000
0000
0000
0000
,
0000
0000
0000
0000
,
0000
0000
0000
0000
,
0100
0000
0001
0100
0000
0000
0001
0000
0100
0001
0000
0000
0000
0000
0000
0000
,
1000
0000
0100
1000
0000
0000
0100
0000
1000
0100
0000
0000
0000
0000
0000
0000
,
0010
0000
0100
0010
0000
0000
0100
0000
0010
0100
0000
0000
0000
0000
0000
0000
,
0001
0010
0100
1000
0100
0010
0002
0000
,
1003
0000
0000
0010
0000
0000
1000
0000
0000
1000
0000
0000
0010
0000
0010
0000
,
0100
0000
0000
0001
0000
0000
0100
0000
0000
0100
0000
0000
0001
0000
0100
0000
,
0010
0000
0000
1000
0000
0000
0010
0000
0000
0010
0000
0000
0100
0000
0001
0000
,
1000
0000
0000
0001
0000
0000
1000
0000
0010
0000
0100
0000
0100
0000
0010
0000
,
1000
0000
0100
0000
0010
0000
0001
0000
0000
0001
0000
0000
1000
0000
0001
0000
,
0001
0000
0010
0000
0100
0000
1000
0000
0000
1000
0000
0000
0001
0000
1000
0000
,
0010
0000
0100
0000
0001
0000
1000
0000
0000
1000
0000
0000
0100
0000
0100
0000
,
0010
0001
0011
0000
0100
1100
0020
0000
,
0031
0010
0001
0100
0010
0010
1000
1000
,
0100
0010
0100
1000
0010
0010
0100
0100
,
0001
0010
0001
0010
0100
0010
0001
1000
,
2002
0000
0000
3003
,
1000
0100
0001
0010
1000
0000
0000
0000
,
0001
0100
1000
0010
0001
0001
0001
0000
,
0100
0010
1000
0001
1001
0000
0100
0010
,
0110
1100
0011
0110
,
0001
0000
0000
0001
0000
0000
0001
0000
0000
0010
0000
0000
0010
0000
0001
0000
,
1000
0000
0000
1000
0000
0000
1000
0000
0000
0100
0000
0000
0100
0000
0010
0000
,
0100
0000
0000
0100
0000
0000
0100
0000
0000
0010
0000
0000
0010
0000
0001
0000
,
2002
0000
3003
0000
,
0100
0000
0000
0100
0000
0000
0100
0000
0000
1000
0000
0000
0010
0000
0100
0000
,
0001
0000
0000
0001
0000
0000
0001
0000
0000
0100
0000
0000
0010
0000
1000
0000
,
0100
0000
0000
0001
0000
0000
0100
0000
0000
1000
0000
0000
0010
0000
0100
0000
,
0110
1010
0101
0110
,
1000
0100
1000
0010
0100
0100
0001
0001
,
0010
0100
0010
0001
0100
0100
0010
0010
,
1000
0010
1000
0010
0100
0001
0100
0001
,
0202
0000
0000
0303
,
0001
0000
0000
0100
0000
0000
0101
0000
0000
0001
0000
0000
1000
0000
0100
0000
,
1000
0000
0000
0100
0000
0000
1100
0000
0000
1000
0000
0000
0010
0000
0100
0000
,
0010
0000
0000
1000
0000
0000
1010
0000
0000
0010
0000
0000
0100
0000
0001
0000
,
0010
0000
0000
0001
0000
0000
0011
0000
0000
0010
0000
0000
0100
0000
0100
0000
,
1000
0000
0010
0100
0000
0000
0010
0000
0100
0001
0000
0000
0000
0000
0000
0000
,
0001
0000
0010
0100
0000
0000
0010
0000
0100
1000
0000
0000
0000
0000
0000
0000
,
1000
0000
0010
0001
0000
0000
0001
0000
0010
1000
0000
0000
0000
0000
0000
0000
,
0220
0000
0300
2030
,
3001
0000
0000
0100
0000
0000
0001
0000
0000
0010
0000
0000
0100
0000
1000
0000
,
1000
0000
0000
0010
0000
0000
1000
0000
0000
0100
0000
0000
0010
0000
0001
0000
,
0100
0000
0000
0010
0000
0000
1000
0000
0000
0010
0000
0000
0100
0000
0001
0000
,
0010
0000
0000
0100
0000
0000
1000
0000
0000
0001
0000
0000
0100
0010
0100
0000
,
0001
0010
1000
0100
0001
0010
1000
0000
,
1000
0010
0001
0100
1000
0010
0001
0000
,
0001
0000
0000
0010
0000
0000
0110
0000
0000
1000
0000
0000
0001
0000
0010
0000
,
0001
0000
0000
0100
0000
0000
0110
0000
0000
1000
0000
0000
0010
0100
0010
0000
,
1000
0000
0100
0000
1000
0100
0000
1000
0000
0100
1000
0000
0100
0000
0010
0000
,
0001
0000
0100
0000
0001
0100
0000
0001
0000
0100
0001
0000
0100
0000
0010
0000
,
1000
0000
1000
0000
0001
1000
0000
0001
0000
1000
0001
0000
0100
0000
0100
0000
,
0010
0000
0010
0000
0100
0010
0000
0100
0000
0010
0100
0000
0001
0000
0001
0000
,
1000
0000
0100
0000
0010
0001
0000
0010
0000
0001
0010
0000
0100
0000
1000
0000
,
0001
0000
0100
0000
0010
1000
0000
0010
0000
1000
0010
0000
0100
0000
0001
0000
,
1000
0000
1000
0000
0001
0100
0000
0001
0000
0100
0001
0000
0010
0000
0010
0000
,
0100
0000
0100
0000
0010
0001
0000
0010
0000
0001
0010
0000
0001
0000
1000
0000
;

//---------------dance-single - ----------------
#NOTES:
     dance-single:
     :
     Easy:
     5:
     0.244544,0.285699,0.124321,0.114758,0.000000,179.000000,166.000000,13.000000,12.000000,0.000000,0.000000,0.244544,0.285699,0.124321,0.114758,0.000000,179.000000,166.000000,13.000000,12.000000,0.000000,0.000000:
0000
0000
0000
0000
,
0000
0000
0000
0000
,
0000
0000
0000
0000
,
0000
0000
0000
0000
,
0010
0000
0000
1000
0000
0000
0000
0000
,
1000
0000
0000
0100
0000
0000
0000
0000
,
0100
0000
0000
0010
0000
0000
0000
0000
,
0220
0000
0330
0101
,
0001
0000
0000
0010
,
0100
0000
0000
0100
,
1000
0000
0000
1000
,
0010
0000
1000
0110
,
0010
1000
0000
0100
,
0010
0001
0000
0100
,
0010
1000
0000
0001
,
1000
1000
0001
1001
,
0100
0100
0100
0010
,
0100
0100
0100
1000
,
0002
0000
0010
0013
,
2000
0000
0000
3010
,
0001
0100
1000
0000
,
0010
0001
0100
1000
,
0010
0001
0100
1000
,
0001
0001
1000
1000
,
1000
0010
0001
0000
,
0100
1000
0010
0001
,
0100
1000
0010
0001
,
2000
0000
3000
1001
,
1000
0100
0010
0000
,
1000
0100
0010
0001
,
0001
0100
0010
0100
,
0002
0000
1000
1003
,
0010
0010
0010
0100
,
0010
0010
0010
0001
,
0010
0010
1000
1000
,
2020
0000
0000
3030
,
1001
0000
0000
0010
,
1001
0000
0000
0010
,
1001
0000
0000
0010
,
1001
0000
0000
0100
,
1000
0000
0000
0010
0000
0000
0000
0000
,
0100
0000
0000
0001
0000
0000
0000
0000
,
0001
0000
0000
0010
0000
0000
0000
0000
,
2200
0000
3300
0110
,
0100
0000
0000
1000
,
0010
0000
0000
0001
,
0100
0000
0000
1000
,
0010
0000
0000
0001
,
0100
0010
0100
0010
,
1000
0001
1000
0001
,
2000
0000
0000
3010
,
2000
0000
3000
1100
,
0010
0010
0010
0001
,
0100
0100
0100
0010
,
1000
0001
1000
0010
,
1000
0001
1000
0001
,
1000
1000
1000
0100
,
0010
0010
0010
0001
,
0100
0010
0100
0001
,
1000
0010
1000
0001
;

//---------------dance-single - ----------------
#NOTES:
     dance-single:
     :
     Medium:
     7:
     0.329246,0.429445,0.219953,0.086068,0.028689,241.000000,218.000000,23.000000,9.000000,0.000000,0.000000,0.329246,0.429445,0.219953,0.086068,0.028689,241.000000,218.000000,23.000000,9.000000,0.000000,0.000000:
0000
0000
0000
0000
,
0000
0000
0000
0000
,
0000
0000
0000
0000
,
0000
0000
0000
0000
,
1000
0000
0000
0001
0000
0000
0000
0000
,
0001
0000
0000
0100
0000
0000
0000
0000
,
0010
0000
0000
1000
0000
0000
0000
0000
,
2200
0000
3300
0011
,
1001
0000
0000
0000
0000
0000
1010
1000
,
0010
0000
0000
0000
0000
0000
0101
0001
,
0100
0000
0000
0000
0000
0000
0110
0100
,
0010
0000
1000
0001
,
1100
0001
0100
0001
,
1100
0001
0010
0001
,
0101
0000
1000
0000
0010
0000
1000
0010
,
0000
0100
0001
0000
0100
0010
0200
0000
,
0301
0000
0010
0000
0001
0010
0100
1000
,
0001
0000
0100
0000
0001
0100
0010
1000
,
0010
0000
0010
0000
1000
0001
1000
0001
,
2000
0000
0000
0000
,
3010
0100
0010
0100
0010
0000
0000
0000
,
1000
0000
0001
0000
0100
0010
0100
0000
,
0001
1000
0001
1000
0001
0000
1000
0000
,
1100
0110
0011
1001
,
0100
0010
0100
0010
0100
0000
0000
0000
,
0001
0000
1000
0000
0010
0100
0010
0000
,
1000
0001
1000
0001
1000
0000
0010
0000
,
0101
0110
1010
0000
,
1000
0100
1000
0100
1000
0000
0000
0000
,
1000
0000
0100
0000
0010
0001
0010
0000
,
1000
0100
1000
0100
1000
0000
0001
0000
,
0200
0001
1000
0301
,
0100
0000
0010
0000
1000
0100
0010
0000
,
0100
0000
1000
0000
0001
0010
0100
0000
,
0010
0010
0001
0001
,
0202
0000
0000
0303
,
0011
0000
0000
0000
0000
0000
0010
0100
,
1000
0000
0000
0000
0000
0000
0100
0010
,
0001
0000
0000
0000
0000
0000
0010
0100
,
1000
0000
0000
0000
0000
0000
1001
0001
,
1000
0000
0000
1100
0000
0000
0000
0000
,
0010
0000
0000
0011
0000
0000
0000
0000
,
0001
0000
0000
1001
0000
0000
0000
0000
,
0220
0000
0000
0330
,
0010
0000
0000
0010
0000
0000
0010
0000
0000
0000
0000
0000
0000
0000
0000
0000
,
0100
0000
0000
0100
0000
0000
0100
0000
0000
0000
0000
0000
0000
0000
0000
0000
,
1000
0000
0000
1000
0000
0000
1000
0000
0000
0000
0000
0000
0000
0000
0000
0000
,
0001
0000
0000
0001
0000
0000
0001
0000
0000
0000
0000
0000
0100
0000
0000
0000
,
0001
0010
0001
1000
,
1000
0010
1000
0001
,
1000
0000
0000
1000
0000
0000
1000
0000
0000
0000
0000
0000
0000
0000
0000
0000
,
0001
0000
0000
0001
0000
0000
0001
0000
0000
0000
0000
0000
0100
0000
0000
0000
,
0010
0000
1000
0000
0010
0000
1000
0100
,
0010
0000
0001
0000
0010
0000
0001
0100
,
0010
0000
0100
0000
0010
0000
0100
0001
,
1000
0000
0001
0000
1000
0000
0001
0010
,
0100
0000
0100
0000
0100
0000
0100
0010
,
0001
0000
0001
0000
0001
0000
0001
1000
,
0010
0000
0010
0000
0010
0000
0010
0100
,
1000
0000
1000
0000
1000
0000
1000
0100
;

//---------------dance-double - ----------------
#NOTES:
     dance-double:
     :
     Challenge:
     16:
     0.810136,0.945766,0.439905,0.028689,1.071073,593.000000,547.000000,46.000000,3.000000,0.000000,0.000000,0.810136,0.945766,0.439905,0.028689,1.071073,593.000000,547.000000,46.000000,3.000000,0.000000,0.000000:
00000000
00000000
00000000
00000000
,
00000000
00000000
00000000
00000000
,
00000000
00000000
00000000
00000000
,
00000000
00000000
00000000
00000000
,
00110000
00000000
00010000
01000000
00000000
00000000
00110000
00000000
00100000
00001000
00000000
00000000
00000000
00000000
00000000
00000000
,
00010100
00000000
00000100
00010000
00000000
00000000
00001100
00000000
00001000
00000100
00000000
00000000
00000000
00000000
00000000
00000000
,
00011000
00000000
00010000
01000000
00000000
00000000
00011000
00000000
00001000
00000100
00000000
00000000
00000000
00000000
00000000
00000000
,
00000010
00000001
00000010
00000001
00000010
00000001
00000010
00000001
00000010
00000001
00000010
00000001
00000020
00000000
00000000
00000000
,
00000130
00000000
00001000
00010000
00000000
00010000
00100000
00000000
10000000
01000000
00000000
01000000
10000000
00000000
00100000
01000000
,
00100000
00000000
01000000
00010000
00000000
00010000
00100000
00000000
01000000
10000000
00000000
10000000
00100000
00000000
01000000
00100000
,
01000000
00000000
00100000
00010000
00000000
00010000
00001000
00000000
00000010
00000001
00000000
00000001
00001000
00000000
00000010
00000100
,
00000010
00000000
00000100
00000001
00000000
00000001
00001000
00000000
00000010
00000100
00000010
00000000
00000100
00000010
00000100
00000010
,
00000100
00000000
00000000
00001000
00000000
00000000
00010000
00000000
00100000
10000000
00000000
10000000
00100000
00000000
00010000
00001000
,
00010000
00000000
00000000
00001000
00000000
00000000
00000100
00000000
00000001
00000100
00000000
00000100
00000001
00000000
00000100
00001000
,
00000100
00000000
00000000
00001000
00000000
00000000
00010000
00000000
01000000
10000000
00000000
10000000
01000000
00000000
00010000
00001000
,
00010000
00000010
00000110
00000000
00001000
00001100
00000002
00000000
,
00000103
00000001
00000100
00000001
00001000
00000010
00001000
00000010
00010000
00001000
00010000
00001000
01000000
00010000
01000000
00010000
,
10000000
01000000
10000000
01000000
00100000
00010000
00100000
00010000
01000000
00001000
01000000
00001000
00010000
00001000
00010000
00001000
,
00010000
00000010
00010000
00000010
00010000
00000010
00010000
00000010
00000100
00000010
00000100
00000010
00000100
00000010
00000100
00000010
,
00000100
00000001
00001000
00000010
00000100
00000001
00001000
00000010
00000100
00000001
00001000
00000010
00000100
00000001
00001000
00000010
,
00000100
00001000
00010000
00100000
10000000
00000000
00000000
00000000
,
10000000
01000000
10000000
01000000
00010000
00001000
00000010
00000000
,
00000001
00000100
00001000
00010000
00100000
00000000
10000000
01000000
,
00010000
00001010
00000011
00000101
,
00000010
00000000
00000000
00001000
00000000
00000000
00000010
00000000
00001000
00000100
00000000
00000100
00010000
00000000
00001000
00000000
,
00000010
00000000
00000000
00001000
00000000
00000000
00010000
00000000
00000000
01000000
00000000
00000000
10000000
00000000
00100000
00000000
,
01000000
00000000
00000000
00010000
00000000
00000000
01000000
00000000
00010000
00100000
00000000
00100000
00001000
00000000
00010000
00000000
,
00000100
00001000
00000100
00001000
00000010
00000100
00000010
00000100
00000001
00000010
00000001
00000010
00000001
00000000
00000000
00000000
,
00000100
00000010
00000000
00000100
00000010
00000000
00000100
00000000
00000010
00000100
00000000
00000010
00000100
00000000
00001000
00000000
,
00010000
01000000
00000000
00010000
01000000
00000000
00100000
00000000
01000000
10000000
00000000
01000000
10000000
00000000
00100000
00000000
,
01000000
00100000
00000000
01000000
00100000
00000000
01000000
00000000
00100000
01000000
00000000
00100000
01000000
00000000
00100000
00000000
,
00011000
00000000
00000000
00000000
00001100
00000000
00000000
00000000
00000101
00000000
00000000
00000000
00001000
00000001
00001000
00000000
,
00000010
00000100
00000010
00000100
00000010
00010000
00000010
00010000
00001000
01000000
00100000
10000000
00100000
01000000
00001000
00000000
,
01000000
00100000
01000000
00100000
01000000
00001000
01000000
00001000
00010000
00000100
00000010
00000001
00000010
00000100
00010000
00000000
,
00000010
00001000
00000010
00001000
00000010
00001000
00000010
00001000
00000001
00000100
00000001
00000100
00000010
00001000
00000010
00001000
,
00000100
00010000
00001000
01000000
00001000
00010000
00000100
00010000
00001000
01000000
00001000
00010000
00000100
00000000
00000000
00000000
,
00010000
00000000
00000000
00101000
00000000
00000000
01001000
00000000
00000000
00011000
00000000
00000000
01100000
00000000
01000000
00000000
,
10000000
00000000
00000000
10100000
00000000
00000000
11000000
00000000
00000000
10010000
00000000
00000000
00101000
00000000
00001000
00000000
,
00010000
00000000
00000000
00010010
00000000
00000000
00010100
00000000
00000000
00011000
00000000
00000000
00000110
00000000
00000100
00000000
,
00000001
00000000
00000000
00000011
00000000
00000000
00000101
00000000
00000000
00001001
00000000
00000000
00000010
00000100
00001000
00000000
,
00010000
00000000
00100000
10000000
00000000
00000000
00100000
00000000
00010000
00001000
00000000
00000000
00000010
00000000
00000001
00000000
,
00000100
00000000
00001000
00010000
00000000
00000000
01000000
00000000
00010000
00001000
00000000
00000000
00010000
00000000
01000000
00000000
,
10000000
00000000
00100000
00010000
00000000
00000000
00001000
00000000
00000100
00000001
00000000
00000000
00000100
00000000
00001000
00000000
,
00010000
00001000
00010000
00001000
00010000
00001000
00010000
00001000
00010000
00001000
00010000
00001000
00020000
00000000
00000000
00000000
,
00130000
00000000
00000000
10100000
00000000
00000000
11000000
00000000
00000000
01000000
00000000
00000000
00010000
00001000
00000010
00000000
,
00000010
00000000
00000000
00000011
00000000
00000000
00000101
00000000
00000000
00000100
00000000
00000000
00001000
00010000
00100000
00000000
,
00100000
00000000
00000000
00101000
00000000
00000000
00011000
00000000
00000000
00010100
00000000
00000000
00001000
00010000
01000000
00000000
,
01000000
00000000
00000000
11000000
00000000
00000000
10100000
00000000
00000000
01010000
00000000
00000000
00100000
00001000
00100000
00000000
,
00010000
00100000
01000000
10000000
01000000
00100000
00010000
00100000
01000000
10000000
01000000
00100000
00010000
00000000
00000000
00000000
,
00001000
00000100
00000010
00000001
00000010
00000100
00001000
00000100
00000010
00000001
00000010
00000100
00001000
00000100
00000010
00000001
,
00000100
00000000
00000000
00001010
00000000
00000000
00010100
00000000
00000000
00011000
00000000
00000000
00100000
00001000
00010000
00000000
,
00011000
00000000
00000000
01010000
00000000
00000000
11000000
00000000
00000000
10100000
00000000
00000000
00100000
00010000
00001000
00000000
,
00001000
00000000
00000010
00000000
00000001
00000100
00000000
00001000
00000000
00010000
00001000
00000000
00000100
00000001
00000100
00000001
,
00000100
00000000
00001000
00000000
00010000
01000000
00000000
10000000
00000000
01000000
00010000
00000000
01000000
10000000
01000000
10000000
,
00100000
00000000
01000000
00000000
00100000
00010000
00000000
00001000
00000000
00010000
00100000
00000000
10000000
00100000
10000000
00100000
,
00010000
00000000
00001000
00000000
00000100
00000001
00000000
00000100
00000000
00001000
00010000
00000000
00001000
00000100
00001000
00000100
,
00000001
00000000
00001000
00000000
00000001
00001000
00000000
00000001
00000000
00001000
00000001
00000000
00001000
00010000
00001000
00010000
,
10000000
00000000
00010000
00000000
10000000
00010000
00000000
10000000
00000000
00010000
10000000
00000000
00010000
10000000
00010000
10000000
,
01000000
00000000
00010000
00000000
00001000
00000010
00000000
00001000
00000000
00010000
01000000
00000000
00010000
00001000
00000010
00000001
,
00000100
00000000
00001000
00000000
00010000
00100000
00000000
00010000
00000000
00001000
00000100
00000000
00001000
00010000
00100000
10000000
;

//---------------dance-double - ----------------
#NOTES:
     dance-double:
     :
     Easy:
     5:
     0.202192,0.257129,0.057379,0.114758,0.000000,148.000000,142.000000,6.000000,12.000000,0.000000,0.000000,0.202192,0.257129,0.057379,0.114758,0.000000,148.000000,142.000000,6.000000,12.000000,0.000000,0.000000:
// measure 0
00000000
00000000
00000000
00000000
,  // measure 1
00000000
00000000
00000000
00000000
,  // measure 2
00000000
00000000
00000000
00000000
,  // measure 3
00000000
00000000
00000000
00000000
,  // measure 4
01000000
00000000
00000000
01000000
00000000
00000000
00000000
00000000
,  // measure 5
00001000
00000000
00000000
00001000
00000000
00000000
00000000
00000000
,  // measure 6
00010000
00000000
00000000
00010000
00000000
00000000
00000000
00000000
,  // measure 7
00000020
00000000
00000000
00000130
,  // measure 8
00000001
00000000
00000000
00000100
,  // measure 9
00000010
00000000
00000000
00010000
,  // measure 10
00001000
00000000
00000000
00100000
,  // measure 11
00010000
00000000
01100000
10010000
,  // measure 12
20000000
00000000
00000000
30010000
,  // measure 13
00200000
00000000
00000000
00301000
,  // measure 14
00020000
00000000
00000000
00030100
,  // measure 15
00000010
00000001
00001000
00001010
,  // measure 16
00000020
00000000
00000000
00010030
,  // measure 17
00020000
00000000
00000000
00031000
,  // measure 18
00001000
01000000
00100000
10000000
,  // measure 19
00200000
00000000
00000000
00000000
,  // measure 20
10300000
01000000
00010000
00000000
,  // measure 21
00001000
00000100
00000001
00000000
,  // measure 22
00001000
00000001
00001000
00000000
,  // measure 23
00001001
00001000
00000001
00001000
,  // measure 24
00000001
00000010
00001000
00000000
,  // measure 25
00010000
00100000
10000000
00000000
,  // measure 26
10000000
00010000
10000000
00000000
,  // measure 27
02200000
00000000
00000000
03300000
,  // measure 28
10000000
00100000
00010000
00000000
,  // measure 29
00001000
00000100
00000001
00000000
,  // measure 30
00001000
00000001
00001000
00000000
,  // measure 31
00000100
00010000
00001000
01000000
,  // measure 32
00100000
00100000
10000000
10000000
,  // measure 33
01000000
01000000
00100000
00100000
,  // measure 34
00001000
00000000
00010000
00000000
,  // measure 35
00000020
00000000
00000000
00000000
,  // measure 36
00000130
00000000
00000000
00000010
,  // measure 37
00000010
00000000
00000000
00010000
,  // measure 38
00010000
00000000
00000000
00001000
,  // measure 39
00001000
00000000
00000000
01000000
,  // measure 40
01000000
00000000
00000000
00100000
00000000
00000000
00000000
00000000
,  // measure 41
10000000
00000000
00000000
00010000
00000000
00000000
00000000
00000000
,  // measure 42
00100000
00000000
00000000
00001000
00000000
00000000
00000000
00000000
,  // measure 43
00022000
00000000
00000000
00033000
,  // measure 44
00010000
00000000
00000000
00000010
,  // measure 45
00000100
00000000
00000000
00000010
,  // measure 46
00010000
00000000
00000000
00010000
,  // measure 47
00001000
00000000
00000000
00100000
,  // measure 48
00010000
01000000
00010000
01000000
,  // measure 49
00001000
00010000
00001000
00010000
,  // measure 50
00000100
00000000
00000000
00001000
,  // measure 51
00000010
00000000
00000000
00000100
,  // measure 52
00000001
00001000
00000000
00000100
,  // measure 53
00010000
00001000
00000000
00000000
,  // measure 54
01000000
00100000
01000000
00000000
,  // measure 55
00100000
01000000
00100000
00000000
,  // measure 56
10000000
00010000
00000000
00100000
,  // measure 57
00001000
00010000
00000000
00000010
,  // measure 58
00001000
00000100
00001000
00000000
,  // measure 59
00000001
00000100
00000001
00000001
;

//---------------dance-double - ----------------
#NOTES:
     dance-double:
     :
     Hard:
     13:
     0.590183,0.629853,0.143447,0.038253,0.487721,432.000000,417.000000,15.000000,4.000000,0.000000,0.000000,0.590183,0.629853,0.143447,0.038253,0.487721,432.000000,417.000000,15.000000,4.000000,0.000000,0.000000:
00000000
00000000
00000000
00000000
,
00000000
00000000
00000000
00000000
,
00000000
00000000
00000000
00000000
,
00000000
00000000
00000000
00000000
,
00100000
00000000
01000000
00010000
00000000
00000000
00100000
00000000
01000000
00010000
00000000
00000000
00000000
00000000
00000000
00000000
,
00000010
00000000
00000100
00001000
00000000
00000000
00000010
00000000
00000100
00001000
00000000
00000000
00000000
00000000
00000000
00000000
,
01000000
00000000
00010000
10000000
00000000
00000000
01000000
00000000
00010000
10000000
00000000
00000000
00000000
00000000
00000000
00000000
,
00010000
00001000
00010000
00001000
00010000
00001000
00010000
00001000
00010000
00001000
00010000
00000000
00000020
00000000
00000000
00000000
,
00000130
00000000
00000000
00000001
00000000
00000000
00000100
00000000
00000000
00001000
00000000
00000000
00010000
00000000
00100000
00000000
,
10000000
00000000
00000000
01000000
00000000
00000000
00010000
00000000
00000000
00001000
00000000
00000000
00010000
00000000
01000000
00000000
,
00100000
00000000
00000000
00010000
00000000
00000000
00001000
00000000
00000000
00000100
00000000
00000000
00001000
00000000
00010000
00000000
,
00000010
00000000
00000000
00000100
00000000
00000000
00000001
00000000
00000200
00000000
00001300
00000000
00020000
00000000
00031000
00000000
,
00000100
00000000
00000000
00000001
00000000
00000000
00000010
00000000
00000000
00001000
00000000
00000000
00010000
00000000
00100000
00000000
,
00010000
00000000
00000000
00001000
00000000
00000000
00010000
00000000
00000000
01000000
00000000
00000000
10000000
00000000
00100000
00000000
,
00010000
00000000
00000000
00001000
00000000
00000000
00000100
00000000
00000000
00001000
00000000
00000000
00010000
00000000
00000010
00000000
,
00000000
00000100
00001000
00000000
00010000
01000000
01010000
00000000
,
00100000
00010000
00100000
00010000
01000000
00100000
01000000
00100000
,
00010000
00001000
00010000
00001000
00000010
00000001
00000010
00000001
,
00000100
00001000
00000100
00001000
00010000
01000000
00010000
01000000
,
00010000
00001000
00000010
00001000
00010000
00100000
00010000
00001000
,
00010000
00010000
00000010
00000010
00000100
00000000
00000000
00000000
,
00000100
00000100
00000010
00000010
00010000
00001000
01000000
00000000
,
00001000
00001000
00100000
00100000
00010000
00000000
00010000
10000000
,
11000000
00110000
00001100
00000011
,
00000100
00000000
00000000
00000100
00000000
00000000
00000100
00000000
00000010
00010000
00000000
00010000
00001000
00000000
00000100
00000000
,
00001000
00000000
00000000
00001000
00000000
00000000
00010000
00000000
00000000
01000000
00000000
00000000
10000000
00000000
00100000
00000000
,
00010000
00000000
00000000
00010000
00000000
00000000
00001000
00000000
00010000
00000010
00000000
00000010
00000100
00000000
00001000
00000000
,
00010000
00000000
01000000
00000000
00010000
00000000
00001000
00000000
00000010
00000000
00001000
00000000
00010000
00000100
00010000
00000000
,
00000010
00001000
00000000
00000010
00001000
00000000
00000001
00000000
00000100
00001000
00000000
00000100
00001000
00000000
00010000
00000000
,
00100000
10000000
00000000
00100000
10000000
00000000
01000000
00100000
00000000
01000000
00100000
00000000
01000000
00000000
10000000
00000000
,
00100000
00010000
00000000
00100000
00010000
00000000
00001000
00000000
00010000
00000100
00000000
00010000
00000100
00000000
00000010
00000000
,
00000001
00000100
00001000
00000000
00010000
00100000
10000000
01000000
,
00010000
00001000
00010000
00001000
00000010
00000001
00000010
00001001
,
00000100
00001000
00000100
00001000
00010000
00100000
00010000
00100000
,
10000000
01000000
00010000
01000000
10000000
00100000
00010000
00011000
,
00010000
01000000
00010000
00001000
00000010
00001000
00010000
01000000
,
00010000
00000000
00000000
00010010
00000000
00000000
00000010
00000000
00000000
00000110
00000000
00000000
00000100
00000000
00001000
00000000
,
00010000
00000000
00000000
01010000
00000000
00000000
10000000
00000000
00000000
10100000
00000000
00000000
00010000
00000000
00001000
00000000
,
00000010
00000000
00000000
00000011
00000000
00000000
00000001
00000000
00000000
00000101
00000000
00000000
00001000
00000000
00010000
00000000
,
00100000
00000000
00000000
00101000
00000000
00000000
00001000
00000000
00000000
00011000
00000000
00000000
00010000
00000100
00010000
00000000
,
00000010
00000000
00001000
00000100
00000000
00000000
00000010
00000000
00001000
00000100
00000000
00000000
00000000
00000000
00000000
00000000
,
00100000
00000000
00010000
01000000
00000000
00000000
00100000
00000000
00010000
01000000
00000000
00000000
00000000
00000000
00000000
00000000
,
00000010
00000000
00001000
00000001
00000000
00000000
00000100
00000000
00000001
00001000
00000000
00000000
00000000
00000000
00000000
00000000
,
00010000
00000100
00010000
00000100
00010000
00000100
00010000
00000100
00010000
00000100
00010000
00000000
00002000
00000000
00000000
00000000
,
01003000
00000000
00100000
10000000
00000000
00000000
01000000
00000000
00000000
00010000
00000000
00000000
00001000
00000000
00000010
00000000
,
00000100
00000000
00000001
00001000
00000000
00000000
00000010
00000000
00000000
00000100
00000000
00000000
00001000
00000000
00010000
00000000
,
01000000
00000000
10000000
00100000
00000000
00000000
01000000
00000000
00000000
10000000
00000000
00000000
01000000
00000000
00100000
00000000
,
00010000
00000000
00001000
00010000
00000000
00000000
00000010
00000000
00000000
00000100
00000000
00000000
00000001
00000010
00000001
00000000
,
00000001
00000010
00000001
00000010
00000001
00000010
00001000
00010000
,
01000000
10000000
01000000
10000000
01000000
10000000
01000000
00010000
,
00001000
00000000
00000000
00100000
00000000
00000000
00001000
00000000
00000000
00010000
00000000
00000000
00010000
00000000
00000100
00000000
,
00010000
00000000
00000000
00000010
00000000
00000000
00010000
00000000
00000000
00001000
00000000
00000000
00100000
00000000
00010000
00000000
,
01000000
00000000
00100000
00000000
01000000
00100000
00000000
10000000
00000000
00100000
01000000
00000000
00100000
00000000
00010000
00000000
,
00001000
00000000
00000100
00000000
00000010
00001000
00000000
00000001
00000000
00001000
00000010
00000000
00000100
00000000
00001000
00000000
,
00010000
00000000
00100000
00000000
10000000
00010000
00000000
01000000
00000000
00010000
10000000
00000000
00100000
00000000
00010000
00000000
,
00001000
00000000
00000010
00000000
00000001
00001000
00000000
00000100
00000000
00001000
00000001
00000000
00000010
00000000
00000100
00000000
,
00000010
00000000
00001000
00000000
00010000
00000100
00000000
00001000
00000000
00000100
00010000
00000000
00001000
00000000
00100000
00000000
,
01000000
00000000
00010000
00000000
00001000
00100000
00000000
00010000
00000000
00100000
00001000
00000000
01000000
00000000
00001000
00000000
,
00010000
00000000
00000010
00000000
00000100
00000001
00000000
00000010
00000000
00000001
00000100
00000000
00000010
00000000
00010000
00000000
,
00001000
00000000
01000000
00000000
00010000
00100000
00000000
01000000
00000000
00100000
00010000
00000000
10000000
00000000
01000000
00000000
;

//---------------dance-double - ----------------
#NOTES:
     dance-double:
     :
     Medium:
     9:
     0.372963,0.486705,0.133884,0.114758,0.057379,273.000000,259.000000,14.000000,12.000000,0.000000,0.000000,0.372963,0.486705,0.133884,0.114758,0.057379,273.000000,259.000000,14.000000,12.000000,0.000000,0.000000:
00000000
00000000
00000000
00000000
,
00000000
00000000
00000000
00000000
,
00000000
00000000
00000000
00000000
,
00000000
00000000
00000000
00000000
,
10000000
00000000
00000000
00010000
00000000
00000000
00000000
00000000
,
01000000
00000000
00000000
00001000
00000000
00000000
00000000
00000000
,
00010000
00000000
00000000
00000010
00000000
00000000
00000000
00000000
,
00000202
00000000
00000000
00000303
,
00000010
00000000
00000000
00001000
00000000
00000000
00000010
00010000
,
00010000
00000000
00000000
00001000
00000000
00000000
00010000
00100000
,
00100000
00000000
00000000
10000000
00000000
00000000
00010000
01000000
,
01000000
00000000
00000000
00000000
10000000
00100000
10000000
00100000
,
01000000
00001000
00000000
00001000
00010000
00000000
00011000
00000000
,
00100000
01000000
00000000
01000000
00001000
00000000
00011000
00000000
,
00000100
00000001
00000000
00000001
00000010
00000000
00000010
00000000
,
00000100
00010000
00001000
00000000
00100000
00010000
02000000
00000000
,
03100000
10000000
00100000
10000000
00100000
10000000
01000000
00000000
,
00100000
00001000
00100000
00001000
00100000
00001000
00010000
00000000
,
00000010
00000100
00000010
00000100
00000001
00001000
00000001
00001000
,
00002002
00000000
00000000
00003003
,
00000010
00010000
00001000
00000000
00000100
00000000
00000000
00000000
,
00001000
00010000
00100000
00000000
10000000
01000000
00010000
00000000
,
00010000
00001000
01000000
00000000
00100000
00000000
00010000
00001000
,
00000100
00000101
00001010
00010100
,
00010000
00001000
00100000
00000000
01000000
00000000
00000000
00000000
,
00010000
00001000
00000010
00000100
00000010
00000000
00001010
00000000
,
00000100
00010000
00001000
01000000
00100000
00000000
00100000
01000000
,
02200000
00000000
00300000
03002000
,
00013000
00000010
00000100
00000001
00000010
00000000
00000000
00000000
,
00000100
00010000
00001000
00100000
01000000
10000000
01000000
00000000
,
10000000
00100000
01000000
00001000
00010000
00000000
00000010
00000100
,
00000110
00000101
00001010
00011000
,
01000000
00010000
01000000
00010000
01000000
00010000
01000000
00000000
,
00001000
00010000
00001000
00010000
00001000
00010000
00001000
00000000
,
00010000
00000010
00010000
00000010
00000100
00000001
00000100
00000001
,
00002000
00000000
00000000
00000000
,
00003100
00000000
00000000
00010000
00000000
00000000
00001000
00100000
,
01000000
00000000
00000000
00100000
00000000
00000000
01000000
00001000
,
00010000
00000000
00000000
00000010
00000000
00000000
00001000
00000100
,
00010000
00000000
00000000
00001000
00000000
00000000
00100000
01000000
,
00100000
00000000
00000000
00100000
00000000
00000000
00000000
00000000
,
00000010
00000000
00000000
00000010
00000000
00000000
00000000
00000000
,
00100000
00000000
00000000
00100000
00000000
00000000
00000000
00000000
,
00022000
00000000
00030000
00203000
,
01300000
00000000
00000000
10000000
00000000
00000000
01000000
00000000
00000000
10000000
00000000
00000000
00000000
00000000
00000000
00000000
,
00100000
00000000
00000000
00001000
00000000
00000000
00100000
00000000
00000000
00001000
00000000
00000000
00000000
00000000
00000000
00000000
,
00010000
00000000
00000000
00000100
00000000
00000000
00010000
00000000
00000000
00000100
00000000
00000000
00000000
00000000
00000000
00000000
,
00001000
00000000
00000000
00000010
00000000
00000000
00001000
00000000
00000000
00000010
00000000
00000000
00001000
00000000
00000001
00000000
,
00000001
00000100
00001000
00000000
00000100
00001000
00010000
00000000
,
00001000
00010000
01000000
00000000
00010000
01000000
10000000
00000000
,
00010000
00000000
00000000
01000000
00000000
00000000
00010000
00000000
00000000
01000000
00000000
00000000
00000000
00000000
00000000
00000000
,
00001000
00000000
00000000
00010000
00000000
00000000
00001000
00000000
00000000
00010000
00000000
00000000
00000010
00000000
00001000
00000000
,
00000001
00000000
00000100
00000000
00000001
00000000
00000100
00001000
,
00010000
00000000
01000000
00000000
00010000
00000000
01000000
10000000
,
00100000
00000000
00010000
00000000
00100000
00000000
00010000
00001000
,
00000010
00000000
00000001
00000000
00000010
00000000
00000001
00000010
,
00001000
00000000
00010000
00000000
00001000
00010000
00000000
00000100
,
00010000
00000000
00001000
00000000
01000000
00001000
00000000
00010000
,
00001000
00000000
00001000
00000000
01000000
00100000
01000000
00100000
,
10000000
00000000
10000000
00000000
01000000
00100000
01000000
00100000
;
