#TITLE:Tokyo Girl;
#SUBTITLE:;
#ARTIST:Perfume;
#TITLETRANSLIT:;
#SUBTITLETRANSLIT:;
#ARTISTTRANSLIT:;
#GENRE:Pop;
#CREDIT:;
#BANNER:tokyogirl-bn.png;
#BACKGROUND:tokyogirl-bg.png;
#LYRICSPATH:;
#CDTITLE:;
#MUSIC:Tokyo Girl.mp3;
#OFFSET:-0.040000;
#SAMPLESTART:66.830002;
#SAMPLELENGTH:11.999990;
#SELECTABLE:YES;
#BPMS:0.000000=128.000000
;
#STOPS:
;
#BGCHANGES:;
#KEYSOUNDS:;
#ATTACKS:;

//---------------dance-single - ----------------
#NOTES:
     dance-single:
     :
     Hard:
     9:
     0.417295,0.430473,0.352699,0.262263,0.031652,323.000000,284.000000,39.000000,29.000000,0.000000,0.000000,0.417295,0.430473,0.352699,0.262263,0.031652,323.000000,284.000000,39.000000,29.000000,0.000000,0.000000:
// measure 0
0000
0000
0000
0000
,  // measure 1
0000
0000
0000
0000
,  // measure 2
0000
0000
0000
0000
,  // measure 3
0000
0000
0000
0000
,  // measure 4
0002
2003
3002
0103
,  // measure 5
1001
0000
0010
1000
0001
0000
1000
0001
,  // measure 6
0100
0010
0200
0000
0000
0000
0300
0002
,  // measure 7
2000
0000
0000
3003
,  // measure 8
0020
0032
1003
0011
,  // measure 9
0200
0000
1300
0001
1000
0000
1100
0000
,  // measure 10
0010
0100
2000
0001
0001
0000
0000
3010
,  // measure 11
0020
0000
0000
0130
0200
0000
0301
1000
,  // measure 12
0200
2300
3001
1100
,  // measure 13
0020
0000
0031
1000
0001
0000
0011
0000
,  // measure 14
0100
1000
0020
0100
0100
0000
0000
1000
,  // measure 15
2030
0000
0000
0001
3001
0000
0100
0010
,  // measure 16
2000
3020
0130
1010
,  // measure 17
0001
0000
0000
0100
0001
0000
0010
0000
0001
0000
0000
0000
1000
0000
1000
0000
,  // measure 18
0001
0010
0200
1000
1000
0000
0000
0010
,  // measure 19
0310
0000
0100
1000
0001
0010
0010
0000
,  // measure 20
0011
1100
0011
1100
,  // measure 21
0001
0100
0010
0000
1000
0000
0001
0000
,  // measure 22
1010
0101
1010
0101
,  // measure 23
0100
0001
1000
0000
0010
0000
0110
0100
,  // measure 24
0010
1000
0100
0000
0010
0001
0100
0000
,  // measure 25
0010
1000
0100
0000
1001
0000
0101
0000
,  // measure 26
1010
0000
0000
0000
1100
0000
0000
0000
0011
0000
0000
0000
0100
0000
0000
0010
,  // measure 27
0100
0001
0100
0000
0020
0000
1000
1000
,  // measure 28
1030
0000
0001
0000
1000
0100
0001
0100
,  // measure 29
1000
0000
1001
0000
0001
0010
1000
0010
,  // measure 30
0001
0000
1001
0000
1000
0010
0001
0010
,  // measure 31
1000
0000
1001
0000
0001
0100
1000
0100
,  // measure 32
0001
0000
1100
0000
1000
0010
0001
0010
,  // measure 33
1000
0000
0101
0000
0001
0010
1000
0010
,  // measure 34
0001
0100
0010
1000
0001
0100
0010
1000
,  // measure 35
1001
0000
0100
0000
1001
0001
1000
0010
,  // measure 36
0100
0000
0100
0000
0100
0010
0000
1010
,  // measure 37
0000
1000
0100
0010
0001
0000
0001
0100
,  // measure 38
0010
0000
0010
1000
0010
1000
0000
1010
,  // measure 39
0000
0001
0010
0100
1000
0100
0010
0100
,  // measure 40
0010
0000
0010
0000
0010
0001
0000
0101
,  // measure 41
0000
0010
0100
0001
1000
0010
1000
0020
,  // measure 42
0000
1030
0100
0010
0001
0100
0010
0100
,  // measure 43
0001
0010
0100
1000
1001
0000
0110
0000
,  // measure 44
0010
0000
0010
0000
0010
0100
0000
0101
,  // measure 45
0000
0001
0010
0100
1000
0001
1000
0010
,  // measure 46
0100
0000
0100
0001
0100
0001
0000
0001
,  // measure 47
2000
0000
3100
0010
0001
0010
0100
0010
,  // measure 48
0100
0000
0100
0000
0100
1000
0000
1010
,  // measure 49
0000
0100
0010
1000
0001
0100
0001
0200
,  // measure 50
0020
0300
0230
0000
0320
0000
0130
0001
,  // measure 51
1000
0000
0000
0001
1000
0000
0010
0000
1000
0000
0100
0000
0020
0000
0000
0000
,  // measure 52
0031
0000
0000
0100
0000
0000
0010
0000
2000
0000
0000
0000
3000
0000
0000
0000
,  // measure 53
1000
0000
0000
0010
0000
0000
0100
0000
0001
0000
0000
0000
0000
0000
0000
0000
,  // measure 54
0001
0000
0000
0100
0000
0000
0010
0000
1000
0000
0000
0000
0000
0000
0000
0000
,  // measure 55
1010
0000
0000
1010
0000
0000
0101
0000
0101
0000
0000
0000
0000
0000
0000
0000
,  // measure 56
1001
0000
0000
0000
;

//---------------dance-single - ----------------
#NOTES:
     dance-single:
     :
     Beginner:
     2:
     0.126610,0.177254,0.018087,0.000000,0.000000,98.000000,96.000000,2.000000,0.000000,0.000000,0.000000,0.126610,0.177254,0.018087,0.000000,0.000000,98.000000,96.000000,2.000000,0.000000,0.000000,0.000000:
0000
0000
0000
0000
,
0000
0000
0000
0000
,
0000
0000
0000
0000
,
0000
0000
0000
0000
,
1000
0000
0001
0000
,
1000
0000
0001
0000
,
1000
0000
0000
0000
,
1001
0000
0000
0000
,
0001
0000
1000
0000
,
0001
0000
1000
0000
,
0001
0000
0000
0000
,
0100
0000
0000
0000
,
0010
0000
0100
0000
,
0010
0000
0100
0000
,
0010
0000
0000
0000
,
0010
0000
0000
0000
,
0100
0000
0010
0000
,
0100
0000
0010
0000
,
0100
0000
0000
0000
,
0000
0000
0001
0000
,
1000
0000
1000
0000
,
1000
0000
1000
0000
,
0001
0000
0001
0000
,
0001
0000
0001
0000
,
0100
0000
0100
0000
,
0100
0000
0100
0000
,
0010
0000
0010
0000
,
0010
0000
0010
0000
,
0010
0010
0010
0000
,
1000
1000
1000
0000
,
0001
0001
0001
0000
,
0100
0100
0100
0000
,
0010
0010
0010
0000
,
1000
1000
1000
0000
,
0001
0001
0001
0000
,
0000
0000
0000
0000
,
0010
0010
0010
0000
,
0000
0000
0000
0001
,
0001
0000
1000
0000
,
1000
0000
0000
0000
,
0100
0100
0100
0000
,
0000
0000
0000
1000
,
0000
0000
0001
0000
,
0000
0000
0000
0000
,
1000
1000
1000
0000
,
0000
0000
0000
0010
,
0010
0000
0100
0000
,
0100
0000
0000
0000
,
0001
0001
0001
0000
,
0000
0000
0000
0000
,
0100
0000
0010
0000
,
0100
0000
0100
0000
,
0100
0000
1000
0000
,
0100
0000
0010
0000
,
0001
0000
1000
0000
,
0010
0000
0010
0000
,
0110
0000
0000
0000
;

//---------------dance-single - ----------------
#NOTES:
     dance-single:
     :
     Easy:
     4:
     0.189915,0.227898,0.054261,0.126610,0.000000,147.000000,141.000000,6.000000,14.000000,0.000000,0.000000,0.189915,0.227898,0.054261,0.126610,0.000000,147.000000,141.000000,6.000000,14.000000,0.000000,0.000000:
0000
0000
0000
0000
,
0000
0000
0000
0000
,
0000
0000
0000
0000
,
0000
0000
0000
0000
,
1000
0001
1000
0001
,
1000
0000
0001
0000
,
1001
0000
0000
0000
,
0010
0000
0000
0000
,
0100
0010
0100
0010
,
0100
0000
0010
0000
,
0110
0000
0000
0000
,
0001
0000
0001
0000
,
1000
0001
1000
0001
,
1000
0000
0001
0000
,
2002
0000
3003
0000
,
0020
0000
0030
0000
,
0100
0010
0100
0010
,
0100
0000
0010
0000
,
0220
0000
0330
0000
,
1000
0000
1000
0000
,
0001
0001
0100
0100
,
0001
0001
1000
0000
,
1000
1000
0100
0100
,
1000
1000
0001
0000
,
0100
0100
0010
0010
,
0100
0100
0001
0000
,
0010
0010
0100
0100
,
0010
0010
0001
1000
,
0100
0010
0100
0000
,
1000
0001
1000
0000
,
0001
0010
0001
0000
,
1000
0100
1000
0000
,
0001
1000
0001
0000
,
0100
0001
0100
0000
,
0010
1000
0010
0000
,
0100
0100
0100
0001
,
1000
1000
1000
0000
,
0001
0000
0000
0100
,
0010
0000
1000
0001
,
0100
0000
0000
0010
,
0200
0302
0203
0300
,
0010
0000
0000
1000
,
0001
0001
1000
0000
,
0010
0100
0010
1000
,
0001
0001
0001
0000
,
1000
0000
0000
0010
,
0100
0000
0001
1000
,
0010
0000
0000
0100
,
0020
2030
3020
0030
,
0100
0000
0001
1000
,
0001
0000
0001
0000
,
0100
0010
1000
0001
,
2000
0000
3100
0000
,
0002
0000
0103
0000
,
2000
0000
3100
0000
,
0001
0000
1001
0000
,
0110
0000
0000
0000
;

//---------------dance-single - ----------------
#NOTES:
     dance-single:
     :
     Medium:
     7:
     0.294561,0.354507,0.153740,0.289394,0.004522,228.000000,211.000000,17.000000,32.000000,0.000000,0.000000,0.294561,0.354507,0.153740,0.289394,0.004522,228.000000,211.000000,17.000000,32.000000,0.000000,0.000000:
0000
0000
0000
0000
,
0000
0000
0000
0000
,
0000
0000
0000
0000
,
0000
0000
0000
0000
,
0002
0023
0032
0023
,
0230
0000
1300
0100
1000
0000
0010
0000
,
1000
0000
2020
0000
0000
0000
3030
1000
,
0001
0000
0000
0000
,
2000
3200
2300
3200
,
0320
0000
0031
0100
0001
0000
0010
0000
,
0001
0000
0022
0000
0000
0000
0033
0010
,
0200
0000
1300
0001
,
0100
0100
0010
0010
,
1000
0000
0001
1000
0001
0000
1000
0000
,
0010
0000
0220
0000
0000
0000
0330
1000
,
0002
0000
0003
0000
,
0010
0010
0100
0100
,
1000
0000
0001
1000
0001
0000
0100
0000
,
0010
0100
0020
0000
0000
0000
0000
0000
,
0030
0000
0000
0100
0010
0000
0000
0000
,
2000
3010
2000
3010
,
0100
0001
0010
0000
0100
0000
0000
0000
,
0020
0031
0020
0031
,
0100
0010
1000
0000
0100
0000
0000
0000
,
2000
3001
0002
1003
,
0010
0100
0010
0000
1001
0000
0000
0000
,
0200
0310
0020
0130
,
0001
1000
0001
0000
0110
0000
0100
0000
,
0001
0001
0001
1000
,
0001
0001
0001
0110
,
1000
1000
1000
0001
,
1000
1000
1000
0110
,
0001
1000
0100
0110
,
1000
0001
0100
0110
,
0010
0000
1000
0000
0010
0100
0001
0100
,
0010
0010
0010
1100
,
1000
0000
1000
0000
1000
0100
0000
0011
,
0000
0000
0000
0000
0000
0001
0100
0001
,
0010
0000
0010
0000
0010
0100
0000
1100
,
0000
0000
1000
0000
0001
0100
0010
0100
,
0010
0000
1000
0000
0010
0100
0000
0101
,
0000
0000
0000
0000
0000
1000
0100
0010
,
0000
0100
1000
0000
0001
0000
0010
0100
,
0000
0010
0001
1000
0100
0000
0010
0000
,
0001
0000
0001
0000
0001
0010
0000
1100
,
0000
0000
0010
0000
0010
1000
0010
1000
,
0100
0000
0100
0000
0100
0010
0000
0010
,
0002
0000
1003
0001
1000
0010
0100
0010
,
0100
0000
0001
0000
0100
0010
0000
1010
,
0000
0000
0000
0000
0001
0010
0100
2000
,
0000
0001
0000
3001
,
0101
0000
0010
0100
0010
1000
0001
0000
,
2000
0000
0000
0010
3010
0000
0000
0000
,
0002
0000
0000
0100
0103
0000
0000
0000
,
0200
0000
0000
0010
0310
0000
0000
0000
,
1000
0000
0000
1000
0000
0000
0001
0000
0001
0000
0000
0000
0000
0000
0000
0000
,
1001
0000
0000
0000
;

//---------------dance-double - ----------------
#NOTES:
     dance-double:
     :
     Hard:
     9:
     0.360450,0.405151,0.144697,0.307481,0.036174,279.000000,263.000000,16.000000,34.000000,0.000000,0.000000,0.360450,0.405151,0.144697,0.307481,0.036174,279.000000,263.000000,16.000000,34.000000,0.000000,0.000000:
00000000
00000000
00000000
00000000
,
00000000
00000000
00000000
00000000
,
00000000
00000000
00000000
00000000
,
00000000
00000000
00000000
00000000
,
20000000
32000000
03020000
00031000
,
00000010
00000000
00000001
00001000
00000001
00000000
00000010
00000100
,
00010000
00001000
00020000
00000000
00000000
00000000
00000000
00001000
,
00031000
00000000
00000000
00000000
,
00002000
00023000
00230000
20300000
,
31000000
00000000
10000000
00010000
10000000
00000000
00100000
00000000
,
00010000
00001000
00000020
00000001
00000032
00000000
00000000
00000100
,
00000203
00000000
00000000
00000010
00000320
00000000
00000000
00000000
,
00000230
00002300
00023000
02030000
,
13000000
00000000
00010000
00100000
00010000
00000000
01000000
00000000
,
00001000
00010000
00002000
00000000
00000000
00000000
00000000
00010000
,
00020000
00000000
00033000
00000000
00011000
00000000
00010000
00001000
,
00020000
00032000
00003020
00000032
,
00000103
00000000
00000000
00000010
00000100
00000000
00000010
00000000
00001000
00000000
00000000
00000000
00000001
00000000
00001000
00000000
,
00000001
00000010
00002000
00000000
00000000
00000000
00000000
00010000
,
00013000
00000000
00000000
00100000
10000000
00000000
00000000
00000000
,
00100000
01000000
00100000
01000000
,
00010000
10000000
00010000
00000000
01100000
00000000
00000000
00000000
,
00100000
00001000
00100000
00001000
,
00010000
00001000
00010000
00000000
00011000
00000000
00000000
00000000
,
00000010
00000000
00000100
00000000
00000010
00000100
00000010
00000000
,
00001000
00000100
00000010
00000000
00000110
00000000
00000000
00000000
,
00000100
00000000
00000000
00000000
00010000
00000000
00000000
00000000
00000100
00000000
00000000
00000000
00010000
00000000
00000000
00001000
,
00010000
00001000
00010000
00000000
00011000
00000000
00010000
00000010
,
00000100
00000000
00000100
00000000
00001000
00000000
00010000
01000000
,
10000000
00000000
00100000
00000000
01000000
00000000
00100000
00010000
,
00001000
00000000
00000010
00000000
00000001
00000100
00000010
00010000
,
00001000
00000000
00010000
00000000
00100000
01000000
10000000
00010000
,
00100000
00000000
01000000
00000000
00001000
00010000
00000010
00000100
,
00000001
00000000
00000010
00000000
00001000
00010000
00100000
10000000
,
00010000
01000000
00010000
01000000
00100000
10000000
00100000
10000000
,
01000000
01000000
01100000
00101000
,
00001000
00000000
00001000
00000000
00001000
00010000
00000000
00010010
,
00000000
00000010
00000100
00000000
00000001
00001000
00000100
00001000
,
00000100
00000000
00010000
00001000
00010000
00200000
00000000
10300000
,
00000000
01000000
00100000
01000000
10000000
00000000
00010000
10000000
,
02000000
00000000
03020000
00000000
00031000
00000010
00000000
00000011
,
00000000
00000100
00000010
00000100
00001000
00010000
01000000
20000000
,
00000000
31000000
00010000
00001000
00000010
00000001
00000010
00000002
,
00000000
00000103
00000010
00000100
00000010
00000000
00001001
00000000
,
00000001
00000000
00000001
00000000
00000001
00000010
00000000
00001100
,
00000000
00000010
00000100
00000010
00010000
00001000
00010000
01000000
,
20000000
00000000
31000000
00010000
00001000
00000100
00000000
00001000
,
00020000
00000000
00030010
00000100
00000010
00001000
00000001
00001000
,
00000020
00000000
00000000
00000000
00000130
00000000
00000000
00000010
00001000
00000000
00000200
00000000
00000000
00000000
00020300
00000000
,
00000000
00031000
01000000
00100000
10000000
01000000
10000000
01000000
,
00200000
00000000
00001000
00000000
00000000
00000000
00310000
00001000
,
00000010
00000000
00000000
00000010
00000100
00000000
00000010
00000000
00001000
00000000
00000001
00000000
00001000
00000000
00000000
00000000
,
00000100
00000000
00000000
00000010
00000000
00000000
00001000
00000000
00010000
00000000
00000000
00000000
00000000
00000000
00000000
00000000
,
01000000
00000000
00000000
00100000
00000000
00000000
00010000
00000000
00001000
00000000
00000000
00000000
00000000
00000000
00000000
00000000
,
00000100
00000000
00000000
00000010
00000000
00000000
00001000
00000000
00010000
00000000
00000000
00000000
00000000
00000000
00000000
00000000
,
11000000
00000000
00000000
11000000
00000000
00000000
00110000
00000000
00110000
00000000
00000000
00000000
00000000
00000000
00000000
00000000
,
00011000
00000000
00000000
00000000
;

//---------------dance-double - ----------------
#NOTES:
     dance-double:
     :
     Easy:
     4:
     0.149865,0.202576,0.009044,0.045218,0.000000,116.000000,115.000000,1.000000,5.000000,0.000000,0.000000,0.149865,0.202576,0.009044,0.045218,0.000000,116.000000,115.000000,1.000000,5.000000,0.000000,0.000000:
00000000
00000000
00000000
00000000
,
00000000
00000000
00000000
00000000
,
00000000
00000000
00000000
00000000
,
00000000
00000000
00000000
00000000
,
01000000
00100000
01000000
00000000
,
00001000
00000000
00010000
00000000
,
00001000
00000000
00000000
00000000
,
00010000
00000000
00000000
00000000
,
00000010
00000100
00000010
00000000
,
00010000
00000000
00001000
00000000
,
00010000
00000000
00000000
00000000
,
00002000
00003000
02000000
03000000
,
00100000
10000000
00100000
00000000
,
01000000
00000000
00001000
00000000
,
00020000
00000000
00030000
00000000
,
00000010
00000000
00000000
00000000
,
00000100
00000001
00000100
00000000
,
00000010
00000000
00010000
00000000
,
00002000
00000000
00000000
00003000
,
00100000
00000000
00000000
00000000
,
01000000
00100000
01000000
00100000
,
00001000
00010000
00000010
00000000
,
00000100
00000010
00000100
00000010
,
00010000
00001000
00100000
00000000
,
01000000
10000000
01000000
10000000
,
00010000
00100000
00001000
00000000
,
00010000
00000010
00010000
00000010
,
00000100
00000001
00001000
00000000
,
00000001
00000001
00000001
00000000
,
00000010
00000010
00000010
00000000
,
00000100
00000100
00000100
00000000
,
00010000
00010000
00010000
00000000
,
00001000
00001000
00001000
00000000
,
00100000
00100000
00100000
00000000
,
01000000
01000000
01000000
00000000
,
10000000
00010000
10000000
00000000
,
00100000
00100000
00100000
00000000
,
00100000
00000000
00000000
00000000
,
01000000
00000000
00001000
00000000
,
00010000
00000000
00000000
00000000
,
00000010
00000000
00000100
00000000
,
00000010
00000000
00000000
00000000
,
00000100
00000000
00000100
00000000
,
00000000
00000100
00000100
00000000
,
00000001
00000001
00000001
00000000
,
00000001
00000000
00000000
00000000
,
00000100
00000000
00000010
00000000
,
00010000
00000000
00000000
00000000
,
00001000
00000000
00001000
00000000
,
00100000
00000000
00000000
00000000
,
02000000
00100000
00000000
03100000
,
00010000
00000000
10000000
00000000
,
01000000
00000000
00000000
00000000
,
00001000
00000000
00000000
00000000
,
00010000
00000000
00000000
00000000
,
00000100
00000000
00000000
00000000
,
00011000
00000000
00000000
00000000
;

//---------------dance-double - ----------------
#NOTES:
     dance-double:
     :
     Medium:
     7:
     0.291978,0.354507,0.072348,0.217045,0.018087,226.000000,218.000000,8.000000,24.000000,0.000000,0.000000,0.291978,0.354507,0.072348,0.217045,0.018087,226.000000,218.000000,8.000000,24.000000,0.000000,0.000000:
00000000
00000000
00000000
00000000
,
00000000
00000000
00000000
00000000
,
00000000
00000000
00000000
00000000
,
00000000
00000000
00000000
00000000
,
00000002
00000203
00000302
00000203
,
00000310
00000000
00010000
00001000
00010000
00000000
00001000
00000000
,
01000000
00100000
02000000
00000000
00000000
00000000
00000000
00100000
,
03100000
00000000
00000000
00000000
,
20000000
30200000
20300000
30200000
,
01300000
00000000
00001000
00010000
00001000
00000000
00010000
00000000
,
00000010
00000100
00000020
00000000
00000000
00000000
00000000
00001030
,
00000002
00000000
00000003
00000001
00002000
00000000
00003000
00000000
,
00000002
00000023
00000230
00020300
,
00031000
00000000
00001000
00100000
01000000
00000000
10000000
00000000
,
00010000
10000000
00020000
00000000
00000000
00000000
00030000
00100000
,
02000000
00000000
13000000
00000000
,
20000000
30200000
02300000
03002000
,
00013000
00000000
00010000
00000010
00000100
00000000
00000001
00001000
,
00000001
00000100
00000002
00000000
00000000
00000000
00000000
00000000
,
00000103
00000000
00001000
00000000
,
00010000
01000000
00010000
01000000
,
10000000
00100000
10000000
00000000
01000000
00000000
00000000
00000000
,
00010000
00001000
00010000
00001000
,
00000010
00000001
00000010
00000000
00000001
00000000
00000000
00000000
,
00000100
00001000
00000100
00001000
,
00010000
01000000
00010000
00000000
01000000
00000000
00000000
00000000
,
10000000
00010000
10000000
00010000
,
01000000
00001000
00010000
00000000
00000010
00000000
00000100
00000010
,
00000100
00000000
00000100
00000000
00000100
00000000
00000100
00000010
,
00010000
00000000
00010000
00000000
00010000
00000000
00010000
00001000
,
01000000
00000000
01000000
00000000
01000000
00100000
01000000
00100000
,
10000000
00000000
10000000
00000000
10000000
00010000
10000000
00010000
,
00100000
00000000
00100000
00000000
00100000
00001000
00100000
00001000
,
00010000
00000000
00010000
00000000
00010000
00000010
00010000
00000010
,
00000100
00000000
00000100
00000000
00000100
00000001
00000100
00000001
,
00000100
00000000
00001000
00000000
00010000
00000000
00100000
10000000
,
00100000
00000000
10000000
00000000
00010000
01000000
00000000
01100000
,
00000000
00000000
00000000
00000000
,
00000010
00000000
00000100
00000001
00001000
00000010
00000000
00000100
,
00000000
00000000
00000000
00000000
00000000
00000000
01000000
00100000
,
01000000
00000000
01100000
00000000
10000000
00010000
00000000
01010000
,
00000000
00000000
00000000
00000000
00000000
00000010
00000100
00000010
,
00000000
00001000
00000001
00000000
00000100
00000010
00001000
00000001
,
00000000
00000010
00000100
00000010
00000100
00000000
00001001
00000000
,
00000010
00000000
00001000
00000000
00000001
00000100
00000000
00000101
,
00000000
00000000
00000000
00000000
00000000
00000000
01000000
00100000
,
01000000
00000000
00010000
00100000
00010000
10000000
00000000
11000000
,
00000000
00000000
00000000
00000000
,
00000100
00000000
00001000
00000000
00000010
00000100
00000000
00000101
,
00000000
00000000
00000000
00000000
00000010
00010000
00001000
01000000
,
00200000
00000000
10300000
00000000
01000000
00000000
00010000
00001000
,
00000010
00000000
00000001
00000100
00001000
00010000
00100000
00000000
,
01000000
00000000
00000000
00010000
00000000
00000000
01000000
00000000
00000000
00000000
00000000
00000000
00000000
00000000
00000000
00000000
,
00000010
00000000
00000000
00001000
00000000
00000000
00000010
00000000
00000000
00000000
00000000
00000000
00000000
00000000
00000000
00000000
,
01000000
00000000
00000000
00010000
00000000
00000000
01000000
00000000
00000000
00000000
00000000
00000000
00000000
00000000
00000000
00000000
,
00000010
00000000
00000000
00000010
00000000
00000000
00000100
00000000
00000100
00000000
00000000
00000000
00000000
00000000
00000000
00000000
,
00011000
00000000
00000000
00000000
;
