#TITLE:The Kingsroad;
#SUBTITLE:;
#ARTIST:RINZO;
#TITLETRANSLIT:;
#SUBTITLETRANSLIT:;
#ARTISTTRANSLIT:;
#GENRE:Rock;
#CREDIT:;
#BANNER:thekingsroad-bn.png;
#BACKGROUND:thekingsroad-bg.png;
#LYRICSPATH:;
#CDTITLE:;
#MUSIC:The Kingsroad.mp3;
#OFFSET:-0.820000;
#SAMPLESTART:58.389999;
#SAMPLELENGTH:12.000000;
#SELECTABLE:YES;
#BPMS:0.000000=150.000000
;
#STOPS:
;
#BGCHANGES:;
#KEYSOUNDS:;
#ATTACKS:;

//---------------dance-single - ----------------
#NOTES:
     dance-single:
     :
     Challenge:
     16:
     0.905444,0.972826,0.621177,0.094756,0.900180,602.000000,543.000000,59.000000,9.000000,0.000000,0.000000,0.905444,0.972826,0.621177,0.094756,0.900180,602.000000,543.000000,59.000000,9.000000,0.000000,0.000000:
0000
0000
0000
0000
,
0000
0000
0000
0000
,
0000
0000
0000
0000
,
0000
0000
0000
0000
,
1100
0000
0000
0000
0010
0001
0010
0001
0010
0000
0000
0000
1001
0000
0000
0000
,
2010
0000
3100
0001
0100
0000
1100
0000
,
0011
0000
0000
0000
0100
1000
0100
1000
0100
0000
0000
0000
1001
0000
0000
0000
,
1000
0000
0010
0000
0100
0000
0010
0000
0001
0000
0010
1000
0010
1000
0010
0000
,
1000
0000
0100
0000
1100
0000
0000
0100
0000
0010
0100
0010
0001
0000
0000
0100
,
0001
0000
0010
0000
0011
0000
0000
0010
0100
0000
1100
0000
0100
0010
0001
0010
,
0100
0000
0010
0000
0110
0000
1000
0001
1000
0001
1000
0010
0100
0000
0000
0001
,
0010
0000
0000
0000
0001
0000
0000
0000
0101
0000
0000
0000
1000
0000
0000
0000
0110
0000
0000
0000
0010
0000
0000
0000
1000
0001
1000
0000
0000
0000
0000
0000
,
1000
0100
1000
0000
0100
0001
0100
0000
1000
0010
1000
0000
0010
0001
0010
0100
,
0001
0010
0001
0000
0010
1000
0010
0000
0001
0100
0001
0000
0100
1000
0100
0010
,
1000
0100
0010
0100
0001
0100
1000
0010
0100
0010
0001
0010
1000
0001
0010
0100
,
0010
1000
0010
0100
0010
0001
0100
0000
0110
0000
0001
0100
1000
0000
0000
0000
,
0001
0100
0010
0000
0100
1000
0100
0000
0001
0010
0100
0000
0001
0100
1000
0010
,
1000
0100
0010
0000
0100
0001
0100
0000
1000
0010
0100
0000
1000
0100
0001
0010
,
0001
0000
0000
0101
0000
0000
1100
0000
0000
0000
0101
0000
1000
0100
1000
0000
,
0110
0000
0010
0100
0010
0001
0010
0100
0010
1000
0010
0100
0010
0000
0000
0000
,
1100
0000
1000
0000
0100
0010
0001
0000
0100
0000
1000
0000
1100
0000
0101
0000
,
0001
0010
0100
0000
1000
0000
0100
0010
0001
0000
0010
0000
0011
0000
1010
0000
,
0001
0100
0010
1000
0100
0000
1000
0100
0000
0000
0010
0000
0100
1000
0010
0100
,
0001
0100
0010
0001
0010
1000
0100
0010
1000
0010
0001
0100
0010
1000
0100
0010
,
0001
0000
0001
0000
0010
0100
1000
0000
0010
0000
0001
0000
0011
0000
1010
0000
,
1000
0100
0010
0000
0001
0000
0010
0100
1000
0000
0100
0000
1100
0000
0101
0000
,
1000
0000
0010
0000
1000
0010
0100
0001
0010
0000
0001
0000
0010
0001
0010
0001
,
0010
0100
1000
0000
0010
0000
0100
0000
0001
0010
1000
0010
0001
0000
0000
0000
,
1200
0000
0000
0000
0000
0000
0310
0001
0010
0000
0000
0000
0000
0000
0011
0000
,
0000
0000
1000
0100
0010
0000
0001
0100
0010
0000
0000
0000
1010
0000
1000
0000
,
1001
0000
0000
0001
0100
0000
0000
0010
1000
0000
0000
0001
1000
0001
1000
0001
,
0010
0000
0011
0000
1001
0000
0000
0010
1000
0100
0010
1000
0010
0001
0010
0000
,
0201
0000
0000
0000
0000
0000
0310
1000
0010
0000
0000
0000
0000
0000
1001
0000
,
1000
0010
0100
0001
1000
0010
1000
0010
0100
0001
0100
0001
0100
0010
1000
0010
,
1000
0000
1000
0010
0100
0000
1000
0100
0001
0000
0010
0100
0001
0000
0100
1000
,
0010
0100
0001
0100
0010
1000
0100
1000
0010
0000
0000
0010
0100
0000
0000
0000
,
0101
0001
0100
1000
1100
0000
0100
0001
,
0011
0000
0010
0100
1100
0001
0010
1000
,
1010
1000
0010
0001
0011
0000
0100
0010
,
1001
0000
0000
0000
0001
1000
0001
1000
0001
0100
0010
1000
0010
0100
0001
0000
,
2002
3003
0101
0100
1000
0000
0100
0001
,
1001
0000
1000
0010
0110
0001
0010
1000
,
0010
0000
1100
0000
0000
0000
0010
0000
0001
0000
0010
0001
1000
0000
0010
0000
,
0100
1000
0100
0001
0010
0000
0100
0000
0001
0100
1000
0100
0020
0000
0000
0000
,
0031
0100
0001
0010
0001
1000
0001
0000
1000
0100
0001
0000
0100
0000
1100
0000
,
0010
0001
0010
0000
1000
0000
1010
0000
0001
0000
0100
0000
0001
0100
0010
0100
,
2000
0000
0000
0000
3100
0000
0001
0000
0010
1000
0010
0100
0010
0000
0001
0000
,
1000
0100
0001
0100
1000
0000
0001
0000
1001
0000
0000
0000
0110
0000
0000
0000
,
1000
0010
1000
0100
1000
0001
1000
0000
0001
0100
1000
0100
0001
0000
1001
0000
,
1000
0100
0001
0000
0100
0000
1100
0000
1000
0000
0010
0000
1000
0010
0100
0010
,
0002
0000
0000
0000
0013
0000
1000
0000
0100
0001
0100
0010
0100
1000
0100
0000
,
1000
0010
0001
0010
0100
0001
0010
0100
0001
0100
1000
0100
0010
0000
0000
0000
,
0110
1000
0010
0001
1010
0000
0001
0010
,
1010
0000
0000
0000
0010
0000
0001
0000
1000
0100
0001
0100
1000
0010
0100
0000
,
1001
0001
0010
1000
0011
0000
1000
0010
,
0001
0010
0000
1000
0100
0010
0100
1000
0001
0100
1000
0100
0001
0000
0000
0000
,
0101
0000
0000
0001
0000
0000
0010
0100
1000
0100
1000
0000
1100
0000
0000
1000
0000
0000
0010
0100
0001
0100
0001
0000
,
0001
0100
1000
0100
0001
0010
1000
0010
0002
0000
0000
0000
0003
0000
0000
0000
;

//---------------dance-single - ----------------
#NOTES:
     dance-single:
     :
     Hard:
     13:
     0.604632,0.729620,0.221097,0.263211,0.231625,402.000000,381.000000,21.000000,25.000000,0.000000,0.000000,0.604632,0.729620,0.221097,0.263211,0.231625,402.000000,381.000000,21.000000,25.000000,0.000000,0.000000:
0000
0000
0000
0000
,
0000
0000
0000
0000
,
0000
0000
0000
0000
,
0000
0000
0000
0000
,
1001
0000
0001
0010
0100
0000
1001
0000
,
0110
0000
1000
0100
0001
0000
0110
0000
,
1001
0000
1000
0100
0010
0000
1001
0000
,
0110
0000
0001
0010
1000
0010
0001
1000
,
0001
0000
0100
0000
0001
0000
0000
0100
0000
0100
0010
1000
0010
0000
0000
0000
,
1000
0000
0100
0000
1000
0000
0000
0010
0100
0000
0001
0000
0100
0010
0100
0000
,
0001
0000
0010
0000
0001
0000
0000
0010
0000
0010
0100
1000
0100
0000
0000
0000
,
1000
0010
1000
0000
0010
0100
1001
0000
,
0001
0010
1000
0010
0100
1000
0100
0001
,
0100
0010
0001
0010
0001
0100
1000
0100
,
0010
1000
0010
1000
0100
0010
0100
0010
,
0001
1000
0001
1000
0001
0000
1000
0000
2002
0000
0000
0000
0000
0000
3003
0000
,
1000
0100
0001
0100
0010
0001
0010
1000
,
0010
0100
1000
0100
1000
0010
0001
0010
,
0100
0000
0000
0100
0000
0000
0010
0000
0000
0000
0010
0000
1000
0001
1000
0000
,
0001
0100
0001
0100
0001
0100
1010
0000
,
2000
0000
0000
0000
3001
0010
0002
0000
0000
0000
0003
0000
1000
0000
0001
0000
,
1000
0100
2000
0000
0000
0000
3001
0000
0200
0000
0000
0000
0301
0000
1000
0000
,
0001
0010
0001
0000
1000
0000
0020
0000
0000
0000
0030
0000
1000
0000
0100
0000
,
0010
0001
0100
0010
1000
0100
0010
0001
,
0200
0000
0000
0000
0310
1000
0020
0000
0000
0000
0030
0000
0100
0000
0010
0000
,
0100
0001
0100
0000
0000
0000
0010
0000
2000
0000
0000
0000
3010
0000
0100
0000
,
0002
0000
0013
0200
0000
0300
1000
0001
,
0100
0010
0100
0000
0001
0000
1000
0000
0010
0000
0100
0000
1001
0000
0000
0000
,
2000
0000
0000
0000
0000
0000
3100
1000
0100
0000
0000
0000
0000
0000
1001
0000
,
0000
0001
0100
0000
0101
0000
0000
0000
,
0001
0000
0000
0001
0010
0000
0000
0010
0100
0000
0000
0100
1000
0000
0001
0000
,
2000
0000
3010
0100
0002
0010
0013
0000
,
0020
0000
0000
0000
0000
0000
0031
0010
0001
0000
0000
0000
0000
0000
1001
0000
,
0000
1000
0010
0000
1010
1000
0001
0000
,
1000
0010
0001
0010
1000
0100
0001
0100
,
2000
0000
0000
0000
0000
0000
0000
0000
3001
0000
0000
0001
0010
0000
0000
0000
,
0001
0100
0010
0100
1000
0000
0001
0010
,
1000
0000
0010
0001
1000
0100
0010
0001
,
1000
0100
0010
0100
0001
0000
1000
0010
,
0001
0000
0010
1000
0001
0010
0011
0000
,
2200
3300
0100
0001
0100
0000
1000
0010
,
0200
0000
1300
0100
0001
0010
0100
1000
,
0100
0010
0000
0001
0010
0001
2000
0000
,
3001
0000
1000
0000
0010
0000
0100
0000
0010
0100
0010
0100
0020
0000
0000
0000
,
1030
0000
1000
0100
1000
0010
1000
0100
,
0010
0001
0010
0000
0001
0000
0100
0000
0010
0000
1000
0000
0001
1000
0001
1000
,
0002
0000
0000
0000
0013
0000
0001
0000
0010
0001
0010
0001
0010
0000
0100
0000
,
1000
0000
0001
1000
0001
0000
0100
0000
0110
0000
0000
0000
1001
0000
0000
0000
,
0001
0000
0001
0100
0001
0010
0001
0100
,
0010
0000
1000
0000
0010
0000
0001
0000
0010
0000
1000
0000
0010
0100
0010
0100
,
0020
0000
0130
0010
0001
0010
1000
0000
,
1000
0001
1000
0000
0001
1000
0001
0000
0100
0010
0100
0010
0100
0000
0000
0000
,
0001
0010
0100
0010
1000
0000
0001
0100
,
1000
0000
0100
0001
1000
0100
0010
0001
,
1000
0010
0100
0010
0001
0000
1000
0100
,
0001
0000
0000
0000
0100
0000
1000
0000
0001
0010
0001
0010
0001
0000
0000
0000
,
0110
0100
0010
1000
1001
0001
0100
0001
,
1000
0010
1000
0010
1000
0010
1000
0010
2000
0000
0000
0000
3000
0000
0000
0000
;

//---------------dance-single - ----------------
#NOTES:
     dance-single:
     :
     Medium:
     9:
     0.395568,0.516814,0.168455,0.263211,0.000000,263.000000,247.000000,16.000000,25.000000,0.000000,0.000000,0.395568,0.516814,0.168455,0.263211,0.000000,263.000000,247.000000,16.000000,25.000000,0.000000,0.000000:
0000
0000
0000
0000
,
0000
0000
0000
0000
,
0000
0000
0000
0000
,
0000
0000
0000
0000
,
1002
0000
0103
0000
,
0010
0100
0001
0000
,
2001
0000
3100
0000
,
1000
0100
0010
0001
,
0100
0010
0100
0000
0000
0000
0010
0000
,
1000
0001
1000
0000
0001
0000
0001
0000
,
0100
0001
0100
0000
0000
0000
0010
0000
,
1000
0010
1000
0000
0100
0000
0100
0000
,
1000
0010
0100
0000
0010
0100
0001
0000
,
0001
0010
0100
0000
0010
0100
1000
0000
,
0010
0000
1000
0000
0010
0100
0001
1000
,
0002
0000
0023
0002
0000
0030
1000
0003
,
1000
0010
0100
0000
0010
0100
0001
0000
,
0001
1000
0100
0000
1000
0001
0100
0000
,
0220
0000
0000
0000
0330
0000
1000
0001
,
2002
0000
0003
3010
,
2000
0000
3200
0000
0000
0000
0001
0001
,
0001
0000
0000
0000
0010
0000
1000
1000
,
1000
0010
0000
0010
,
0001
1000
0001
0310
,
0002
0000
0023
0000
0000
0000
0001
0001
,
0001
0000
0000
0000
0100
0000
1000
1000
,
1000
0100
0000
0031
,
0100
0000
0010
1000
0010
0000
1000
0000
,
1001
0000
0000
0000
0010
0000
0000
0100
,
0000
0100
0000
0010
0100
0000
0000
0000
,
0001
0010
1000
0010
,
0100
0100
0000
0000
1000
0000
1010
0000
,
1001
0000
0000
0000
0100
0000
0000
0010
,
0000
0010
0000
0100
0010
0000
0000
0000
,
1000
0100
0001
0100
,
0020
0000
1030
1001
,
0001
0010
0001
0100
0001
0000
1000
0010
,
1000
0000
0001
0010
0001
0000
1000
0000
,
1000
0010
1000
0100
1000
0000
0001
0010
,
0001
0000
1000
0010
1000
0000
1001
0000
,
0200
0000
0310
1000
0010
0000
0100
0000
,
0001
0000
0010
0001
0010
0000
0100
0000
,
1000
0001
0000
0001
0010
0001
0100
0000
,
0010
1000
0010
0000
1000
0100
0010
0000
,
0200
0000
0000
0000
1300
0001
1000
0001
,
1000
0000
1000
0000
0010
0000
0100
0100
,
0002
0000
0010
0000
0013
0100
0010
0000
,
0001
0001
0101
1010
,
2000
0000
3002
0000
2003
0000
3010
0100
,
0010
0000
0100
0000
0001
0010
0100
0010
,
0200
0000
0310
0001
0000
0001
1000
0000
,
2020
0000
3030
0110
,
0100
0001
0100
0001
0101
0000
0010
0100
,
0010
0000
0100
1000
0100
1000
0001
1000
,
0001
0010
0001
0010
0011
0000
0001
0100
,
0001
0000
0010
0100
1000
0100
0010
0000
,
0001
0100
0000
0010
1000
0010
0000
1000
,
0100
1000
0010
0100
0202
0000
0303
0000
;

//---------------dance-single - ----------------
#NOTES:
     dance-single:
     :
     Easy:
     5:
     0.254186,0.273607,0.010528,0.379023,0.000000,169.000000,168.000000,1.000000,36.000000,0.000000,0.000000,0.254186,0.273607,0.010528,0.379023,0.000000,169.000000,168.000000,1.000000,36.000000,0.000000,0.000000:
0000
0000
0000
0000
,
0000
0000
0000
0000
,
0000
0000
0000
0000
,
0000
0000
0000
0000
,
2000
0000
3010
1000
,
0001
0010
0001
0100
,
0002
0000
0013
0001
,
1000
0100
0010
0001
,
0100
0100
0000
0010
,
1000
1000
0001
0001
,
0010
0010
0000
0100
,
1000
1000
0001
0001
,
0200
0000
0302
0000
,
2003
0000
3020
0000
,
1030
0001
0100
0010
,
0100
0100
0100
0000
,
0002
0000
0023
0000
,
0230
0000
2300
0000
,
3010
0000
0000
0100
,
0020
0000
0000
1030
,
0100
2000
0000
3001
,
0200
0300
0020
1030
,
1000
0002
0003
0100
,
0001
0010
0001
0010
,
0002
0103
0000
0010
,
2000
3000
0020
0130
,
0010
1000
0000
0001
,
0020
0030
0200
0300
,
2000
0000
3001
0000
,
0000
0000
0001
0000
,
0001
0010
0100
1000
,
0010
0000
0100
0100
,
0002
0000
1003
0000
,
0000
0000
0001
1000
,
0010
0010
0100
0100
,
0010
0010
1000
0001
,
2000
0100
3010
0001
,
1000
0002
0100
0013
,
1000
0001
0010
0001
,
1000
0001
0100
0010
,
0200
0301
1000
0010
,
0100
0010
1000
0001
,
2000
3000
0001
0001
,
0200
0000
0310
0010
,
1000
0000
0100
0000
,
0010
0000
0001
1000
,
0001
0000
1000
0000
,
0010
0010
0000
0100
,
0020
2030
3020
0030
,
0100
0001
0100
0010
,
2000
0000
3002
0013
,
0001
0001
0100
0100
,
0002
0010
0103
1000
,
0001
2000
0100
3010
,
0001
1000
0010
1000
,
0001
0100
0100
0010
,
1000
0000
0001
0000
,
1000
0001
2002
3003
;

//---------------dance-single - ----------------
#NOTES:
     dance-single:
     :
     Beginner:
     1:
     0.097764,0.151346,0.010528,0.000000,0.000000,65.000000,64.000000,1.000000,0.000000,0.000000,0.000000,0.097764,0.151346,0.010528,0.000000,0.000000,65.000000,64.000000,1.000000,0.000000,0.000000,0.000000:
// measure 0
0000
0000
0000
0000
,  // measure 1
0000
0000
0000
0000
,  // measure 2
0000
0000
0000
0000
,  // measure 3
0000
0000
0000
0000
,  // measure 4
1000
0000
0001
0000
,  // measure 5
1000
0000
1000
0000
,  // measure 6
0001
0000
1000
0000
,  // measure 7
0001
0000
0001
0000
,  // measure 8
0100
0000
0000
0000
,  // measure 9
0010
0000
0000
0000
,  // measure 10
1000
0000
0000
0000
,  // measure 11
0001
0000
0000
0000
,  // measure 12
1000
0000
0000
0000
,  // measure 13
0010
0000
0000
0000
,  // measure 14
1000
0000
0000
0000
,  // measure 15
0001
0000
0000
0000
,  // measure 16
0001
0000
0000
0000
,  // measure 17
0010
0000
0000
0000
,  // measure 18
0001
0000
0000
0000
,  // measure 19
1001
0000
0000
0000
,  // measure 20
1000
0000
0000
0000
,  // measure 21
0010
0000
0000
0000
,  // measure 22
0100
0000
0000
0000
,  // measure 23
0001
0000
1000
0000
,  // measure 24
0001
0000
0000
0000
,  // measure 25
0010
0000
0000
0000
,  // measure 26
0100
0000
0000
0000
,  // measure 27
1000
0000
0000
0000
,  // measure 28
0010
0000
0000
0000
,  // measure 29
0010
0000
0000
0000
,  // measure 30
0100
0000
0100
0000
,  // measure 31
0100
0000
0000
0000
,  // measure 32
0001
0000
0000
0000
,  // measure 33
0001
0000
0000
0000
,  // measure 34
1000
0000
0000
0000
,  // measure 35
0100
0000
0000
0000
,  // measure 36
1000
0000
0000
0000
,  // measure 37
0001
0000
0000
0000
,  // measure 38
1000
0000
0000
0000
,  // measure 39
0001
0000
0000
0000
,  // measure 40
0000
0000
0100
0000
,  // measure 41
0010
0000
0000
0000
,  // measure 42
0100
0000
0000
0000
,  // measure 43
0100
0000
0000
0001
,  // measure 44
0001
0000
0000
0000
,  // measure 45
0001
0000
0000
0000
,  // measure 46
1000
0000
0000
0000
,  // measure 47
1000
1000
0000
0000
,  // measure 48
0010
0000
0000
0000
,  // measure 49
0100
0000
0000
0000
,  // measure 50
0010
0000
0000
0000
,  // measure 51
0100
0000
0000
0000
,  // measure 52
0001
0000
0000
0000
,  // measure 53
1000
0000
0000
0000
,  // measure 54
0001
0000
0000
0000
,  // measure 55
1000
0000
0000
0000
,  // measure 56
0001
0000
1000
0000
,  // measure 57
0001
0000
1000
0000
;

//---------------dance-double - ----------------
#NOTES:
     dance-double:
     :
     Easy:
     5:
     0.257194,0.273607,0.010528,0.273739,0.000000,171.000000,170.000000,1.000000,26.000000,0.000000,0.000000,0.257194,0.273607,0.010528,0.273739,0.000000,171.000000,170.000000,1.000000,26.000000,0.000000,0.000000:
00000000
00000000
00000000
00000000
,
00000000
00000000
00000000
00000000
,
00000000
00000000
00000000
00000000
,
00000000
00000000
00000000
00000000
,
10000000
00000000
00010000
00000000
,
01000000
01000000
00000000
00000000
,
00001000
00000000
00010000
00000000
,
00000100
00000100
00000100
00000000
,
00001000
00000010
00000000
00000100
,
00000001
00001000
00000010
00000010
,
00010000
00001000
00000000
00100000
,
01000000
10000000
01000000
00200000
,
01300000
10000000
01000000
10000000
,
00010000
00100000
00010000
00100000
,
00002000
00000000
00023000
00000000
,
00030100
00000010
00000002
00000000
,
00000013
00000001
00000010
00000001
,
00001000
00000100
00001000
00000100
,
00020000
00000000
00000000
00031000
,
00012000
00000000
00100000
00103000
,
01000000
10000000
00000000
10000000
,
00100000
00000000
01000000
00010000
,
00100000
00010000
00000000
00100000
,
00001000
00001000
00010000
00010000
,
00000100
00001000
00000000
00000001
,
00001000
00000000
00000001
00000010
,
00000001
00000100
00000000
00001000
,
00010000
01000000
10000000
10000000
,
00020000
00000000
00130000
00000000
,
00200000
00000000
00310000
00000000
,
01000000
01000000
01000000
01000000
,
00001000
00000000
00010000
00000100
,
00002000
00000000
00003010
00000000
,
00000020
00000000
00001030
00000000
,
00001000
00000100
00001000
00000100
,
00010000
00010000
00001000
00010000
,
00001000
00100000
00001000
00100000
,
01000000
10000000
00010000
10000000
,
00100000
01000000
00100000
01000000
,
00010000
00100000
00001000
00100000
,
00002000
00013000
00000100
00001000
,
00000010
00000100
00000001
00000100
,
00000010
00000000
00000100
00000000
,
00000001
00000001
00000001
00000000
,
00002000
00000000
00003200
00000000
,
00020300
00000000
00032000
00000000
,
00203000
00000000
02300000
10000000
,
13000000
00100000
01000000
00100000
,
20000000
00000000
30020000
00000000
,
00230000
00000000
00302000
00010000
,
00023000
00000000
00030200
00000000
,
00000310
00000001
00000100
00000010
,
00001000
00000100
00001000
00000001
,
00000010
00000100
00001000
00000100
,
00010000
00001000
00010000
00001000
,
00100000
01000000
10000000
01000000
,
20000000
30000000
00020000
00030000
,
00100000
00100000
00002000
00003000
;

//---------------dance-double - ----------------
#NOTES:
     dance-double:
     :
     Medium:
     10:
     0.461746,0.516814,0.294796,0.242154,0.021057,307.000000,279.000000,28.000000,23.000000,0.000000,0.000000,0.461746,0.516814,0.294796,0.242154,0.021057,307.000000,279.000000,28.000000,23.000000,0.000000,0.000000:
00000000
00000000
00000000
00000000
,
00000000
00000000
00000000
00000000
,
00000000
00000000
00000000
00000000
,
00000000
00000000
00000000
00000000
,
11000000
00000000
01000000
00010000
00001000
00000000
00000100
00000000
,
00000101
00000000
00000001
00000010
00000001
00000000
00001001
00000000
,
00000101
00000000
00000100
00001000
00010000
00000000
01010000
00000000
,
02000000
23000000
30200000
01300000
,
00010000
00000000
10000000
00000000
00010000
00000000
00000000
00000000
00000000
01000000
00010000
00000000
01000000
00000000
00000000
00000000
,
00001000
00010000
00001000
00000000
00010000
00000100
00010000
00000100
,
00001000
00000000
00000010
00000000
00001000
00000000
00000000
00000000
00000000
00000001
00000100
00000000
00000001
00000000
00000000
00000000
,
00000100
00001000
00010000
01000000
10000000
01000000
10000000
00000000
,
00100000
10000000
10100000
00000000
01000000
00010000
01010000
00000000
,
00100000
00001000
00101000
00000000
00001000
00010000
00011000
00000000
,
00000020
00001000
00001030
00001001
,
00000200
00000001
00000302
00000000
,
00000103
00000001
00000101
00000000
00001000
00000010
00001010
00000000
,
00010000
00000100
00010100
00000000
00010000
00001000
00011000
00000000
,
00002000
00000000
00003000
00100000
,
02000000
10000000
10000000
13000000
,
00020000
00000000
00130000
01000000
00000000
00000000
10000000
01000000
,
00010000
00000000
00001000
00000000
00000100
00000000
00000001
00000010
,
00001000
00010000
00100000
10000000
,
00010000
00000000
01000000
00000000
00100000
01000000
00100000
10000000
,
01000000
00000000
00010000
00000000
00001000
00000000
00000100
00000001
,
00000100
00000001
00000010
00001000
,
00010000
00100000
00010000
00000000
00100000
00000000
10000000
00010000
,
10000000
00000000
00100000
01000000
00010000
01000000
00100000
00000000
,
22000000
00000000
33000000
00000000
00100000
00000000
00000000
02020000
,
00000000
03030000
00100000
00000000
01000000
00000000
00000000
00000000
,
00001000
00000000
00000000
00001000
00010000
00000000
00000000
00010000
00001000
00000000
00000000
00000000
00011000
00000000
00000000
00000000
,
00000010
00000100
00000010
00000100
00000010
00000000
00001001
00000000
,
00000202
00000000
00000303
00000000
00000010
00000000
00000000
00002200
,
00000000
00003300
00000001
00000100
00001000
00000000
00010000
00000000
,
01000000
10000000
01000000
00000000
10000000
00100000
10000000
00000000
,
00010000
00010000
10000000
10010000
,
01000000
00010000
01000000
00100000
01000000
00000000
00010000
00100000
,
00010000
00000000
01000000
00001000
00010000
00000100
00001000
00000000
,
00000010
00001000
00000010
00000100
00000010
00000000
00001000
00000001
,
00001000
00000010
00001000
00001010
,
00000200
00000000
00000301
00000010
00000001
00000000
00001000
00000100
,
00010000
00000000
00001000
01000000
00100000
10000000
00100000
00000000
,
10000000
01000000
00000000
00100000
00010000
00100000
00010000
00000000
,
01000000
01000000
00001000
00011000
,
00020000
00000000
00000000
00000000
00030010
00000100
00000010
00001000
,
00000001
00000010
00000001
00000000
00000100
00000000
00000010
00000010
,
00000200
00000000
00000001
00000000
00000301
00001000
00000001
00000000
,
00001001
00010100
00011000
01001000
,
00200000
00000000
00000000
00000000
10300000
00010000
10000000
01000000
,
00100000
00010000
00100000
01000000
10000000
00000000
00010000
00010000
,
20000000
00000000
30010000
01000000
00000000
01000000
00010000
00000000
,
00100000
00010000
00100000
00010000
00100000
00000000
00110000
00000000
,
00010000
01000000
00010000
00100000
00010000
00000000
00100000
00001000
,
00010000
00000000
00000010
00001000
00000010
00000100
00000010
00000000
,
00000100
00000001
00000100
00000010
00000100
00000000
00000001
00001000
,
00000001
00000000
00001000
00000100
00010000
00001000
01000000
00000000
,
00100000
00100000
00000000
00000000
00010000
00010000
00000000
00000000
,
00001000
00000010
00000002
00000003
;

//---------------dance-double - ----------------
#NOTES:
     dance-double:
     :
     Hard:
     13:
     0.603128,0.699219,0.336909,0.400080,0.210568,401.000000,369.000000,32.000000,38.000000,0.000000,0.000000,0.603128,0.699219,0.336909,0.400080,0.210568,401.000000,369.000000,32.000000,38.000000,0.000000,0.000000:
00000000
00000000
00000000
00000000
,
00000000
00000000
00000000
00000000
,
00000000
00000000
00000000
00000000
,
00000000
00000000
00000000
00000000
,
11000000
00000000
00100000
00010000
01000000
00000000
00011000
00000000
,
00000010
00000000
00001000
00000100
00000001
00000000
00001100
00000000
,
00000110
00000000
00000001
00000100
00000010
00000000
00011000
00000000
,
00001000
00100000
01000000
10000000
01000000
00010000
01000000
01000000
,
10000000
00000000
00100000
00000000
10000000
00000000
00100000
01000000
00000000
01000000
00010000
00000000
00110000
00000000
00000000
00000000
,
00100000
00000000
00001000
00000000
00010000
00000000
00000100
00001000
00000000
00001000
00000010
00000000
00000100
00000000
00000001
00000000
,
00000100
00000000
00000010
00000000
00001000
00000000
00000100
00010000
00000000
00010000
00001000
00000000
00100000
00000000
00000000
00000000
,
00010000
01000000
00010000
10000000
00100000
10000000
01010000
00000000
,
10000000
01000000
00010000
00000000
00001000
00000100
00000001
00000000
,
00001000
00000010
00001000
00000000
00000010
00000100
00001000
00000000
,
00010000
01000000
10000000
00100000
01000000
00010000
01000000
00100000
,
10000000
00100000
00010000
00001000
00000020
00000000
00000031
00000000
,
00000001
00000100
00001000
00000000
00010000
01000000
10000000
00000000
,
00100000
10000000
00100000
00000000
01000000
00010000
01000000
00000000
,
00100000
00000000
00000000
00010000
00000000
00000000
00001000
00000000
00000000
00000000
00000010
00000000
00000001
00000000
00001000
00000000
,
00001002
00000000
00000100
00000100
00000100
00000100
00000103
00000000
,
00000002
00000000
00000000
00000000
00001003
00000100
00002000
00000000
00000000
00000000
00003000
00000000
00000001
00000000
00000100
00000000
,
00001000
00020000
00000000
01030000
20000000
00000000
30010000
00100000
,
02000000
00000000
03010000
00002000
00000000
00003000
00000010
00000001
,
00001000
00000010
00000100
00001000
00010000
00100000
10000000
01000000
,
20000000
00000000
00000000
00000000
30010000
00100000
00020000
00000000
00000000
00000000
00030000
00000000
01000000
00000000
00100000
00000000
,
00010000
00002000
00000000
00003000
00000020
00000000
00000031
00002000
,
00000000
00003000
00000010
00000200
00000000
00000300
00001000
00010000
,
02000000
00000000
13000000
00100000
00010000
00100000
10000000
00000000
,
20020000
00000000
00000000
00000000
30030000
00000000
00010000
01000000
00010000
00000000
00000000
00000000
00000000
00000000
01010000
00000000
,
00000000
01001000
00000000
00001000
00010000
00000000
00000000
00000000
,
00010000
00000000
00000000
00010000
00000100
00000000
00000000
00000100
00001000
00000000
00000000
00001000
00000010
00000000
00000000
00000000
,
00000101
00000000
00000001
00000000
00001000
00000000
00000001
00000000
00000100
00000000
00000010
00000100
00000010
00000000
00000000
00000000
,
00002002
00000000
00000000
00000000
00003003
00000000
00001000
00000100
00002000
00000000
00000000
00000000
00003000
00000000
00001100
00000000
,
00000000
00000000
00010100
00000000
00000000
00000000
00010000
00000000
00001000
00000000
01000000
00100000
10000000
00000000
00010000
01000000
,
00010000
00000000
10000000
00100000
10000000
00000000
00010000
01000000
00010000
00000000
10000000
00100000
10000000
00000000
00010000
00000000
,
01000000
00000000
01000000
00000000
00001000
00000000
00010000
00000000
00011000
00000000
00000000
00010000
00000100
00000000
00000000
00000000
,
00001100
00001000
00000010
00000100
00000101
00000000
00000001
00000010
,
00002000
00000000
00013000
00100000
10000000
01000000
00100000
01000000
,
11000000
01000000
00100000
00010000
01010000
00000000
00100000
00010000
,
00002000
00000000
00000000
00000000
00003010
00000000
00000001
00000000
00001000
00000001
00001000
00000000
00001002
00000000
00000000
00000000
,
00000203
00000000
00001300
00010000
02000000
00000000
13000000
00010000
,
00210000
00000000
01300000
00010000
00001000
00000100
00000001
00001000
,
00000010
00000000
00000210
00000000
00000000
00000000
00000301
00000000
00001000
00000000
00000010
00000100
00000010
00000000
00000000
00000000
,
00001000
00000100
00000010
00001000
00010000
00100000
10000000
00000000
,
20020000
00000000
30030000
01000000
00100000
10000000
00100000
01000000
,
00100000
01000000
00100000
00000000
00010000
00000000
00001000
00000000
00000010
00000000
00000001
00000000
00001000
00000010
00001000
00000010
,
00002000
00000000
00000000
00000000
00003001
00000000
00000100
00000000
00000001
00001000
00000001
00001000
00000001
00000000
00000100
00000000
,
00000101
00001100
00011000
01010000
,
22000000
00000000
33000000
01000000
10000000
00100000
01000000
00010000
,
00100000
00000000
00100000
00000000
00001000
00000000
00010000
00000000
00000100
00000000
00001000
00000000
00000010
00001000
00000010
00001000
,
00000010
00000000
00000100
00000101
00000010
00001000
00000010
00000000
,
00010000
00001000
00010000
00001000
00010000
00000000
00001000
00000000
01000000
00100000
01000000
00100000
01000000
00000000
00000000
00000000
,
00100000
10000000
00010000
01000000
01200000
00000000
00310000
00001000
,
00000200
00000000
00000301
00001000
00000010
00000100
00000010
00001000
,
00000001
00000010
00000001
00000100
00000201
00000000
00001300
00010000
,
02000000
00000000
00000000
00000000
13000000
00000000
00010000
00000000
01000000
00100000
01000000
00100000
02000000
00000000
00000000
00000000
,
03010000
00100000
01000000
00010000
00001000
00000100
00000001
00000010
,
00000100
00001000
00000100
00001000
00000100
00000010
00000100
00000010
00000002
00000000
00000000
00000000
00000003
00000000
00000000
00000000
;

//---------------dance-double - ----------------
#NOTES:
     dance-double:
     :
     Challenge:
     16:
     0.848290,0.972826,0.579063,0.294796,0.779103,564.000000,509.000000,55.000000,28.000000,0.000000,0.000000,0.848290,0.972826,0.579063,0.294796,0.779103,564.000000,509.000000,55.000000,28.000000,0.000000,0.000000:
00000000
00000000
00000000
00000000
,
00000000
00000000
00000000
00000000
,
00000000
00000000
00000000
00000000
,
00000000
00000000
00000000
00000000
,
00001001
00000000
00000000
00000000
00000100
00001000
00000100
00001000
00000100
00000000
00000000
00000000
00001000
00010000
01000000
00000000
,
01010000
00000000
10000000
00100000
01010000
00000000
00100000
00010000
,
00011000
00000000
00000000
00000000
00100000
01000000
00100000
01000000
00100000
00000000
00000000
00000000
10000000
00000000
01000000
00000000
,
00010000
00000000
00001000
00000000
00000100
00000000
00000001
00000000
00000010
00000000
00000100
00001000
00000100
00001000
00000100
00000000
,
00001100
00000000
00000010
00000000
00000010
00000000
00000001
00000100
00000000
00000100
00000010
00001000
00000010
00000000
00000000
00000100
,
00001000
00000000
00010000
00000000
01010000
00000000
00000000
10000000
00010000
00000000
11000000
00000000
00100000
00010000
00100000
10000000
,
00010000
00000000
00100000
00000000
00100000
00000000
01000000
10000000
00000000
01000000
00100000
01000000
00010000
00000000
00000000
00001000
,
00000100
00000000
00000000
00000000
00000001
00000000
00000000
00000000
00001000
00000000
00000010
00000000
00000100
00000000
00000001
00000000
00000010
00000000
00000001
00000000
00001000
00000000
00000010
00000000
00000100
00000010
00000100
00000000
00000000
00000000
00000000
00000000
,
00000001
00000010
00000001
00000100
00000001
00001000
00000001
00000000
00001000
00000010
00001000
00000100
00001000
00000001
00001000
00000000
,
00000010
00000100
00001000
00010000
01000000
10000000
01000000
00000000
10000000
00100000
00010000
00100000
10000000
00010000
01000000
00000000
,
00100000
10000000
01000000
10000000
00100000
01000000
00010000
01000000
00100000
10000000
01000000
10000000
00100000
01000000
00010000
01000000
,
00100000
10000000
00100000
00010000
00100000
10000000
01000000
00100000
00020000
00000000
00030000
00000000
22000000
00000000
33000000
00000000
,
10000000
00100000
10000000
01000000
10000000
00010000
10000000
00000000
00010000
00100000
00010000
01000000
00010000
10000000
00010000
00000000
,
01000000
00100000
00010000
00001000
00000100
00000001
00000100
00000000
00000001
00000010
00001000
00000010
00000001
00000100
00000010
00000000
,
00001010
00000000
00000000
00010100
00000000
00000000
00011000
00000000
00000000
00000000
00101000
00000000
00100000
01000000
10000000
00000000
,
11000000
00000000
00000000
10000000
01000000
10000000
00100000
00010000
00001000
00000010
00000001
00001000
00000001
00000000
00000000
00000000
,
00001200
00000000
00000000
00000000
00000301
00000100
00001000
00000000
00000010
00000000
00000000
00000000
00001100
00000000
00000101
00000000
,
00000001
00000010
00001000
00000000
00000000
00000000
00010000
00000000
00100000
00000000
00000000
00000000
10100000
00000000
01010000
00000000
,
10000000
00100000
00010000
00100000
10000000
00000000
00010000
00000000
01000000
00000000
00000000
00000000
00010000
00000000
00100000
01000000
,
10000000
01000000
00100000
01000000
00010000
00001000
00000100
00000001
00000100
00000010
00000100
00001000
00010000
01000000
10000000
01000000
,
00200000
00000000
00000000
00000000
10300000
00100000
00010000
00000000
01010000
00000000
00000000
00000000
11000000
00000000
01010000
00000000
,
10000000
01000000
00020000
00000000
00000000
00000000
00031000
00000000
00000100
00000000
00000000
00000000
00000101
00000000
00001010
00000000
,
00001001
00000000
00000000
00000000
00001000
00000100
00000010
00000000
00000001
00000000
00000000
00000000
00000001
00000100
00000001
00000100
,
00000001
00000010
00001000
00000000
00010000
00000000
00100000
00000000
10000000
00010000
01000000
00000000
01100000
00000000
00000000
00000000
,
20020000
00000000
00000000
00000000
30030000
00000000
10000000
01000000
00010000
00000000
00000000
00000000
00000000
00000000
00001100
00000000
,
00000000
00000100
00000001
00000000
00001001
00000000
00000010
00000100
,
00000001
00000000
00000000
00000001
00000100
00000000
00000000
00000100
00001000
00000000
00000000
00001000
00010000
00000000
01000000
00000000
,
10000000
00000000
10000000
00000000
10000000
01000000
00100000
01000000
00020000
00000000
00000000
00000000
00031000
00000100
00000001
00000000
,
00002002
00000000
00000000
00000000
00003003
00000000
00000001
00000100
00001000
00000000
00000000
00000000
00000000
00000000
01010000
00000000
,
00000000
00000000
01000000
00000000
10000000
00000000
00000000
00000000
10010000
00000000
00100000
01000000
00100000
00000000
10000000
01000000
,
10000000
00000000
00010000
00100000
00010000
00000000
01000000
00100000
01000000
00000000
00100000
00010000
00100000
00000000
00010000
00001000
,
00000100
00000001
00000100
00000001
00000100
00000000
00000010
00000000
00001010
00000000
00000000
00001000
00000001
00000000
00000000
00000000
,
00000101
00000010
00001000
00000100
00000120
00000000
00001030
00010000
,
00210000
00000000
10300000
00010000
01010000
00100000
00010000
00001000
,
00001010
00000001
00000100
00000010
00001200
00000000
00000310
00001000
,
00021000
00000000
00000000
00000000
00130000
00000000
10000000
00000000
00010000
01000000
00010000
01000000
00020000
00000000
00000000
00000000
,
20030000
00000000
31000000
00010000
00012000
00000000
00003010
00000001
,
00002001
00000000
00003010
00000100
00001100
00001000
00010000
01000000
,
11000000
00000000
10000000
00000000
00000000
00000000
00100000
00000000
00110000
00000000
00010000
01000000
00010000
00000000
10000000
01000000
,
10000000
00000000
00100000
00000000
00010000
00000000
00001000
00000000
00000010
00000001
00000010
00000001
00000010
00000000
00000000
00000000
,
00000001
00000100
00000001
00000000
00000100
00001000
00000100
00000000
00000001
00000000
00000010
00001000
00010000
00000000
00100000
00000000
,
10000000
00010000
10000000
00000000
10010000
00000000
11000000
00000000
00100000
00000000
00010000
00000000
01000000
00010000
01000000
00010000
,
01000000
00100000
01000000
00100000
00010000
00000000
00001000
00000000
00000010
00000001
00000100
00000001
00000010
00000000
00000001
00000000
,
00000100
00001000
00000100
00001000
00010000
01000000
00010000
01000000
20000000
00000000
00000000
00000000
00020000
00000000
00000000
30030000
,
10000000
00100000
10000000
00000000
00100000
00010000
00100000
00000000
10000000
00000000
01000000
00010000
00001000
00000000
00000100
00000000
,
00000001
00001000
00000001
00000000
00001001
00000000
00000011
00000000
00000100
00000000
00001000
00000000
00000010
00001000
00000010
00001000
,
00000010
00000100
00000010
00000100
00001000
00000000
00010000
00000000
01000000
10000000
01000000
10000000
01000000
00000000
10000000
00000000
,
00100000
00010000
00100000
00010000
00001000
00000010
00001000
00000010
00000001
00001000
00000001
00001000
00000020
00000000
00000000
00000030
,
00000110
00000001
00000100
00001000
00021000
00000000
00130000
10000000
,
01020000
00000000
00130000
00010000
00011000
00000010
00000001
00000100
,
00001001
00000100
00001000
00010000
02010000
00000000
13000000
00010000
,
01200000
00000000
00000000
00000000
00310000
00000000
00001000
00000000
00000010
00000001
00000010
00000001
00000020
00000000
00000000
00000000
,
00000031
00000000
00000100
00000000
00001000
00010000
01000000
00000000
10000000
00000000
01000000
00000000
00010000
00001000
00000100
00000000
,
00000001
00000010
00001000
00000010
00000001
00000100
00001000
00000100
00000002
00000000
00000000
00000000
00000003
00000000
00000000
00000000
;
