#TITLE:Techno Style Essentials;
#SUBTITLE:;
#ARTIST:BEMANI Sound Team “SETUP from Berlin”;
#TITLETRANSLIT:;
#SUBTITLETRANSLIT:;
#ARTISTTRANSLIT:;
#GENRE:Techno;
#CREDIT:;
#BANNER:;
#BACKGROUND:;
#LYRICSPATH:;
#CDTITLE:;
#MUSIC:Techno Style Essentials.mp3;
#OFFSET:-0.241000;
#SAMPLESTART:18.699022;
#SAMPLELENGTH:12.000000;
#SELECTABLE:YES;
#BPMS:0.000000=154.000000
;
#STOPS:
;
#BGCHANGES:;
#KEYSOUNDS:;
#ATTACKS:;

//---------------dance-single - ----------------
#NOTES:
     dance-single:
     :
     Hard:
     14:
     0.685990,0.854422,0.402397,0.098364,0.733256,537.000000,492.000000,45.000000,11.000000,0.000000,0.000000,0.685990,0.854422,0.402397,0.098364,0.733256,537.000000,492.000000,45.000000,11.000000,0.000000,0.000000:
// measure 0
0000
0000
0000
0000
,  // measure 1
0000
0000
0000
0000
,  // measure 2
0000
0000
0000
0000
,  // measure 3
0000
0000
0000
0000
,  // measure 4
1001
0000
0000
1000
0010
0000
0000
0010
1000
0000
0000
1000
0001
0000
0000
0001
,  // measure 5
1000
0000
0000
1000
0100
0000
0000
0100
1000
0000
0000
1000
0100
0000
0000
0010
,  // measure 6
0001
0000
0000
0001
0010
0000
0000
0010
0001
0000
0000
0001
1000
0000
0000
1000
,  // measure 7
0001
0000
0000
0001
0100
0000
0000
0100
0001
1000
0001
1000
0001
0000
0000
0001
,  // measure 8
1000
0000
0000
1000
0010
0000
0000
0100
0001
0000
0000
0001
1000
0000
0000
1000
,  // measure 9
0001
0000
0000
0001
0010
0000
0000
0100
1000
0000
0000
1000
0001
0000
0000
0001
,  // measure 10
1000
0000
0000
1000
0100
0000
0000
0010
0001
0000
1000
0000
0001
1000
0001
0000
,  // measure 11
0000
0000
0000
0000
0000
0000
0000
0000
0000
0000
0100
0010
1000
0010
0100
0000
,  // measure 12
0000
0001
0000
0000
1100
0000
0010
0000
0000
0000
1000
0000
0101
0000
0010
0000
,  // measure 13
0000
1000
0000
0000
0110
0000
1000
0000
0000
0000
0001
0000
1100
0000
0010
0000
,  // measure 14
0000
0100
0000
0000
0011
0000
0100
0000
0000
0000
1000
0000
0110
0000
1000
0000
,  // measure 15
0000
0001
0000
0000
1100
0000
0010
0000
0000
0000
0100
0000
1001
0000
0010
0000
,  // measure 16
0000
0100
0000
0000
0011
0000
1000
0000
0000
0000
0010
0000
1100
0000
0001
0000
,  // measure 17
0000
1000
0000
0000
0011
0000
0100
0000
0000
0000
0001
0000
1010
0000
0100
0000
,  // measure 18
0000
0010
0000
0000
1100
0000
0010
0000
0000
0000
1000
0010
0100
0001
0100
0010
,  // measure 19
1000
0100
1000
0100
1000
0000
0000
0000
0001
0100
0001
0100
0001
0000
1000
0001
,  // measure 20
1000
0000
0000
0000
1000
0100
1000
0000
1100
0000
0000
0000
0001
0100
0001
0000
,  // measure 21
0101
0000
0000
0000
1000
0010
1000
0000
1010
0000
0000
0000
0001
0010
0001
0000
,  // measure 22
0011
0000
0000
0000
0100
0010
0100
0000
0110
0000
0000
0000
0001
1000
0001
0000
,  // measure 23
1001
0000
0000
0000
1000
0100
1000
0000
1100
0000
0000
0000
0001
0010
0001
0010
,  // measure 24
0001
0000
0000
0000
1000
0100
1000
0100
1000
0000
0000
0000
0010
1000
0010
1000
,  // measure 25
0010
0000
0000
0000
0100
0001
0100
0001
0100
0000
0000
0000
0001
1000
0001
1000
,  // measure 26
0001
0000
0000
0000
0100
0010
0100
0000
0000
0000
0010
0100
0010
0000
1001
0000
,  // measure 27
0000
2000
0000
0000
0002
0000
0000
0000
0000
0000
0000
0000
0000
0000
3003
1000
,  // measure 28
0100
0000
0000
0000
0010
0001
0010
0000
0011
0000
0000
0000
0001
0100
0001
0100
,  // measure 29
0001
0000
0000
0000
0010
1000
0010
0000
1010
0000
0000
0000
1000
0100
1000
0100
,  // measure 30
1000
0000
0000
0000
0010
0001
0010
0001
0010
0000
0000
0000
0001
1000
0001
1000
,  // measure 31
0001
0000
0000
0000
0010
1000
0010
0000
1010
0000
0000
0000
1000
0001
0100
0000
,  // measure 32
0000
0000
0000
0000
0001
1000
0100
0000
0000
0000
0000
0000
1000
0001
0010
0000
,  // measure 33
0000
0000
0000
0000
0001
1000
0010
0000
0000
0000
0000
0000
0000
0000
1100
0000
,  // measure 34
0000
0000
0101
0000
0000
0000
1100
0000
0000
0000
0101
0000
0010
0100
1000
0000
,  // measure 35
0010
0000
0100
0000
0001
0000
1000
0010
0100
0000
0001
1000
0001
0000
1000
0000
,  // measure 36
0002
0000
0000
0000
,  // measure 37
0023
0000
0000
0000
0000
0000
1030
0020
,  // measure 38
0000
0000
0000
0000
,  // measure 39
0000
0000
0000
0000
0030
0000
0001
1000
0010
0000
0000
0000
0010
1000
0001
0000
,  // measure 40
2000
0000
0000
0000
,  // measure 41
3020
0000
0000
0000
0000
0000
0031
0020
,  // measure 42
0000
0000
0000
0000
,  // measure 43
1030
0001
1000
0000
0010
0000
0100
0000
0001
1000
0001
0000
0100
0000
0010
0000
,  // measure 44
1010
0000
1000
0000
0001
0000
0000
0100
0000
0001
0000
0100
0010
0000
0100
0000
,  // measure 45
0010
0000
1000
0000
0001
0000
0000
1000
0000
0010
0000
1000
0001
0000
0100
0000
,  // measure 46
0001
0000
0010
0000
0100
0000
0000
1000
0000
0100
0000
1000
0001
0000
0100
0000
,  // measure 47
0001
0000
0010
0000
0100
0000
0000
0010
0000
0001
0000
0010
0100
0000
1000
0000
,  // measure 48
0010
0000
0100
0000
0001
0000
0000
1000
0000
0001
0000
1000
0010
0000
1000
0000
,  // measure 49
0010
0000
0100
0000
0001
0000
0000
0100
0000
0010
0000
0100
0001
0000
1000
0000
,  // measure 50
0100
0000
0010
0000
0100
0000
0000
0010
0000
0001
0000
0010
0001
0000
0000
0000
,  // measure 51
2001
0000
0000
0000
3001
0100
0010
1000
0100
0010
0001
0010
0100
1000
0100
0000
,  // measure 52
1000
0010
0100
0010
1000
0000
0100
0010
1000
0010
0100
0000
1000
0010
0100
0001
,  // measure 53
0100
0000
0000
0000
0001
1000
0100
1000
0001
0000
1000
0001
0100
0001
1000
0000
,  // measure 54
0001
0100
0010
0100
0001
0000
0100
0010
1000
0010
0100
0000
0001
1000
0100
1000
,  // measure 55
0001
0000
0000
0000
1001
0000
1000
0010
0100
0000
0001
1000
0001
0100
0001
0000
,  // measure 56
0001
0100
0010
0100
0001
0000
0010
0100
0001
0100
0010
0000
0001
0010
0100
1000
,  // measure 57
0100
0000
0000
0000
1000
0001
0100
0001
1000
0000
0001
1000
0100
1000
0001
0000
,  // measure 58
1000
0010
0100
0010
1000
0000
0001
0100
0010
0100
0001
0000
1000
0010
0100
0010
,  // measure 59
1000
0000
0000
0000
1001
0000
0001
0010
0100
0000
1000
0010
1000
0000
0001
0000
,  // measure 60
0000
1000
0000
0000
0101
0000
0001
0000
0000
0000
1000
0000
0101
0000
1000
0000
,  // measure 61
0000
0001
0000
0000
1100
0000
1000
0000
0000
0000
0001
0000
1100
0000
0001
0000
,  // measure 62
0000
1000
0000
0000
0011
0000
0001
0000
0000
0000
1000
0000
0011
0000
1000
0000
,  // measure 63
0000
0001
0000
0000
1010
0000
1000
0000
0000
0000
0001
0000
1000
0010
0100
0000
,  // measure 64
0000
0000
0010
0000
1100
0000
0010
0100
0001
0000
0100
0000
0011
0000
0100
0010
,  // measure 65
1000
0000
0010
0000
0101
0000
0010
0100
1000
0000
0100
0000
1010
0000
0100
0001
,  // measure 66
1000
0000
0010
1000
0001
0000
0100
0001
1000
0000
0010
0000
0100
0010
0100
0000
,  // measure 67
0000
0010
0000
0000
2002
0000
0000
0000
0000
0000
0000
0000
0000
0000
0000
0000
,  // measure 68
0000
3003
0000
0000
;

//---------------dance-single - ----------------
#NOTES:
     dance-single:
     :
     Medium:
     10:
     0.450940,0.518756,0.223554,0.196727,0.236967,353.000000,328.000000,25.000000,22.000000,0.000000,0.000000,0.450940,0.518756,0.223554,0.196727,0.236967,353.000000,328.000000,25.000000,22.000000,0.000000,0.000000:
0000
0000
0000
0000
,
0000
0000
0000
0000
,
0000
0000
0000
0000
,
0000
0000
0000
0000
,
1000
0000
0000
1000
0010
0000
0000
0010
1000
0000
0000
1000
0010
0000
0000
0000
,
0100
0000
0000
0100
0001
0000
0000
0001
0100
0000
0000
0100
0001
0000
0000
0000
,
0001
0000
0000
0001
0010
0000
0000
0010
0001
0000
0000
0001
0010
0000
0000
0000
,
0100
0000
0000
0100
1000
0000
0000
1000
0100
0000
0000
0000
1001
0000
0000
0000
,
1000
0000
0000
1000
0010
0000
0000
0010
1000
0000
0000
1000
0010
0000
0000
0000
,
0100
0000
0000
0100
0001
0000
0000
0001
0100
0000
0000
0100
0001
0000
0000
0000
,
0001
0000
0000
0001
0010
0000
0000
0010
0001
0000
0000
0000
2000
0000
0002
0000
,
0000
3003
0000
0000
0000
0000
0000
1000
,
0000
0001
0000
0000
1000
0000
0010
0000
0000
0000
0100
0000
0010
0000
1000
0000
,
0000
0010
0000
0000
1000
0000
0100
0000
0000
0000
0010
0000
0100
0000
1000
0000
,
0000
0001
0000
0000
1000
0000
0010
0000
0000
0000
0100
0000
0010
0000
1000
0000
,
0000
0010
0000
0000
1000
0000
0100
0000
0000
0000
0010
0000
0010
0000
0001
0000
,
0000
1000
0000
0000
0001
0000
0100
0000
0000
0000
0010
0000
0100
0000
0001
0000
,
0000
0100
0000
0000
0001
0000
0010
0000
0000
0000
0100
0000
0010
0000
0001
0000
,
0000
1000
0000
0000
0001
0000
0100
0000
0000
0000
0010
0000
0100
0000
0001
0000
,
0000
0100
0000
0000
0001
0000
0010
0000
0000
0000
0100
0000
0100
0000
0000
0000
,
1010
1000
1100
0000
,
0011
0001
0101
0000
,
1001
0010
0110
0000
,
1100
0000
0010
0000
0011
0000
0000
2200
,
0000
3300
0000
2020
0000
3030
0000
0202
,
0000
0303
0000
0022
0000
0033
0000
0220
,
0000
0330
1100
0000
0000
0010
0010
0200
,
0000
0000
0000
0300
,
0101
0000
0010
1000
0100
0000
0010
0001
,
0100
0000
0010
1000
0100
0000
0010
0001
,
0100
0000
0010
0001
0100
0000
0010
0001
,
0100
0000
0010
1000
0001
0000
0100
0001
,
0000
1100
0000
1000
0000
0101
0000
0001
,
0000
1100
0000
1000
0000
0101
0000
0001
,
1000
1001
0000
0110
0000
1000
0001
0011
,
0000
0001
0100
0010
1000
0000
0001
0000
,
2000
0000
0000
0000
,
3200
0000
0000
0000
0000
0000
0310
0002
,
0000
0000
0000
0000
,
0000
0000
0000
1003
0001
0000
0001
1000
,
0002
0000
0000
0000
,
0203
0000
0000
0000
0000
0000
0310
2000
,
0000
0000
0000
3000
,
1000
0100
0010
0001
0100
0010
1000
0001
,
1000
0000
0100
0000
1000
0000
0000
0001
0000
0100
0000
0001
0000
0000
0000
0000
,
1000
0000
0010
0000
1000
0000
0000
0001
0000
0010
0000
0001
0000
0000
0000
0000
,
0010
0000
0001
0000
0010
0000
0000
0100
0000
1000
0000
0100
0000
0000
0000
0000
,
0010
0000
0100
0000
0010
0000
0000
0001
0000
1000
0000
0001
0000
0000
0000
0000
,
0100
0000
0001
0000
0100
0000
0000
0010
0000
1000
0000
0010
0000
0000
0000
0000
,
1000
0000
0001
0000
1000
0000
0000
0100
0000
0010
0000
0100
0000
0000
0000
0000
,
0010
0000
0001
0000
1000
0000
0000
0010
0000
1000
0000
0001
0000
0000
0000
0000
,
1002
0000
0103
0010
1000
1000
0001
1000
,
0001
0010
0001
1000
0100
1000
0001
0010
,
0001
0000
1000
0100
0010
0100
1000
0000
,
1000
0010
1000
0001
0100
0001
1000
0010
,
1000
0000
0001
0100
0010
1000
0000
0000
,
0010
0100
0010
1000
0001
1000
0010
0100
,
0010
0000
0100
0001
0010
0001
0100
0000
,
0100
0001
0100
0010
1000
0010
0100
0001
,
0100
0000
0010
1000
0001
0100
0000
0001
,
0000
0001
0000
0000
0001
0000
0100
0000
0000
0000
0100
0000
0010
0000
1000
0000
,
0000
1000
0000
0000
1000
0000
0010
0000
0000
0000
0010
0000
0100
0000
0001
0000
,
0000
0001
0000
0000
0001
0000
0010
0000
0000
0000
0010
0000
0100
0000
1000
0000
,
0000
1000
0000
0000
1000
0000
0100
0000
0000
0000
0100
0000
0010
0000
0001
0000
,
0000
1000
0010
1000
0000
0001
0010
0001
,
0000
1000
0010
1000
0000
0001
0010
0001
,
0100
0000
0100
0000
0100
0010
0100
0001
,
0000
1000
0000
0000
2002
0000
0000
0000
0000
0000
0000
0000
0000
0000
0000
0000
,
0000
3003
0000
0000
;

//---------------dance-single - ----------------
#NOTES:
     dance-single:
     :
     Easy:
     6:
     0.284871,0.305151,0.178843,0.366628,0.004471,223.000000,203.000000,20.000000,41.000000,0.000000,0.000000,0.284871,0.305151,0.178843,0.366628,0.004471,223.000000,203.000000,20.000000,41.000000,0.000000,0.000000:
0000
0000
0000
0000
,
0000
0000
0000
0000
,
0000
0000
0000
0000
,
0000
0000
0000
0000
,
1000
1000
0001
0001
,
0100
0100
0010
0010
,
0100
0100
0001
0001
,
1000
0000
1000
0000
0010
0100
0010
0000
,
1000
1000
0100
0100
,
0010
0010
0001
0001
,
0010
0010
0100
0100
,
0000
0000
0000
0000
,
2000
3010
0002
0013
,
2000
3100
0002
0103
,
2000
3001
0002
1003
,
0002
0103
0020
1030
,
0002
0013
2000
3010
,
0002
0103
2000
3100
,
0002
1003
2000
3001
,
1001
0000
0010
0010
,
1010
0000
1001
0000
,
0101
0000
1001
0000
,
1100
0000
0110
0000
,
0011
0000
0000
0000
0110
0000
0000
1010
,
0000
0000
0000
1001
0000
0000
0000
0101
,
0000
0000
0000
0011
0000
0000
0000
1001
,
0000
0000
0010
0000
0000
0010
0000
0200
,
0000
0000
0000
0300
,
0110
0010
1000
0010
,
0100
0010
0001
0010
,
0100
0010
0100
0010
,
0100
0000
0010
0000
0100
0000
0000
1000
,
0000
0001
0000
0001
0000
1000
0000
1000
,
0000
0001
0000
0001
0000
1000
0000
1000
,
0000
0001
0000
1000
0000
0001
0000
1000
,
0000
0001
0100
0010
,
2000
0000
0000
0000
,
3002
0000
0000
0000
0000
0000
0103
0020
,
0000
0000
0000
0000
,
0000
0000
0130
0100
,
0002
0000
0000
0000
,
2003
0000
0000
0000
0000
0000
3010
0200
,
0000
0000
0000
0000
,
0310
1000
0001
0010
,
0001
0100
0000
0010
,
1000
0100
0000
0010
,
0001
0100
0000
0010
,
1000
0001
0000
0100
,
0001
1000
0000
0100
,
0010
0001
0000
0010
,
0100
1000
0001
0100
,
0020
1030
0001
1000
,
0002
0013
0002
0013
,
0100
2000
3010
0100
,
0020
1030
0020
0130
,
0020
0031
0010
0000
,
2000
3100
2000
3100
,
0010
0002
1003
0002
,
0103
0010
0100
0100
,
0110
0000
1000
0000
0001
0000
0000
2000
,
0000
0000
3001
0200
0000
0000
0310
2000
,
0000
0000
3001
0200
0000
0000
0310
0020
,
0000
0000
1030
0002
0000
0000
0103
0020
,
0000
0000
1030
0002
0000
0000
0003
1001
,
0000
0000
0000
0110
0000
0000
0000
1001
,
0000
0000
0000
0110
0000
0000
0000
0000
,
1000
0000
0001
0000
1000
0000
0001
0100
,
0000
0100
0000
0000
0200
0000
0000
0000
0000
0000
0000
0000
0000
0000
0000
0000
,
0000
0300
0000
0000
;

//---------------dance-single - ----------------
#NOTES:
     dance-single:
     :
     Beginner:
     3:
     0.143074,0.213605,0.035769,0.080479,0.000000,112.000000,108.000000,4.000000,9.000000,0.000000,0.000000,0.143074,0.213605,0.035769,0.080479,0.000000,112.000000,108.000000,4.000000,9.000000,0.000000,0.000000:
0000
0000
0000
0000
,
0000
0000
0000
0000
,
0000
0000
0000
0000
,
0000
0000
0000
0000
,
0100
0000
0001
0000
,
0100
0000
0001
0000
,
0100
0000
0001
0000
,
0100
0000
0010
0000
,
0010
0000
1000
0000
,
0010
0000
1000
0000
,
0010
0000
1000
0000
,
0000
0000
0000
0000
,
0001
0000
0100
0000
,
0001
0000
0010
0000
,
0001
0000
0100
0000
,
0001
0000
1000
0000
,
1000
0000
0010
0000
,
1000
0000
0100
0000
,
1000
0000
0010
0000
,
1000
0000
0001
0000
,
0100
0000
0100
0000
,
0100
0000
0100
0000
,
0010
0000
0010
0000
,
0010
0000
0010
0000
,
1000
0000
0001
0000
,
1000
0000
0001
0000
,
1000
0000
0000
0000
,
0001
0000
0000
0000
,
0110
0000
0010
0000
,
0110
0000
0010
0000
,
0100
0000
0100
0000
,
0100
0000
0001
0000
,
1000
0000
0010
0000
,
0100
0000
0001
0000
,
0010
0010
0010
0010
,
0010
0000
0000
0000
,
0002
0000
0000
0003
,
0002
0000
0003
0002
,
0000
0000
0000
0000
,
0000
0003
0000
0000
,
2000
0000
0000
3000
,
2000
0000
3000
2000
,
0000
0000
0000
3000
,
0000
0000
0000
0000
,
0010
0000
0000
0000
,
0100
0000
0000
0000
,
0001
0000
0000
0000
,
1000
0000
0000
0000
,
0001
0000
0000
0000
,
0010
0000
0000
0000
,
0100
0000
0000
0000
,
2000
3000
0000
0000
,
1000
0000
1000
0000
,
0001
0000
1000
0000
,
0010
0000
0100
0000
,
0100
0000
0010
0000
,
0100
0000
0100
0000
,
0001
0000
0001
0000
,
0010
0010
0010
0000
,
0110
0000
0000
0000
,
1000
0000
0010
0000
,
0100
0000
0001
0000
,
1000
0000
0010
0000
,
0100
0000
0001
0000
,
0001
0000
1000
0000
,
0001
0000
1000
0000
,
0010
0010
0010
0010
,
0000
0220
0000
0000
,
0000
0330
0000
0000
;

//---------------dance-double - ----------------
#NOTES:
     dance-double:
     :
     Easy:
     6:
     0.256767,0.305151,0.080479,0.214611,0.000000,201.000000,192.000000,9.000000,24.000000,0.000000,0.000000,0.256767,0.305151,0.080479,0.214611,0.000000,201.000000,192.000000,9.000000,24.000000,0.000000,0.000000:
00000000
00000000
00000000
00000000
,
00000000
00000000
00000000
00000000
,
00000000
00000000
00000000
00000000
,
00000000
00000000
00000000
00000000
,
10000000
10000000
01000000
01000000
,
00010000
00010000
00001000
00001000
,
00000010
00000010
00000001
00000001
,
00001000
00001000
00000010
00000100
,
00000001
00000001
00000010
00000010
,
00001000
00001000
00010000
00010000
,
00100000
00100000
10000000
10000000
,
00000000
00000000
00000000
00000000
,
10000000
01000000
10000000
00100000
,
00010000
00001000
00010000
00000010
,
00000100
00000001
00000100
00000010
,
00001000
00000010
00000100
00000100
,
00000001
00000010
00000001
00000100
,
00001000
00010000
00001000
00100000
,
01000000
10000000
01000000
00100000
,
00010000
00000000
10000000
00000000
,
10100000
00000000
01010000
00000000
,
00101000
00000000
00010100
00000000
,
00001010
00000000
00000101
00000000
,
00001001
00000000
00000000
00000000
00000110
00000000
00000000
00000001
,
00000000
00000000
00000000
00001000
00000000
00000000
00000000
00010000
,
00000000
00000000
00000000
10000000
00000000
00000000
00000000
00100000
,
00000000
00000000
01000000
00000000
00000000
00010000
00000000
20000000
,
00000000
00000000
00000000
00000000
,
30020000
01030000
00100000
00010000
,
00002000
00003010
00000100
00001000
,
00000200
00010300
00020000
00031000
,
00002000
00000000
01003000
00000000
02000000
00000000
03001000
00010000
,
00000000
00001000
00000000
00000010
00000000
00000001
00000000
00000100
,
00000000
00001000
00000000
00010000
00000000
01000000
00000000
10000000
,
00000000
00010000
00000000
10000000
00000000
00010000
00000000
10000000
,
00000000
00000000
00100000
00000000
00000000
00100000
00000000
00000000
,
20000000
00000000
00000000
00000000
,
32000000
00000000
00000000
00000000
00000000
00000000
03010000
00002000
,
00000000
00000000
00000000
00000000
,
00000000
00003000
00000010
00000010
,
00000002
00000000
00000000
00000000
,
00000203
00000000
00000000
00000000
00000000
00000000
00001300
00020000
,
00000000
00000000
00000000
00030000
,
01000000
10000000
00100000
01000000
,
00010000
10000000
00000000
00100000
,
00010000
00001000
00000000
00000010
,
00000001
00000100
00000000
00001000
,
00010000
01000000
00000000
10000000
,
00010000
01000000
00000000
00100000
,
00010000
00001000
00000000
00000010
,
00000001
00001000
00000000
00000010
,
00000200
00000310
00001000
00000010
,
00002000
00003100
00002000
00003010
,
00002000
00003100
00010000
00001000
,
02000000
03010000
02000000
03100000
,
10000000
00010000
00010000
00000000
,
00020000
00130000
00020000
01030000
,
00020000
00130000
00001000
00010000
,
00000100
00000100
00000010
00000010
,
00000001
00000000
00001000
00000000
00001000
00000000
00000000
00000001
,
00000000
00000000
00000000
00000010
00000000
00000000
00000000
00001000
,
00000000
00000000
00000000
00010000
00000000
00000000
00000000
00100000
,
00000000
00000000
00000000
10000000
00000000
00000000
00000000
01000000
,
00000000
00000000
00000000
00010000
00000000
00000000
00000000
00001000
,
00000000
00000000
00000000
00010000
00000000
00000000
00000000
00001000
,
00000000
00000000
00000000
00010000
00000000
00000000
00000000
00001000
,
00000000
00010000
00000000
00001000
00000000
00010000
00000000
00001000
,
00000000
00022000
00000000
00000000
,
00000000
00033000
00000000
00000000
;

//---------------dance-double - ----------------
#NOTES:
     dance-double:
     :
     Medium:
     11:
     0.471379,0.518756,0.196727,0.125190,0.290620,369.000000,347.000000,22.000000,14.000000,0.000000,0.000000,0.471379,0.518756,0.196727,0.125190,0.290620,369.000000,347.000000,22.000000,14.000000,0.000000,0.000000:
00000000
00000000
00000000
00000000
,
00000000
00000000
00000000
00000000
,
00000000
00000000
00000000
00000000
,
00000000
00000000
00000000
00000000
,
10000000
00000000
00000000
10000000
00010000
00000000
00000000
00010000
01000000
00000000
00000000
01000000
00100000
00000000
00000000
00100000
,
00010000
00000000
00000000
00010000
00001000
00000000
00000000
00001000
00000010
00000000
00000000
00000010
00000100
00000000
00000000
00000100
,
00001000
00000000
00000000
00001000
00000001
00000000
00000000
00000001
00000100
00000000
00000000
00000100
00000010
00000000
00000000
00000010
,
00010000
00000000
00000000
00010000
00001000
00000000
00000000
00001000
01000000
00000000
00100000
00000000
01000000
00000000
00000000
00100000
,
10000000
00000000
00000000
10000000
01000000
00000000
00000000
01000000
00010000
00000000
00000000
00010000
00001000
00000000
00000000
00001000
,
00000100
00000000
00000000
00000100
00000010
00000000
00000000
00000010
00001000
00000000
00000000
00001000
00000001
00000000
00000000
00000001
,
00000100
00000000
00000000
00000100
00001000
00000000
00000000
00001000
00010000
00000000
01000000
00000000
10000000
00000000
00010000
00000000
,
00000000
10000000
00000000
00000000
00020000
00000000
00000000
00000000
00000000
00000000
00030000
00000000
00000000
00000000
10000000
00000000
,
00000000
01000000
00000000
00000000
10000000
00000000
00010000
00000000
00000000
00000000
00010000
00000000
00100000
00000000
01000000
00000000
,
00000000
00010000
00000000
00000000
00001000
00000000
00010000
00000000
00000000
00000000
00010000
00000000
00000010
00000000
00000100
00000000
,
00000000
00000001
00000000
00000000
00001000
00000000
00000010
00000000
00000000
00000000
00000010
00000000
00000100
00000000
00001000
00000000
,
00000000
00010000
00000000
00000000
01000000
00000000
10000000
00000000
00000000
00000000
10000000
00000000
00010000
00000000
01000000
00000000
,
00000000
00100000
00000000
00000000
00010000
00000000
00001000
00000000
00000000
00000000
00001000
00000000
00000010
00000000
00000001
00000000
,
00000000
00001000
00000000
00000000
00000100
00000000
00000010
00000000
00000000
00000000
00000010
00000000
00001000
00000000
00010000
00000000
,
00000000
00100000
00000000
00000000
10000000
00000000
00010000
00000000
00000000
00000000
00010000
00000000
01000000
00000000
00100000
00000000
,
00000000
00010000
00000000
00000000
00001000
00000000
00000010
00000000
00000000
00000000
00000010
00000000
00000001
00000000
00001000
00000000
,
00001001
00000100
00001001
00000010
,
00001001
00000100
00001001
00000010
,
00011000
01000000
00011000
00000010
,
00011000
00000000
01000000
00000000
00011000
00000000
01000000
01100000
,
00000000
00000000
00000000
10100000
00000000
00000000
00000000
10010000
,
00000000
00000000
00000000
01001000
00000000
00000000
00000000
00011000
,
00000000
00000000
00010010
00000000
00000100
00000001
00001000
00000001
,
00000000
00000010
00000000
00000000
00000100
00000000
00000000
00000000
00000000
00000000
00000000
00000000
00000000
00000000
00000000
00010000
,
00001000
00000000
01000000
00010000
00100000
00000000
01000000
10000000
,
00100000
00000000
00010000
00001000
00000010
00000000
00000001
00000100
,
00000010
00000000
00000001
00000100
00000010
00000000
00000001
00000100
,
00000010
00000000
00000100
00001000
00010000
01000000
00000000
11000000
,
00000000
00000000
00000000
00110000
00000000
00000000
00000000
00001100
,
00000000
00000000
00000000
00000011
00000000
00000000
00000000
00001001
,
00000000
00010100
00000000
00011000
00000000
01000000
00001000
00100000
,
00000000
01000000
10000000
00000000
00000000
00010000
00000000
00010000
,
20000000
00000000
00000000
00000000
,
30200000
00000000
00000000
00000000
00000000
00000000
00310000
00002000
,
00000000
00000000
00000000
00000000
,
00000000
00000000
00003000
00000010
00000001
00000000
00000001
00001000
,
00000002
00000000
00000000
00000000
,
00000023
00000000
00000000
00000000
00000000
00000000
00001030
00020000
,
00000000
00000000
00000000
00000000
,
00130000
10000000
00010000
00000000
01000000
00100000
10000000
00010000
,
10000000
00000000
01000000
00000000
10000000
00000000
00000000
00010000
00000000
00100000
00000000
00010000
00000000
00000000
00000000
00000000
,
01000000
00000000
00001000
00000000
01000000
00000000
00000000
00001000
00000000
00010000
00000000
00001000
00000000
00000000
00000000
00000000
,
00010000
00000000
00000100
00000000
00010000
00000000
00000000
00000100
00000000
00001000
00000000
00000100
00000000
00000000
00000000
00000000
,
00001000
00000000
00000010
00000000
00001000
00000000
00000000
00000001
00000000
00000100
00000000
00000001
00000000
00000000
00000000
00000000
,
00000010
00000000
00000001
00000000
00000010
00000000
00000000
00000100
00000000
00010000
00000000
00000100
00000000
00000000
00000000
00000000
,
00010000
00000000
00001000
00000000
00010000
00000000
00000000
00001000
00000000
01000000
00000000
00001000
00000000
00000000
01000000
00000000
,
00100000
00000000
10000000
00000000
00010000
00000000
00000000
01000000
00000000
00010000
00000000
10000000
00000000
00000000
00100000
00000000
,
02000000
00000000
03010000
10000000
00010000
01000000
00100000
10000000
,
00010000
01000000
00010000
10000000
00100000
10000000
00010000
01000000
,
00010000
00000000
01000000
00100000
00010000
00001000
00000010
00000001
,
00001000
00000100
00001000
00000001
00000010
00000001
00001000
00000100
,
00001000
00000000
00000000
00000000
00000001
00000000
00001000
00000001
00001000
00000000
00000010
00000000
00000000
00000000
00000000
00000000
,
00000100
00000001
00000100
00000010
00001000
00000010
00000100
00000001
,
00000100
00000000
00001000
00010000
01000000
10000000
00100000
01000000
,
00010000
00100000
00010000
10000000
01000000
10000000
00010000
00100000
,
00010000
00000000
00000000
00000000
01000000
00000000
00010000
10000000
00010000
00000000
01000000
00000000
00100000
00000000
10000000
00000000
,
00000000
00010000
00000000
00000000
10000000
00000000
00100000
00000000
00000000
00000000
00010000
00000000
00001000
00000000
00000010
00000000
,
00000000
00000001
00000000
00000000
00000010
00000000
00000001
00000000
00000000
00000000
00000100
00000000
00001000
00000000
00010000
00000000
,
00000000
00001000
00000000
00000000
00010000
00000000
00100000
00000000
00000000
00000000
10000000
00000000
00010000
00000000
01000000
00000000
,
00000000
00100000
00000000
00000000
01000000
00000000
00010000
00000000
00000000
00000000
10000000
00000000
00100000
00000000
00020000
00000000
,
00000000
00031000
00000010
00000002
00000000
00000103
00001000
00020000
,
00000000
01030000
10000000
00200000
00000000
00310000
00001000
00000010
,
00000000
00000001
00000000
00000000
00001000
00000000
00000100
00000000
00000000
00000000
00000100
00000000
00010000
00000000
00001000
00000000
,
00000000
00010000
00000000
00000000
00022000
00000000
00000000
00000000
00000000
00000000
00000000
00000000
00000000
00000000
00000000
00000000
,
00000000
00033000
00000000
00000000
;

//---------------dance-double - ----------------
#NOTES:
     dance-double:
     :
     Hard:
     14:
     0.669383,0.823907,0.348744,0.098364,0.670661,524.000000,485.000000,39.000000,11.000000,0.000000,0.000000,0.669383,0.823907,0.348744,0.098364,0.670661,524.000000,485.000000,39.000000,11.000000,0.000000,0.000000:
00000000
00000000
00000000
00000000
,
00000000
00000000
00000000
00000000
,
00000000
00000000
00000000
00000000
,
00000000
00000000
00000000
00000000
,
10000000
00000000
00000000
10000000
00010000
00000000
00000000
00010000
01000000
00000000
00000000
01000000
00100000
00000000
00000000
00100000
,
00010000
00000000
00000000
00010000
00001000
00000000
00000000
00001000
00000010
00000000
00000000
00000010
00000100
00000000
00000000
00000100
,
00001000
00000000
00000000
00001000
00000001
00000000
00000000
00000001
00000010
00000000
00000000
00000010
00001000
00000000
00000000
00001000
,
00010000
00000000
00000000
00010000
00100000
00000000
00000000
00100000
10000000
00010000
10000000
00010000
10000000
00000000
00000000
00010000
,
01000000
00000000
00000000
01000000
00100000
00000000
00000000
00100000
00010000
00000000
00000000
00010000
00001000
00000000
00000000
00001000
,
00000010
00000000
00000000
00000010
00000001
00000000
00000000
00000001
00001000
00000000
00000000
00001000
00000010
00000000
00000000
00000010
,
00000100
00000000
00000000
00000100
00001000
00000000
00000000
00001000
00010000
00000000
00001000
00000000
00010000
00001000
00010000
00000000
,
00000000
00000000
00000000
00000000
00000000
00000000
00000000
00000000
00000000
00000000
00001000
01000000
00100000
01000000
00001000
00000000
,
00000000
00100000
00000000
00000000
11000000
00000000
00100000
00000000
00000000
00000000
01000000
00000000
00011000
00000000
00001000
00000000
,
00000000
00010000
00000000
00000000
00001100
00000000
00000010
00000000
00000000
00000000
00000001
00000000
00000110
00000000
00001000
00000000
,
00000000
00000001
00000000
00000000
00010100
00000000
00001000
00000000
00000000
00000000
00100000
00000000
00011000
00000000
01000000
00000000
,
00000000
00100000
00000000
00000000
11000000
00000000
00100000
00000000
00000000
00000000
00010000
00000000
00101000
00000000
00010000
00000000
,
00000000
00000100
00000000
00000000
00001010
00000000
00000100
00000000
00000000
00000000
00000010
00000000
00000101
00000000
00000010
00000000
,
00000000
00010000
00000000
00000000
00001100
00000000
00000010
00000000
00000000
00000000
00000100
00000000
00011000
00000000
00100000
00000000
,
00000000
00010000
00000000
00000000
11000000
00000000
00010000
00000000
00000000
00000000
01000000
00100000
10000000
00100000
01000000
00000000
,
00001000
00010000
00001000
00010000
00001000
00000000
00000000
00000000
00010000
00001000
00010000
00001000
00010000
00000000
00000100
00001000
,
00000010
00000100
00000001
00000000
00000101
00000000
00000000
00000000
00000010
00000100
00001000
00000000
00001100
00000000
00000000
00000000
,
00000100
00010000
00001000
00000000
00011000
00000000
00000000
00000000
01000000
00001000
00010000
00000000
00011000
00000000
00000000
00000000
,
00100000
01000000
10000000
00000000
11000000
00000000
00000000
00000000
00100000
01000000
00010000
00000000
01010000
00000000
00000000
00000000
,
00100000
00001000
00010000
00000000
00011000
00000000
00000000
00000000
00000010
00010000
00001000
00000000
00011000
00000000
00100000
00010000
,
00100000
00000000
00000000
00000000
00001000
00000000
00010000
00000100
00010000
00000000
00000000
00000000
00001000
00000000
00000010
00000001
,
00000010
00000000
00000000
00000000
00000001
00000000
00000100
00001000
00000100
00000000
00000000
00000000
00001000
00000000
00010000
00100000
,
00010000
00000000
00011000
00000000
01000000
01010000
10010000
00100000
,
00000000
00001000
00000000
00000000
00020200
00000000
00000000
00000000
00000000
00000000
00000000
00000000
00000000
00000000
00030300
00010000
,
00000100
00000000
00000000
00000000
00000010
00000001
00000010
00000000
00001100
00000000
00000000
00000000
00000001
00001000
00000001
00001000
,
00000001
00000000
00000000
00000000
00001000
00000100
00001000
00000000
00000110
00000000
00000000
00000000
00010000
00001000
00010000
00001000
,
00010000
00000000
00000000
00000000
00001000
00010000
00001000
00010000
00001000
00000000
00000000
00000000
00010000
00001000
00010000
00001000
,
00010000
00000000
00000000
00000000
00001000
01000000
00001000
00000000
00110000
00000000
00000000
00000000
01000000
10000000
00100000
00000000
,
01000000
00000000
00100000
00000000
00010000
00001000
00000100
00000000
00000001
00000000
00001000
00000000
00000010
00000100
00001000
00000000
,
00010000
00000000
01000000
00000000
10000000
00010000
00100000
00000000
01000000
00000000
00010000
00000000
00001000
00000010
00000001
00000000
,
00000000
00000000
00001001
00000000
00000000
00000000
00000110
00000000
00000000
00000000
00001001
00000000
00000100
00000010
00001000
00000000
,
00000000
00000000
00000101
00000000
00000010
00001000
00000000
00001000
,
00000002
00000000
00000000
00000000
,
00000023
00000000
00000000
00000000
00000000
00000000
00001030
00020000
,
00000000
00000000
00000000
00000000
,
00030000
00000000
00000000
00000000
00000000
00000000
00100000
10000000
00010000
00000000
00000000
00000000
00010000
10000000
00100000
00000000
,
02000000
00000000
00000000
00000000
,
03200000
00000000
00000000
00000000
00000000
00000000
00310000
00002000
,
00000000
00000000
00000000
00003000
,
00000010
00000001
00000010
00000000
00000100
00001000
00000100
00000000
00001000
00000000
00000001
00000000
00000100
00000000
00000010
00000000
,
00001000
00000000
00000001
00000000
00000100
00000000
00000010
00001000
00000000
00000100
00000000
00001000
00000001
00000000
00000010
00000000
,
00001000
00000000
00010000
00000000
00100000
00000000
10000000
00010000
00000000
01000000
00000000
00010000
01000000
00000000
00100000
00000000
,
00010000
00000000
00001000
00000000
00000010
00000000
00000001
00001000
00000000
00000100
00000000
00001000
00000010
00000000
00000100
00000000
,
00001000
00000000
00010000
00000000
01000000
00000000
10000000
00010000
00000000
00100000
00000000
00010000
01000000
00000000
00100000
00000000
,
10000000
00000000
01000000
00000000
00010000
00000000
00001000
00000010
00000000
00000001
00000000
00000010
00000100
00000000
00001000
00000000
,
00000010
00000000
00000100
00000000
00000001
00000000
00001000
00000010
00000000
00000100
00000000
00000010
00000100
00000000
00001000
00000000
,
00010000
00000000
01000000
00000000
10000000
00000000
00010000
01000000
00000000
00100000
00000000
01000000
00010000
00000000
00000000
00000000
,
20000000
00000000
00000000
00000000
30010000
01000000
00010000
01000000
00100000
10000000
00100000
10000000
01000000
00100000
00010000
00000000
,
10000000
01000000
00100000
01000000
10000000
00000000
00010000
01000000
00100000
01000000
00010000
00000000
01000000
00100000
00010000
00001000
,
00000100
00000000
00000000
00000000
00000001
00001000
00000001
00001000
00000001
00000000
00000100
00000001
00000100
00000001
00000100
00000000
,
00000001
00000010
00000100
00000010
00000001
00000000
00001000
00000100
00000010
00000100
00001000
00000000
00000010
00000100
00001000
00010000
,
01000000
00000000
00000000
00000000
10010000
00000000
10000000
00010000
01000000
00000000
00100000
01000000
00100000
10000000
00100000
00000000
,
10000000
00010000
01000000
00010000
10000000
00000000
00010000
10000000
01000000
10000000
00010000
00000000
10000000
01000000
00010000
00001000
,
00000100
00000000
00000000
00000000
00000001
00001000
00000001
00001000
00000001
00000000
00001000
00000010
00001000
00000010
00001000
00000000
,
00000001
00001000
00000100
00001000
00000001
00000000
00001000
00000001
00000100
00000001
00001000
00000000
00000001
00000100
00001000
00010000
,
01000000
00000000
00000000
00000000
10010000
00000000
01000000
00100000
10000000
00000000
00010000
01000000
00010000
00000000
10000000
00000000
,
00000000
01000000
00000000
00000000
00010000
00000000
00001000
00000000
00000000
00000000
00000100
00000000
00000001
00000000
00000001
00000000
,
00000000
00000100
00000000
00000000
00001000
00000000
00010000
00000000
00000000
00000000
01000000
00000000
10000000
00000000
10000000
00000000
,
00000000
01000000
00000000
00000000
00010000
00000000
00001000
00000000
00000000
00000000
00000100
00000000
00000001
00000000
00000001
00000000
,
00000000
00000100
00000000
00000000
00001000
00000000
00010000
00000000
00000000
00000000
01000000
00000000
10000000
00000000
10100000
00000000
,
00000000
00100000
00010000
00011000
00000000
00001000
00000010
00000011
,
00000000
00000001
00001000
00001001
00000000
00000010
00000100
00001000
,
00000000
00010000
00000000
00000000
01000000
00000000
10000000
00000000
00000000
00000000
00010000
00000000
01000000
00010000
01000000
00000000
,
00000000
00100000
00000000
00000000
20020000
00000000
00000000
00000000
00000000
00000000
00000000
00000000
00000000
00000000
00000000
00000000
,
00000000
30030000
00000000
00000000
;
