#TITLE:ススススペースハリネズミ;
#SUBTITLE:;
#ARTIST:S-C-U;
#TITLETRANSLIT:Susususpace harinezumi;
#SUBTITLETRANSLIT:;
#ARTISTTRANSLIT:;
#GENRE:Hardcore;
#CREDIT:;
#BANNER:susususpaceharinezumi-bn.png;
#BACKGROUND:susususpaceharinezumi-bg.png;
#LYRICSPATH:;
#CDTITLE:;
#MUSIC:ススススペースハリネズミ.mp3;
#OFFSET:-0.210000;
#SAMPLESTART:23.908998;
#SAMPLELENGTH:12.000000;
#SELECTABLE:YES;
#BPMS:0.000000=182.000000
;
#STOPS:
;
#BGCHANGES:;
#KEYSOUNDS:;
#ATTACKS:;

//---------------dance-single - ----------------
#NOTES:
     dance-single:
     :
     Challenge:
     16:
     0.912965,1.108566,0.361060,0.081238,0.704066,708.000000,668.000000,40.000000,9.000000,0.000000,0.000000,0.912965,1.108566,0.361060,0.081238,0.704066,708.000000,668.000000,40.000000,9.000000,0.000000,0.000000:
0000
0000
0000
0000
,
0000
0000
0000
0000
,
0000
0000
0000
0000
,
0000
0000
0000
0000
0000
0000
0000
0000
0000
0000
0000
0000
0000
0000
0001
1000
,
0010
0000
0010
0000
0010
0100
0010
1100
,
0000
0010
0100
0011
0000
0100
0010
1100
,
0000
0010
0001
0100
0010
1000
0100
0010
,
0001
0100
0010
1000
0100
0010
0001
0100
,
0010
0000
1000
0100
1000
0000
0001
0100
0001
0000
1000
0010
1000
0000
0001
0010
,
0001
0000
0100
0010
1000
0001
0100
0010
1000
0000
1000
0000
0000
0000
0000
0000
,
0001
0000
0001
0100
0010
0000
0001
0000
0001
0100
0010
0000
0001
0000
0001
0010
,
0100
0000
1000
0000
0010
0100
0001
0100
0010
0000
1000
0000
0100
0000
1000
0000
,
1000
0000
1000
0100
0010
0000
1000
0000
1000
0100
0010
0000
1000
0000
1000
0010
,
0100
0000
0001
0000
0010
0100
1000
0100
0010
0000
0001
0000
0100
0000
0010
0000
,
0100
0000
0100
0001
0010
0000
0100
0000
0100
0001
0010
0000
0100
0000
0100
0010
,
1000
0000
0001
0000
0100
0000
0001
0010
0100
0000
1000
0000
0010
0100
0001
1000
,
0010
0000
0010
0100
0001
0000
0010
0000
0010
0100
0001
0000
0010
0000
0010
1000
,
0001
0000
0010
0000
0100
0000
1000
0010
0100
0000
0001
0000
0010
0100
1000
0100
,
0010
0000
0010
0001
1000
0000
0010
0000
0010
1000
0001
0000
0010
0000
0010
0001
,
0100
0000
1000
0000
0100
0010
1000
0001
0100
0000
0010
0000
1000
0000
0001
0000
,
0100
0000
0100
0001
1000
0000
0100
0000
0100
1000
0001
0000
0100
0000
0100
0001
,
0010
0000
1000
0000
0010
0100
1000
0001
0100
0000
0010
0000
1000
0000
0001
0000
,
1000
0000
1000
0100
0010
0000
0001
0000
0001
0010
0100
0000
1000
0000
1000
0100
,
0010
0000
1000
0000
0010
0000
0001
0100
0010
0000
0001
0000
0010
1000
0001
1000
,
0010
0000
0110
0000
0000
0000
0100
0000
0101
0000
1001
0000
0000
0000
0010
1000
,
0100
0000
0010
0000
0001
0000
0100
0010
1000
0001
1000
0001
1000
0010
0100
0010
,
1000
0000
0100
0000
0001
0000
1000
0000
0010
0000
0001
0000
0100
0000
0001
1000
,
0001
0000
1000
0000
0010
0000
1000
0000
0010
0000
0100
0000
0100
0000
0001
1000
,
0001
0000
0010
0000
1000
0000
0001
0000
0100
0000
1000
0000
0010
0000
0100
0001
,
0100
0000
0010
0000
0100
0000
0010
0000
1000
0000
0001
0000
1000
0000
1000
0001
,
1000
0000
0100
0000
0001
0000
1000
0000
0010
0000
0001
0000
0100
0000
0010
0100
,
0010
0000
1000
0000
0010
0000
1000
0000
0100
0000
1000
0000
1100
0000
0001
1000
,
0001
0000
0000
0101
0000
0000
1000
0001
1000
0000
0000
0000
1200
0000
0000
0000
,
0000
0001
0000
0000
1000
0000
0000
0000
,
0000
0000
0000
0000
0000
0000
0000
0000
0000
0000
0000
0000
0300
0000
0100
1000
,
0010
0000
0100
0001
0010
0000
0100
0000
1000
0000
0100
0000
0000
0000
0100
0000
,
0010
0000
0000
0011
0000
0000
0001
0000
0000
0000
0100
0000
0010
0000
1000
0000
,
0002
0000
0000
0000
0003
0000
0001
0010
0001
0000
0100
0000
1000
0000
0001
0000
,
0010
1000
0001
0100
1000
0001
0010
1000
,
0000
0000
1000
0100
0010
0100
1000
0000
0001
0010
0100
0010
0001
0000
1000
0000
,
0010
0000
0000
1010
0000
0000
1000
0000
0000
1001
0000
0000
0001
0000
0100
0000
,
0100
0000
0100
0010
1000
0000
0000
0000
0100
0000
0100
0010
1000
0000
0000
0000
,
0110
0000
0110
0000
0000
0000
1001
0000
0000
0000
0010
0000
0010
0000
0010
0001
,
0100
0000
0010
1000
0100
0000
0010
0000
0001
0000
0010
0000
0000
0000
0010
0001
,
1000
0000
0000
1010
0000
0000
0010
0000
0100
0000
0001
0000
1000
0000
0010
0000
,
2000
0000
0000
0000
3000
0000
1000
0010
1000
0000
0100
0000
0001
0000
1000
0000
,
0010
0001
1000
0100
0001
1000
0010
0001
,
0000
0000
0001
0010
0100
0010
0001
0000
1000
0100
0010
0100
1000
0000
0001
0010
,
0001
0000
0000
0011
0000
0000
0001
0000
1000
0000
0000
1010
0000
0000
0010
0000
,
0100
0000
0001
0000
1000
0000
0010
0000
1000
0000
0001
0000
0100
0000
0010
1000
,
0100
0000
0010
0001
0100
0000
0010
1000
0100
0010
0100
0010
0100
0010
0001
1000
,
0010
0100
0010
1000
1100
0110
0001
0101
,
0000
0010
0010
1001
0000
0100
0010
1100
,
0000
0000
0010
0000
0100
0000
0001
0000
1000
0100
0010
0100
1000
0100
0010
0000
,
0000
0000
0010
0000
0001
0000
0011
0000
0000
0000
1001
0000
0000
0000
0010
1000
,
0001
0100
1000
0100
0001
0100
0010
1001
,
0000
0000
0100
0000
0010
0000
0101
0000
0000
0000
0010
0100
1000
0000
1001
0000
,
0010
0100
0010
1000
0010
0100
0010
1000
,
0010
0100
0010
1000
0100
0010
0001
0010
,
0100
0010
0001
0100
0010
1000
0100
0010
0001
0100
0010
1000
0100
0010
0001
0100
,
0020
0000
0000
0000
0000
0000
0000
0000
0000
0000
0000
0000
0030
0000
0100
0010
,
1000
0000
0100
1000
0000
0100
0010
0000
0001
0000
0001
0000
0000
0000
1000
0010
,
0001
0000
0000
0010
0000
0000
0100
0000
0000
0000
0001
0000
0010
0000
1000
0000
,
0010
0000
0000
0000
0100
0000
0100
0010
0001
0000
1000
0000
0100
0000
0001
0000
,
1000
0000
0010
0000
0001
0000
1000
0000
0010
0100
0001
0100
0010
0000
1000
0000
,
1001
0000
0001
0100
0010
0100
0001
0000
1000
0100
0010
0100
1000
0000
0001
0000
,
0100
0000
0000
0100
0000
0000
1001
0000
0000
0010
0000
0000
0010
0000
1001
0000
,
0100
0000
1000
0010
0100
0000
0010
0100
0001
0000
0100
0010
1000
0000
0100
0010
,
0001
0000
0101
0000
0000
0000
1100
0000
0000
0000
0101
0000
0001
0000
1000
0001
,
1000
0000
0010
1000
0010
0000
1000
0000
0100
0000
0010
0000
0000
0000
0100
0010
,
0001
0000
0000
0001
0000
0000
0001
0000
0010
0100
1000
0100
0010
0001
0010
0100
,
2000
0000
0000
0000
3000
0000
1000
0010
1000
0000
0001
0000
0100
0000
1000
0000
,
0001
0000
0010
0000
1000
0000
0001
0000
0100
0010
1000
0010
0100
0000
0001
0000
,
1001
0000
0100
0001
0010
0001
0100
0000
0010
1000
0100
1000
0010
0000
0100
0001
,
0010
0000
0000
0010
0000
0000
1100
0000
0010
0000
0000
0010
0000
0000
0101
0000
,
0020
0000
0000
0000
0000
0000
2000
0000
0000
0000
0000
0000
3030
0000
1000
0001
,
1000
0100
0010
0001
0100
0010
1000
0100
0010
0001
0100
0010
1000
0100
0010
0001
,
0100
0000
0100
0001
0010
0001
0100
0000
0100
0010
1000
0010
0100
0000
0100
0001
,
1000
0000
0000
1000
0000
0000
1000
0000
0010
0000
0000
0010
0000
0000
0100
0000
,
0010
1001
0000
0010
1001
0000
0010
2002
,
0000
0000
0000
0000
,
0000
0000
0000
0000
0000
0000
0000
3003
;

//---------------dance-single - ----------------
#NOTES:
     dance-single:
     :
     Hard:
     14:
     0.696329,0.774812,0.207609,0.135397,0.270795,540.000000,517.000000,23.000000,15.000000,0.000000,0.000000,0.696329,0.774812,0.207609,0.135397,0.270795,540.000000,517.000000,23.000000,15.000000,0.000000,0.000000:
0000
0000
0000
0000
,
0000
0000
0000
0000
,
0000
0000
0000
0000
,
0000
0000
0000
0000
0000
0000
0000
0000
0000
0000
0000
0000
0000
0000
1000
0100
,
1000
0000
0101
0000
0010
1000
0010
0110
,
0000
0010
1000
1001
0000
0100
0001
1001
,
0000
1000
0010
0100
0010
1000
0010
0100
,
0001
0010
0001
0100
0001
0010
0001
0100
,
0001
0000
0000
1000
0100
0000
0000
0010
0001
0000
0000
0001
0100
0000
0000
0010
,
1000
0000
0000
0010
0100
0001
1000
0010
0100
0000
0001
0000
0000
0000
0000
0000
,
1000
0100
0001
1000
0010
0001
0100
0001
,
0100
0010
1000
0010
0100
0001
1000
1000
,
0001
0100
1000
0001
0010
1000
0010
1000
,
0100
0010
0001
1000
0010
0100
0001
0001
,
1000
0100
0001
1000
0010
0001
0010
0001
,
1000
0001
0100
0010
1000
0100
0010
0010
,
0001
0010
1000
0001
0100
1000
0010
1000
,
0100
0010
0001
0100
0010
0000
1001
0000
,
1000
0100
0001
1000
0010
0001
0100
0010
,
1000
0100
0001
0100
1000
0000
0110
0000
,
0001
0100
1000
0001
0010
1000
0100
0010
,
0001
0100
1000
0100
0001
0000
0110
0000
,
1000
0010
0001
1000
0100
0001
0010
0100
,
1000
0010
0001
0010
1000
0000
1001
0000
,
0001
0000
0011
0000
0000
0000
0100
0000
1000
0000
1100
0000
0000
0000
0010
0100
,
0010
1000
0001
0100
0020
0100
0100
0130
,
1000
0000
0100
0000
1000
0000
0001
0000
0010
0000
0001
0000
1000
0000
0010
0100
,
0010
0000
1000
0000
0001
0000
1000
0000
0010
0000
0100
0000
0010
0000
1000
0001
,
1000
0000
0100
0000
0010
0000
0001
0000
0100
0000
0010
0000
1000
0000
0001
0100
,
0001
0000
0100
0000
0001
0000
0100
0000
0010
0000
1000
0000
0010
0000
0100
0010
,
0100
0000
0001
0000
0100
0000
0010
0000
1000
0000
0010
0000
0100
0000
0001
1000
,
0001
0000
0100
0000
0010
0000
1000
0000
0100
0000
0010
0000
0001
0000
0100
0010
,
0100
0000
0000
0001
0000
0000
0010
0000
0100
0000
1000
0000
0002
0000
0000
0000
,
0000
1000
0000
0000
1000
0000
0000
0000
,
0000
0000
0000
0000
0000
0000
0000
0000
0000
0000
0000
0000
0003
0000
1000
0001
,
1000
0000
0000
0100
0000
0000
0010
0000
0001
0000
1000
0000
0000
0000
0010
0000
,
0100
0000
0000
0100
0000
0000
0100
0000
0000
0000
0001
0000
0100
0000
0010
0000
,
2000
0000
0000
0000
3000
0000
1000
0010
2000
0000
3100
0000
0010
0000
0001
0000
,
1000
0100
0010
0001
0100
0010
1000
0001
,
0000
1000
0100
0000
0001
0100
0000
1000
,
0100
0000
0000
0010
0000
0000
0001
0000
0000
0100
0000
0000
0010
0000
1000
0000
,
1010
0000
0100
0001
0100
0000
0000
0000
0101
0000
0010
1000
0010
0000
0000
0000
,
0010
0000
0100
0000
0000
0000
1001
0000
0000
0000
0100
0000
0010
0000
0001
1000
,
0001
0000
0000
0100
0000
0000
0010
0000
0100
0000
0001
0000
0000
0000
1000
0000
,
0010
0000
0000
0010
0000
0000
0010
0000
0100
0000
0001
0000
1000
0000
0001
0000
,
0020
0000
0000
0000
0030
0000
0010
0100
0020
0000
0130
0000
1000
0000
0001
0000
,
0010
0100
1000
0001
0100
0001
1000
0010
,
0000
1000
0010
0000
0001
0010
0000
1000
,
0010
0000
0000
0100
0000
0000
0001
0000
0010
0000
0000
0100
0000
0000
1000
0000
,
0020
0000
0000
0200
0000
0000
0000
0000
,
0000
0000
0000
0000
0000
0000
0000
0000
0000
0000
0000
0000
0330
0000
0010
0100
,
0001
0000
0000
0000
0010
0010
0000
0010
,
0000
0100
0100
1000
0000
0000
0000
1001
,
0000
1000
1000
0000
0010
0100
0000
0101
,
0000
0000
0001
0000
0001
0000
0100
0000
0000
0000
0010
0000
0000
0000
0100
0001
,
0100
0001
0010
1000
0010
0001
0100
0110
,
0000
0010
1000
1100
0000
0100
0010
0001
,
1000
0100
1000
0010
1000
0100
1000
0010
,
0100
0001
0100
0010
0100
0001
0100
0010
,
1000
0000
1000
0000
0001
0000
0001
0000
0100
0010
0100
0010
0100
0010
0100
0010
,
0200
0000
0000
0000
0000
0000
0000
0000
0000
0000
0000
0000
0300
0000
0001
1000
,
0001
0000
0010
0100
0000
0000
0100
0000
0010
0000
0001
0000
0000
0000
0100
0010
,
0100
0000
0000
0100
0000
0000
0100
0000
0000
0000
0010
0000
1000
0000
0001
0000
,
0020
0000
0000
0000
0030
0000
0010
0001
1000
0000
0010
0000
0100
0000
0001
0000
,
0010
0000
0100
0000
1000
0000
0010
0000
0100
0001
0100
0001
0100
0000
0010
0000
,
0000
1000
0100
0000
0010
1000
0000
0010
,
0001
0000
0000
0100
0000
0000
0010
0000
0000
1000
0000
0000
0100
0000
0010
0000
,
0001
0000
0000
0001
0100
0000
0000
0000
0010
0000
0000
0010
1000
0000
0100
0000
,
1000
1000
0000
0110
0000
0001
0001
0000
,
1000
0000
0100
0010
0000
0000
0010
0000
0100
0000
1000
0000
0000
0000
0010
0100
,
0010
0000
0000
1000
0000
0000
0010
0000
0100
0001
0100
0000
0001
0010
0001
0000
,
2000
0000
0000
0000
3000
0000
1000
0100
0010
0000
0001
0000
0100
0000
0010
0000
,
1000
0000
0100
0000
0010
0000
0001
0000
1000
0001
1000
0001
1000
0000
0001
0000
,
0000
0001
0010
0000
0100
0001
0000
0100
,
1000
0000
0000
0010
0000
0000
0100
0000
0001
0000
0000
0010
0000
0000
0100
0000
,
2000
0000
0000
0000
0000
0000
0002
0000
0000
0000
0000
0000
3003
0000
0010
0100
,
0001
0010
0100
1000
0010
0100
0001
0010
,
0001
1000
0100
0000
0010
1000
0000
0010
,
0001
0000
0000
0101
0000
0000
0010
0000
1000
0000
0000
1100
0000
0000
0010
0000
,
0001
0101
0000
0010
1010
0000
1000
2200
,
0000
0000
0000
0000
,
0000
0000
0000
3300
;

//---------------dance-single - ----------------
#NOTES:
     dance-single:
     :
     Medium:
     12:
     0.555774,0.627228,0.180530,0.279821,0.139911,431.000000,411.000000,20.000000,31.000000,0.000000,0.000000,0.555774,0.627228,0.180530,0.279821,0.139911,431.000000,411.000000,20.000000,31.000000,0.000000,0.000000:
0000
0000
0000
0000
,
0000
0000
0000
0000
,
0000
0000
0000
0000
,
0000
0000
0000
0000
0000
0000
0000
0010
,
0100
0000
0101
0000
0001
0010
0001
0011
,
0000
0100
1000
1100
0000
1000
0010
1020
,
0000
0130
0001
1000
,
0001
0000
1000
0000
0010
0000
0100
0010
,
1000
0000
0000
1000
0001
0000
0000
0001
0100
0000
0000
0100
0010
0000
0000
0010
,
0100
0000
0000
0100
0001
0000
0000
0001
1000
0000
1000
0000
0000
0000
0000
0000
,
1000
0100
0000
0100
0010
0000
0010
0001
,
0100
0010
1000
0001
1000
0010
0100
0000
,
0001
0010
0000
0010
0100
0000
0100
1000
,
0010
0100
0001
1000
0001
0100
0010
0000
,
0100
0001
0000
0001
1000
0000
1000
0010
,
0100
0001
0010
0001
0100
0010
1000
0000
,
0010
1000
0000
1000
0100
0000
0100
0010
,
0001
0100
0010
1000
0010
0100
0001
1000
,
0001
0010
0000
0001
0100
0000
0001
0010
,
0100
1000
0001
1000
0100
0010
0001
0000
,
1000
0010
0000
1000
0100
0000
1000
0010
,
0100
0001
1000
0001
0010
0100
1000
0000
,
0010
1000
0000
0010
0100
0000
0010
1000
,
0001
0100
0010
0100
0001
1000
0010
0000
,
0100
0100
0000
0001
1000
1000
0000
0010
,
0100
0001
1000
0000
0020
0000
0200
0330
,
0100
0001
0100
0010
0100
1000
0200
0000
,
0000
0000
0000
0000
0000
0000
0000
0301
,
0010
0100
0010
1000
0010
0100
0020
0000
,
0000
0000
0000
0000
0000
0000
0030
0001
,
1000
0100
1000
0010
1000
0001
2000
0000
,
0000
0000
0000
0000
0000
0000
0000
0000
0000
0000
0000
0000
3000
0000
0001
1000
,
0001
0000
0000
0100
0000
0000
0010
0000
0010
0000
0000
0000
2002
0000
0000
0000
,
3003
2002
0000
3003
2002
0000
0000
0000
,
0000
0000
0000
0000
0000
0000
3003
1000
,
0100
0000
0000
0010
0000
0000
0100
0000
1000
0000
0001
0000
0000
0000
0100
0000
,
0001
0000
0000
0001
0000
0000
0001
0000
0000
0000
0010
0000
0001
0000
1000
0000
,
0020
0000
0000
0000
0030
0000
0010
0100
0020
0000
0000
0000
1000
0000
0000
0000
,
0100
0001
0100
1030
,
0000
0001
0100
0000
0010
1000
0000
0100
,
0010
0000
0000
0001
0000
0000
0010
0000
0000
0000
0001
0000
1000
0000
0001
0000
,
1000
0101
0001
1100
,
0010
0010
0000
1001
0000
0010
0010
0100
,
0001
0000
0000
0010
0000
0000
0100
0000
0010
0000
0001
0000
0000
0000
1000
0000
,
0010
0000
0000
0010
0000
0000
0010
0000
1000
0000
0001
0000
0010
0000
0001
0000
,
0200
0000
0000
0000
0300
0000
0100
0010
0200
0000
0000
0000
0001
0000
0000
0000
,
0010
1000
0010
0301
,
0000
1000
0010
0000
0100
0001
0000
1000
,
0001
0000
0000
0010
0000
0000
0100
0000
1000
0000
0000
0010
0000
0000
0100
0000
,
0002
0000
0000
2000
0000
0000
0000
0000
,
0000
0000
0000
0000
0000
0000
0000
0000
0000
0000
0000
0000
3003
0000
0001
0100
,
0001
0010
0001
0100
0010
0010
0000
1000
,
0000
0100
0010
0001
0000
0100
0010
1000
,
0000
0001
1000
0010
0200
0000
0300
0110
,
0000
0000
0010
0000
1000
0000
0002
0000
0000
0000
0100
0000
0000
0000
1003
0001
,
1000
0010
0100
0001
0100
0010
1000
0001
,
0000
0001
0100
0001
0000
1000
0100
1000
,
0100
0010
0001
0001
,
0010
0000
0100
0000
1000
0001
0010
0100
,
1000
0001
0100
0010
1000
0001
0100
0010
,
2000
0000
0000
0000
0000
0000
0000
0000
0000
0000
0000
0000
3000
0000
0001
1000
,
0001
0000
0000
0100
0000
0000
0010
0000
1000
0000
0010
0000
0000
0000
0100
0000
,
0001
0000
0000
0010
0000
0000
0100
0000
0000
0000
1000
0000
0001
0000
1000
0000
,
0002
0000
0000
0000
0003
0000
0001
0100
0020
0000
0000
0000
1000
0000
0000
0000
,
0100
0001
0100
1030
,
0000
1000
0001
0000
0100
0010
0000
1000
,
0001
0000
0000
0001
0000
0000
0100
0000
0000
0000
0010
0000
1000
0000
0010
0000
,
0100
0101
0001
0011
,
0100
1100
0000
1000
0000
0010
0110
0000
,
1000
0000
0000
0010
0000
0000
0100
0000
0001
0000
0100
0000
0000
0000
0010
0000
,
1000
0000
0000
0100
0000
0000
0010
0000
0001
0000
0010
0000
0100
0000
1000
0000
,
0020
0000
0000
0000
0030
0000
0010
1000
0200
0000
0000
0000
1000
0000
0000
0000
,
0010
0001
0010
1300
,
0000
0001
1000
0000
0010
0100
0000
0001
,
1000
0000
0000
1000
0000
0000
0010
0000
0100
0000
0000
0100
0000
0000
0001
0000
,
0022
0000
0033
2200
0000
0000
3300
1000
,
0001
0100
0010
1000
0001
0100
0010
1000
,
0000
1000
0100
0000
0010
0001
0000
0100
,
0001
0000
0000
0001
0000
0000
1000
0000
0010
0000
0000
0010
0000
0000
0100
0000
,
0001
0101
0000
1000
1100
0000
0001
0202
,
0000
0000
0000
0000
,
0000
0000
0000
0303
;

//---------------dance-single - ----------------
#NOTES:
     dance-single:
     :
     Easy:
     9:
     0.437140,0.479645,0.036106,0.361060,0.067699,339.000000,335.000000,4.000000,40.000000,0.000000,0.000000,0.437140,0.479645,0.036106,0.361060,0.067699,339.000000,335.000000,4.000000,40.000000,0.000000,0.000000:
0000
0000
0000
0000
,
0000
0000
0000
0000
,
0000
0000
0000
0000
,
0000
0000
0000
0000
,
1010
0000
0010
0000
1000
0100
1000
0200
,
0000
0310
0001
0020
0000
0031
1000
0002
,
0000
0103
0100
0010
,
0010
1000
1000
0001
,
0002
0203
0320
2030
,
3002
0000
2003
0000
3010
0020
0000
0000
,
0130
0001
0000
0100
0001
0000
0100
0001
,
0010
0010
0100
0100
,
1000
0010
0000
1000
0010
0000
1000
0010
,
0100
0100
0001
0001
,
1000
0001
0000
1000
0001
0000
1000
0001
,
0100
0100
0001
0001
,
0010
0100
0000
0010
0100
0000
0010
0100
,
1000
0000
0001
0000
0100
0000
0010
1000
,
0001
0100
0000
0001
0010
0000
0001
0100
,
0010
0010
1000
1000
,
0100
0010
0000
0100
1000
0000
0100
0010
,
0001
0001
1000
1000
,
0010
0100
0000
0010
1000
0000
0010
0100
,
0001
0001
0010
0010
,
0001
0100
0000
0001
1000
0001
0000
0100
,
0020
2030
3200
0010
,
1300
0010
0100
0001
1000
0010
0200
0000
,
0000
0000
0000
0000
0000
0000
0300
0001
,
0010
0100
1000
0001
0010
0100
2000
0000
,
0000
0000
0000
0000
0000
0000
3000
0010
,
0100
0001
1000
0010
0100
0001
2000
0000
,
0000
0000
0000
0000
0000
0000
3000
0100
,
0010
0001
0000
0100
0100
0000
0020
0000
,
0030
2002
0000
3003
0020
0000
0000
0000
,
0000
0000
0000
0000
0000
0000
0030
0100
,
0001
0000
0000
1000
0000
0000
0001
0000
1000
0000
0001
0000
0000
0000
1000
0000
,
0001
0000
0000
0010
0000
0000
0010
0000
0000
0000
0100
0000
1000
0000
0000
0000
,
0002
0003
2000
3010
,
0100
0100
0001
1000
,
0000
0001
0010
0000
0001
0010
0000
0001
,
0010
0000
0000
0100
0000
0000
0010
0000
0000
0000
0100
0000
1000
0000
0000
0000
,
0001
1001
1000
1001
,
0001
0010
0000
0100
0000
0010
0001
0000
,
1000
0000
0000
0001
0000
0000
1000
0000
0001
0000
1000
0000
0000
0000
0001
0000
,
1000
0000
0000
0010
0000
0000
0010
0000
0100
0000
0000
0000
0001
0000
0000
0000
,
2000
3000
0002
0103
,
0010
0010
1000
0001
,
0000
1000
0010
0000
1000
0010
0000
1000
,
0010
0000
0000
0100
0000
0000
0010
0000
0100
0000
0000
0001
0000
0000
0100
0000
,
0002
0000
0000
2000
0000
0000
0000
0000
,
0000
0000
0000
0000
0000
0000
3003
1000
,
0001
0100
0000
0000
0010
0010
0000
1000
,
0000
0000
0000
0100
0000
0000
0000
0010
,
0000
0000
0000
0000
0001
0000
0000
1000
,
0000
0000
0000
0010
0000
0010
0000
0000
,
0100
0000
0001
0000
1000
0000
0010
0100
,
0000
0100
0010
0100
0000
0001
0010
0001
,
1000
0001
1000
0001
,
0100
0010
0100
0010
,
2000
3020
0230
0302
,
2000
0000
0000
0000
0000
0000
3003
1000
,
0010
0000
0000
1000
0000
0000
0010
0000
1000
0000
0010
0000
0000
0000
0100
0000
,
0010
0000
0000
0010
0000
0000
0010
0000
0000
0000
1000
0000
0001
0000
1000
0000
,
0002
0000
0000
0203
0000
0000
0310
0000
,
0010
1000
0001
1000
,
0000
0010
0100
0000
0010
0100
0000
0010
,
0100
0000
0000
0100
0000
0000
0100
0000
0001
0000
0000
0000
1000
0000
0000
0000
,
0002
0013
2000
3010
,
0001
1000
0000
0010
0000
1000
0001
0000
,
0010
0001
0010
0000
0001
0010
0000
0001
,
1000
0000
0000
0010
0000
0000
0010
0000
0100
0000
0000
0000
0100
0000
0000
0000
,
0002
0000
0000
2003
0000
0000
3010
0000
,
0010
0100
0001
1000
,
0000
0001
0010
0000
0001
0010
0000
0001
,
0010
0000
0000
0100
0000
0000
0010
0000
0100
0000
0000
1000
0000
0000
0100
0000
,
2000
0000
0000
3002
0000
0000
0000
0000
,
1003
0100
0010
0001
,
0000
1000
0010
0000
1000
0010
0000
1000
,
0100
0000
0000
0010
0000
0000
0100
0000
0010
0000
0000
0001
0000
0000
0010
0000
,
0001
1000
0000
0010
0100
0000
0001
2000
,
0000
0000
0000
0000
,
0000
0000
0000
3000
;

//---------------dance-single - ----------------
#NOTES:
     dance-single:
     :
     Beginner:
     4:
     0.159898,0.258271,0.027079,0.090265,0.000000,124.000000,121.000000,3.000000,10.000000,0.000000,0.000000,0.159898,0.258271,0.027079,0.090265,0.000000,124.000000,121.000000,3.000000,10.000000,0.000000,0.000000:
0000
0000
0000
0000
,
0000
0000
0000
0000
,
0000
0000
0000
0000
,
0000
0000
0000
0000
,
1000
0000
1000
0000
,
0000
0000
0000
0000
,
0000
0010
0000
0000
,
0000
0000
0000
0000
,
0100
0000
0000
0000
,
0000
0000
0010
0000
,
1000
0000
0000
0000
,
1000
0000
1000
0000
,
0100
0000
0000
0000
,
0100
0000
0100
0000
,
0010
0000
0000
0000
,
0010
0000
0010
0000
,
0001
0000
0000
0000
,
0001
0000
0001
0001
,
0001
0000
0000
0000
,
0100
0000
0010
0000
,
1000
0000
0000
0000
,
0010
0000
0100
0000
,
0001
0000
0000
0000
,
1000
0000
0001
0000
,
0100
0000
0100
0000
,
0010
0010
0010
0000
,
1000
1000
1000
2000
,
0000
0000
3000
0000
,
0001
0001
0001
0002
,
0000
0000
0003
0000
,
0100
0100
0100
0200
,
0000
0000
0300
0000
,
0010
0000
0000
0100
,
0000
0000
0020
0000
,
0000
0000
0030
0000
,
1000
0000
0000
0000
,
0001
0000
0001
0000
,
0100
0000
0010
0000
,
0000
0000
1000
1000
,
0000
1000
0000
0000
,
0100
0000
0000
0000
,
0010
0010
0010
0010
,
0010
0000
0000
0000
,
0001
0000
0000
0000
,
1000
0000
1000
0000
,
0010
0000
0100
0000
,
0000
0000
0001
0001
,
0000
0001
0000
0000
,
0010
0000
0100
0000
,
1000
0000
0000
0000
,
1000
0000
0001
0000
,
1000
0000
0010
0000
,
0000
0000
0000
0001
,
0000
0000
1000
0000
,
0000
0000
0000
0000
,
0001
0000
0100
0000
,
0000
0010
0000
1000
,
1000
0000
0000
0000
,
0000
0000
0000
0100
,
0100
0000
0000
0000
,
0220
0000
0330
0000
,
0010
0000
0001
0000
,
1000
0000
0000
0010
,
0010
0000
0010
0000
,
0000
0000
0100
0100
,
0000
0100
0000
0000
,
0001
0000
0000
1000
,
1000
0000
0010
0000
,
0200
0000
0300
0000
,
0001
0000
0010
0000
,
0001
0000
1000
1000
,
1000
0000
0010
0000
,
0100
0000
0100
0100
,
0000
0001
0000
0000
,
0010
0000
0100
0000
,
1000
0000
0000
0000
,
0002
0000
0003
0000
,
1000
1000
0000
0000
,
0010
0000
0100
0000
,
0110
0000
0000
2002
,
0000
0000
0000
0000
,
0000
0000
0000
3003
;

//---------------dance-double - ----------------
#NOTES:
     dance-double:
     :
     Easy:
     9:
     0.431982,0.479645,0.027079,0.324954,0.063185,335.000000,332.000000,3.000000,36.000000,0.000000,0.000000,0.431982,0.479645,0.027079,0.324954,0.063185,335.000000,332.000000,3.000000,36.000000,0.000000,0.000000:
00000000
00000000
00000000
00000000
,
00000000
00000000
00000000
00000000
,
00000000
00000000
00000000
00000000
,
00000000
00000000
00000000
00000000
,
11000000
00000000
10000000
00000000
01000000
00100000
01000000
00200000
,
00000000
00310000
00100000
00020000
00000000
00130000
00001000
00200000
,
00000000
00300000
00001000
00000000
00010000
00000000
00001000
00000000
,
00010000
00000100
00010000
00000100
,
00000010
00000010
00000001
00000001
,
00001000
00000000
00001000
00000000
00000001
00002000
00000000
00000000
,
00003010
00000100
00000000
00000010
00000100
00000000
00000010
00000100
,
00000001
00000100
00001000
00010000
,
01000000
10000000
00000000
01000000
10000000
00000000
01000000
10000000
,
00100000
00100000
01000000
01000000
,
00010000
10000000
00000000
00010000
10000000
00000000
00010000
10000000
,
01000000
00010000
00001000
00000100
,
00000001
00000010
00000000
00000001
00000010
00000000
00000001
00000010
,
00000100
00000100
00001000
00001000
,
00000010
00000100
00000000
00000010
00000100
00000000
00000010
00000100
,
00000001
00000010
00001000
00010000
,
00001000
00010000
00000000
00001000
00010000
00000000
00001000
00010000
,
00100000
00100000
10000000
10000000
,
01000000
00100000
00000000
01000000
00100000
00000000
01000000
00100000
,
01000000
00010000
00001000
00000100
,
00000001
00001000
00000000
00000010
00000100
00000010
00000000
00001000
,
00000001
00000100
00000020
00000000
,
00001030
00000100
00000010
00000000
00000001
00000100
00000020
00000000
,
00000000
00000000
00000000
00000000
00000000
00000000
00000030
00000010
,
00000001
00001000
00000010
00000000
00010000
00001000
00020000
00000000
,
00000000
00000000
00000000
00000000
00030000
00000000
00000000
00001000
,
01000000
00100000
10000000
00000000
01000000
00100000
00020000
00000000
,
00000000
00000000
00000000
00000000
00000000
00000000
00030000
10000000
,
00100000
01000000
00000000
00010000
00010000
00000000
20000000
00000000
,
30000000
02000000
00000000
03000000
00220000
00000000
00000000
00000000
,
00000000
00000000
00000000
00000000
00000000
00000000
00330000
00010000
,
10000000
00000000
00000000
00010000
00000000
00000000
10000000
00000000
00010000
00000000
10000000
00000000
00000000
00000000
01000000
00000000
,
00020000
00000000
00031000
00000100
,
00000002
00000000
00000003
00000001
00000100
00000010
00001000
00000010
,
00000100
00000100
00000001
00000001
,
00000000
00001000
00000010
00000000
00001000
00000010
00000000
00001000
,
00000010
00000000
00000000
00001000
00000000
00000000
00000010
00000000
00000000
00000100
00000000
00000000
00000010
00000000
00000100
00000000
,
00000002
00000013
00002000
00013000
,
00100000
10000000
00000000
00010000
00000000
10000000
00100000
00000000
,
10000000
00000000
00000000
00010000
00000000
00000000
10000000
00000000
00010000
00000000
10000000
00000000
00000000
00000000
00010000
00000000
,
02000000
00000000
03100000
10000000
,
00020000
00000000
00000000
00000000
10030000
00000000
01000000
00010000
,
01000000
00010000
00001000
00000010
,
00000000
00000001
00001000
00000000
00000001
00001000
00000000
00000001
,
00001000
00000000
00000000
00001000
00000000
00000000
00000010
00000000
00000100
00000000
00000000
00000100
00000000
00000000
00000001
00000000
,
00002000
00000000
00000000
00000002
00000000
00000000
00000000
00000000
,
00003003
00000000
00000000
00000000
,
00000010
00010000
00000000
00000000
00001000
00001000
00000000
01000000
,
00000000
00000000
00000000
00100000
00000000
00000000
00000000
10000000
,
00000000
00000000
00000000
00000000
01000000
00000000
00000000
00010000
,
00000000
00000000
00000000
00001000
00000000
00000100
00000000
00000001
,
00000010
00000100
00001000
00000000
00000010
00000000
00000000
00000100
,
00000000
00000100
00000001
00000100
00000000
00000001
00000010
00000001
,
00000010
00001000
00010000
00100000
,
10000000
01000000
10000000
01000000
,
00020000
00032000
00003200
00000302
,
00002000
00000000
00000000
00000000
00000000
00000000
00003003
00000001
,
00000100
00000000
00000000
00000001
00000000
00000000
00000100
00000000
00000001
00000000
00000100
00000000
00000000
00000000
00000010
00000000
,
00002000
00000000
00000000
00000000
00003000
00000010
00010000
00001000
,
02000000
00000000
03000000
00200000
00000000
10300000
00010000
00000000
,
00010000
01000000
00100000
10000000
,
00000000
00010000
10000000
00000000
00100000
01000000
00000000
00010000
,
10000000
00000000
00000000
10000000
00000000
00000000
01000000
00000000
00000000
00100000
00000000
00000000
00100000
00000000
00000000
00000000
,
00010000
02000000
03001000
00020000
,
00030100
00000100
00000000
00000010
00000000
00000100
00000100
00000000
,
00000010
00000000
00000000
00000001
00000000
00000000
00000010
00000000
00000001
00000000
00000010
00000000
00000000
00000000
00000001
00000000
,
00002000
00000000
00003100
00000010
,
00000022
00000000
00000033
00000001
00000100
00000000
00000010
00000000
,
00010000
00000000
00001000
00000000
01000000
00100000
10000000
00010000
,
00000000
10000000
01000000
00000000
00100000
00010000
00000000
10000000
,
01000000
00000000
00000000
01000000
00000000
00000000
00100000
00000000
00010000
00000000
00000000
00010000
00000000
00000000
10000000
00000000
,
00200000
00000000
00300000
02000000
00000000
03000000
00000000
00010000
,
01000000
00100000
00010000
00001000
,
00000000
00000010
00000001
00000000
00000010
00000001
00000000
00000010
,
00000001
00000000
00000000
00000001
00000000
00000000
00001000
00000000
00000010
00000000
00000000
00000010
00000000
00000000
00000100
00000000
,
00000001
00000010
00000000
00001000
00010000
00000000
00100000
20000000
,
00000000
00000000
00000000
00000000
,
00000000
00000000
00000000
30000000
;

//---------------dance-double - ----------------
#NOTES:
     dance-double:
     :
     Medium:
     12:
     0.495168,0.516541,0.054159,0.324954,0.085752,384.000000,378.000000,6.000000,36.000000,0.000000,0.000000,0.495168,0.516541,0.054159,0.324954,0.085752,384.000000,378.000000,6.000000,36.000000,0.000000,0.000000:
00000000
00000000
00000000
00000000
,
00000000
00000000
00000000
00000000
,
00000000
00000000
00000000
00000000
,
00000000
00000000
00000000
00000000
00000000
00000000
00000000
01000000
,
10000000
00000000
10100000
00000000
00100000
01000000
00010000
02000000
,
00000000
03100000
00010000
00002000
00000000
00003010
00000001
00002000
,
00000000
00003000
00000010
00000000
00000100
00000000
00000010
00000000
,
00000100
00000001
00000100
00000001
,
00000010
00001000
00010000
00100000
,
10000000
00010000
01000000
00000000
00020000
20000000
00000000
30030000
,
10000000
01000000
00000000
10000000
01000000
00000000
10000000
01000000
,
00100000
00000000
00010000
00000000
01000000
00100000
10000000
00010000
,
01000000
00001000
00000000
01000000
00001000
00000000
01000000
00001000
,
00010000
00000000
00000010
00000000
00000100
00000001
00001000
00000010
,
00000100
00000001
00000000
00000100
00000001
00000000
00000100
00000001
,
00000010
00000000
00000100
00000000
00001000
00000010
00000100
00000001
,
00000010
00000100
00000000
00000010
00000100
00000000
00000010
00000100
,
00010000
00001000
02000000
03200000
,
10300000
01000000
00000000
00100000
00010000
00000000
10000000
01000000
,
00100000
00001000
00010000
00000000
00000100
00000000
00001000
00000000
,
00000010
00000100
00000000
00000001
00001000
00000000
00000010
00000100
,
00000001
00001000
00000010
00000000
00000100
00000000
00000001
00000000
,
00001000
00000010
00000000
00000100
00000001
00000000
00001000
00000010
,
00000100
00000001
00000010
00000000
00001000
00000000
00010000
00000000
,
00100000
00100000
00000000
10000000
00010000
10000000
00000000
01000000
,
01000000
00100000
00020000
00000000
,
10030000
01000000
00100000
00010000
10000000
01000000
00200000
00000000
,
00010000
00010000
00001000
00301000
,
00001000
00010000
00000010
00000100
00000001
00001000
00000020
00000000
,
00000100
00000100
00001000
00001030
,
00000001
00000100
00000010
00001000
00000001
00000100
00000020
00000000
,
00001000
00001000
00010000
00010030
,
00001000
00000000
00000000
01000000
00000000
00000000
00100000
00000000
10000000
00000000
00000000
00000000
00020000
00000000
00000000
00000000
,
00030000
20000000
00000000
30000000
02200000
00000000
00000000
00000000
,
00000000
00000000
00000000
00000000
00000000
00000000
03300000
00100000
,
10000000
00000000
00000000
01000000
00000000
00000000
10000000
00000000
00100000
00000000
01000000
00000000
00000000
00000000
00100000
00000000
,
10000000
00000000
00000000
00010000
00000000
00000000
20000000
00000000
00000000
00000000
31000000
00000000
00010000
00000000
00001000
00000000
,
00000020
00000030
00000002
00001000
,
00001000
00000100
00000100
00000010
,
00000013
00000001
00000100
00000000
00000010
00001000
00000000
00000001
,
00000100
00000000
00000000
00000100
00000000
00000000
00000010
00000000
00000000
00001000
00000000
00000000
00001000
00000000
00000001
00000000
,
00001000
00000001
00000001
00001000
,
00000001
00000100
00000000
00000010
00000000
00001000
00000100
00000010
,
00000001
00000000
00000000
00000010
00000000
00000000
00000001
00000000
00000100
00000000
00000010
00000000
00000000
00000000
00000100
00000000
,
00000001
00000000
00000000
00001000
00000000
00000000
00000001
00000000
00000010
00000000
00001000
00000000
00010000
00000000
00100000
00000000
,
20000000
00000000
30000000
00100000
20000000
00000000
00010000
00000000
,
00010000
00100000
00100000
01000000
,
31000000
10000000
00100000
00000000
01000000
00010000
00000000
10000000
,
00100000
00000000
00000000
00100000
00000000
00000000
01000000
00000000
00010000
00000000
00000000
00010000
00000000
00000000
10000000
00000000
,
00020000
00000000
00030000
20000000
00000000
30000000
00000000
00000000
,
00000000
00000000
00000000
00000000
00000000
00000000
00000000
00000000
00000000
00000000
00000000
00000000
00000000
00000000
01000000
00100000
,
01000000
01000000
00000000
00000000
00100000
00100000
00000000
00011000
,
00000000
00000000
00000000
00000100
00000000
00000000
00000000
00000010
,
00000000
00000000
00000000
00000000
00000001
00001000
00000001
00000100
,
00000000
00000000
00000000
00001010
00000000
00000101
00000000
00000001
,
00001000
00000001
00000000
00000000
00000100
00000010
00000000
00001000
,
00000000
00000100
00010000
00000100
00000000
00010000
00001000
00010000
,
00000000
00001000
00100000
00001000
,
00100000
01000000
00100000
01000000
,
10000000
00000000
01000000
00000000
10000000
00010000
00100000
00000000
,
00220000
00000000
00000000
00000000
00000000
00000000
00330000
00010000
,
10000000
00000000
00000000
00100000
00000000
00000000
10000000
00000000
01000000
00000000
10000000
00000000
00000000
00000000
01000000
00000000
,
00100000
00000000
00000000
00100000
00000000
00000000
00100000
00000000
00000000
00000000
00010000
00000000
10000000
00000000
00010000
00000000
,
02000000
00000000
03000000
00000000
02000000
00000000
03100000
00010000
,
00001000
00000010
00000001
00000000
00001000
00000000
00000001
00000000
,
00001000
00000100
00000010
00000000
00000001
00001000
00000000
00000010
,
00000100
00000000
00000000
00000100
00000000
00000000
00000001
00000000
00000000
00000000
00001000
00000000
00000010
00000000
00001000
00000000
,
00000002
00000203
00002300
00023000
,
01030000
10000000
00000000
00010000
00000000
10000000
01000000
00000000
,
00100000
00000000
00000000
00010000
00000000
00000000
00100000
00000000
00010000
00000000
00100000
00000000
00000000
00000000
01000000
00000000
,
00100000
00000000
00000000
00100000
00000000
00000000
00100000
00000000
00001000
00000000
00010000
00000000
00000100
00000000
00000010
00000000
,
00000002
00000000
00000003
00000000
00002000
00000000
00003001
00000100
,
00001000
00010000
01000000
10000000
,
00100000
01000000
00010000
00000000
10000000
01000000
00000000
00100000
,
00010000
00000000
00000000
00010000
00000000
00000000
10000000
00000000
00100000
00000000
00000000
00100000
00000000
00000000
01000000
00000000
,
00020000
00000000
00030000
20000000
00000000
30000000
00000000
00010000
,
10000000
01000000
00100000
00010000
01000000
00100000
10000000
00000000
,
00010000
01000000
00100000
00000000
10000000
01000000
00000000
00100000
,
00001000
00000000
00000000
00001000
00000000
00000000
00010000
00000000
00000100
00000000
00000000
00000100
00000000
00000000
00000010
00000000
,
00000001
00001000
00000000
00000010
00000100
00000000
00000002
00002000
,
00000000
00000000
00000000
00000000
,
00000000
00000000
00000000
00003003
;

//---------------dance-double - ----------------
#NOTES:
     dance-double:
     :
     Hard:
     14:
     0.709224,0.811707,0.117344,0.180530,0.284335,550.000000,537.000000,13.000000,20.000000,0.000000,0.000000,0.709224,0.811707,0.117344,0.180530,0.284335,550.000000,537.000000,13.000000,20.000000,0.000000,0.000000:
00000000
00000000
00000000
00000000
,
00000000
00000000
00000000
00000000
,
00000000
00000000
00000000
00000000
,
00000000
00000000
00000000
00000000
00000000
00000000
00000000
00000000
00000000
00000000
00000000
00000000
00000000
00000000
01000000
10000000
,
01000000
00000000
11000000
00000000
00100000
00010000
00100000
00110000
,
00000000
00010000
01000000
01100000
00000000
10000000
01000000
01100000
,
00000000
00100000
00010000
10000000
00010000
00100000
00010000
10000000
,
01000000
00010000
01000000
10000000
01000000
00010000
01000000
10000000
,
00100000
00010000
00001000
00000010
,
00000001
00000000
00001000
00000100
00001000
00000000
00000001
00000100
00000002
00000000
00002000
00000000
00000000
00000000
00003003
00000000
,
00000001
00000100
00000010
00001000
00000100
00000010
00000001
00000100
,
00000010
00001000
00000010
00001000
00000100
00000010
00000100
00000010
,
00000001
00000100
00001000
00000100
00001000
00010000
00001000
00010000
,
01000000
10000000
00100000
01000000
00010000
10000000
00100000
01000000
,
00010000
00100000
01000000
10000000
00100000
01000000
00010000
00100000
,
01000000
10000000
01000000
10000000
00100000
01000000
00100000
01000000
,
10000000
00100000
00010000
00100000
00010000
00001000
00010000
00001000
,
00000010
00000001
00001000
00000010
00000100
00000001
00001000
00000001
,
00001000
00000000
00000100
00000010
00000001
00000000
00000100
00000000
00000010
00001000
00000100
00000000
00000010
00000000
00000001
00000100
,
00000010
00001000
00000001
00000100
00001000
00010000
01000000
10000000
,
00100000
00000000
01000000
00010000
10000000
00000000
00100000
00000000
10000000
00010000
01000000
00000000
00100000
00000000
01000000
00010000
,
10000000
01000000
00010000
00001000
00000100
00000001
00000010
00000100
,
00001000
00000000
00000010
00000100
00000001
00000000
00000010
00000000
00000100
00001000
00000010
00000000
00000100
00000000
00000001
00001000
,
00000010
00000100
00001000
00010000
00100000
10000000
00010000
01000000
,
00100000
00100000
00000000
10000000
00010000
10000000
00000000
00100000
,
00100000
00000000
01000000
00000000
00010000
10000000
00010000
10000000
,
00010000
01000000
00100000
10000000
00010000
01000000
00100000
10000000
,
01000000
00010000
00001000
00000100
00000001
00001000
00000001
00001000
,
00000100
00000010
00000001
00001000
00000100
00000010
00000001
00000010
,
00001000
00010000
00100000
10000000
00010000
10000000
00010000
01000000
,
00100000
10000000
00010000
01000000
00100000
10000000
01000000
00010000
,
00001000
00000000
00000100
00000000
00000001
00000000
00000010
00000000
00000100
00000000
00001000
00000000
00000010
00000000
00000100
00000001
,
00000100
00000000
00000000
00000010
00000000
00000000
00001000
00000000
00000001
00000000
00000000
00000000
00000202
00000000
00000000
00000000
,
00000303
00002020
00000000
00003030
00000202
00000000
00000000
00000000
,
00000000
00000000
00000000
00000000
00000000
00000000
00000000
00000000
00000000
00000000
00000000
00000000
00000303
00000000
00000001
00001000
,
00000001
00000000
00000000
00000100
00000000
00000000
00000010
00000000
00001000
00000000
00000010
00000000
00000000
00000000
00000100
00000000
,
00001000
00000000
00000000
00010000
00000000
00000000
01000000
00000000
00000000
00000000
10000000
00000000
00100000
00000000
10000000
00000000
,
00020000
00000000
00000000
00000000
00030000
00000000
00010000
01000000
00010000
00000000
10000000
00000000
01000000
00000000
00100000
00000000
,
00010000
10000000
01000000
00100000
00010000
01000000
00100000
10000000
,
00000000
00000000
00010000
01000000
00010000
01000000
00010000
00000000
10000000
01000000
10000000
01000000
10000000
00000000
00100000
00000000
,
01000000
00000000
00000000
01000000
00000000
00000000
00010000
00000000
00000000
00010000
00000000
00000000
10000000
00000000
00010000
00000000
,
10000000
01010000
00010000
11000000
,
10000000
00000000
00100000
00000000
00000000
00000000
00010000
00000000
00000000
00000000
00001000
00000000
00000010
00000000
00000001
00001000
,
00000001
00000000
00000000
00000100
00000000
00000000
00000010
00000000
00001000
00000000
00000010
00000000
00000000
00000000
00000100
00000001
,
00000100
00000000
00000000
00000100
00000000
00000000
00000001
00000000
00000010
00000000
00001000
00000000
00000010
00000000
00000001
00000000
,
00002000
00000000
00000000
00000000
00003000
00000000
00001000
00000010
00001000
00000000
00000001
00000000
00000100
00000000
00001000
00000000
,
00010000
01000000
10000000
00100000
01000000
00010000
00100000
01000000
,
00000000
00000000
10000000
00100000
10000000
00100000
10000000
00000000
00010000
00100000
00010000
00100000
00010000
00000000
10000000
00000000
,
01000000
00000000
00000000
00010000
00000000
00000000
00001000
00000000
00000100
00000000
00000000
00000001
00000000
00000000
00000010
00000000
,
00000200
00000000
00000000
00002000
00000000
00000000
00000000
00000000
,
00000000
00000000
00000000
00000000
00000000
00000000
00000000
00000000
00000000
00000000
00000000
00000000
00003300
00000000
00001000
00000001
,
00001000
00000010
00000100
00000001
00000010
00000010
00000000
00001000
,
00000000
00010000
00100000
10000000
00000000
01000000
00100000
01000000
,
00000000
00000000
00010000
00000000
00001000
00000000
00000100
00000000
00000001
00001000
00000001
00001000
00000001
00000000
00000100
00000000
,
00000000
00000000
00001000
00000000
00010000
00000000
01000000
00000000
00000000
00000000
10000000
00000000
00000000
00000000
00100000
01000000
,
00010000
00100000
01000000
10000000
00100000
01000000
00010000
00100000
,
00000000
01000000
00010000
00001000
00000000
00000100
00000001
00000100
,
00000001
00000010
00001000
00000010
00000001
00000010
00001000
00000010
,
00000001
00000010
00001000
00000010
00000001
00000100
00001000
00010000
,
01000000
10000000
01000000
00010000
01000000
10000000
01000000
00100000
,
02000000
00000000
00000000
00000000
00000000
00000000
00000000
00000000
00000000
00000000
00000000
00000000
03000000
00000000
01000000
10000000
,
01000000
00000000
00000000
10000000
00000000
00000000
00100000
00000000
01000000
00000000
00010000
00000000
00000000
00000000
00100000
01000000
,
10000000
00000000
00000000
00010000
00000000
00000000
10000000
00000000
00000000
00000000
01000000
00000000
00010000
00000000
00001000
00000000
,
00000200
00000000
00000000
00000000
00000300
00000000
00000100
00000001
00000100
00000000
00000001
00000000
00000010
00000000
00000100
00000000
,
00001000
00000000
00000010
00000000
00000100
00000000
00000001
00000000
00000010
00000100
00000010
00000100
00000010
00000000
00000001
00000000
,
00000000
00000100
00001000
00000000
00010000
01000000
00000000
10000000
,
00100000
00000000
00000000
01000000
00000000
00000000
00010000
00000000
00000000
00100000
00000000
00000000
01000000
00000000
10000000
00000000
,
00100000
00110000
00010000
00011000
,
00001000
00000010
00000000
00000001
00000000
00000100
00001000
00000000
,
00000100
00000000
00000001
00000010
00000001
00000000
00001000
00000000
00000100
00000000
00000010
00000000
00000000
00000000
00000001
00001000
,
00000001
00000000
00000000
00000100
00000000
00000000
00001000
00000000
00010000
00000000
01000000
00000000
00010000
00000000
01000000
00000000
,
20000000
00000000
00000000
00000000
30000000
00000000
10000000
00100000
10000000
00000000
01000000
00000000
00100000
00000000
00010000
00000000
,
01000000
00000000
00100000
00000000
10000000
00000000
01000000
00000000
00100000
00010000
00100000
00010000
00100000
00000000
01000000
00000000
,
10000000
00100000
00000000
00010000
00001000
00000000
00000010
00000001
,
00001000
00000000
00000000
00001000
00000000
00000000
00000010
00000000
00000100
00000000
00000000
00000100
00000000
00000000
00000001
00000000
,
00000022
00000000
00000000
00000000
00000033
00000000
00002200
00000000
00000000
00000000
00003300
00000000
00000000
00000000
00000001
00001000
,
00000001
00000100
00001000
00000100
00000001
00000010
00001000
00000010
,
00000001
00000000
00000100
00000010
00000100
00000010
00000100
00000000
00000010
00010000
00000010
00010000
00000010
00000000
00010000
00000000
,
00001000
00000000
00000000
00001000
00000000
00000000
01000000
00000000
00100000
00000000
00000000
00100000
00000000
00000000
10000000
00000000
,
00010000
10000000
00000000
01000000
00010000
00000000
00001000
00000020
,
00000000
00000000
00000000
00000000
,
00000000
00000000
00000000
00000030
;

//---------------dance-double - ----------------
#NOTES:
     dance-double:
     :
     Challenge:
     16:
     0.848490,1.033082,0.144424,0.243715,0.631854,658.000000,642.000000,16.000000,27.000000,0.000000,0.000000,0.848490,1.033082,0.144424,0.243715,0.631854,658.000000,642.000000,16.000000,27.000000,0.000000,0.000000:
// measure 0
00000000
00000000
00000000
00000000
,  // measure 1
00000000
00000000
00000000
00000000
,  // measure 2
00000000
00000000
00000000
00000000
,  // measure 3
00000000
00000000
00000000
00000000
00000000
00000000
00000000
00000000
00000000
00000000
00000000
00000000
00000000
00000000
00100000
01000000
,  // measure 4
10000000
00000000
01010000
00000000
10000000
01000000
00010000
00002000
,  // measure 5
00000000
00003100
00000001
00000200
00000000
00000301
00000010
00000002
,  // measure 6
00000000
00000013
00001000
00010000
00001000
00000010
00001000
00010000
,  // measure 7
00100000
10000000
00100000
00010000
00100000
10000000
00100000
01000000
,  // measure 8
00010000
00000000
00100000
01000000
10000000
00000000
00100000
01000000
00010000
00000000
00100000
01000000
10000000
00000000
00100000
01000000
,  // measure 9
00010000
00000000
00100000
01000000
10000000
00100000
00010000
00100000
10000000
00000000
20000000
00000000
00000000
00000000
30000000
00000000
,  // measure 10
00010000
00000000
10000000
01000000
00100000
00000000
00010000
00000000
10000000
01000000
00100000
00000000
00010000
00000000
10000000
01000000
,  // measure 11
00010000
00000000
00001000
00000000
00000100
00000001
00000100
00000001
00000100
00000000
00000001
00000000
00000010
00000000
00000100
00000000
,  // measure 12
00001000
00000000
00000010
00000100
00000001
00000000
00001000
00000000
00000010
00000100
00000001
00000000
00000010
00000000
00000100
00001000
,  // measure 13
00000010
00000000
00000100
00000000
00001000
00010000
00001000
00010000
00001000
00000000
00010000
00000000
00100000
00000000
10000000
00000000
,  // measure 14
00010000
00000000
00100000
01000000
10000000
00000000
00010000
00000000
00100000
01000000
10000000
00000000
00010000
00000000
10000000
01000000
,  // measure 15
00010000
00000000
00001000
00000000
00000100
00000000
00000001
00001000
00000001
00000000
00000100
00000000
00000010
00001000
00000010
00000100
,  // measure 16
00000001
00000000
00000010
00000100
00001000
00000000
00000001
00000000
00000010
00000100
00001000
00000000
00000001
00000000
00000100
00001000
,  // measure 17
00010000
00000000
01000000
00000000
10000000
00000000
00100000
01000000
00100000
00000000
01000000
00000000
00010000
00100000
00010000
10000000
,  // measure 18
01000000
00000000
00100000
00010000
00100000
00000000
01000000
00000000
00100000
00010000
00100000
00000000
01000000
00000000
10000000
00100000
,  // measure 19
00010000
00000000
00001000
00000000
00000010
00000001
00000010
00000001
00000010
00000000
00000001
00000000
00001000
00000000
00000001
00000000
,  // measure 20
00000100
00000000
00000001
00001000
00000001
00000000
00000100
00000000
00000001
00001000
00000001
00000000
00000100
00000000
00001000
00010000
,  // measure 21
01000000
00000000
10000000
00000000
00100000
10000000
00100000
10000000
00100000
00000000
01000000
00000000
00010000
00000000
10000000
00000000
,  // measure 22
00010000
00000000
00100000
01000000
00100000
00000000
00010000
00000000
00100000
01000000
00100000
00000000
00010000
00000000
01000000
00100000
,  // measure 23
00010000
00000000
00001000
00000000
00000010
00000000
00000001
00001000
00000001
00000000
00000100
00000000
00000010
00001000
00000010
00000100
,  // measure 24
00000001
00000000
00000001
00000000
00000000
00000000
00000100
00000000
00001000
00000000
00000100
00000000
00000000
00000000
00000001
00000010
,  // measure 25
00000100
00000000
00010000
00000000
00001000
00000000
00100000
00000000
01000000
10000000
01000000
10000000
01000000
00100000
01000000
00000000
,  // measure 26
10000000
00000000
00100000
00000000
01000000
00000000
00010000
00000000
10000000
00000000
00100000
00000000
01000000
00000000
00010000
10000000
,  // measure 27
00010000
00000000
01000000
00000000
00100000
00000000
00010000
00000000
00001000
00000000
00000010
00000000
00000001
00000000
00001000
00000001
,  // measure 28
00001000
00000000
00000100
00000000
00000010
00000000
00000001
00000000
00001000
00000000
00000100
00000000
00000010
00000000
00000001
00001000
,  // measure 29
00000001
00000000
00000100
00000000
00000010
00000000
00000100
00000000
00001000
00000000
00010000
00000000
01000000
00000000
10000000
00010000
,  // measure 30
10000000
00000000
00010000
00000000
01000000
00000000
00100000
00000000
10000000
00000000
00010000
00000000
01000000
00000000
00100000
10000000
,  // measure 31
00100000
00000000
00010000
00000000
00001000
00000000
00000010
00000000
00000001
00000000
00001000
00000000
00000010
00000000
00000100
00000001
,  // measure 32
00000100
00000000
00000000
00000010
00000000
00000000
00001000
00000000
00000001
00000000
00000000
00000000
00000202
00000000
00000000
00000000
,  // measure 33
00000303
00002002
00000000
00003003
00020200
00000000
00000000
00000000
,  // measure 34
00000000
00000000
00000000
00000000
00000000
00000000
00000000
00000000
00000000
00000000
00000000
00000000
00030300
00000000
00010000
00001000
,  // measure 35
00010000
00000000
00001000
01000000
00000000
00000000
00100000
00000000
10000000
00000000
00100000
00000000
00000000
00000000
01000000
00010000
,  // measure 36
10000000
00000000
00000000
10000000
00000000
00000000
10000000
00000000
00000000
00000000
01000000
00000000
00010000
00000000
00001000
00000000
,  // measure 37
00000020
00000000
00000000
00000000
00000030
00000000
00000010
00000001
00000010
00000000
00000001
00000000
00001000
00000000
00000001
00000000
,  // measure 38
00000100
00001000
00010000
01000000
10000000
01000000
00100000
00010000
,  // measure 39
00000000
00000000
01000000
00010000
01000000
00010000
01000000
00000000
00100000
10000000
00100000
10000000
00100000
00000000
01000000
00000000
,  // measure 40
00010000
00000000
00000000
10000000
00000000
00000000
00100000
00000000
00000000
00010000
00000000
00000000
00001000
00000000
00000010
00000000
,  // measure 41
00000001
00000000
00001000
00000100
00001000
00000000
00000001
00000000
00001000
00000000
00000001
00000100
00000001
00000000
00001000
00000000
,  // measure 42
00000010
00000000
00000010
00000000
00000000
00000000
00000101
00000000
00000000
00000000
00000010
00000000
00000010
00000000
00001000
00000001
,  // measure 43
00001000
00000000
00000001
00000100
00000000
00000000
00000010
00000000
00001000
00000000
00000010
00000000
00000000
00000000
00000100
00001000
,  // measure 44
00010000
00000000
00000000
01000000
00000000
00000000
10000000
00000000
00100000
00000000
01000000
00000000
00010000
00000000
10000000
00000000
,  // measure 45
00020000
00000000
00000000
00000000
00030000
00000000
00010000
00100000
00010000
00000000
00100000
00000000
01000000
00000000
10000000
00000000
,  // measure 46
00100000
00010000
00001000
00000010
00000001
00000100
00000010
00001000
,  // measure 47
00000000
00000000
00000001
00000100
00000001
00000100
00000001
00000000
00001000
00000010
00001000
00000010
00001000
00000000
00000001
00000100
,  // measure 48
00001000
00000000
00000000
00010000
00000000
00000000
01000000
00000000
10000000
00000000
00000000
00100000
00000000
00000000
01000000
00000000
,  // measure 49
00200000
00000000
00000000
00000000
00300000
00000000
20020000
00000000
00000000
00000000
00000000
00000000
30030000
00000000
00100000
01000000
,  // measure 50
00100000
00000000
10000000
00010000
10000000
00000000
00100000
01000000
00100000
00000000
10000000
00010000
01000000
00100000
10000000
00010000
,  // measure 51
10000000
10000000
01000000
00100000
00010000
00010000
00000000
11000000
,  // measure 52
00000000
01000000
00010000
00001000
00000000
00000010
00000001
00000011
,  // measure 53
00000000
00000000
00000001
00000000
00000100
00000000
00000010
00000000
00001000
00000001
00001000
00000001
00001000
00000000
00000002
00000000
,  // measure 54
00000000
00000000
00000103
00000000
00001000
00000000
00010000
00000000
00000000
00000000
01010000
00000000
00000000
00000000
01000000
10000000
,  // measure 55
01000000
10000000
00100000
01000000
00010000
00010000
00100000
02100000
,  // measure 56
00000000
13000000
00100000
02010000
00000000
03100000
00010000
00001000
,  // measure 57
00000010
00000001
00000010
00001000
00000010
00000001
00000010
00001000
,  // measure 58
00010000
00001000
00000100
00001000
00010000
00001000
00000100
00001000
,  // measure 59
00010000
00100000
10000000
00100000
00010000
00100000
10000000
00100000
,  // measure 60
02000000
00000000
00000000
00000000
00000000
00000000
00000000
00000000
00000000
00000000
00000000
00000000
03000000
00000000
00010000
10000000
,  // measure 61
00010000
00000000
10000000
01000000
00000000
00000000
00100000
00000000
00010000
00000000
20000000
00000000
00000000
00000000
31000000
00010000
,  // measure 62
00001000
00000000
00000000
00000100
00000000
00000000
00000002
00000000
00000000
00000000
00001003
00000000
00000010
00000000
00000100
00000000
,  // measure 63
00000002
00000000
00000000
00000000
00000003
00000000
00000001
00000010
00000001
00000000
00001000
00000000
00000100
00000000
00000010
00000000
,  // measure 64
00000001
00000000
00000100
00000000
00001000
00000000
00010000
00000000
01000000
10000000
01000000
10000000
01000000
00000000
10000000
00000000
,  // measure 65
10010000
00000000
00100000
01000000
00010000
01000000
00100000
00000000
01000000
00010000
00100000
00010000
01000000
00000000
00010000
10000000
,  // measure 66
01000000
00000000
00000000
00010000
00000000
00000000
00001000
00000000
00000000
00000010
00000000
00000000
00000001
00000000
00001000
00000000
,  // measure 67
00000001
00000000
00000100
00000001
00000100
00000000
00000010
00001000
00000010
00000000
00000100
00000001
00000100
00000000
00000010
00001000
,  // measure 68
00000010
00000010
00000000
00001001
00000000
00000100
00000100
00000000
,  // measure 69
00000001
00000000
00000010
00000001
00000000
00000000
00001000
00000000
00000010
00000000
00000100
00000000
00000000
00000000
00000001
00001000
,  // measure 70
00000001
00000000
00000000
00000100
00000000
00000000
00000100
00000000
00000010
00001000
00000001
00000100
00000001
00001000
00000010
00000100
,  // measure 71
00000002
00000000
00000000
00000000
00000003
00000000
00000001
00000100
00000001
00000000
00000100
00000000
00001000
00000000
00010000
00000000
,  // measure 72
01000000
00000000
10000000
00000000
01000000
00000000
00100000
00000000
00010000
10000000
00010000
10000000
00010000
00000000
01000000
00000000
,  // measure 73
10010000
00000000
00100000
10000000
01000000
10000000
00100000
00000000
01000000
00010000
00100000
00010000
01000000
00000000
00100000
00010000
,  // measure 74
00001000
00000000
00000000
00000010
00000000
00000000
00000001
00000000
00000100
00000000
00000000
00000010
00000000
00000000
00001000
00000000
,  // measure 75
00000002
00000000
00000000
00000000
00000003
00000000
00002200
00000000
00000000
00000000
00003300
00000000
00000000
00000000
00000001
00000100
,  // measure 76
00000010
00010000
00000010
00010000
00001000
00010000
00001000
00010000
00001000
01000000
00001000
01000000
00100000
00000000
00000000
00000000
,  // measure 77
11000000
00000000
10000000
01000000
10000000
01000000
10000000
00000000
00010000
01000000
00010000
01000000
00010000
00000000
10000000
01000000
,  // measure 78
00010000
00000000
00000000
00001000
00000000
00000000
00010000
00000000
00001000
00000000
00000000
00000010
00000000
00000000
00000001
00000000
,  // measure 79
00001000
00000010
00000000
00000100
00001000
00000000
00010000
02000000
,  // measure 80
00000000
00000000
00000000
00000000
,  // measure 81
00000000
00000000
00000000
03000000
;
