#TITLE:Surfin’ USA;
#SUBTITLE:(The Factory Team Speedo Mix);
#ARTIST:Speedmaster;
#TITLETRANSLIT:;
#SUBTITLETRANSLIT:;
#ARTISTTRANSLIT:;
#GENRE:Hardcore;
#CREDIT:;
#BANNER:surfinusa-bn.png;
#BACKGROUND:surfinusa-bg.png;
#LYRICSPATH:;
#CDTITLE:;
#MUSIC:Surfin' USA (The Factory Team Speedo Mix).mp3;
#OFFSET:-0.041000;
#SAMPLESTART:28.709013;
#SAMPLELENGTH:12.000005;
#SELECTABLE:YES;
#BPMS:0.000000=160.000000
;
#STOPS:
;
#BGCHANGES:;
#KEYSOUNDS:;
#ATTACKS:;

//---------------dance-single - ----------------
#NOTES:
     dance-single:
     :
     Medium:
     7:
     0.357879,0.490467,0.281704,0.291765,0.000000,249.000000,221.000000,28.000000,29.000000,0.000000,0.000000,0.357879,0.490467,0.281704,0.291765,0.000000,249.000000,221.000000,28.000000,29.000000,0.000000,0.000000:
0000
0000
0000
0000
,
0000
0000
0000
0000
,
0000
0000
0000
0000
,
0000
0000
0000
0000
,
0100
0001
0000
0010
0000
0001
0100
0000
,
0010
1000
0000
0100
0000
1000
0010
0000
,
1001
0000
0110
0000
,
0010
0010
0100
0100
,
0002
0000
0000
0200
0000
0000
0303
0000
,
0000
0001
0010
0000
0100
1000
0000
2002
,
0000
0000
0000
3003
,
0010
1000
0010
0000
1000
0010
1000
0000
,
0200
0000
0000
2000
0000
0000
3300
0000
,
0000
1000
0100
0000
0010
0001
0000
2002
,
0000
0000
0000
3003
,
0001
0100
0001
0000
0100
0001
0100
0000
,
0002
0000
0000
0020
0000
0000
0033
0000
,
0000
0001
1000
0000
0010
0100
0000
0220
,
0000
0000
0000
0330
,
0000
0020
0000
1030
0001
0000
1001
0000
,
0200
0000
0000
0020
0000
0000
0000
0000
,
0330
0000
1000
0100
0010
0001
0000
0001
,
1000
0000
0001
0000
,
1000
1000
0001
0001
,
0100
0000
0010
1000
0000
0000
0010
0000
,
0100
0000
0010
1000
0000
0000
0010
0000
,
0100
0000
0001
0010
0000
0000
0001
0000
,
0100
0000
0001
0010
0000
0000
0001
0000
,
1000
0000
0100
0010
0000
0000
0100
0000
,
1000
0000
0100
0010
0000
0000
0100
0000
,
0010
0000
0010
0000
0010
0001
0010
0000
,
0002
0200
0000
0000
0000
0000
0303
0000
,
0010
0000
1000
0001
0100
0000
0001
2000
,
0000
0000
3010
0100
0010
1000
0010
0100
,
0002
2000
0000
0000
3003
0000
0000
0000
,
0100
0001
0100
0000
0001
0000
0000
1000
,
0100
0010
0001
0200
0000
0000
0000
0000
,
0000
0000
0000
0000
0000
0010
0310
0000
,
0001
1000
0001
1000
,
0010
0100
0010
0000
0100
0010
0100
0000
,
0001
0010
0011
0100
,
1000
0100
0000
1100
0000
0000
0000
0000
,
1000
0010
1010
0100
,
0001
0100
0000
0101
0000
0000
0000
0000
,
0001
1000
1001
0010
,
0100
0010
0000
0110
0000
0000
0000
0000
,
0100
0001
0101
1000
,
0010
1000
0000
0100
0000
1000
1000
0000
,
0020
0000
0000
0200
0000
0000
0330
0000
,
0000
0001
0010
0000
0100
1000
0000
2002
,
0000
0000
0000
3003
,
0000
0200
0000
0301
1000
0000
1001
0000
,
0200
0000
0000
0020
0000
0000
0330
0000
,
0000
0000
0001
0100
0010
1000
0000
1000
,
0001
0000
1000
0000
,
0001
1000
0010
0100
,
0001
0101
0001
0101
,
0001
0100
0000
0101
0000
0000
0010
0000
,
1000
1100
1000
1100
,
1000
0100
0000
1100
0000
0000
0010
0000
,
0001
1001
0001
1001
,
0001
1000
0000
1001
0000
0000
0100
0000
,
1010
0100
0011
0100
,
1010
0000
1001
0000
0001
0100
0001
1000
,
0020
0000
0000
0000
,
0030
0000
0000
0000
;

//---------------dance-single - ----------------
#NOTES:
     dance-single:
     :
     Hard:
     10:
     0.503043,0.555863,0.432617,0.231400,0.005030,350.000000,307.000000,43.000000,23.000000,0.000000,0.000000,0.503043,0.555863,0.432617,0.231400,0.005030,350.000000,307.000000,43.000000,23.000000,0.000000,0.000000:
0000
0000
0000
0000
,
0000
0000
0000
0000
,
0000
0000
0000
0000
,
0000
0000
0000
0000
,
0100
0001
0000
1001
0000
1000
0100
1000
,
0010
1000
0000
1001
0000
0001
0100
0001
,
0010
0100
0000
1100
0000
0100
0010
0001
,
0100
1001
0010
1001
,
2000
0000
0000
3100
0000
0010
0001
0000
,
0100
0010
1000
0010
0100
0010
0000
2001
,
0000
0010
0000
0001
0000
0010
3000
0001
,
1000
0001
0100
0010
1000
0010
0100
0000
,
0002
0000
0000
0013
0000
0100
1000
0000
,
0001
0100
0010
0100
1000
0100
0000
1002
,
0000
0100
0000
1000
0000
0100
0003
1000
,
0001
1000
0100
0010
0001
0010
0100
0000
,
2000
0000
0000
3010
0000
0100
0001
0000
,
0001
1000
0100
1000
0010
1000
0000
0102
,
0000
0010
0000
1000
0000
0100
0003
1000
,
0001
1000
0000
0010
0100
0010
1000
0000
,
2002
0000
3003
0220
0000
0000
0330
0000
,
0101
0000
0010
1000
0100
0010
0000
0001
,
1000
0010
0101
1000
,
1010
1100
0011
0101
,
0010
1000
0000
0100
0000
1000
0010
0100
,
0001
0010
0000
0100
0000
0010
0001
0100
,
0010
1000
0000
0100
0000
1000
0010
0100
,
0001
0010
0000
0100
0000
0010
0001
0100
,
0010
1000
0010
0100
0000
0001
1000
0000
,
0010
1000
0100
1000
0000
0010
0100
0100
,
0001
0000
0001
0000
0001
0010
0001
1000
,
0100
0020
0000
0000
0000
0000
0030
0001
,
1000
0000
0010
0100
0000
0100
0010
2000
,
0000
0000
3001
0010
0100
1000
0001
1000
,
0100
0020
0000
0000
0000
0000
0030
0000
,
0010
0001
0100
0000
2020
0000
3030
0010
,
1000
0100
0010
0002
0000
0000
0000
0000
,
0000
0000
0000
0000
0000
1000
1003
0000
,
0001
0100
0001
1000
0001
0100
0001
1000
,
0001
0000
0010
0000
0001
0000
0000
0001
1000
0000
0100
0000
1000
0000
0000
0000
,
0011
0100
0011
0100
,
0010
0001
0000
0101
0000
0010
1000
0000
,
1010
0100
1010
0100
,
0010
1000
0000
1100
0000
0010
0001
0000
,
1100
0001
0101
1000
,
0100
1000
0000
1001
0000
0010
0100
0000
,
0011
1000
1010
0001
,
0010
0001
0000
1001
0000
0001
0100
0010
,
2000
0000
0000
3100
0000
1000
0001
0000
,
0100
0010
1000
0010
0100
0010
0000
1002
,
0000
0010
1000
0013
,
0001
1000
0000
0010
0001
0010
1000
0000
,
0202
0000
0303
2020
0000
0000
3030
0000
,
1100
0000
0001
0100
1000
0100
0000
0010
,
0001
0000
0110
0000
,
1010
1100
0011
0101
,
1000
0100
0000
0010
0000
0001
0010
0100
,
1000
0010
0000
0100
0000
0001
0100
0010
,
0100
0001
0000
1000
0000
0010
1000
0001
,
0100
0001
0000
1000
0000
0010
1000
0100
,
0010
0001
0010
0000
0100
1000
0100
0000
,
1000
0001
0000
1001
0000
0010
0100
0010
,
1010
1000
0011
0001
,
1001
0000
0110
0000
0100
0010
1000
0001
,
0200
0000
0000
0000
,
0300
0000
0000
0000
;

//---------------dance-double - ----------------
#NOTES:
     dance-double:
     :
     Hard:
     10:
     0.504481,0.586297,0.533226,0.342070,0.005030,351.000000,298.000000,53.000000,34.000000,0.000000,0.000000,0.504481,0.586297,0.533226,0.342070,0.005030,351.000000,298.000000,53.000000,34.000000,0.000000,0.000000:
// measure 0
00000000
00000000
00000000
00000000
,  // measure 1
00000000
00000000
00000000
00000000
,  // measure 2
00000000
00000000
00000000
00000000
,  // measure 3
00000000
00000000
00000000
00000000
,  // measure 4
00000010
00001000
00000000
00010100
00000000
00001000
00000100
00010000
,  // measure 5
00001000
01000000
00000000
00101000
00000000
00010000
01000000
00100000
,  // measure 6
10000000
01000000
00000000
00110000
00000000
01000000
00001000
00010000
,  // measure 7
00000010
00000100
00000010
00000100
00000010
00000100
00000010
00000000
,  // measure 8
00002200
00000000
00003300
00020200
00000000
00000000
00000000
00030300
,  // measure 9
00000000
00010000
00001000
00010000
00100000
10000000
00000000
20010000
,  // measure 10
00000000
00100000
00000000
00010000
00000000
00100000
00000000
30010000
,  // measure 11
00100000
01000000
00100000
01000000
00100000
01000000
00100000
00000000
,  // measure 12
00220000
00000000
00330000
00202000
00000000
00000000
00000000
00303000
,  // measure 13
00000000
00001000
00010000
00001000
00000010
00000001
00000000
00002001
,  // measure 14
00000000
00000100
00000000
00000001
00000000
00000100
00000000
00003001
,  // measure 15
00001000
00000100
00000010
00000001
00000010
00000100
00010000
00000000
,  // measure 16
00020200
00000000
00030300
00022000
00000000
00000000
00000000
00033000
,  // measure 17
00100000
00010000
10000000
01000000
10000000
00010000
00000000
00120000
,  // measure 18
00000000
01000000
00000000
00100000
00000000
01000000
00000000
00130000
,  // measure 19
00001000
00010000
00000000
00001000
00010000
00001000
00010000
00000000
,  // measure 20
00102000
00000000
00000000
00100000
00000000
00000000
00003000
00000000
,  // measure 21
00011000
00000000
00010000
00000100
00010000
00000100
00000000
00010000
,  // measure 22
00011000
00010000
00010100
00001000
,  // measure 23
00001010
00000011
00000101
00001010
,  // measure 24
00000001
00000100
00000000
00001000
00000000
00001000
00010000
00001000
,  // measure 25
00010000
01000000
00000000
10000000
00000000
00100000
10000000
00100000
,  // measure 26
10000000
00100000
00000000
00010000
00000000
00010000
00001000
00010000
,  // measure 27
00001000
00000010
00000000
00000001
00000000
00000001
00000010
00000001
,  // measure 28
00000010
00000110
00000000
00010000
00000000
00001000
00010000
00001000
,  // measure 29
00010000
00011000
00000000
00101000
00000000
00100000
00010000
01000000
,  // measure 30
00100000
00000000
11000000
00000000
10000000
01000000
00010000
00001000
,  // measure 31
00000100
00000002
00000000
00000000
00000000
00000000
00000003
00001000
,  // measure 32
00000001
00000000
00000010
00001000
00000000
00010000
00100000
20000000
,  // measure 33
00000000
00000000
30010000
01000000
00100000
00010000
00001000
00000100
,  // measure 34
00000001
00002000
00000000
00000000
00000000
00000000
00003000
00000010
,  // measure 35
00000100
00001000
00010000
00000000
01000000
00000000
00000000
10000000
,  // measure 36
00010000
10000000
00100000
00020000
00000000
00000000
00000000
00000000
,  // measure 37
00000000
00000000
00000000
00000000
00030000
00001000
00010000
00000000
,  // measure 38
00000010
00000100
00000010
00001000
00000010
00000100
00000010
00001000
,  // measure 39
00000100
00000000
00010000
00000000
00010000
00000000
00000000
00010000
00001000
00000000
00001000
00000000
00000000
00000000
00001000
00000000
,  // measure 40
01000000
10100000
01000000
00110000
,  // measure 41
01000000
00100000
00000000
00011000
00000000
00000000
00000000
00000000
,  // measure 42
00000100
00001010
00000100
00000011
,  // measure 43
00000100
00000010
00000000
00011000
00000000
00000000
00000000
00000000
,  // measure 44
00100000
11000000
00100000
01010000
,  // measure 45
00100000
00010000
00000000
00011000
00000000
00000000
00000000
00000000
,  // measure 46
00000100
00010000
00001000
00000000
00010000
00001000
01000000
00000000
,  // measure 47
00001000
00001000
00000000
00011000
00000000
00010000
00010000
00000010
,  // measure 48
00000220
00000000
00000330
00002020
00000000
00000000
00000000
00003030
,  // measure 49
00000100
00001000
00010000
01000000
10000000
00010000
00000000
10000000
,  // measure 50
00010000
01010000
00010000
00110000
,  // measure 51
00100000
00001000
00000000
00010000
00000100
00000010
00000001
00000000
,  // measure 52
00002002
00000000
00003003
00000220
00000000
00000000
00000000
00000330
,  // measure 53
00001001
00000000
00000100
00010000
00001000
00100000
00000000
01000000
,  // measure 54
10000000
00100000
01010000
00100000
,  // measure 55
00011000
00010100
00001010
00000101
,  // measure 56
00000002
00000103
00000200
00001300
,  // measure 57
00001000
00010000
00000000
01010000
00000000
01000000
10000000
01000000
,  // measure 58
20000000
30100000
00200000
00310000
,  // measure 59
00010000
00001000
00000000
00001010
00000000
00000010
00000001
00000010
,  // measure 60
00000001
00000100
00001000
00000000
00000100
00001000
00010000
00000000
,  // measure 61
00001000
00010000
01000000
10000000
00000000
10000000
00010000
10000000
,  // measure 62
10010000
00010000
01000000
00000000
01001000
00001000
00010000
00000000
,  // measure 63
00011000
00000000
00010100
00000000
00000010
00000001
00000010
00000001
,  // measure 64
00000022
00000000
00000000
00000033
;

//---------------dance-double - ----------------
#NOTES:
     dance-double:
     :
     Easy:
     6:
     0.250084,0.293149,0.010061,0.352130,0.000000,174.000000,173.000000,1.000000,35.000000,0.000000,0.000000,0.250084,0.293149,0.010061,0.352130,0.000000,174.000000,173.000000,1.000000,35.000000,0.000000,0.000000:
00000000
00000000
00000000
00000000
,
00000000
00000000
00000000
00000000
,
00000000
00000000
00000000
00000000
,
00000000
00000000
00000000
00000000
,
00200000
00000000
00000000
00310000
00000000
00000000
00100000
00000000
,
00002000
00000000
00000000
00013000
00000000
00000000
00000100
00000000
,
00000010
00000000
00000001
00000000
,
00001000
00001000
00001000
00001000
,
00000200
00000000
00000000
00010300
00000000
00000000
00000000
00000000
,
00000100
00000000
00010000
00000000
00001000
01000000
00000000
02000000
,
00000000
00000000
03000000
00000000
,
00000000
01000000
00010000
01000000
,
00200000
00000000
00000000
01300000
00000000
00000000
00000000
00000000
,
01000000
00000000
00001000
00000000
00010000
00000100
00000000
00000200
,
00000000
00000000
00000300
00000000
,
00000010
00000001
00000010
00000100
,
00002000
00000000
00000000
00003200
00000000
00000000
00000000
00000000
,
00010300
00000000
00001000
00000000
01000000
00100000
00000000
00200000
,
00000000
00000000
00300000
00000000
,
00000000
02000000
00000000
00000000
03001000
00000000
00010000
00000000
,
00000200
00000000
00000000
00001300
00000000
00000000
00000000
00000000
,
00000100
00000000
00010000
00000000
00001000
01000000
00000000
02000000
,
00000000
00000000
03100000
00000000
,
00100000
01000000
00100000
01000000
,
00001000
00000000
00000000
00010000
00000000
00000000
00000000
00000000
,
00001000
00000000
00000000
00010000
00000000
00000000
00000000
00000000
,
00010000
00000000
00000000
00001000
00000000
00000000
00000000
00000000
,
00010000
00000000
00000000
00001000
00000000
00000000
00000000
00000000
,
00010000
00000100
00000010
00000001
,
00000100
00000010
00010000
00001000
,
00001000
00100000
00100000
01000000
,
02000000
00000000
00000000
00000000
,
13000000
00010000
01000000
00000000
,
01000000
00001000
00010000
00000010
,
00000200
00000000
00000000
00000000
,
00000301
00000100
00001000
00000000
,
00010000
00100000
20000000
00000000
,
00000000
00000000
00000000
30010000
,
01000000
01000000
01000000
01000000
,
00001000
00010000
00001000
00010000
,
00000020
00000130
00000200
00000310
,
00000010
00000100
00000000
00000100
00000000
00000000
00000000
00000000
,
00020000
00031000
00002000
00013000
,
00010000
00001000
00000000
00001000
00000000
00000000
00000000
00000000
,
02000000
03100000
00200000
01300000
,
01000000
00100000
00000000
00100000
00000000
00000000
00000000
00000000
,
00002000
00013000
00020000
00031000
,
00001000
00001000
00000000
00010000
00000000
00000000
00000000
00000000
,
00000020
00000000
00000000
00000230
00000000
00000000
00000300
00000000
,
00000001
00000000
00000010
00000000
00000200
00000000
00000000
00020300
,
00000000
00000000
00030000
00000000
,
00001000
01000000
00100000
10000000
,
00020000
00000000
00000000
00230000
00000000
00000000
00300000
00000000
,
00000000
00000000
00001000
00000000
00010000
00000010
00000000
00000020
,
00000000
00000030
00000100
00000000
,
00000100
00000100
00000100
00000100
,
00000001
00001000
00000001
00001000
,
00000002
00000000
00000000
00001003
00000000
00000000
00000000
00000000
,
00000100
00010000
00000100
00010000
,
00000200
00000000
00000000
00010300
00000000
00000000
00000000
00000000
,
00001000
00100000
00001000
00100000
,
00002000
00000000
00000000
00103000
00000000
00000000
00000000
00000000
,
01000000
00000000
00100000
00000000
,
00001000
00001000
00010000
00010000
,
00022000
00000000
00000000
00033000
;

//---------------dance-double - ----------------
#NOTES:
     dance-double:
     :
     Medium:
     8:
     0.333446,0.423437,0.201217,0.281704,0.000000,232.000000,212.000000,20.000000,28.000000,0.000000,0.000000,0.333446,0.423437,0.201217,0.281704,0.000000,232.000000,212.000000,20.000000,28.000000,0.000000,0.000000:
00000000
00000000
00000000
00000000
,
00000000
00000000
00000000
00000000
,
00000000
00000000
00000000
00000000
,
00000000
00000000
00000000
00000000
,
01000000
00010000
00000000
00100000
00000000
00010000
01000000
00000000
,
00001000
00010000
00000000
00000100
00000000
00010000
00001000
00000000
,
00010000
00000010
00000000
00000100
00000000
00000010
00010000
00000000
,
00000100
00000010
00000100
00000000
00001000
00000000
00001001
00000000
,
00000210
00000000
00000000
00000302
00000000
00000000
00000003
00000000
,
00000000
00000001
00000100
00000000
00001000
00010000
00000000
02000000
,
00000000
00000000
00000000
03000000
,
10000000
00010000
10000000
00000000
00100000
00000000
01200000
00000000
,
00000000
00000000
00000000
20300000
00000000
00000000
00000000
00000000
,
30000000
10000000
00100000
00000000
00010000
00001000
00000000
00000020
,
00000000
00000000
00000000
00000030
,
00000001
00000100
00000001
00000000
00001000
00000000
00001100
00000000
,
00010200
00000000
00000000
00020300
00000000
00000000
00000000
00000000
,
00031000
01000000
00001000
00000000
00100000
00010000
00000000
20020000
,
00000000
00000000
30030000
00000000
,
00000000
10000000
00000000
00100000
00010000
00000000
00001000
00000000
,
00000020
00000000
00000000
00000032
00000000
00000000
00000003
00000000
,
00001001
00000000
00000010
00000100
00000010
00000100
00000000
00000010
,
00000100
00000000
00011000
00000000
,
01000000
01000000
01000000
01000000
,
00100000
10000000
00000000
00010000
00000000
00000000
00000000
00000000
,
00100000
10000000
00000000
00010000
00000000
00000000
00000000
00000000
,
01000000
00001000
00000000
00010000
00000000
00000000
00000000
00000000
,
00001000
00010000
00000000
00000100
00000000
00000000
00000000
00000000
,
00001000
00000010
00000000
00000100
00000000
00000000
00000000
00000000
,
00001000
00000010
00000000
00000100
00000000
00000000
00000001
00000000
,
00001000
00000000
00001000
00000000
00001000
00000000
00001000
00000100
,
00010000
00000100
00000000
00000000
00000000
00000000
00000000
00000000
,
00010000
00000000
00001000
00100000
00000000
01000000
10000000
00000000
,
00010000
00000000
00100000
00001000
00100000
00001000
00010000
00001000
,
00010000
00001000
00000000
00000000
00000000
00000000
00000000
00000000
,
00000100
00000010
00001000
00000000
,
00000001
00000000
00000100
00002000
00000000
00000000
00000000
00000000
,
00000000
00000000
00000000
00000000
00003000
00010000
00001000
00000000
,
01000000
00100000
10000000
00010000
,
00100000
00100000
00001000
00001000
,
00020000
00030010
00020000
00030100
,
00010000
00001000
00000000
00011000
00000000
00000000
00000000
00000000
,
00002000
01003000
00002000
00013000
,
00001000
00010000
00000000
00011000
00000000
00000000
00000000
00000000
,
00000020
00000130
00000020
00001030
,
00000010
00010000
00000000
00011000
00000000
00000000
00000000
00000000
,
02000000
03100000
02000000
03010000
,
01000000
00001000
00000000
00010000
00000000
00000010
00000100
00000010
,
00002000
00000000
00000000
00003002
00000000
00000000
00000000
00000000
,
00000103
00000010
00000100
00000000
00000001
00001000
00000000
00000200
,
00000000
00000000
00000300
00000000
,
00000000
00011000
00000000
00001000
01000000
00100000
10000000
00000000
,
02000000
00000000
00000000
03200000
00000000
00000000
00000000
00000000
,
00300000
00000000
00001000
00010000
00001000
00010000
00000000
00011000
,
00000000
00000000
00000010
00000000
,
00000100
00000100
00000100
00000100
,
00000001
00001100
00000001
00001100
,
00000001
00000100
00000000
00001000
00000000
00000000
00000000
00000000
,
00010000
11000000
00010000
11000000
,
00010000
01000000
00000000
10000000
00000000
00000000
00000000
00000000
,
10000000
01010000
10000000
01010000
,
10000000
01000000
00000000
00010000
00000000
00000000
00000000
00000000
,
00001000
00000100
00000001
00000010
,
00001000
00000000
00001000
00000000
00010000
00010000
00010000
00000000
,
00022000
00000000
00000000
00033000
;

//---------------dance-single - ----------------
#NOTES:
     dance-single:
     :
     Beginner:
     3:
     0.149476,0.289753,0.060365,0.050304,0.000000,104.000000,98.000000,6.000000,5.000000,0.000000,0.000000,0.149476,0.289753,0.060365,0.050304,0.000000,104.000000,98.000000,6.000000,5.000000,0.000000,0.000000:
0000
0000
0000
0000
,
0000
0000
0000
0000
,
0000
0000
0000
0000
,
0000
0000
0000
0000
,
0100
0000
0000
0000
,
0001
0000
0000
0000
,
0010
0000
0010
0000
,
1000
1000
1000
1000
,
1000
0000
0000
0000
,
0001
0000
0001
0000
,
0001
0000
0000
0000
,
0010
0000
0000
0000
,
0100
0000
0000
0000
,
1000
0000
1000
0000
,
1000
0000
0000
0000
,
0000
0010
0010
0010
,
0010
0000
0000
0000
,
0000
0100
0100
0100
,
0100
0000
0000
0000
,
0000
0001
0000
1000
,
1000
0000
0000
0000
,
0000
1000
0000
0000
,
0001
0000
1000
0000
,
0001
0001
0001
0001
,
0001
0000
0000
0000
,
0100
0000
0000
0000
,
0010
0000
0000
0000
,
1000
0000
0000
0000
,
0010
0000
0000
0000
,
0100
0000
0000
0000
,
0001
0000
0001
0000
,
1000
0000
0000
0000
,
1000
0000
0000
0000
,
0010
0000
0000
0000
,
0100
0000
0000
0000
,
0001
0001
0001
0000
,
0020
0000
0000
0000
,
0000
0000
0030
0000
,
0100
0000
0000
0000
,
1000
0000
0000
0000
,
0010
0010
0010
0010
,
0020
0030
0000
0000
,
0100
0100
0100
0100
,
0200
0300
0000
0000
,
1000
1000
1000
1000
,
2000
3000
0000
0000
,
0001
0001
0001
0001
,
0002
0003
0000
0000
,
0100
0000
0100
0000
,
0000
0010
0000
0000
,
0010
0000
0000
0000
,
0000
1000
0000
0000
,
0001
0000
0000
0000
,
0000
0100
0000
0000
,
0010
0000
0010
0000
,
0010
0010
0010
0010
,
0010
0000
0000
0000
,
1001
0000
0000
0000
,
0010
0000
0000
0000
,
1001
0000
0000
0000
,
0100
0000
0000
0000
,
1001
0000
0000
0000
,
0110
0000
1001
0000
,
0010
0010
0010
0000
,
0110
0000
0000
0000
;

//---------------dance-single - ----------------
#NOTES:
     dance-single:
     :
     Easy:
     6:
     0.283142,0.386337,0.171035,0.251522,0.000000,197.000000,180.000000,17.000000,25.000000,0.000000,0.000000,0.283142,0.386337,0.171035,0.251522,0.000000,197.000000,180.000000,17.000000,25.000000,0.000000,0.000000:
0000
0000
0000
0000
,
0000
0000
0000
0000
,
0000
0000
0000
0000
,
0000
0000
0000
0000
,
0020
0000
0000
1030
0000
0000
1001
0000
,
0200
0000
0000
0301
0000
0000
1001
0000
,
0010
0000
1000
0000
,
0100
0001
0010
1000
,
0002
0000
0000
0020
0000
0000
0033
0000
,
0000
0000
0001
0000
0010
0100
0000
2000
,
0000
0000
3000
0000
,
0010
1000
0100
0010
,
0200
0000
0000
2000
0000
0000
3300
0000
,
0000
0000
1000
0000
0100
0010
0000
0002
,
0000
0000
0003
0000
,
0001
1000
0010
0100
,
0020
0000
0000
2000
0000
0000
3030
0000
,
0000
0000
0100
0000
0001
1000
0000
0020
,
0000
0000
0030
0000
,
0000
0100
0000
0010
0100
0000
0001
0000
,
2200
0000
3300
2200
0000
0000
3300
0000
,
0000
0000
0010
0001
0100
0010
0000
0020
,
0000
0000
0100
0000
,
0100
0100
0100
0130
,
0010
0000
0000
1000
0000
0000
0010
0000
,
0010
0000
0000
1000
0000
0000
0001
0000
,
0001
0000
0000
0100
0000
0000
0001
0000
,
0001
0000
0000
0100
0000
0000
0010
0000
,
1000
0000
0000
0100
0000
0000
1000
0000
,
1000
0000
0000
0100
0000
0000
0010
0000
,
0001
0001
0001
0001
,
0100
0000
0000
0000
,
0010
0000
0100
0010
0000
0000
0000
0000
,
1000
0001
1000
0001
,
1000
0000
0000
0000
,
0001
0100
1000
0000
,
0001
1000
0002
0000
,
0000
0000
0000
0013
,
0100
1000
0100
1000
,
0010
0010
0100
0100
,
0001
1001
0001
1001
,
0001
1000
0000
1000
0000
0000
0000
0000
,
1000
1001
1000
1001
,
1000
0001
0000
0001
0000
0000
0000
0000
,
0100
0110
0100
0110
,
0100
0010
0000
0010
0000
0000
0000
0000
,
0010
0110
0010
0110
,
0010
0100
0000
0100
0000
0001
1000
0000
,
0002
0000
0000
0020
0000
0000
0033
0000
,
0000
0000
0001
0000
0010
0100
0000
2000
,
0000
0000
0000
3000
,
0000
1000
0000
0100
0010
0000
0001
0000
,
0022
0000
0033
0022
0000
0000
0033
0000
,
0000
0000
0100
1000
0001
0100
0000
0002
,
0000
0000
0010
0000
,
0010
0010
0010
0013
,
0100
1000
0100
1000
,
0001
1000
0000
0001
0000
0000
0000
0000
,
0100
0001
0100
0001
,
1000
0001
0000
1000
0000
0000
0000
0000
,
0010
0100
0010
0100
,
0001
1000
0000
0001
0000
0000
0000
0000
,
0110
0000
1001
0000
,
0010
0010
0100
0100
,
0110
0000
0000
0000
;
