#TITLE:Space Crash Landing;
#SUBTITLE:;
#ARTIST:Nizikawa;
#TITLETRANSLIT:;
#SUBTITLETRANSLIT:;
#ARTISTTRANSLIT:;
#GENRE:Hardcore;
#CREDIT:;
#BANNER:spacecrashlanding-bn.png;
#BACKGROUND:spacecrashlanding-bg.png;
#LYRICSPATH:;
#CDTITLE:;
#MUSIC:Space Crash Landing.mp3;
#OFFSET:-0.040000;
#SAMPLESTART:15.649999;
#SAMPLELENGTH:12.000000;
#SELECTABLE:YES;
#BPMS:0.000000=184.000000
;
#STOPS:
;
#BGCHANGES:;
#KEYSOUNDS:;
#ATTACKS:;

//---------------dance-single - ----------------
#NOTES:
     dance-single:
     :
     Challenge:
     15:
     0.867019,0.941257,0.748496,0.180361,0.369739,673.000000,590.000000,83.000000,20.000000,0.000000,0.000000,0.867019,0.941257,0.748496,0.180361,0.369739,673.000000,590.000000,83.000000,20.000000,0.000000,0.000000:
0000
0000
0000
0000
,
0000
0000
0000
0000
,
2002
0000
0000
0000
0000
0000
0000
0000
0000
0000
3003
0000
0010
0100
0010
0100
,
0010
0000
1000
0001
0100
0000
1000
0001
0100
0010
0000
0000
0110
0000
0000
0000
,
0101
0100
0001
0000
1000
1000
0000
1200
,
0000
0310
0100
1000
0000
0010
0100
0001
,
0101
0000
0001
1000
0010
0001
0010
1000
,
1001
0001
0010
0100
1100
1000
0100
0010
,
0011
0000
1001
0000
1100
0100
0010
0001
,
0100
0010
0100
0010
0000
0010
1000
0010
,
0000
0100
0001
0100
0001
0010
1000
0010
,
0011
1010
1001
0110
,
0001
0000
0001
0100
0010
0000
0010
0000
0100
0000
0100
0010
1000
0000
1000
0000
,
0000
0000
1000
0100
0010
0001
1000
0000
0001
0000
0100
0000
0100
0000
0010
1000
,
0010
0000
0100
0001
0100
0000
0001
0000
1000
0000
0010
0000
0000
0000
0010
0000
,
0100
0010
1000
0010
0100
0000
0102
0000
0000
0000
1003
0000
0010
0000
0100
0001
,
1000
0000
1000
0010
0100
0000
0100
0000
0010
0000
0010
0100
0001
0000
0001
0000
,
0000
0000
0001
1000
0010
0100
0010
0000
1000
0000
0100
0000
0011
0000
0001
1000
,
0001
0000
1000
0010
1000
0000
0001
0000
0100
0000
0010
0000
0000
0000
0100
0000
,
0110
0010
1000
2000
0000
0001
3001
0000
,
1000
0000
1000
0100
0010
0000
0010
0000
0001
0000
0001
0100
0010
0000
0010
0000
,
0200
0000
0000
0000
0300
0000
0100
0010
0200
0000
0010
0000
0310
0000
1000
0000
,
1001
0000
0001
1000
0001
0000
1000
0000
0100
0000
0010
0000
0001
0000
0100
0001
,
0010
0100
1000
0010
0000
0010
1010
0000
,
0001
0000
0001
0010
0100
0000
0100
0000
1000
0000
1000
0010
0100
0000
0100
0000
,
0010
0000
1000
0001
1000
0000
0010
0100
0010
0100
0010
0000
1000
0000
0001
0000
,
1001
0000
0000
0010
0000
0000
1000
0000
1010
0000
0000
0010
0000
0000
0100
0000
,
0110
1001
0110
1001
,
1000
0000
1000
0100
1000
0000
1000
0000
0010
0000
0100
0000
0010
0000
0100
0000
,
0001
0010
0010
0001
0010
0010
0001
1000
,
0001
0000
0001
0100
0001
0000
0001
0000
0100
0000
0010
0000
0100
0000
0010
0000
,
1000
0100
0001
0100
1000
0000
1001
0000
,
0101
0000
0001
0100
0001
0000
1000
0000
0001
0000
0100
0000
0010
0000
1000
0000
,
0010
0100
0001
1000
0010
0100
0001
1000
,
1001
0000
0001
1000
0001
0000
1000
0000
0100
0000
0010
0100
0010
0000
0100
0000
,
1000
0010
1000
0001
0100
0001
1010
0000
,
1001
0000
1000
0001
1000
0000
0100
0000
0010
0000
1000
0000
0010
0000
0001
0000
,
0101
0000
0100
0010
0100
0010
0100
0000
0010
0000
0001
0000
0010
0000
1000
0000
,
1001
0000
0010
0100
0010
0000
0100
0000
1001
0000
0100
0010
0100
0000
0010
0000
,
0011
0000
1100
0000
0110
0100
0000
0010
,
1010
0000
0000
0000
0000
0000
0000
0000
0000
0000
0000
0000
0100
0010
0100
0010
,
0100
0000
0010
1000
0001
0000
0010
1000
0001
0100
0000
0000
0110
0000
0000
0000
,
1001
1000
0100
0010
0001
0001
1000
0002
,
0000
0103
1000
0200
0000
0301
0010
0001
,
0011
0000
1100
1000
0010
0001
0010
1000
,
0001
0010
1000
0010
0001
1000
0010
0100
,
0101
0000
1010
1000
0010
0100
0001
0010
,
0100
1000
0100
2000
0000
3010
0001
0010
,
1000
0001
1000
0001
1000
0100
0001
0100
,
1100
0101
1001
0110
,
0010
0000
0010
1000
0100
0000
0000
0000
0100
0000
0100
0010
0001
0000
0100
0000
,
0001
1000
0000
0101
0000
1000
0001
1000
,
1100
0000
0001
2000
0000
3100
0001
0200
,
0000
1300
0010
0100
1000
0100
0101
0000
,
0100
0000
0100
0001
0010
0000
0000
0000
0010
0000
0010
0100
1000
0000
0010
0000
,
0000
1001
0000
1010
0000
0001
1000
0001
,
0011
0000
1001
0000
1000
0010
0000
0011
,
0000
0001
0010
1000
0000
2000
0002
3003
,
0101
0001
0100
0000
0010
1000
0100
0020
,
0000
0130
1000
0020
0000
0130
1000
0100
,
0101
0000
0011
0000
1001
0001
0100
2000
,
0000
3001
0010
1000
0100
0010
0001
1000
,
1001
0000
0110
0010
0100
0010
1000
0001
,
0101
0010
1000
0100
1100
0010
0001
0100
,
0101
0000
1010
0000
1001
1000
0001
0200
,
0020
0000
0000
0000
0000
0000
0330
0000
1000
0001
1000
0001
1000
0001
1000
0001
,
1000
0000
0100
0010
0001
0000
1000
0000
0001
0000
0010
0100
1000
0000
0001
0100
,
0000
0000
0100
0010
0000
0000
0010
1000
0000
0000
1010
0000
0000
0000
1000
0000
,
0001
0000
0010
0100
1000
0000
0001
0000
1000
0000
0100
0010
0001
0000
0010
0001
,
0000
0000
0001
1000
0000
0000
1000
0100
0000
0000
1100
0000
0000
0000
0010
0000
,
0001
0000
0001
0100
0010
0000
0000
0000
1000
0000
1000
0010
0100
0000
0001
0000
,
1001
0000
1000
0010
0100
0000
0001
0000
0001
0010
0100
0000
0000
0000
0100
0000
,
1100
0000
0000
0000
0010
0000
0000
0000
1100
0000
0010
0000
0000
0000
1000
0001
,
0000
0000
0001
1000
0000
0000
1000
0001
0000
0000
0001
1000
0000
0000
1000
0000
,
0001
0000
0000
0000
0100
0000
0000
0000
0001
0010
0100
1000
0100
1000
0100
0000
,
0000
1100
0000
0101
0000
1100
0000
0001
,
1000
0000
0000
0000
0100
0000
0000
0000
1000
0100
0010
0001
0010
0001
0010
0000
,
0000
0011
0000
1010
0000
0011
0000
0001
,
1000
0000
0000
0000
1001
0000
0000
0000
0001
0100
0010
1000
0010
1000
0010
0000
,
0000
0011
0000
1010
0000
1001
0000
0001
,
0100
0000
0011
0000
0010
1000
0000
1020
,
0000
0001
0000
0001
0000
1000
0000
1000
,
0000
0000
0000
0000
,
0000
0000
0030
0000
;

//---------------dance-single - ----------------
#NOTES:
     dance-single:
     :
     Hard:
     13:
     0.682793,0.746242,0.541082,0.126252,0.018036,530.000000,470.000000,60.000000,14.000000,0.000000,0.000000,0.682793,0.746242,0.541082,0.126252,0.018036,530.000000,470.000000,60.000000,14.000000,0.000000,0.000000:
0000
0000
0000
0000
,
0000
0000
0000
0000
,
2002
0000
0000
3003
,
1000
0010
0100
0001
0010
0100
1100
0000
,
1000
0010
1000
0001
0010
0001
0000
0011
,
0000
0010
0001
1000
0000
0010
0001
1000
,
1010
0000
0010
1000
0001
1000
0010
0100
,
0001
0010
1000
0010
0001
0100
1000
0100
,
0001
0000
1001
0000
0010
1000
0100
0010
,
0001
0001
0000
1001
0000
1000
1000
0010
,
0000
0100
0001
0100
0010
1000
0010
0100
,
0110
1001
0110
1001
,
0001
0010
0001
1000
0100
0001
0100
1000
,
0000
0001
0010
1000
0010
0001
0100
0100
,
0010
0000
1010
0000
1000
0001
0000
0001
,
1000
0100
0010
0001
0000
0001
1000
0000
,
1000
0100
1000
0001
0010
1000
0010
0001
,
0000
1000
0100
0001
0100
1000
0010
0100
,
0001
0010
0001
0000
0001
0010
0000
0100
,
0001
0100
1000
0010
0000
0010
0010
0000
,
0100
0010
0001
0010
1000
0100
0010
1000
,
0020
0000
0000
0001
0031
0100
0010
1000
,
1001
0000
0101
0000
0010
1000
0000
0100
,
0010
0001
1000
0010
0000
0010
0100
0000
,
0010
0100
1000
0100
0001
0010
0100
0001
,
0200
0000
0000
1000
1300
0010
0100
0001
,
0010
0000
0100
1000
0000
0001
1000
0000
0010
0000
0100
0001
0000
1000
0001
0000
,
1001
0101
1001
1100
,
0010
1000
1000
0010
0100
0001
0100
0001
,
0010
1000
0010
1000
0100
0001
0100
0001
,
0010
0100
1000
0100
0010
0001
0100
0001
,
0101
0000
0000
1010
0000
0000
1001
0000
,
0001
0010
0010
0001
1000
0100
1000
0100
,
0001
0010
0001
0010
1000
0100
0010
0001
,
0100
0010
0010
0100
0001
1000
0001
1000
,
1010
0000
0000
0101
0000
0000
1001
0000
,
1000
0100
0010
0001
1000
0100
0001
0100
,
0010
0001
1000
0100
0010
1000
0010
0001
,
0100
0010
1000
0001
0100
0010
1000
0001
,
0101
0000
1010
0000
0000
1100
0000
0011
,
2002
0000
0000
3003
,
0010
1000
0001
0100
0010
0100
0110
0000
,
0001
0010
0001
1000
0010
1000
0000
1010
,
0000
0010
1000
0001
0000
0010
1000
0001
,
0101
0000
0100
0001
1000
0001
0100
0010
,
1000
0100
0001
0100
1000
0010
0001
0010
,
1000
0000
1001
0000
0100
0001
0010
0100
,
1000
1000
0000
1001
0000
0001
0001
0100
,
0000
0010
1000
0010
0100
0001
0100
0010
,
0110
0101
0110
1010
,
0201
0000
0010
0000
1300
0000
0001
0020
,
0000
1000
0000
0130
0000
0010
0001
0100
,
0101
0000
0001
1000
0000
1000
0010
0100
,
0000
1000
0010
0100
0001
0010
0100
1000
,
1020
0000
0100
0000
0031
0000
1000
0200
,
0000
0001
0000
0310
0000
0100
1000
0010
,
1010
0000
1001
0000
0010
0100
0000
0011
,
0000
0001
0100
0010
0000
0010
1000
0000
,
0001
0010
0001
1000
0010
1000
0100
0010
,
0000
0010
0001
0010
0000
0010
0100
1000
,
1100
0000
0011
0000
1000
0100
0010
0001
,
0000
0001
0100
0010
1000
0010
0100
0010
,
1010
0000
0001
0100
0001
1000
0010
1000
,
0000
1000
0010
0100
0000
0100
0001
0100
,
0101
0000
0011
0000
0010
0100
0000
2200
,
0000
0000
0000
3300
1000
0001
1000
0001
,
1000
0000
1100
0000
1100
0000
0010
0001
,
0000
0100
0000
1000
0000
0010
0000
0001
,
1000
0000
0011
0000
0011
0000
0100
1000
,
0000
0010
0000
0001
0000
0100
0000
1000
,
0001
0000
0110
0000
1001
0000
0010
1000
,
0000
1001
0000
0110
0000
1001
0000
0100
,
0001
0000
0011
0000
0010
0100
0000
1200
,
0000
0010
0000
1000
0000
0010
0000
1300
,
0001
0000
1000
0000
0100
0000
0010
0001
,
0000
0100
0000
0100
0000
0010
0000
0100
,
0010
0000
1000
0000
0100
0000
0010
0001
,
0000
0100
0000
0100
0000
0010
0000
1000
,
0001
0000
0100
0000
0010
0000
1000
0100
,
0000
0010
0000
0010
0000
0001
0000
0100
,
0010
0000
1000
0000
0001
0100
0000
0020
,
0000
0100
0000
0100
0000
0100
0000
0100
,
0000
0000
0000
0030
;

//---------------dance-single - ----------------
#NOTES:
     dance-single:
     :
     Medium:
     9:
     0.471514,0.527104,0.153306,0.099198,0.000000,366.000000,349.000000,17.000000,11.000000,0.000000,0.000000,0.471514,0.527104,0.153306,0.099198,0.000000,366.000000,349.000000,17.000000,11.000000,0.000000,0.000000:
0000
0000
0000
0000
,
0000
0000
0000
0000
,
0000
0000
0000
0000
,
0000
0000
0000
1001
,
0000
1000
0010
1000
0010
1000
0000
0001
,
0000
0010
0000
0100
0000
1000
0100
0010
,
0001
0000
1000
0000
0001
0000
0000
0100
,
0010
0100
0000
0001
1000
0001
0000
0100
,
0010
0010
1000
0001
,
0100
0100
0001
1000
,
0001
0010
0001
0000
1000
0100
1000
0100
,
1000
1001
0110
0001
,
0010
0001
0001
0000
0100
0000
0010
0000
,
0000
0100
0010
1000
0001
0000
0001
0000
,
1000
0000
0100
0000
1000
0100
0000
0010
,
0001
0000
1000
0001
0000
0001
1000
0000
,
0010
1000
1000
0000
0010
0000
0100
0000
,
0000
0010
0100
0001
1000
0000
1000
0000
,
0001
0000
0010
0000
0001
0010
0000
0100
,
1000
0000
0000
0000
0000
0010
0010
0000
,
1000
0100
0010
0000
0001
1000
0000
0001
,
2000
0000
3000
1000
0002
0000
0003
0000
,
0101
0000
1001
0000
1000
0000
0010
0100
,
0010
0000
1000
0010
0000
0010
0100
0000
,
0010
1000
0001
0000
0100
0010
0000
0100
,
0020
0000
0030
0010
0200
0000
0300
0000
,
1001
0000
0010
0000
,
1000
0101
1100
0001
,
1000
0100
1000
0000
0010
0000
0010
0000
,
0100
0000
0001
0000
1000
0001
0010
0100
,
0010
0001
0010
0000
0001
0000
1000
0000
,
0020
0000
0000
2030
0000
0000
3001
0000
,
1000
0100
1000
0000
0001
0000
0001
0000
,
0100
0000
0010
0000
0100
0010
1000
0010
,
0100
0001
0100
0000
0001
0000
1000
0000
,
0002
0000
0000
0023
0000
0000
0130
0000
,
1000
0100
0010
0000
0001
1000
0001
1000
,
0001
0000
0010
0000
0001
0100
0001
0100
,
0001
0000
1001
0000
,
0100
0000
0010
0000
0000
1000
0000
0001
,
0100
0000
0000
0000
,
0000
0000
0000
0110
,
0000
0001
0100
0001
0100
0001
0000
1000
,
0000
0100
0000
0010
0000
0001
0010
0100
,
1000
0000
0001
0000
1000
0010
0000
0010
,
0100
0000
0001
0000
,
0010
0000
0100
1000
0100
0000
0010
0000
,
0001
1000
0000
0001
0000
0000
0100
0000
,
0010
1000
0010
0000
1000
0100
1000
0000
,
0001
1001
0110
1000
,
0010
0000
1000
0000
0010
0000
0100
0001
,
0000
0010
0000
0001
0000
0100
0001
0000
,
1000
0000
0010
1000
0000
0100
0010
0100
,
0000
0010
0001
0010
0001
0000
1000
0000
,
0001
0000
0010
0000
0001
0000
1000
0010
,
0000
0100
0000
0001
0000
1000
0010
1000
,
0001
0000
0010
0000
0100
1000
0000
0010
,
0000
0100
0001
0100
0000
0001
1000
0000
,
0000
0001
0010
0000
0010
0100
0000
0100
,
1000
0000
1000
0001
0000
0001
0100
0000
,
0010
0000
0010
0000
0010
1000
0010
1000
,
0000
1000
0001
0000
0001
0000
0100
0000
,
0001
0010
0001
0000
,
1000
0010
1000
0000
,
0010
0000
0010
0000
0010
0100
0000
2002
,
0000
0000
0000
3003
0001
1000
0001
0000
,
1000
0000
1000
0000
0010
0000
1000
0010
,
0000
0100
0000
0100
0000
0001
0000
0010
,
0001
0000
0001
0000
0001
0000
0010
0100
,
0000
0100
0000
0100
0000
1000
0000
0010
,
1000
0000
0000
0000
,
0011
0000
0000
0000
0000
0000
0000
0001
,
1000
0000
0010
0000
0100
0010
0000
0101
,
0000
1010
0000
1001
0000
0100
0000
0010
,
0001
0000
0001
0000
0100
0000
1000
0100
,
0000
0001
0000
0001
0000
1000
0000
0001
,
1000
0000
1000
0000
0100
0000
0001
0100
,
0000
1000
0000
1000
0000
0001
0000
1000
,
0001
0000
0010
0000
0001
0000
0100
0001
,
0000
0010
0000
0010
0000
0001
0000
0100
,
0010
0000
0001
0000
0010
1000
0000
0001
,
0000
0001
0000
0001
0000
0001
0000
0002
,
0000
0000
0000
0000
,
0000
0000
0003
0000
;

//---------------dance-single - ----------------
#NOTES:
     dance-single:
     :
     Easy:
     6:
     0.351703,0.443011,0.216433,0.189379,0.000000,273.000000,249.000000,24.000000,21.000000,0.000000,0.000000,0.351703,0.443011,0.216433,0.189379,0.000000,273.000000,249.000000,24.000000,21.000000,0.000000,0.000000:
0000
0000
0000
0000
,
0000
0000
0000
0000
,
0000
0000
0000
0000
,
0010
1000
0010
0100
,
0100
0001
0100
0000
,
0001
0010
0001
0000
,
1000
0001
1001
0000
,
0011
0000
1100
0000
,
1000
0100
0010
0010
,
0001
0100
0001
0100
,
0020
0000
1030
0000
,
1100
0011
1001
0110
,
0200
0300
0100
0001
,
0000
1000
0010
0100
,
0001
0001
0010
0000
,
0001
1000
0000
0010
,
2000
3000
1000
0100
,
0000
0010
0001
0010
,
0002
0003
1000
0001
,
1001
0000
0000
0100
,
0020
0030
0010
1000
,
0000
0001
0100
0010
,
1000
1000
0100
0000
,
1000
0001
0000
0100
,
0002
0003
0001
0010
,
0000
0100
1000
0100
,
2000
3000
0002
0003
,
0101
1010
1001
0110
,
0020
0000
1030
0001
,
0010
0001
1000
1000
,
0020
0000
0130
0000
,
0010
0000
0000
0100
0000
0000
0001
0000
,
0200
0000
0301
1000
,
0100
1000
0001
0010
,
0200
0000
1300
0001
,
1000
0000
0000
0100
0000
0000
1000
0000
,
0002
0000
0013
0100
,
2000
0000
3100
0010
,
0002
0000
1003
0000
,
1001
0000
1001
0000
0000
0010
0000
0000
,
0220
0000
0000
0330
,
1000
0100
0010
0001
,
0001
0010
0001
0000
,
1000
0010
1000
0000
,
0010
0100
0110
0000
,
1010
0000
0101
0000
,
0100
0001
1000
1000
,
0001
0010
0001
0010
,
0100
1000
0100
0000
,
1100
1100
0011
1001
,
1000
0100
1000
0000
,
0010
0100
0100
0001
,
0010
0100
0000
0010
,
0000
0001
0001
1000
,
0001
0010
0001
0000
,
0100
0100
0010
0010
,
1000
0000
0010
0000
1000
0000
0000
0010
,
0000
0000
0100
0000
0000
0001
0000
0000
,
1000
0100
1000
0000
,
0100
0010
0100
0000
,
0010
0001
0011
0000
,
0002
0000
2003
0000
,
3010
1000
0001
0001
,
1000
0100
0010
0001
,
0100
0010
0100
0010
,
0220
0000
0000
0330
,
1000
0000
0100
0000
0010
0000
0000
0001
,
0000
0010
0000
0001
0000
0001
0000
0000
,
0001
0000
0100
0000
0010
0000
0000
1000
,
0000
0010
0000
1000
0000
1000
0000
0000
,
0100
0000
0010
0000
0001
0000
0000
0010
,
0000
0100
0000
1000
0000
1000
0000
0000
,
1000
0000
0000
0000
0001
0000
0000
0100
,
0000
0100
0000
0100
0000
0100
0000
0000
,
0001
0000
0010
0000
0001
0000
0000
0001
,
0000
0100
0000
0001
0000
0001
0000
0000
,
1000
0000
0010
0000
1000
0000
0000
1000
,
0000
0100
0000
1000
0000
1000
0000
0000
,
0010
0000
1000
0000
0010
0000
0000
1000
,
0000
0010
0000
1000
0000
1000
0000
0000
,
0001
0000
0010
0000
0001
0000
0000
1000
,
0000
0100
0000
0010
0000
0001
0000
0001
;

//---------------dance-single - ----------------
#NOTES:
     dance-single:
     :
     Beginner:
     3:
     0.128829,0.255661,0.000000,0.000000,0.000000,100.000000,100.000000,0.000000,0.000000,0.000000,0.000000,0.128829,0.255661,0.000000,0.000000,0.000000,100.000000,100.000000,0.000000,0.000000,0.000000,0.000000:
0000
0000
0000
0000
,
0000
0000
0000
0000
,
0000
0000
0000
0000
,
0000
0000
0000
0000
,
0010
0000
0000
0000
,
0001
0000
0000
0000
,
1000
0000
0000
0000
,
0010
0000
0010
0000
,
0010
0000
0000
0000
,
1000
0000
0000
0000
,
0001
0000
0000
0000
,
0010
0010
0010
0010
,
0010
0000
0000
0000
,
0000
0100
0000
0000
,
1000
0000
0000
0000
,
0001
0000
0000
0000
,
0100
0000
0000
0000
,
0010
0000
0000
0000
,
1000
0000
0001
0000
,
1000
0000
0000
0000
,
0001
0000
0000
0000
,
0010
0000
0000
0000
,
0100
0000
0000
0000
,
1000
0000
0000
0000
,
0010
0000
0000
0000
,
0100
0000
0000
0000
,
0001
0000
0001
0000
,
0100
0100
0100
0100
,
0100
0000
0000
0000
,
0000
0000
0000
0010
,
0010
0000
0000
0000
,
1000
0000
0000
0001
,
0001
0000
0000
0000
,
0000
0000
0000
0010
,
0010
0000
0000
0000
,
0100
0000
0000
1000
,
1000
0000
0000
0001
,
0001
0000
0000
0100
,
0100
0000
0010
0000
,
0100
0100
0000
0000
,
0010
0000
0000
0000
,
0000
0000
0000
0000
,
0100
0000
0000
0000
,
0001
0000
0000
0000
,
1000
0000
0000
0000
,
0100
0000
0100
0000
,
0100
0000
0000
0000
,
0001
0000
0000
0000
,
1000
0000
0000
0000
,
0100
0100
0100
0100
,
0100
0000
0000
0000
,
0000
0000
0000
1000
,
1000
0000
0000
0000
,
0000
0000
0000
0000
,
0010
0000
0000
0000
,
0000
0000
0000
0100
,
0100
0000
0000
0000
,
0010
0000
0000
0000
,
0001
0000
0000
0000
,
1000
0000
0000
0000
,
0001
0001
0001
0000
,
0100
0000
0000
0000
,
0010
0000
0000
0000
,
1000
0000
0000
0000
,
0100
0100
0100
0000
,
0000
0000
0000
0000
,
0010
0000
0000
0001
,
0000
0000
0000
0000
,
1000
0000
0000
0010
,
0000
0000
0000
0000
,
0100
0000
0000
0001
,
0000
0000
0000
0000
,
0010
0000
0010
0000
,
0010
0000
0000
0000
,
0100
0000
0000
1000
,
0000
0000
0000
0000
,
0001
0000
0000
0010
,
0000
0000
0000
0000
,
0001
0000
0000
1000
,
0000
0000
0000
0000
,
0010
0000
0010
0000
,
0010
0000
0000
0000
;

//---------------dance-double - ----------------
#NOTES:
     dance-double:
     :
     Easy:
     6:
     0.313054,0.410433,0.045090,0.081162,0.000000,243.000000,238.000000,5.000000,9.000000,0.000000,0.000000,0.313054,0.410433,0.045090,0.081162,0.000000,243.000000,238.000000,5.000000,9.000000,0.000000,0.000000:
00000000
00000000
00000000
00000000
,
00000000
00000000
00000000
00000000
,
00000000
00000000
00000000
00000000
,
00000000
00000000
00000000
00000000
,
00000000
10000000
00100000
00000000
,
01000000
00000000
00010000
00000000
,
10000000
10000000
10000000
00000000
,
01000000
00010000
00001000
00000100
,
00000001
00000010
00000001
00000000
,
00001000
00000010
00001000
00000000
,
00000010
00000100
00000010
00000100
,
00000010
00000010
00000010
00001001
,
00000001
00000010
00001000
00000000
,
00010000
00100000
10000000
00000000
,
10000000
00010000
10000000
00000000
,
00010000
10000000
00010000
10000000
,
10000000
01000000
00010000
00000000
,
00001000
00000100
00000001
00000000
,
00001000
00000010
00001000
00000000
,
00000020
00000000
00000000
00000130
,
00000001
00000010
00001000
00000000
,
00010000
00100000
10000000
00000000
,
00010000
01000000
00010000
00000000
,
10000000
01000000
10000000
00100000
,
10000000
01000000
00010000
00000000
,
00001000
00000100
00000001
00000000
,
00001000
00000000
00000001
00000000
,
00001001
00001001
00000110
00001001
,
00000001
00000000
00000100
00000000
,
00001000
00000000
00010000
01000000
,
10000000
00000000
00100000
00000000
,
00010000
00000000
00000000
00001000
00000000
00000000
00000010
00000000
,
00000001
00000000
00000100
00000000
,
00001000
00000000
00010000
01000000
,
10000000
00000000
00100000
00000000
,
00010000
00000000
00000000
00001000
00000000
00000000
00000100
00000000
,
00000001
00000000
00000010
00001000
,
00010000
00000000
00100000
10000000
,
01000000
00000000
00010000
00000000
,
00001000
00000000
00000100
00000000
00000000
00000001
00000000
00000000
,
00000100
00000000
00000000
00000000
,
00000000
00000000
00000000
00000000
,
00000010
00001000
00000010
00000000
,
00000100
00000001
00000100
00000000
,
00000001
00000010
00001000
00000000
,
00010000
00100000
10000000
00100000
,
01000000
01000000
01000000
00000000
,
00010000
00010000
10000000
00010000
,
10000000
01000000
00010000
00001000
,
00000100
00000100
00000100
00000001
,
00001000
00000000
00000010
00000000
00001000
00000000
00000000
00000001
,
00000000
00000100
00000000
00000001
00000000
00000000
00000000
00000000
,
00001000
00002000
00000000
00003200
,
00000000
00020300
00000000
00031000
,
00100000
00000000
00010000
00000000
00100000
00000000
00000000
01000000
,
00000000
10000000
00000000
01000000
00000000
00000000
10000000
00000000
,
00010000
00010000
00200000
00000000
,
00302000
00000000
00023000
00000000
,
00030100
00001000
00000100
00000000
,
00001000
00000010
00001000
00000000
,
00000001
00000100
00001000
00000000
,
00010000
01000000
10000000
00100000
,
01000000
01000000
01000000
00000000
,
00010000
00010000
00010000
00100000
,
00001000
00010000
00000010
00000100
,
00000002
00000000
00001000
00001003
,
00000001
00000000
00000100
00000000
00000001
00000000
00000000
00000100
,
00000000
00000001
00000000
00000100
00000000
00000001
00000000
00000000
,
00001000
00000000
00000100
00000000
00001000
00000000
00000000
00000100
,
00000000
00001000
00000000
00000100
00000000
00001000
00000000
00000000
,
00000100
00010000
00001000
00000000
,
00000000
00010000
00000000
00001000
00000000
01000000
00000000
00000000
,
00100000
00000000
00000000
00000000
01000000
00000000
00000000
00100000
,
00000000
00100000
00000000
00100000
00000000
00100000
00000000
00000000
,
10000000
00000000
01000000
00000000
10000000
00000000
00000000
01000000
,
00000000
10000000
00000000
01000000
00000000
10000000
00000000
00000000
,
00010000
00000000
00100000
00000000
00010000
00000000
00000000
00100000
,
00000000
00010000
00000000
00100000
00000000
00010000
00000000
00000000
,
00100000
00001000
00010000
00000000
,
00000000
00001000
00000000
00010000
00000000
00000010
00000000
00000000
,
00000100
00000000
00000001
00000000
00000100
00000000
00000000
00000001
,
00000000
00001000
00000000
00000001
00000000
00001000
00000000
00000002
,
00000000
00000000
00000000
00000003
;

//---------------dance-double - ----------------
#NOTES:
     dance-double:
     :
     Medium:
     10:
     0.550100,0.553763,0.414829,0.216433,0.000000,427.000000,381.000000,46.000000,24.000000,0.000000,0.000000,0.550100,0.553763,0.414829,0.216433,0.000000,427.000000,381.000000,46.000000,24.000000,0.000000,0.000000:
00000000
00000000
00000000
00000000
,
00000000
00000000
00000000
00000000
,
00000000
00000000
00000000
00000000
,
02000000
00100000
03100000
10010000
,
10000000
00000000
01000000
00000000
00010000
00001000
00000000
00000100
,
00000000
00000001
00001000
00000001
00000000
00001000
00000001
00001000
,
00000001
00000100
00000010
00001000
,
00000001
00001000
00010000
10000000
,
00100000
00000000
00010000
00000000
00001000
00000010
00000001
00000000
,
00000100
00001000
00010000
01000000
00000000
10000000
00010000
10000000
,
00000000
00010000
10000000
00010000
10000000
00000000
00010000
00000000
,
00100000
00100000
00100000
00110000
,
00010000
01000000
00100000
00000000
10000000
01000000
00010000
00001000
,
00000000
00000010
00000001
00000010
00000001
00000000
00001000
00000000
,
00000001
00000000
00000001
00000000
00000100
00000010
00000000
00001000
,
00000001
00001000
00000010
00000100
00000000
00000010
00000010
00000000
,
00000010
00001000
00000001
00000000
00000001
00000100
00001000
00010000
,
00000000
01000000
10000000
00000000
00010000
00000000
10000000
00000000
,
01000000
00010000
00001000
00000000
00000100
00000001
00000000
00000001
,
00000010
00000000
00000001
00000001
00000000
00001000
00001000
00000000
,
00001000
00000010
00000100
00000000
00000001
00000100
00001000
00010000
,
00000000
00100000
10000000
00100000
10000000
00000000
00010000
00000000
,
10000000
00000000
10000000
00000000
00100000
01000000
00000000
00010000
,
10000000
00010000
01000000
00100000
00000000
01000000
01000000
00000000
,
01000000
00010000
10000000
00000000
10000000
00100000
00010000
00001000
,
00000000
00000010
00000001
00000000
00001000
00000000
00000001
00000000
,
00000200
00000000
00002300
00000000
,
00013000
00100000
10000000
10010000
,
10000000
01000000
00010000
00000000
00001000
00000000
00000100
00000000
,
00000001
00000000
00001000
00000000
00000001
00000100
00001000
00010000
,
01000000
10000000
01000000
00100000
,
00101000
00000000
00000000
00011000
00000000
00000000
00010100
00000000
,
00000010
00000001
00001000
00000000
00000001
00000000
00000100
00000000
,
00000010
00000000
00001000
00000000
00000001
00000010
00001000
00010000
,
00100000
01000000
10000000
00010000
,
01010000
00000000
00000000
00101000
00000000
00000000
00011000
00000000
,
00010000
00000000
00000100
00000000
00001000
00000010
00000100
00000001
,
00000010
00000000
00001000
00000000
00010000
00100000
10000000
00100000
,
01000000
00000000
01010000
00000000
,
00110000
00000000
11000000
00000000
00000000
00100000
00000000
00001000
,
00010000
00000000
00000000
00000000
,
00000020
00000100
00000130
00000110
,
00000001
00000000
00000010
00000000
00001000
00010000
00000000
00100000
,
00000000
10000000
00010000
10000000
00000000
00010000
10000000
00010000
,
10000000
00010000
01000000
00100000
,
00010000
00001000
00000010
00000001
,
00000100
00000000
00001000
00000000
00010000
01000000
10000000
00000000
,
00100000
00010000
00001000
00000010
00000000
00000001
00001000
00000001
,
00000000
00001000
00000001
00001000
00000010
00000000
00001000
00000000
,
00000100
00000100
00000100
00001100
,
00000010
00000000
00000001
00000000
00001000
00000000
00000100
00010000
,
00000000
00011000
00000000
00101000
00000000
00100000
01000000
00100000
,
01000000
00000000
10000000
00020000
00000000
01030000
00100000
02000000
,
00000000
03100000
00010000
00100000
01000000
00000000
10000000
00000000
,
00010000
00000000
10000000
00000000
00100000
00000000
01000000
00001000
,
00000000
00011000
00000000
00010010
00000000
00000010
00000100
00000010
,
00000100
00000000
00000001
00000000
00001000
00000010
00000000
00000110
,
00000000
00000100
00000001
00001000
00000000
00000010
00000100
00000000
,
00000001
00001000
00000001
00000000
00000100
00000000
00001000
00000000
,
00010000
00000000
01000000
00000000
10000000
00000000
00010000
10000000
,
00010000
00000000
10010000
00000000
01000000
00100000
00010000
00001000
,
00000000
00000010
00000001
00000000
00001000
00000000
00000010
00000000
,
00000100
00000000
00001000
00010000
01000000
10000000
00000000
01000000
,
00000000
00010000
00001000
00010000
00000000
00001000
00000010
00000001
,
00000010
00000000
00000010
00000000
00000001
00001000
00000000
00002002
,
00000000
00000000
00000000
00003003
00000010
00000100
00000010
00000000
,
00001000
00000000
00000100
00000000
00000010
00000000
00000001
00001000
,
00000000
00001001
00000000
00010100
00000000
00011000
00000000
00001000
,
00100000
00000000
01000000
00000000
10000000
00000000
00010000
10000000
,
00000000
10010000
00000000
01001000
00000000
00011000
00000000
00010000
,
00000020
00000000
00001000
00000000
00000031
00000000
00001000
00000200
,
00000000
00000320
00000000
00002030
00000000
00023000
00000000
00130000
,
10000000
00000000
10010000
00000000
00010000
01000000
00000000
01100000
,
00000000
10010000
00000000
01010000
00000000
10100000
00000000
10000000
,
02000000
00000000
03020000
00000000
00032000
00000000
00003010
00000001
,
00000000
00001001
00000000
00000110
00000000
00001001
00000000
00000001
,
00000200
00000000
00002300
00000000
00023000
00000000
01030000
10000000
,
00000000
10010000
00000000
01100000
00000000
10010000
00000000
10000000
,
00020000
00000000
02030000
00000000
03200000
00000000
00310000
00001000
,
00000000
00001010
00000000
00000011
00000000
00001001
00000000
00000010
,
00000200
00000000
00002300
00000000
00013000
01000000
00000000
10010000
,
00000000
10010000
00000000
10010000
00000000
10010000
00000000
10010000
;

//---------------dance-double - ----------------
#NOTES:
     dance-double:
     :
     Hard:
     13:
     0.711136,0.746242,0.649298,0.135270,0.040581,552.000000,480.000000,72.000000,15.000000,0.000000,0.000000,0.711136,0.746242,0.649298,0.135270,0.040581,552.000000,480.000000,72.000000,15.000000,0.000000,0.000000:
00000000
00000000
00000000
00000000
,
00000000
00000000
00000000
00000000
,
20020000
00000000
00000000
30030000
,
10000000
00010000
01000000
00100000
10000000
00010000
10010000
00000000
,
10000000
01000000
00100000
01000000
10000000
00100000
00010000
00100000
,
00000000
00010000
00001000
00010000
00000000
00001000
00000010
00001000
,
00000010
00000001
00000100
00000001
00000010
00000100
00001000
00000100
,
00001000
00000010
00000100
00001000
00010000
01000000
10000000
00100000
,
10100000
01010000
00101000
00011000
,
00010000
00000100
00000100
00001000
00000000
00000010
00000100
00000001
,
00000010
00001000
00000010
00001000
00010000
00100000
00010000
00100000
,
00110000
10100000
11000000
01010000
,
00010000
00001000
00000100
00000001
00000010
00000100
00000010
00000100
,
00000000
00000010
00000001
00000100
00001000
00010000
01000000
10000000
,
11000000
00000000
01010000
00000000
01000000
10000000
00000000
00100000
,
00010000
00001000
00000010
00000001
00000000
00001000
00001000
00000000
,
00000001
00000010
00000100
00000010
00000001
00000100
00001000
00000100
,
00000000
00001000
00010000
01000000
10000000
00100000
01000000
00010000
,
01000000
00000000
00100000
01000000
00100000
00000000
00000000
00000000
00010000
00000000
00001000
00000000
00000000
00000000
00000010
00000000
,
00000001
00000100
00000010
00001000
00000000
00000001
00000100
00000000
,
00001000
00010000
00100000
10000000
01000000
00100000
01000000
00100000
,
00000000
01000000
10000000
00100000
00010000
00001000
00000100
00000001
,
00000101
00000000
00001100
00000000
00000100
00000001
00000000
00000100
,
00001000
00010000
01000000
10000000
00000000
00010000
00010000
00000000
,
10000000
00100000
01000000
00100000
10000000
01000000
00010000
01000000
,
00000000
00010000
00001000
00000100
00000001
00000010
00001000
00000010
,
00000001
00000000
00001000
00000010
00000000
00000010
00000100
00000000
00001000
00000000
00010000
01000000
00000000
01000000
10000000
00000000
,
11000000
00110000
11000000
00110000
,
10000000
00000000
00010000
01000000
00010000
00000000
10000000
00000000
00010000
00000000
01000000
00000000
00010000
00000000
10000000
00000000
,
00100000
00010000
00001000
00000010
00000001
00001000
00000100
00001000
,
00000001
00000000
00001000
00000100
00001000
00000000
00000001
00000000
00001000
00000000
00000100
00000000
00001000
00000000
00000001
00000000
,
00000010
00000000
00000000
00001000
00000000
00000000
00010000
00000000
,
00100000
00000000
10000000
00010000
10000000
00000000
00100000
00000000
10000000
00000000
00010000
00000000
10000000
00000000
00100000
00000000
,
00010000
00001000
00000010
00000001
00001000
00000010
00000100
00000010
,
00000100
00000000
00000001
00000010
00000001
00000000
00000100
00000000
00000001
00000000
00000010
00000000
00000001
00000000
00000100
00000000
,
00001000
00000000
00000000
00010000
00000000
00000000
01000000
00000000
,
11000000
00100000
00010000
01000000
00100000
00010000
00001000
00000100
,
00000001
00000010
00000100
00001000
00000001
00000100
00000010
00000100
,
00001000
00010000
01000000
00000000
10000000
00010000
01000000
00000000
,
01010000
00000000
00101000
00000000
00000000
00011000
00000000
00010000
,
00000020
00000000
00000000
00000000
,
00001030
00000001
00000100
00000010
00001000
00000001
00001001
00000000
,
00000001
00000100
00001000
00000100
00000001
00000010
00001000
00010000
,
00000000
00001000
00010000
00100000
00000000
00010000
00100000
10000000
,
10100000
00000000
01010000
00000000
10000000
00010000
01000000
00100000
,
00010000
00001000
00000100
00001000
00010000
00000010
00000100
00000001
,
00000101
00000000
00000011
00000000
00000001
00000010
00001000
00010000
,
00100000
10000000
00000000
10010000
00000000
10000000
00010000
01000000
,
00100000
00010000
00100000
00010000
00001000
00000010
00001000
00000010
,
00000011
00001100
00010100
00011000
,
00102000
00000000
00010000
00000000
00103000
00000000
00001000
00010000
,
00000000
00011000
00000000
00000110
00000000
00000001
00000100
00001000
,
00001100
00000000
00001000
00020000
00000000
01030000
10000000
02000000
,
00000000
13000000
00100000
00010000
00100000
10000000
00010000
00000000
,
02010000
00000000
00001000
00000000
03010000
00000000
01000000
00100000
,
00000000
00011000
00000000
00001100
00000000
00000100
00000001
00001000
,
00001001
00000000
00000110
00000000
00000100
00001000
00000000
00011000
,
00000000
00010000
01000000
10000000
00000000
10000000
00010000
00000000
,
10000000
01000000
00010000
01000000
10000000
00100000
00010000
00100000
,
10000000
01000000
00010000
00001000
00000100
00000001
00000010
00000001
,
00000011
00000000
00001100
00000000
00000001
00000010
00000100
00002000
,
00000000
00003010
00000100
00001000
00010000
01000000
10000000
00010000
,
01000000
00100000
10000000
00100000
01000000
00010000
00100000
00010000
,
00000000
01000000
00100000
00010000
00000000
00001000
00000100
00000001
,
00000101
00000000
00001010
00000000
00000100
00010000
00000000
00022000
,
00000000
00000000
00000000
00000000
00000000
00000000
00000000
00033000
,
00101000
00000000
01100000
00000000
00101000
00000000
00010000
00000100
,
00000000
00001100
00000000
00000011
00000000
00001100
00000000
00000010
,
00000100
00000000
00000110
00000000
00010010
00000000
00000010
00000100
,
00000000
00001100
00000000
00011000
00000000
01010000
00000000
01000000
,
10000000
00000000
10010000
00000000
01000000
00000000
00100000
00010000
,
00000000
00011000
00000000
00001010
00000000
00000011
00000000
00000001
,
00001000
00000000
00000110
00000000
00001000
00000001
00000000
00000100
,
00001000
00000100
00000001
00000100
00001000
00010000
01000000
10000000
,
11000000
00000000
00110000
00000000
11000000
00000000
10000000
01000000
,
00000000
00010000
00000000
00001000
00000000
00000100
00000000
00000001
,
00000100
00000000
00001010
00000000
00000101
00000000
00000001
00000010
,
00000000
00001000
00000000
00010000
00000000
00100000
00000000
10000000
,
01000000
00000000
00110000
00000000
11000000
00000000
10000000
00010000
,
00000000
00001000
00000000
00000001
00000000
00001001
00000000
00000001
,
00000100
00000000
00001010
00000000
00000001
00000100
00000000
00002000
,
00000000
00023000
00000000
02030000
00000000
23000000
00000000
00020000
,
00000000
00000000
00000000
30030000
;

//---------------dance-double - ----------------
#NOTES:
     dance-double:
     :
     Challenge:
     15:
     0.848983,0.888727,0.577154,0.189379,0.338176,659.000000,595.000000,64.000000,21.000000,0.000000,0.000000,0.848983,0.888727,0.577154,0.189379,0.338176,659.000000,595.000000,64.000000,21.000000,0.000000,0.000000:
// measure 0
00000000
00000000
00000000
00000000
,  // measure 1
00000000
00000000
00000000
00000000
,  // measure 2
00002002
00000000
00000000
00000000
00000000
00000000
00000000
00000000
00003003
00000000
00000000
00000000
00000010
00000100
00000010
00000100
,  // measure 3
00000010
00000000
00000100
00000010
00001000
00000000
00000010
00000100
00000001
00001000
00000000
00000000
00001001
00000000
00000000
00000000
,  // measure 4
00000101
00000001
00000100
00000000
00001000
00010000
00000000
00021000
,  // measure 5
00000000
00031000
00100000
00010000
00000000
01000000
00100000
00010000
,  // measure 6
00011000
00000000
00001000
00000100
00000001
00000100
00001000
00010000
,  // measure 7
01000000
01000000
10000000
00100000
00010000
00010000
00001000
00000010
,  // measure 8
00000011
00000000
00001001
00000000
00001100
00001000
00000010
00000100
,  // measure 9
00001000
00010000
00001000
00010000
00000000
00100000
10000000
00100000
,  // measure 10
00000000
10000000
00010000
10000000
00010000
01000000
00100000
01000000
,  // measure 11
01100000
10010000
01100000
00011000
,  // measure 12
00010000
00000000
00010000
00000010
00000100
00000000
00000100
00000000
00000001
00000000
00000001
00000010
00000100
00000000
00000100
00000000
,  // measure 13
00000000
00000000
00010000
00000100
00001000
00000100
00010000
00000000
00001000
00000000
00010000
00000000
01000000
00000000
10000000
00010000
,  // measure 14
01000000
00000000
01000000
00010000
10000000
00000000
00100000
00000000
00010000
00000000
00001000
00000000
00000000
00000000
00000010
00000000
,  // measure 15
00000001
00001000
00000100
00001000
00000001
00000000
00000021
00000000
00000000
00000000
00001030
00000000
00010000
00000000
00100000
10000000
,  // measure 16
00010000
00000000
00010000
01000000
00100000
00000000
00100000
00000000
10000000
00000000
10000000
00100000
01000000
00000000
01000000
00000000
,  // measure 17
00000000
00000000
00100000
01000000
00010000
01000000
00100000
00000000
01000000
00000000
00100000
00000000
00010000
00000000
00001000
00000010
,  // measure 18
00000001
00000000
00001000
00000010
00000100
00000000
00001000
00000000
00010000
00000000
01000000
00000000
10000000
00010000
10000000
00000000
,  // measure 19
10010000
00010000
01000000
00200000
00000000
00310000
00001000
00000000
,  // measure 20
00000010
00000000
00000010
00000001
00000100
00000000
00000100
00000000
00000010
00000000
00000010
00010000
00001000
00000000
00001000
00000000
,  // measure 21
00020000
00000000
00000000
00000000
00030000
00000000
00001000
00010000
00002000
00000000
01000000
00000000
01003000
00000000
00100000
00000000
,  // measure 22
01100000
00000000
00000000
00000000
01010000
00000000
00000000
00000000
10010000
00000000
10000000
00000000
00010000
00000000
01000000
00100000
,  // measure 23
00010000
00001000
00000100
00000001
00000000
00001000
00000001
00000000
,  // measure 24
00000100
00000000
00000100
00000001
00000010
00000000
00000010
00000000
00000100
00000000
00000100
00010000
00001000
00000000
00001000
00000000
,  // measure 25
00100000
00000000
00010000
01000000
00100000
10000000
00010000
10000000
00010000
10000000
00010000
00000000
01000000
00000000
00100000
00000000
,  // measure 26
10010000
00000000
00000000
00100000
00000000
00000000
00010000
00000000
00001000
00000000
00000000
00000010
00000000
00000000
00000001
00000000
,  // measure 27
00000101
00001010
00000101
00001001
,  // measure 28
00000001
00000000
00000100
00000010
00000100
00000000
00000001
00000000
00000010
00000000
00001000
00000000
00000010
00000000
00001000
00000000
,  // measure 29
00010000
00100000
00010000
00001000
01000000
00001000
00100000
01000000
,  // measure 30
10000000
00000000
00100000
01000000
00100000
00000000
10000000
00000000
00100000
00000000
00010000
00000000
00100000
00000000
00010000
00000000
,  // measure 31
00001000
00000000
00000000
00001100
00000000
00000000
00000101
00000000
,  // measure 32
00001001
00000000
00001000
00000100
00001000
00000000
00000010
00000000
00000100
00000000
00001000
00000000
00010000
00000000
01000000
00000000
,  // measure 33
10000000
00100000
01000000
00010000
10000000
00100000
01000000
00100000
,  // measure 34
10100000
00000000
10000000
00010000
10000000
00000000
01000000
00000000
00010000
00000000
00001000
00000000
00000100
00000000
00000001
00000000
,  // measure 35
00000101
00000000
00000010
00001100
00000000
00000010
00000101
00000000
,  // measure 36
00001001
00000000
00000001
00001000
00000001
00000000
00000010
00000000
00001000
00000000
00010000
00000000
00100000
00000000
10000000
00000000
,  // measure 37
10000000
00000000
00010000
00100000
00010000
00000000
01000000
00000000
00100000
00000000
00010000
00000000
00001000
00000000
00000010
00000000
,  // measure 38
00000001
00000000
00000001
00001000
00000001
00000000
00001000
00000000
00000100
00000000
00001000
00000001
00001000
00000000
00000001
00000000
,  // measure 39
00001001
00000000
00000101
00000000
00000100
00001000
00000000
00010000
,  // measure 40
01000000
00000000
00000000
00000000
00000000
00000000
00000000
00000000
00000000
00000000
00000000
00000000
10000000
00010000
10000000
00010000
,  // measure 41
10000000
00000000
00100000
01000000
00010000
00000000
01000000
00100000
10000000
00010000
00000000
00000000
10010000
00000000
00000000
00000000
,  // measure 42
10010000
10000000
01000000
00010000
01000000
10000000
00100000
00020000
,  // measure 43
00000000
00031000
00000010
00000002
00000000
00001003
00000010
00000100
,  // measure 44
00000101
00000000
00001001
00000001
00000100
00001000
00010000
01000000
,  // measure 45
10000000
00100000
00010000
00100000
10000000
01000000
00010000
00001000
,  // measure 46
00001100
00000000
00000101
00000001
00001000
00000010
00000100
00001000
,  // measure 47
00010000
01000000
00010000
02000000
00000000
13000000
00100000
00010000
,  // measure 48
00001000
00000010
00001000
00000010
00000001
00000100
00000001
00000100
,  // measure 49
00000101
00001100
00000101
00001001
,  // measure 50
00000001
00000000
00000000
00000001
00001000
00000000
00000000
00001000
00000010
00000000
00000100
00000000
00001000
00000000
00010000
00000000
,  // measure 51
00000000
00000000
01000000
10000000
01000000
00000000
10000000
00000000
00000000
00000000
00100000
00010000
00001000
00000000
00000010
00000000
,  // measure 52
00000001
00000100
00001000
00000200
00000000
00000301
00000010
00002000
,  // measure 53
00000000
00000000
00013000
00000000
00100000
00000000
10000000
00000000
00010000
10000000
00010000
10000000
00010000
00000000
00000000
00000000
,  // measure 54
10000000
00000000
00000000
10000000
00010000
00000000
00000000
00010000
01000000
00000000
00100000
00000000
00010000
00000000
00001000
00000000
,  // measure 55
00000000
00001010
00000000
00000011
00000000
00000001
00001000
00000100
,  // measure 56
00010000
00001000
00100000
00001000
00010000
00000100
00000000
00011000
,  // measure 57
00000000
00000010
00000100
00000001
00000000
00000001
00001000
00000000
,  // measure 58
00000001
00000100
00001000
00000100
00000001
00000010
00001000
00020000
,  // measure 59
00000000
00031000
01000000
00200000
00000000
01300000
00100000
00010000
,  // measure 60
00011000
00000000
00001010
00000000
00000011
00000001
00000100
00002000
,  // measure 61
00000000
00000000
00013000
00000000
00100000
00000000
10000000
00000000
01000000
00100000
01000000
00000000
10000000
00000000
00010000
00000000
,  // measure 62
01000000
00100000
01000000
00100000
00010000
00100000
00010000
00001000
,  // measure 63
00000010
00000001
00001000
00000010
00000100
00000001
00000010
00001000
,  // measure 64
00001010
00000000
00011000
00000000
00110000
00100000
10000000
00020000
,  // measure 65
02000000
00000000
00000000
00000000
00000000
00000000
03030000
00000000
00100000
10000000
00100000
10000000
00100000
10000000
00100000
10000000
,  // measure 66
00100000
00000000
01000000
00100000
10000000
00000000
00100000
01000000
00010000
00000000
00000000
00000000
01000000
00000000
00100000
00000000
,  // measure 67
00010000
00001000
00000100
00001000
00000100
00000001
00000100
00000001
,  // measure 68
00001000
00000000
00000010
00000100
00000001
00000000
00000100
00000010
00001000
00000000
00000000
00000000
00000001
00000000
00000010
00000000
,  // measure 69
00001000
00010000
00001000
00010000
00100000
10000000
00100000
10000000
,  // measure 70
00010000
00000000
10000000
00010000
01000000
00000000
00100000
01000000
00010000
00000000
01000000
00000000
00100000
00000000
00010000
00001000
,  // measure 71
00000010
00000000
00000001
00000100
00000010
00000000
00001000
00000010
00000100
00000000
00000001
00000100
00000010
00000000
00000100
00000000
,  // measure 72
00001000
00000000
00011000
00000000
00010000
01000000
00000000
11000000
,  // measure 73
00000000
10010000
00000000
01010000
00000000
10010000
00000000
10000000
,  // measure 74
00100000
01000000
00100000
10000000
00100000
00000000
00010000
00001000
,  // measure 75
00000000
00000011
00000000
00001100
00000000
00000011
00000000
00000001
,  // measure 76
00001000
00000010
00000100
00000010
00001000
00000000
00000010
00000100
,  // measure 77
00000000
00001100
00000000
00011000
00000000
01010000
00000000
10000000
,  // measure 78
00010000
01000000
00100000
10000000
00100000
01000000
00010000
00000000
00110000
00000000
00000000
00000000
00100000
00000000
00001000
00000000
,  // measure 79
00010000
00000010
00000100
00000001
00000100
00000010
00010000
00000000
00000100
00000000
00001000
00000000
00000000
00000000
00000010
00000000
,  // measure 80
00000100
00000001
00001000
00000000
00000010
00010000
00000000
00011000
,  // measure 81
00000000
00000020
00000030
00200000
00300000
00000020
00000030
00200000
,  // measure 82
00000000
00300000
00000000
00000000
00000000
00000000
00000000
00000000
;
