#TITLE:草原の王女 -軌跡を辿って-;
#SUBTITLE:;
#ARTIST:劇団レコード;
#TITLETRANSLIT:Sougen no oujo -kiseki wo tadotte-;
#SUBTITLETRANSLIT:;
#ARTISTTRANSLIT:Gekidan rekodo;
#GENRE:Classical;
#CREDIT:;
#BANNER:sougennooujo-bn.png;
#BACKGROUND:sougennooujo-bg.png;
#LYRICSPATH:;
#CDTITLE:;
#MUSIC:草原の王女 -軌跡を辿って-.mp3;
#OFFSET:-0.032000;
#SAMPLESTART:35.527992;
#SAMPLELENGTH:11.999990;
#SELECTABLE:YES;
#BPMS:0.000000=142.000000
;
#STOPS:
;
#BGCHANGES:;
#KEYSOUNDS:;
#ATTACKS:;

//---------------dance-single - ----------------
#NOTES:
     dance-single:
     :
     Hard:
     11:
     0.489246,0.553603,0.448262,0.412401,0.031378,382.000000,332.000000,50.000000,46.000000,0.000000,0.000000,0.489246,0.553603,0.448262,0.412401,0.031378,382.000000,332.000000,50.000000,46.000000,0.000000,0.000000:
0000
0000
0000
0000
,
0000
0000
0000
0000
,
0000
0000
0000
0000
,
0000
0000
0000
0000
,
0000
0000
0000
0000
,
0010
1000
0001
0000
0100
1000
0010
0000
,
0100
0001
0100
0100
0010
1000
0100
0010
,
0001
1000
0100
0000
0010
0100
1000
0000
,
0011
1001
2100
0000
,
3020
0000
0030
0010
0000
1000
0001
0100
,
0001
0010
0001
0010
0000
0100
1000
0100
,
0210
0000
0000
1300
0000
1000
0001
2001
,
0000
3010
0100
0001
0101
0000
1001
0000
,
0010
0100
1000
0100
0020
0000
0031
1000
,
0001
0100
0010
0000
2200
0000
3300
0000
,
0010
0100
0001
0000
0202
0000
0303
0000
,
0100
0010
1000
0000
2020
0000
3030
1000
,
0001
0100
0001
0010
0100
0000
0010
0001
,
1000
0100
0010
0000
2200
0000
3300
0000
,
0001
0100
0010
0000
1001
0000
1100
0000
,
0220
0000
0000
0000
0330
0000
1001
0001
,
1000
0100
0010
0001
1001
0000
0001
0010
,
0100
1000
1001
0000
0220
0000
0330
0000
,
0010
0100
0001
0000
2200
0000
3300
0000
,
1000
0010
0100
0000
0022
0000
0033
0000
,
0001
0010
0100
1000
1001
0000
1000
0100
,
0010
0001
1001
0000
0220
0000
0330
0000
,
0001
0100
1000
0000
0101
0000
1001
0000
,
2020
0000
0000
3030
,
0001
0010
0100
1000
0000
1100
0100
1000
,
0020
0000
0000
0000
0030
0000
0010
0100
0020
0000
0000
0000
0030
0000
0000
0000
,
1000
0100
0010
0001
0000
0101
0001
0010
,
0100
0010
0200
0000
0300
0000
1001
0000
,
0010
1000
0001
0100
0000
1001
1000
0001
,
0100
0010
0100
0010
0000
0000
0000
0000
0000
0000
0000
0000
0010
0000
0100
0000
,
2020
0000
3030
1000
0200
0000
0320
0000
,
0031
0000
1000
0000
0001
0000
1000
0001
0000
0000
0000
0000
0101
0000
0001
0000
,
1000
0100
1000
0010
1000
0100
1000
0001
,
0100
0010
1000
0001
0200
0020
0300
0130
,
0001
0010
0001
0100
0001
0010
0001
0100
,
0010
1000
0100
0010
0002
0000
2003
0000
,
3010
0100
0010
1000
0010
0100
0010
1000
,
0100
0010
0100
1000
0002
2000
0003
3010
,
0100
0001
0010
0100
0010
0001
0100
0010
,
1000
0100
1000
0100
1100
0000
0011
0000
,
2001
0001
0010
3001
,
1002
1000
0100
1003
,
1020
1000
0100
1030
,
0010
1000
0000
0001
0100
0000
0010
0100
,
0210
0001
1300
1001
,
1020
0001
0130
1001
,
0201
0010
1300
1001
,
1000
0100
0000
0010
0001
0000
1000
0100
,
1000
0000
1000
0010
0100
0000
0100
0001
,
0010
0000
0010
0100
1001
0000
0100
0010
,
1000
0000
0100
0010
0100
0000
0010
0000
0001
0000
0010
0000
0100
0000
1000
0000
,
0100
0000
0010
0001
0010
0000
0001
0000
1000
0000
1000
0000
0000
0000
1000
0000
,
0001
0010
0100
1000
0010
1000
0100
0010
,
0001
1000
0001
1000
1001
0000
0110
0000
,
0000
0000
1100
0100
0010
0001
0100
0010
,
1000
0000
0100
1000
0100
0000
1000
0000
0010
0000
0010
0000
0000
0000
0010
0000
,
1000
0100
0010
0001
0100
0001
0010
0100
,
1000
0010
0100
0010
0110
0000
0101
0000
,
2002
0000
0000
0000
,
0000
0000
0000
0000
,
3003
0000
0000
0000
;

//---------------dance-single - ----------------
#NOTES:
     dance-single:
     :
     Challenge:
     13:
     0.610917,0.699288,0.277922,0.295853,0.331714,477.000000,446.000000,31.000000,33.000000,0.000000,0.000000,0.610917,0.699288,0.277922,0.295853,0.331714,477.000000,446.000000,31.000000,33.000000,0.000000,0.000000:
// measure 0
0000
0000
0000
0000
,  // measure 1
0000
0000
0000
0000
,  // measure 2
0000
0000
0000
0000
,  // measure 3
0000
0000
0000
0000
,  // measure 4
0010
0000
0100
0001
0100
0000
0010
0000
0010
0000
1000
0000
1000
0000
0001
0000
,  // measure 5
0001
0000
1000
0100
1000
0000
0001
0010
0001
0000
1000
0010
1000
0010
0100
0000
,  // measure 6
0001
0000
0010
0100
0010
0100
0010
0100
1000
0000
0100
0000
0010
0000
0001
0000
,  // measure 7
0001
0000
0010
0001
0010
0000
0100
1000
0100
0000
0010
0001
0010
0001
1000
0000
,  // measure 8
0010
0000
0100
0001
1000
0000
0010
0000
2000
0000
0100
0000
0100
0000
3100
0000
,  // measure 9
1002
0000
0003
0200
0000
0310
0001
0010
,  // measure 10
1000
0100
0010
0012
0000
0100
1003
0100
,  // measure 11
0202
0000
0303
0012
0000
0103
0010
0120
,  // measure 12
0000
0000
1030
0000
0010
0000
1000
0000
0010
0000
0000
0010
0200
0000
0000
0000
,  // measure 13
0310
1000
0100
0010
0012
0000
0013
0100
,  // measure 14
1000
0000
0100
0000
1000
0000
0000
1000
0001
0100
0010
0000
0000
0000
0010
0100
,  // measure 15
0010
0000
1000
0000
0001
0000
0000
0001
0100
0010
1000
0000
0000
0000
0010
1000
,  // measure 16
0010
0000
0100
0000
0010
0000
0000
0010
1000
0100
0010
0000
0000
0000
1000
0100
,  // measure 17
0010
0001
0100
0010
2100
0000
3010
1000
,  // measure 18
0001
0000
0100
0000
0001
0000
0000
0001
1000
0100
0010
0000
0000
0000
0100
1000
,  // measure 19
0100
0000
0010
0000
0100
0000
0000
0010
0100
0000
0000
0000
1100
0000
0000
0000
,  // measure 20
0010
0000
0010
0000
0010
0000
0010
0100
0000
0000
0000
0000
0001
0000
1000
0000
,  // measure 21
0010
0100
0010
1000
1002
0000
0013
1000
,  // measure 22
0010
0000
0001
0000
0010
0000
0000
0010
0100
1000
0001
0000
0000
0000
0010
0001
,  // measure 23
0010
0000
0001
0000
1000
0000
0000
1000
0010
0100
0001
0000
0000
0000
1000
0001
,  // measure 24
1000
0000
0010
0000
0100
0000
0000
0100
0001
1000
0010
0000
0000
0000
0100
0010
,  // measure 25
1000
0010
0100
0010
2001
0000
3010
0100
,  // measure 26
0001
0000
0010
0000
0001
0000
0000
0001
0100
0010
1000
0000
0000
0000
0010
0100
,  // measure 27
0010
0000
0100
0000
0010
0000
0000
1000
0001
0000
0000
0000
0110
0000
0000
0000
,  // measure 28
1000
0000
0001
0000
0100
0010
0000
0100
0010
0000
1000
0000
0001
0000
0001
0000
,  // measure 29
1000
0000
0100
0010
0000
0100
0010
0000
0000
0000
0001
0000
0001
0000
1000
0000
,  // measure 30
0001
0000
0100
0010
0000
0100
0010
0000
1000
0000
0100
0000
0100
0000
0000
0000
,  // measure 31
0100
0000
0010
0001
0000
0010
0001
0000
0000
0000
0001
0000
0001
0000
1000
0000
,  // measure 32
0010
0000
1000
0100
0000
1000
0100
0000
0000
0000
0010
0000
0010
0000
0000
0000
,  // measure 33
0100
1000
0010
0210
0000
0301
0010
0001
,  // measure 34
1000
0001
0100
0001
1000
0000
0000
0000
0000
0000
0000
0000
0010
0000
1000
0000
,  // measure 35
2020
0000
0000
0000
3030
0000
0010
0100
0010
0000
0000
0000
0101
0000
0000
0000
,  // measure 36
0010
0000
0010
0000
0010
0000
0010
0100
0000
0000
0000
0000
1100
0000
1000
0000
,  // measure 37
0001
0000
0100
0010
1000
0000
0100
0000
0001
0000
0100
0000
1000
0000
0010
0000
,  // measure 38
0100
0000
0001
1000
0010
0000
0100
0000
0010
0000
0020
0000
0000
0000
1030
0000
,  // measure 39
0001
0010
1000
0010
0001
0100
1000
0100
,  // measure 40
0001
1000
0010
0100
0101
0000
1010
0000
,  // measure 41
0001
0000
1000
0010
0100
0000
1000
0000
0100
0000
0001
0000
0010
0000
0100
0000
,  // measure 42
0001
0000
0100
1000
0010
0000
0001
0000
0010
0000
0200
0000
0000
0000
0310
0000
,  // measure 43
1000
0010
0001
0010
1000
0100
0001
0100
,  // measure 44
1000
0010
0100
0010
1010
0000
0101
0000
,  // measure 45
2100
0000
0000
0000
0000
0000
0010
0000
3010
0000
0000
1000
0000
0000
0001
0000
,  // measure 46
2002
0000
0000
0000
3003
0000
0100
0010
0002
0000
0000
0000
0003
0000
0010
0100
,  // measure 47
2000
0000
0000
0000
3000
0000
0100
0000
0010
0000
0000
0100
0000
0000
1000
0000
,  // measure 48
0100
1100
0000
1000
1001
0000
0100
0010
,  // measure 49
2000
0000
0000
0000
0000
0000
0100
0000
3100
0000
0000
0010
0000
0000
0001
1000
,  // measure 50
0001
0100
0010
0000
0110
0000
0100
0001
,  // measure 51
0020
0000
0000
0100
0130
1000
0001
0010
,  // measure 52
0001
0000
0101
0000
0000
0000
0010
0000
1000
0000
1000
0000
0100
0000
0010
0001
,  // measure 53
0020
0000
0000
0000
0000
0000
0031
0000
0102
0000
0000
0000
0000
0000
1003
0001
,  // measure 54
2000
0000
3010
0100
0110
0000
1000
0001
,  // measure 55
1001
0000
0100
0010
1000
0000
0001
0000
0100
0000
1000
0000
0100
0000
0001
0000
,  // measure 56
0010
0000
0100
1000
0001
0000
0020
0000
0100
0000
0100
0000
0030
0000
0100
0000
,  // measure 57
1000
0010
0001
0010
1000
0100
0001
0100
,  // measure 58
1000
0010
0100
0001
0110
0000
2002
0000
,  // measure 59
0000
3003
0110
1000
0001
0100
0010
0100
,  // measure 60
0001
0000
0010
0001
1000
0000
0020
0000
0100
0000
0100
0000
0000
0000
0130
0000
,  // measure 61
0001
0010
1000
0010
0001
0100
1000
0100
,  // measure 62
0001
0000
0000
0010
0000
0000
0100
0000
0000
1000
0000
0000
0100
0000
1000
0000
0001
0000
0010
0000
0001
0000
1000
0000
,  // measure 63
0200
0000
0000
0000
,  // measure 64
0000
0000
0000
0000
,  // measure 65
0300
0000
0000
0000
;

//---------------dance-single - ----------------
#NOTES:
     dance-single:
     :
     Medium:
     8:
     0.389347,0.464399,0.259992,0.143444,0.017930,304.000000,275.000000,29.000000,16.000000,0.000000,0.000000,0.389347,0.464399,0.259992,0.143444,0.017930,304.000000,275.000000,29.000000,16.000000,0.000000,0.000000:
0000
0000
0000
0000
,
0000
0000
0000
0000
,
0000
0000
0000
0000
,
0000
0000
0000
0000
,
0000
0000
0000
0000
,
1000
0010
0100
0001
0100
0010
1000
0000
,
0001
0010
0001
0010
0100
0010
0100
0010
,
0100
1000
0100
0010
0001
0010
0100
0000
,
1000
0001
1000
0001
1000
0000
0001
0000
,
0200
0000
0000
0320
0000
0000
0130
0000
,
0002
0000
0000
0023
0000
0000
0130
0000
,
2000
0000
0000
3020
0000
0000
0130
0020
,
0000
1030
0001
0000
0101
0000
1010
0000
,
1000
0000
1000
0000
0110
0000
0001
1000
,
0001
0010
0001
0000
0110
0000
0000
0000
,
0001
0100
0001
0000
0110
0000
0000
0001
,
0010
0100
1000
0000
0220
0000
0330
0010
,
0100
0001
0100
0000
0011
0000
0100
0000
,
0010
1000
0010
0000
1100
0000
0000
0000
,
0010
0100
0010
0000
1100
0000
1001
0000
,
0100
0100
0100
0100
0000
0000
0010
1000
,
0001
1000
0101
0010
,
1000
0000
0001
0000
1100
0000
0000
0010
,
0100
0000
0001
0000
1100
0000
0000
0100
,
0010
0000
1000
0000
0101
0000
0000
0010
,
0100
0001
1000
0000
0110
0000
0010
1000
,
0100
0001
0100
0000
,
1000
0010
0100
0000
1000
0000
0100
0000
,
0001
0000
1000
0000
0001
1000
0001
0000
,
0100
0000
0000
0100
0000
0000
0100
0000
0000
0000
0100
0000
0010
0000
0000
0000
,
0010
0000
0000
0010
0000
0000
0010
0000
0000
0000
0010
0000
1000
0000
0000
0000
,
1000
0000
0000
1000
0000
0000
1000
0000
0000
0000
1000
0000
0001
0000
0000
0000
,
0001
0000
0000
0001
0000
0000
0001
0000
0000
0000
0001
0000
0100
0000
0000
0000
,
0010
1000
0001
0100
,
0001
0010
0001
0000
0010
0000
0100
0010
,
2000
0000
0000
0001
3001
0000
1001
0000
,
0010
0010
0010
0010
0000
0000
1100
0000
,
1000
0001
0100
0000
0001
1000
0100
0000
,
0010
0000
0010
0000
0100
1000
0000
0000
,
0001
0000
0010
0000
0001
0010
0100
1000
,
0001
0001
1000
1000
,
0010
1000
0001
0000
0100
0001
1000
0000
,
0001
0000
0001
0000
0010
0100
0000
0000
,
1000
0000
0100
0000
1000
0100
0010
0001
,
1000
1000
0001
0001
,
1001
0010
0010
0000
,
1001
0100
0100
0000
,
1100
0010
0010
0000
,
0001
0100
0000
0010
1000
0000
0001
1000
,
0002
0000
0000
0010
0023
0000
0000
0130
,
1000
0001
1000
0000
0000
0000
0010
0100
,
0002
0000
0003
0100
0010
0100
0010
1000
,
0020
0000
0030
1000
0100
0010
0001
0000
,
1001
0000
0110
0000
,
1001
0110
1001
0000
,
0010
1000
0010
0000
0100
0001
0100
0000
,
0010
1000
0001
0000
,
1000
0100
1000
0000
0001
0010
0001
0000
,
1000
0100
0001
0100
,
0000
1100
0010
0001
,
0100
0010
1000
0000
0001
0010
0000
0010
,
0001
0000
0100
0000
0010
1000
0010
1000
,
0100
0010
0001
0000
1100
0000
1001
0000
,
2020
0000
0000
0000
,
0000
0000
0000
3030
;

//---------------dance-single - ----------------
#NOTES:
     dance-single:
     :
     Easy:
     4:
     0.189551,0.232200,0.017930,0.089652,0.000000,148.000000,146.000000,2.000000,10.000000,0.000000,0.000000,0.189551,0.232200,0.017930,0.089652,0.000000,148.000000,146.000000,2.000000,10.000000,0.000000,0.000000:
0000
0000
0000
0000
,
0000
0000
0000
0000
,
0000
0000
0000
0000
,
0000
0000
0000
0000
,
0000
0000
0000
0000
,
1000
1000
0100
0000
,
0001
0001
0100
0000
,
1000
1000
0100
0000
,
0010
0001
0200
0000
,
0310
0000
0000
0000
,
0020
0000
0030
0000
,
0002
0000
0003
0000
,
0000
0000
0100
0100
,
0010
1000
0010
0000
,
1000
0100
1000
0000
,
1000
0100
1000
0000
,
1000
0010
1000
0000
,
0010
0100
0010
0000
,
0100
0001
0100
0000
,
0100
0001
0100
0000
,
0110
0000
0000
0000
,
0010
1000
0001
0000
,
0001
0100
0001
0000
,
0001
0100
0001
0000
,
0001
0010
0001
0000
,
0100
0010
1000
0000
,
0100
0010
0100
0000
,
0100
0010
0100
0000
,
2000
0000
0000
0000
,
3001
0000
0000
0010
,
0100
0000
0100
0000
,
1000
0000
0000
1000
,
0001
0000
0000
0000
,
0100
0000
0000
0010
,
0010
0000
0000
0000
,
1000
0000
0001
0000
,
1000
0000
0000
0000
,
0010
0100
0001
0000
,
0100
0010
1000
0000
,
0001
1000
0100
0000
,
1000
0001
0200
0000
,
0310
1000
0100
0000
,
0010
0001
0100
0000
,
0001
0000
1000
0000
,
0001
1000
0001
1000
,
0002
0000
0103
0000
,
0001
0001
0100
0000
,
2000
0000
3100
0000
,
1000
0000
0001
0000
,
0200
0000
0310
0000
,
0100
0100
0010
0000
,
1000
0000
0001
0000
,
0100
0000
0010
0000
,
0100
0000
0100
0000
,
0100
0100
0100
0000
,
0001
0010
0100
0000
,
0010
0100
1000
0000
,
1000
0100
0010
0000
,
0100
0010
0001
0001
,
0000
0100
0010
0000
,
0100
0010
0100
0000
,
0001
0000
1000
0000
,
0010
0100
0010
0100
,
0220
0000
0000
0000
,
0000
0000
0000
0330
;

//---------------dance-single - ----------------
#NOTES:
     dance-single:
     :
     Beginner:
     3:
     0.170339,0.225924,0.062757,0.035861,0.000000,133.000000,126.000000,7.000000,4.000000,0.000000,0.000000,0.170339,0.225924,0.062757,0.035861,0.000000,133.000000,126.000000,7.000000,4.000000,0.000000,0.000000:
0000
0000
0000
0000
,
0000
0000
0000
0000
,
0000
0000
0000
0000
,
0000
0000
0000
0000
,
0000
0000
0000
0000
,
0100
0000
0100
0000
,
0010
0000
0010
0000
,
0100
0000
0100
0000
,
0001
0000
0001
0000
,
0002
0000
0003
0000
,
0200
0000
0300
0000
,
0020
0000
0030
0000
,
0000
0000
1000
1000
,
1000
0000
0000
0000
,
0001
0001
0001
0000
,
0001
0001
0001
0000
,
0010
0010
0010
0000
,
0100
0000
0100
0000
,
1000
1000
1000
0000
,
1000
1000
1000
0000
,
1001
0000
0000
0010
,
0010
0000
0100
0000
,
0100
0100
0100
0000
,
0100
0100
0100
0000
,
0001
0001
0001
0000
,
0010
0010
0010
0000
,
0010
0010
0010
0000
,
0100
0000
0100
0000
,
0100
0000
0000
0000
,
1000
0000
0000
0100
,
0100
0000
0010
0000
,
0001
0000
0000
0000
,
1000
0000
0000
0000
,
0010
0000
0100
0000
,
0020
0000
0030
0000
,
1000
0000
1000
0000
,
1001
0000
0000
0100
,
0100
0000
0010
0000
,
0001
0001
0001
0000
,
0100
0000
0010
0000
,
1000
1000
1000
0000
,
1000
0000
0010
0000
,
0100
0100
0100
0000
,
0010
0000
0100
0000
,
0010
0010
0010
0010
,
0010
0000
0110
0000
,
0000
0000
0110
0000
,
0000
0000
0110
0000
,
0100
0000
0010
0000
,
1000
0000
1000
0000
,
1000
0000
0000
0000
,
0001
0000
0001
0000
,
0001
0000
0010
0000
,
0010
0000
0010
0000
,
0100
0000
1000
0000
,
0001
0001
0001
0000
,
1000
1000
1000
0000
,
0010
0010
0010
0000
,
0100
0100
0100
0000
,
0000
1001
0000
0000
,
1000
1000
1000
0000
,
0001
0001
0001
0000
,
0100
0000
0010
0000
,
0110
0000
0000
0000
;

//---------------dance-double - ----------------
#NOTES:
     dance-double:
     :
     Easy:
     4:
     0.195954,0.232200,0.017930,0.134478,0.000000,153.000000,151.000000,2.000000,15.000000,0.000000,0.000000,0.195954,0.232200,0.017930,0.134478,0.000000,153.000000,151.000000,2.000000,15.000000,0.000000,0.000000:
00000000
00000000
00000000
00000000
,
00000000
00000000
00000000
00000000
,
00000000
00000000
00000000
00000000
,
00000000
00000000
00000000
00000000
,
00000000
00000000
00000000
00000000
,
01000000
00100000
01000000
00000000
,
01000000
00010000
01000000
01000000
,
00001000
00010000
00001000
00000000
,
00010000
00001000
00020000
00000000
,
00030020
00000000
00000000
00000030
00000000
00000000
00000000
00000000
,
00000200
00000000
00000000
00000300
00000000
00000000
00000000
00000000
,
00000020
00000000
00000000
00000030
00000000
00000000
00000000
00020000
,
00000000
00000000
00031000
00001000
,
01000000
00100000
01000000
00000000
,
01000000
00010000
01000000
00000000
,
01000000
00010000
01000000
00000000
,
01000000
00001000
00010000
00000000
,
00000100
00000010
00000100
00000000
,
00000100
00001000
00000100
00000000
,
00000100
00001000
00000100
00000000
,
00011000
00000000
00000000
00001000
,
00100000
01000000
00100000
00000000
,
00100000
00010000
00100000
00000000
,
00100000
00010000
00100000
00000000
,
00100000
00001000
00010000
00000000
,
00000010
00000100
00000010
00000000
,
00000010
00001000
00000010
00000000
,
00000010
00001000
00000010
00000000
,
00000110
00000000
00000000
00000000
,
00000100
00000000
00000000
00000000
,
00000010
00000000
00010000
00000000
,
00001000
00000000
00000000
00000000
,
01000000
01000000
00000000
00000000
,
00100000
00000000
00000000
00000000
,
20000000
00000000
30000000
00000000
,
01000000
00000000
00100000
00000000
,
00002000
00000000
00003000
00000000
,
00010000
00000010
00000100
00000000
,
00000010
00000100
00000010
00000000
,
00001000
00000001
00001000
00000000
,
00001000
00000100
00010000
00000000
,
00001000
00100000
01000000
00000000
,
10000000
00010000
10000000
00000000
,
00100000
01000000
00100000
00000000
,
01000000
00001000
00010000
00010000
,
00000200
00010000
00010300
00000000
,
00020000
00001000
00031000
00000000
,
00002000
00100000
00103000
00000000
,
01000000
00000000
10000000
00000000
,
00020000
00100000
00130000
00000000
,
00200000
00001000
00301000
00000000
,
00002000
00010000
00013000
00000000
,
00000010
00000000
00000010
00000000
,
00000100
00000000
00000100
00000000
,
00010000
00000000
00001000
00000000
,
00001000
01000000
00100000
00000000
,
01000000
00100000
01000000
00000000
,
00010000
10000000
00010000
00000000
,
00010000
00100000
00001000
00000000
,
00000000
00010000
00000100
00000000
,
00000010
00000100
00000010
00000000
,
00000001
00001000
00000001
00000000
,
00000001
00000010
00000100
00020000
,
00002000
00000000
00000000
00000000
,
00000000
00000000
00000000
00033000
;

//---------------dance-double - ----------------
#NOTES:
     dance-double:
     :
     Challenge:
     13:
     0.564810,0.691219,0.295853,0.251027,0.233096,441.000000,408.000000,33.000000,28.000000,0.000000,0.000000,0.564810,0.691219,0.295853,0.251027,0.233096,441.000000,408.000000,33.000000,28.000000,0.000000,0.000000:
00000000
00000000
00000000
00000000
,
00000000
00000000
00000000
00000000
,
00000000
00000000
00000000
00000000
,
00000000
00000000
00000000
00000000
,
00000000
00000000
00000000
00000000
,
00000001
00000000
00000100
00000010
00000100
00000000
00000010
00000100
00000010
00000000
00000001
00001000
00000001
00001000
00000001
00000000
,
00000100
00000000
00001000
00010000
00001000
00010000
01000000
00010000
01000000
00000000
10000000
00000000
00010000
00000000
01000000
00000000
,
00100000
00000000
10000000
00010000
10000000
00000000
00010000
10000000
00010000
00000000
01000000
00100000
01000000
00100000
01000000
00000000
,
00010000
00000000
00100000
00010000
00100000
00000000
01000000
00000000
00010000
00000000
00010000
00000000
00001000
00000000
00001000
00000000
,
00000020
00000000
00000030
00000011
00000000
00000001
00000100
00001000
,
00010000
00001000
00000010
00002010
00000000
00013000
00100000
10000000
,
12000000
00000000
03000000
01100000
00000000
01000000
00010000
00012000
,
00000000
00003100
00001000
00010000
00100000
00000000
00011000
00000000
,
00000010
00000100
00000001
00000100
00000010
00000000
00000100
00001000
,
00010000
00000000
01000000
00000000
10000000
00000000
00000000
00100000
01000000
00000000
00000000
00000000
00000000
00000000
00100000
00010000
,
00100000
00000000
00010000
00000000
00001000
00000000
00000000
00000010
00000100
00000000
00000000
00000000
00000000
00000000
00001000
00010000
,
00001000
00000000
00010000
00000000
00100000
00000000
00000000
10000000
00010000
00000000
00000000
00000000
00000000
00000000
01000000
00100000
,
00010000
00001000
00000010
00000100
00000020
00000000
00000130
00001000
,
00010000
00000000
00100000
00000000
00010000
00000000
00000000
00001000
01000000
00000000
00000000
00000000
00000000
00000000
00100000
00010000
,
00001000
00000000
00000100
00000000
00000001
00000000
00000000
00000001
00001000
00000000
00000000
00000000
00000101
00000000
00000000
00000000
,
00000010
00000000
00001000
00000000
00010000
00000000
00001000
00000100
00000000
00000000
00000000
00000000
00000100
00000000
00000010
00000000
,
00001000
00010000
00100000
10000000
02100000
00000000
03100000
01000000
,
00010000
00000000
00001000
00000000
00010000
00000000
00000000
00000010
00000100
00000000
00000000
00000000
00000000
00000000
00000001
00000100
,
00001000
00000000
00010000
00000000
00001000
00000000
00000000
00010000
00100000
00000000
00000000
00000000
00000000
00000000
10000000
01000000
,
00010000
00000000
00001000
00000000
00010000
00000000
00000000
00010000
00000010
00000000
00000000
00000000
00000000
00000000
00000010
00000100
,
00000010
00000100
00001000
00010000
01200000
00000000
00310000
00001000
,
00000100
00000000
00001000
00000000
00010000
00000000
00000000
01000000
10000000
00000000
00000000
00000000
00000000
00000000
01000000
00010000
,
00001000
00000000
00010000
00000000
00001000
00000000
00000000
00000100
00000001
00000000
00000000
00000000
00000101
00000000
00000000
00000000
,
00000010
00000000
00000010
00000000
00001000
00000001
00000000
00000001
00001000
00000000
00000010
00000000
00000100
00000000
00001000
00000000
,
00010000
00100000
00010000
00200000
00000000
10300000
00100000
00010000
,
00002000
00000000
00000000
00000000
00000000
00000000
01003000
00001000
01000000
00000000
00001000
00000000
00011000
00000000
00000000
00000000
,
00010000
00001000
00000010
00002000
00000000
00003010
00000001
00000100
,
00001000
00010000
00002000
00000000
00003000
00100000
00110000
00000000
,
01000000
10000000
01000000
00200000
00000000
00310000
01000000
00100000
,
00010000
00001000
00010000
00001000
00020000
00000000
00000000
00000000
00000000
00000000
00000000
00000000
00030010
00000000
00010000
00000000
,
01001000
00000000
00000000
00010000
00001010
00000000
00011000
00000000
,
00000100
00000000
00000100
00000000
00000010
00000000
00000010
00000001
00000000
00000000
00000000
00000000
00000110
00000000
00000010
00000000
,
00000100
00000000
00000010
00010000
00000010
00000000
00000100
00000000
00001000
00000000
00010000
00000000
00001000
00000000
00010000
00000000
,
00100000
00000000
10000000
01000000
10000000
00000000
00010000
00000000
00100000
00000000
02000000
00000000
00000000
00000000
03010000
00000000
,
00001000
00000010
00001000
00000010
00000001
00000100
00000001
00000100
,
00001000
00010000
00100000
10000000
10100000
00000000
01001000
00000000
,
00010000
00000000
00000100
00001000
00000100
00000000
00000010
00000000
00000001
00000000
00000100
00000000
00000001
00000000
00000100
00000000
,
00001000
00000000
00010000
00100000
00010000
00000000
00001000
00000000
01000000
00000000
00200000
00000000
00000000
00000000
00310000
00000000
,
00001000
00000010
00001000
00000010
00001000
00010000
00001000
00010000
,
01000000
10000000
01000000
00010000
00011000
00000000
02001000
00000000
,
03200000
00000000
00000000
00000000
00000000
00000000
10300000
00000000
01000000
00000000
00000000
00010000
00000000
00000000
00001000
00000000
,
00000020
00000000
00000000
00000000
00000000
00000000
00000031
00001000
00000001
00000000
00000000
00000000
00000000
00000000
00000100
00000010
,
00000100
00000000
00000000
00000000
00000000
00000000
00001000
00000000
00010000
00000000
00000000
01000000
00000000
00000000
10000000
00000000
,
01100000
11000000
00000000
11000000
01100000
00000000
10000000
01000000
,
00020000
00000000
00000000
00000000
00000000
00000000
00031000
00000000
00000010
00000000
00000000
00000001
00000000
00000000
00000100
00000010
,
00000100
00001000
00001000
00000000
00011000
00000000
00010000
00100000
,
02000000
00000000
00000000
03010000
00001000
00000100
00000010
00001000
,
00020000
00000000
00000000
00000000
00000000
00000000
01030000
00000000
00100000
00000000
00010000
00000000
00001000
00000000
00100000
01000000
,
00200000
00000000
00000000
00000000
00000000
00000000
00010000
00000000
00302000
00000000
00000000
00000000
00000000
00000000
00013000
00100000
,
20000000
00000000
31000000
00100000
01100000
00000000
10010000
10000000
,
00100000
00000000
01000000
00001000
01000000
00000000
00100000
00000000
00010000
00000000
00001000
00000000
00010000
00000000
00001000
00000000
,
00000100
00000000
00000001
00000010
00000001
00000000
00001000
00000000
00000100
00000000
00000020
00000000
00000000
00000000
00001030
00000000
,
00010000
01000000
00010000
01000000
10000000
00100000
10000000
00100000
,
00010000
00001000
00000100
00000001
00000101
00000000
00010010
00000000
,
00000000
00000000
00101000
01000000
10000000
00100000
10000000
00100000
,
00010000
00000000
00001000
00000100
00001000
00000000
00010000
00000000
00000010
00000000
00000200
00000000
00000000
00000000
00001300
00000000
,
00010000
01000000
00010000
01000000
00010000
00001000
00010000
00001000
,
00000010
00000001
00000010
00001000
00001010
00000000
00011000
00000000
,
00220000
00000000
00000000
00000000
,
00000000
00330000
00000000
00000000
;

//---------------dance-double - ----------------
#NOTES:
     dance-double:
     :
     Hard:
     11:
     0.487965,0.522449,0.268957,0.259992,0.071722,381.000000,351.000000,30.000000,29.000000,0.000000,0.000000,0.487965,0.522449,0.268957,0.259992,0.071722,381.000000,351.000000,30.000000,29.000000,0.000000,0.000000:
00000000
00000000
00000000
00000000
,
00000000
00000000
00000000
00000000
,
00000000
00000000
00000000
00000000
,
00000000
00000000
00000000
00000000
,
00000000
00000000
00000000
00000000
,
10000000
00100000
10000000
00000000
01000000
00010000
00001000
00000100
,
00000001
00000010
00000001
00000000
00000010
00001000
00010000
00100000
,
10000000
01000000
10000000
00000000
01000000
00010000
00001000
00000100
,
00000001
00001000
00000001
00001000
00000001
00000001
00000001
00000001
,
00000020
00000000
00000000
00002030
00000000
00013000
00100000
00010000
,
00001000
01000000
00100000
20000000
00000000
31000000
00010000
00001000
,
02000000
00000000
00000000
03200000
00000000
00310000
00001000
00020000
,
00000000
00031000
00000010
00000001
00000101
00000000
00001010
00000000
,
00000001
00000010
00000001
00000100
00000002
00000000
00000013
00001000
,
00010000
00000000
00100000
00000000
01000000
00000000
00000000
01000000
00100000
00000000
00000000
00000000
00000000
00000000
10000000
00000000
,
00010000
00000000
00100000
00000000
01000000
00000000
00000000
01000000
00100000
00000000
00000000
00000000
00000000
00000000
00010000
00000000
,
10000000
00000000
01000000
00000000
10000000
00000000
00000000
10000000
00100000
00000000
00000000
00000000
00000000
00000000
00100000
00000000
,
10000000
01000000
10000000
00100000
20000000
00000000
31000000
00010000
,
00001000
00000000
00000100
00000000
00000010
00000000
00000000
00000010
00000100
00000000
00000000
00000000
00000000
00000000
00000001
00000000
,
00001000
00000000
00000100
00000000
00000010
00000000
00000000
00000010
00000100
00000000
00000000
00000000
00001000
00000000
00000000
00000000
,
00000001
00000000
00000001
00000000
00000001
00000000
00000001
00001000
00000000
00000000
00000000
00000000
00000010
00000000
00000100
00000000
,
00001000
00010000
00100000
10000000
00020000
00000000
01030000
00100000
,
00010000
00000000
00001000
00000000
00000100
00000000
00000000
00000001
00001000
00000000
00000000
00000000
00000000
00000000
00000100
00000000
,
00000010
00000000
00001000
00000000
00010000
00000000
00000000
01000000
10000000
00000000
00000000
00000000
00000000
00000000
01000000
00000000
,
00100000
00000000
00010000
00000000
00001000
00000000
00000000
00000010
00000001
00000000
00000000
00000000
00000000
00000000
00000100
00000000
,
00000010
00010000
00001000
01000000
00200000
00000000
10300000
00010000
,
10000000
00000000
01000000
00000000
00010000
00000000
00000000
00001000
00010000
00000000
00000000
00000000
00000000
00000000
00010000
00000000
,
00001000
00000000
00000100
00000000
00000001
00000000
00000000
00000100
00000001
00000000
00000000
00000000
00001001
00000000
00000000
00000000
,
00020200
00000000
00000000
00030300
,
00000100
00000000
00000000
00000100
00000000
00000000
00010100
00000000
00000000
00000000
00010000
00000000
00001000
00000000
00000000
00000000
,
01000000
00000000
00000000
01000000
00000000
00000000
01001000
00000000
00000000
00000000
00001000
00000000
00010000
00000000
00000000
00000000
,
00000010
00000000
00000000
00000010
00000000
00000000
00010010
00000000
00000000
00000000
00010000
00000000
00001000
00000000
00000000
00000000
,
00100000
00000000
00000000
00100000
00000000
00000000
00101000
00000000
00000000
00000000
00001000
00000000
00010000
00000000
00000000
00000000
,
00000100
00000010
00000100
00002000
00000000
00003001
00000100
00000010
,
00010000
00001000
00020000
00000000
00030000
00000000
01000000
10000000
,
11000000
00000000
00000000
10000000
00010000
00000000
10010000
00000000
,
10000000
00000000
10000000
00000000
10000000
00000000
10000000
00010000
00000000
00000000
00000000
00000000
10000000
00000000
00010000
00000000
,
10000000
01000000
00010000
00001000
00000010
00000001
00000010
00000001
,
00000100
00001000
00010000
01000000
10000000
00020000
00000000
01030000
,
00001000
00010000
00001000
00010000
00000010
00000100
00000010
00000100
,
00000001
00000010
00000100
00001000
00001100
00000000
00000110
00000000
,
00000001
00000010
00001000
00010000
01000000
10000000
01000000
10000000
,
00100000
00010000
00001000
00000010
00000001
00002000
00000000
00003010
,
00010000
00001000
00010000
00001000
01000000
00100000
01000000
00100000
,
10000000
01000000
00100000
00010000
10010000
00000000
01100000
00000000
,
02001000
00010000
03001000
00011000
,
00010020
00001000
00010030
00011000
,
02010000
00100000
13000000
10010000
,
10000000
01000000
00000000
00010000
00001000
00000000
00000100
00000001
,
00002001
00000010
00003100
00010100
,
00201000
00010000
01300000
01001000
,
00021000
00000010
00030100
00011000
,
00010000
00000010
00000000
00000100
00000001
00000000
00000010
00000100
,
00002000
00000000
00003000
00000100
00002000
00000000
00003000
00000010
,
00020000
00000000
00031000
00100000
00101000
00000000
00010000
00000100
,
00001000
00000010
00000100
00001000
00010000
01000000
00010000
01000000
,
10000000
00100000
00010000
00001000
00000100
00000002
00000000
00000103
,
00001000
00010000
00001000
00010000
00100000
10000000
00100000
10000000
,
01000000
00010000
00001000
00010000
00000100
00000000
00011000
00000000
,
00000000
00000000
00001000
00010000
00000010
00000100
00000010
00000100
,
00000001
00000100
00001000
00010000
00100000
20000000
00000000
30100000
,
00010000
00001000
00010000
00001000
00000100
00000001
00000100
00000001
,
00000010
00001000
00010000
00000100
00010000
00000000
00011000
00000000
,
02002000
00000000
00000000
00000000
,
00000000
00000000
00000000
03003000
;

//---------------dance-double - ----------------
#NOTES:
     dance-double:
     :
     Medium:
     7:
     0.353486,0.464399,0.125513,0.448262,0.000000,276.000000,262.000000,14.000000,50.000000,0.000000,0.000000,0.353486,0.464399,0.125513,0.448262,0.000000,276.000000,262.000000,14.000000,50.000000,0.000000,0.000000:
00000000
00000000
00000000
00000000
,
00000000
00000000
00000000
00000000
,
00000000
00000000
00000000
00000000
,
00000000
00000000
00000000
00000000
,
00000000
00000000
00000000
00000000
,
10000000
00100000
10000000
00000000
10000000
01000000
00100000
00001000
,
00010000
00000010
00010000
00000000
00000010
00001000
00000010
00001000
,
00000001
00000100
00000001
00000000
00000010
00010000
00001000
01000000
,
00100000
10000000
00100000
01000000
00200000
00000000
00000000
00000000
,
20300000
00000000
00000000
30100000
00000000
00010000
00001000
00000000
,
00000020
00000000
00000000
00000031
00000000
00000100
00001000
00000000
,
00020000
00000000
00000000
01030000
00000000
10000000
00100000
00020000
,
00000000
00031000
00010000
00000000
00010010
00000000
00000110
00000000
,
00000100
00000001
00000100
00000000
00000010
00000000
00000100
00000000
,
00001000
00010000
02000000
03000000
,
00010000
00001000
00000200
00000300
,
00001000
00000000
00010000
00000000
00200000
00000000
00300000
10000000
,
01000000
00100000
00001000
00000000
00010000
00000000
00000100
00000000
,
00010000
00001000
00200000
00300000
,
01000000
00010000
00002000
00003010
,
00000002
00000000
00000000
00000000
00000003
00000000
00001000
00000001
,
00001000
00000010
00001000
00000000
00000020
00000000
00000130
00000000
,
00001000
00010000
00200000
00300000
,
00010000
00001000
00000020
00000030
,
00001000
00010000
02000000
03000000
,
00010000
00001000
00010000
00000000
00000020
00000000
00000130
00000000
,
00001000
00010000
02000000
03000000
,
00100000
00010000
00002000
00003010
,
00002002
00000000
00000000
00003003
,
00000001
00000010
00000001
00000100
00000000
00000010
00010000
00000000
,
00010010
00000000
00011000
00000000
,
00100000
00010000
10000000
02000000
00000000
03100000
01000000
00100000
,
00001000
00010000
00001000
00000000
00000000
00000000
00011000
00000000
,
00000010
00001000
00000100
00002000
00000000
00003010
00000100
00000010
,
00002000
00000000
00003000
00000000
00000000
00000000
00000001
00001000
,
00000002
00000003
00000101
00001010
,
00020200
00000000
00000000
00000000
00030300
00000000
00001000
00100000
,
01000000
10000000
01000000
00000000
00100000
00001000
00100000
00000000
,
00001000
00000000
00010000
00000000
00000010
00000200
00000000
00000300
,
00000001
00001000
00000001
00000000
00000100
00000010
00000100
00000000
,
00001000
00010000
00100000
20000000
,
30100000
01000000
00001000
00010000
00001000
00000000
00010000
00000000
,
00000010
00001000
00000010
00000100
00000010
00000000
00000000
00000100
,
00000002
00000023
00002030
00023000
,
01030000
10000000
01000000
00000000
10000000
00000000
10010000
00000000
,
02000000
00001000
03010000
00011000
,
00000200
00010000
00001300
00011000
,
00200000
00001000
00310000
00011000
,
00000100
00010000
00000000
00001000
01000000
00000000
00001000
00010000
,
00000020
00000000
00000130
00000001
,
00000010
00000100
00000020
00000000
00000000
00000000
00000130
00010000
,
00002000
00000000
00000000
00000000
00103000
00000000
01000000
10000000
,
00200000
00000000
00000000
00000000
00310000
00001000
00000010
00000000
,
00000002
00000000
00000000
00000103
00002000
00000000
00000000
00013000
,
00200000
00000000
10300000
00010000
00100000
00000000
00010000
00000100
,
00000010
00000001
00000010
00000000
00000100
00010000
00000100
00000000
,
00010000
00000000
00001000
00000000
01000000
00200000
00000000
00300000
,
10000000
00010000
10000000
00000000
01000000
00100000
01000000
00000000
,
00010000
00001000
00000100
00000002
,
00000103
00000010
00010000
00001000
00010000
00000000
00001000
00000000
,
01000000
00010000
01000000
00100000
01000000
00000000
00000000
00100000
,
20000000
32000000
03020000
00032000
,
00003010
00000001
00000010
00000000
00000001
00000000
00001000
00000000
,
00002002
00000000
00000000
00000000
,
00000000
00000000
00000000
00003003
;
