#VERSION:0.83;
#TITLE:Solar Blade;
#SUBTITLE:;
#ARTIST:Iglooghost;
#TITLETRANSLIT:;
#SUBTITLETRANSLIT:;
#ARTISTTRANSLIT:;
#GENRE:Drum’n’Bass;
#ORIGIN:;
#CREDIT:;
#BANNER:solarblade-bn.png;
#BACKGROUND:solarblade-bg.png;
#PREVIEWVID:;
#JACKET:;
#CDIMAGE:;
#DISCIMAGE:;
#LYRICSPATH:;
#CDTITLE:;
#MUSIC:Solar Blade.mp3;
#OFFSET:-1.130000;
#SAMPLESTART:1.440000;
#SAMPLELENGTH:11.999990;
#SELECTABLE:YES;
#BPMS:0.000=165.000,
4.000=330.000,
10.000=165.000,
12.000=330.000,
18.000=165.000,
21.500=330.000,
24.500=165.000,
25.000=330.000,
37.000=165.000,
41.500=330.000,
45.500=165.000,
48.000=330.000,
54.000=165.000,
56.000=82.500,
57.500=165.000,
58.000=330.000,
62.000=165.000,
68.000=82.500,
69.500=165.000,
72.500=330.000,
77.000=660.000,
81.000=330.000,
93.000=82.500,
94.000=330.000,
106.000=660.000,
108.000=330.000,
110.000=165.000,
116.000=330.000,
126.000=165.000,
127.500=330.000,
140.000=82.500,
141.000=330.000,
153.000=165.000,
158.000=330.000,
178.000=82.500,
184.000=165.000,
188.000=82.500,
192.000=165.000,
196.000=330.000,
204.000=165.000,
207.000=330.000,
230.000=165.000,
233.000=330.000,
241.000=165.000,
244.000=330.000,
284.000=82.500,
284.500=165.000,
291.000=330.000,
307.000=660.000,
311.000=330.000,
315.000=82.500,
316.000=165.000,
318.000=660.000,
322.000=330.000,
334.000=660.000,
338.000=165.000,
340.000=330.000,
350.000=165.000,
351.000=82.500,
351.500=165.000,
352.500=82.500,
353.000=330.000,
361.000=82.500,
361.500=165.000,
363.500=330.000,
365.500=165.000,
369.500=82.500,
370.000=165.000,
372.000=330.000,
374.000=165.000,
378.000=330.000,
380.000=165.000,
383.000=330.000,
391.000=660.000,
395.000=330.000,
409.000=82.500;
#STOPS:24.500=0.182,
25.000=0.091,
25.500=0.091,
26.000=0.091,
26.500=0.091,
37.000=0.091,
37.250=0.091,
37.500=0.091,
37.750=0.091,
38.000=0.091,
38.250=0.091,
45.500=0.182,
57.500=0.909,
62.000=0.182,
64.500=0.182,
66.500=0.182,
67.500=0.182,
76.500=0.273,
111.500=0.182,
116.000=0.182,
118.000=0.545,
123.000=0.182,
127.500=0.273,
155.000=0.182,
155.500=0.182,
217.000=0.091,
217.500=0.091,
218.000=0.091,
218.500=0.091,
219.000=0.091,
219.500=0.091,
235.000=0.364,
254.000=0.091,
254.500=0.091,
255.000=0.182,
286.500=0.182,
311.000=0.136,
311.750=0.136,
312.500=0.091,
322.000=0.136,
322.750=0.136,
323.500=0.093;
#DELAYS:;
#WARPS:;
#TIMESIGNATURES:0.000=4=4;
#TICKCOUNTS:0.000=4;
#COMBOS:0.000=1;
#SPEEDS:0.000=1.000=0.000=0;
#SCROLLS:0.000=1.000;
#FAKES:;
#LABELS:0.000=Song Start;
#BGCHANGES:;
#KEYSOUNDS:;
#ATTACKS:
;

//---------------dance-single - ----------------
#NOTEDATA:;
#CHARTNAME:;
#STEPSTYPE:dance-single;
#DESCRIPTION:;
#CHARTSTYLE:;
#DIFFICULTY:Challenge;
#METER:18;
#RADARVALUES:0.927990,1.728764,0.622898,0.338144,0.315898,730.000000,660.000000,70.000000,38.000000,0.000000,0.000000,0.000000,0.000000,0.000000,0.927990,1.728764,0.622898,0.338144,0.315898,730.000000,660.000000,70.000000,38.000000,0.000000,0.000000,0.000000,0.000000,0.000000;
#CREDIT:;
#NOTES:
0000
0000
0000
0000
,
2002
0000
0000
0000
,
0000
0000
3003
0000
0001
0010
0100
0010
,
0000
0100
1000
0100
0010
0100
0001
0100
,
1000
0000
0000
0000
0001
0000
0000
0000
2002
0000
0000
0000
3003
0000
0001
0100
,
0010
0100
1000
0100
0001
0000
1000
0000
0001
0000
1000
0000
0001
0000
1000
0000
,
0001
0020
0130
1000
0010
0100
2002
0000
,
0000
0000
0000
0000
,
3003
0000
0001
0000
0100
0001
0000
0001
,
1000
0000
0001
0000
1000
0100
0001
0100
1000
0100
1001
0000
0010
0000
0100
0000
,
0001
1001
0000
1000
0000
0010
0100
0000
,
0100
0001
0010
0100
1100
1000
0100
0000
,
0022
0000
0000
0000
,
0000
0000
0033
0000
0100
0010
1000
0001
,
0110
0010
1000
0000
0010
0100
0210
0300
1001
0000
0000
0000
1000
0000
0001
0000
,
0000
0001
1000
0000
0110
0001
1000
0001
,
1000
0120
0031
0100
0010
1200
0310
0012
,
1003
0100
0010
0001
1000
0001
2002
0000
0000
0000
0000
0000
0000
0000
0000
0000
,
3003
0110
0000
0100
0010
0000
0010
1000
,
0001
0100
2002
0000
0000
0000
0000
0000
,
3003
0000
0100
0001
0100
0010
0100
0000
,
0100
1000
0100
0010
0100
0000
0100
0001
,
0100
0010
0100
0000
0001
0100
1000
0100
,
0001
0000
0000
0000
1001
0000
1000
0100
0010
0000
0001
0000
0010
0000
0100
0000
,
0010
0000
0010
1000
0010
0100
0010
0000
,
0010
0001
0010
0100
0010
0000
0001
0010
,
1000
0010
0001
0000
2002
0000
0000
0000
,
3003
0010
0000
0100
0010
1000
0001
1100
,
0011
0000
0000
0010
0100
0000
1000
0000
0000
1000
0100
0000
0001
0000
0100
0000
,
2100
3010
0101
1100
,
0010
0001
0100
0101
,
1010
0000
0101
0000
0110
0100
0001
2001
,
3010
0100
1000
0100
0001
0000
0100
0010
,
0001
0010
1000
0000
0010
0100
1000
0100
,
0001
0000
0100
0010
0000
1000
0100
0000
,
0110
1001
0100
0010
0001
0010
1000
0000
,
0010
0100
1000
0100
0001
0000
0100
0010
,
0001
0010
1000
0000
0001
0100
0010
1000
,
0010
0000
0120
0000
0000
1000
0130
1001
,
0001
0000
0000
1000
0000
0000
0100
0000
0010
0000
0001
0000
0010
0000
0001
0000
,
0010
0100
1000
0100
0020
0000
0000
0000
,
0000
0000
0031
0100
0001
0010
0100
1000
,
0100
0010
0001
0010
0001
0010
0000
0010
,
0100
0000
1000
0010
0100
0000
0010
1000
,
0000
0000
0000
1000
0000
0000
0001
0000
0000
0000
0000
0000
1001
0000
0000
0010
1000
0001
0100
0001
1000
0010
0100
0010
,
0110
0000
0000
0000
0001
0000
0110
0000
0000
0000
0010
0000
0100
0001
1000
0000
0110
0000
1000
0000
1000
0100
0010
0001
0100
0010
1000
0000
0010
0100
0001
0000
,
0110
0000
1000
0110
0000
0001
0110
0100
,
1001
0000
0000
0000
1000
0000
0000
0000
0001
0000
0000
0100
0000
0000
0010
0000
1000
0000
0000
0000
1100
0000
0000
0000
0010
0100
0010
0001
0010
0100
0010
1000
,
0010
0000
0100
0000
0010
1000
0010
0100
0001
0000
1000
0000
0010
0100
0010
0000
,
0110
0000
1000
0100
0010
0000
0101
0000
,
0001
0100
0010
0000
1100
0000
0010
0000
,
0110
0000
0100
0000
0001
0000
1000
0000
0010
0100
0010
0100
0010
0000
1000
0000
,
0001
0100
0001
0000
0010
0000
0100
0000
,
0000
0000
1000
0100
0010
0001
0010
0100
,
1000
0000
0001
0010
0100
1000
0100
0010
,
1001
0000
0010
0100
0010
0100
0010
1000
,
0010
1000
0100
1000
0001
0010
0100
0010
,
0100
1000
0100
1000
0100
0010
0001
1000
,
0100
1000
0100
1000
0100
0000
0000
0000
1000
0000
0000
0000
2001
0000
0000
0000
,
3010
0001
0010
1000
,
0001
0000
0000
0000
1100
0000
0010
0100
0001
0000
1000
0000
0010
0000
0100
0000
,
0001
0010
0001
0010
0100
1000
0100
1000
,
0010
0100
0001
0000
1001
0000
0010
0100
,
0000
0100
0001
1000
0010
0100
1001
0000
,
0001
0100
0010
0100
1000
0000
0001
0010
,
0100
0010
1000
0000
0001
0100
0010
0100
,
1000
0000
0100
0001
0000
0001
1000
0010
,
0100
0001
1000
0010
,
1000
0010
0100
0010
0001
0000
1000
0100
,
0010
0100
0001
0000
1000
0010
0100
0010
,
0001
0000
0010
1000
0001
1000
0100
0010
,
0002
0000
0103
0000
1000
0000
0100
0000
0001
0000
1001
0000
1000
0010
0100
0010
,
0100
0010
1000
0000
0010
0000
0010
0000
0100
0010
0100
0010
0100
0000
0000
0000
,
0001
1000
0010
1000
,
0001
0000
0100
0001
0100
0001
1000
0010
,
0100
0001
0100
0010
1000
0100
0010
0001
,
0010
0100
1000
0001
1000
0000
0220
0000
,
0000
0000
0000
0000
0000
0000
0000
0000
0330
0000
0000
0000
0100
0000
0000
0011
,
0000
0000
0000
0000
0100
0000
0000
0000
0100
0000
0000
0000
0001
0000
0000
0000
1000
0000
0000
0000
0010
0000
0000
0000
0100
0000
0001
1000
0001
0000
1000
0000
,
0100
0010
0001
1000
0220
0000
0000
0000
,
0000
0000
0000
0000
0330
0000
0000
0000
0010
0000
0000
1100
0000
0000
0010
0000
,
0010
1000
0010
1000
0010
0100
0010
0100
,
0001
0010
0001
0010
0100
1000
0100
1000
,
0010
0100
0001
0000
2002
0000
0000
0000
,
0000
0000
0000
0000
3003
0000
0000
0000
1100
0000
0000
0001
0000
0000
1100
0000
,
0001
0010
0100
1000
0010
1000
0010
1000
,
0010
0000
0100
0001
0100
0001
0100
0000
,
0010
1000
0010
1000
0010
0100
1002
1003
,
0100
0012
0013
0000
0100
1000
0100
0000
,
0100
0000
1000
0100
0010
0001
0010
0100
,
1000
0000
0000
0000
1001
0000
0001
0000
0000
1010
0000
0000
0001
0000
1000
0000
,
0100
0000
0010
0000
0001
0000
0100
0000
0010
0000
0100
0000
1000
0000
0100
0001
,
0010
0100
0000
0100
1000
0000
0110
0000
1000
0000
0000
0101
0000
0000
1000
0000
,
0001
0000
0010
0000
0100
0000
1000
0000
0001
0000
0100
0010
1000
0000
0010
0100
,
0001
0000
0010
1000
0000
0010
0001
0000
2002
0000
0000
0000
3003
0000
0000
0000
,
1001
0000
0010
0000
0100
0000
0010
1000
0000
0000
0001
1000
0001
0000
0000
0000
,
1000
0000
0101
0000
0000
0100
0010
0000
,
1000
1010
0100
0002
,
0000
0203
0000
0320
,
0000
0000
1030
0000
0100
0000
0010
0001
,
0010
0100
0010
0001
0100
0010
1000
0000
,
0100
0010
0001
0100
0010
0000
1000
0010
,
1000
1001
0000
0000
;

//---------------dance-single - ----------------
#NOTEDATA:;
#CHARTNAME:;
#STEPSTYPE:dance-single;
#DESCRIPTION:;
#CHARTSTYLE:;
#DIFFICULTY:Hard;
#METER:16;
#RADARVALUES:0.772902,1.637776,0.462724,0.587304,0.235811,608.000000,556.000000,52.000000,66.000000,0.000000,0.000000,0.000000,0.000000,0.000000,0.772902,1.637776,0.462724,0.587304,0.235811,608.000000,556.000000,52.000000,66.000000,0.000000,0.000000,0.000000,0.000000,0.000000;
#CREDIT:;
#NOTES:
0000
0000
0000
0000
,
2002
0000
0000
0000
,
0000
0000
3003
0000
0001
0010
0100
1000
,
0010
0100
0010
0100
0010
0000
1000
0000
,
0001
0000
0000
0000
0010
0000
0000
0000
0022
0000
0000
0000
0033
0000
0001
0010
,
0100
1000
0001
0000
0100
0000
0000
0000
0001
0000
1000
0000
0001
0000
1000
0000
,
0001
0020
0230
2300
3200
0310
2002
0000
,
3003
0220
0000
0330
,
1000
0000
0001
0000
0100
0010
0000
0010
,
1000
0000
0000
0000
0010
0100
0001
1000
0001
0100
0020
0000
0100
0000
0130
0000
,
0001
0001
0000
1001
0000
0100
0010
0000
,
0010
1000
0100
0010
0001
1000
0001
0000
,
2020
0030
0002
0000
,
0000
0000
3003
0000
0100
0001
1000
0010
,
1000
0100
0001
0100
1000
0000
2002
3003
0110
0000
0000
0000
0010
0000
1000
0000
,
0000
1000
0001
0000
0101
1000
0100
0010
,
0001
1010
0100
0001
1000
1010
0100
1010
,
0001
0100
1000
0100
0001
0000
2002
0000
0000
0000
0000
0000
0000
0000
0000
0000
,
3003
0101
0000
0010
1000
0000
1000
0100
,
0010
0002
2003
0000
0000
0000
0000
0000
,
3000
1000
0100
0000
,
0001
0100
0000
1000
,
0100
0000
1000
0001
0100
0010
0100
0001
,
1000
0000
0000
0000
1001
0000
0010
0010
1000
0000
0000
0000
0010
0000
0000
0000
,
0000
0001
0010
0000
,
1000
0010
0001
0010
,
1000
0001
0100
0010
0200
0000
0000
0000
,
0300
0001
0000
0001
1000
0010
0100
0001
,
0101
0000
1000
0101
0000
1000
0101
0010
,
2000
0000
0000
0000
0002
3003
0110
0000
,
0000
0100
0010
1001
,
1000
0000
1000
0000
1000
0000
0000
0020
,
1030
0001
0100
0001
1000
0000
0001
1000
,
0100
1000
0001
0000
1000
0001
0100
0001
,
1000
0000
0000
0110
0000
0000
0001
0000
,
2000
0000
0002
3003
0001
0000
1000
0000
0010
0000
1000
0000
0001
0000
0000
0000
,
1000
0001
0010
0001
1000
0000
0001
1000
,
0010
1000
0001
0000
0000
0110
0000
0000
,
1000
0000
0002
0000
0000
0010
0013
1001
,
0001
0000
0000
0100
0000
0000
0010
0000
1000
0000
0000
0000
0100
0000
0000
0000
,
0010
0001
0010
0001
0200
0000
0000
0000
,
0000
0000
0010
0000
0010
0000
0310
1000
,
0000
0001
0100
0000
0010
1000
0000
1000
,
0100
0010
0001
1000
0001
0000
0100
0010
,
0000
0000
0000
0010
0000
0000
1000
0000
0000
0000
0000
0000
1000
0010
1000
0010
1000
0100
0010
0100
0010
0001
0100
0001
,
0101
0000
0000
0000
0010
0000
1000
0000
0000
0000
0010
0000
1000
0000
0000
0000
1100
0000
0100
0000
0100
1000
0010
0100
0001
1000
0001
0000
1000
0001
1000
0000
,
0110
0000
1000
0110
0000
0001
0110
0000
,
1000
0000
0000
0000
0001
0000
0000
0000
0100
0000
0000
1000
0000
0000
0100
0000
0001
0000
0000
0000
1001
0000
0000
0000
0001
0000
1000
0010
0000
0100
0001
0000
,
0100
0000
0010
0000
1000
0001
1000
0000
0001
0000
1000
0000
0010
0100
0010
0100
,
0010
0000
0000
1001
,
0000
0000
0110
0000
,
0001
0001
1000
0001
1000
1000
1000
0100
,
0001
0100
1000
0001
1000
0001
1000
0000
,
0000
0000
0001
0100
0010
0100
0001
1000
,
0001
1000
0020
0230
0302
2003
3002
0103
,
1002
0000
0000
0023
,
0000
0130
1000
0010
,
0100
0000
0001
0000
0100
0001
1000
0010
,
1000
0100
1000
0100
1000
0000
0000
0000
0010
0000
0000
0000
1010
0000
0000
0000
,
0100
0001
0001
0101
,
0010
0000
0110
1000
0001
1000
0010
0100
,
0001
0010
0001
0010
0001
0000
0100
0000
,
0010
0000
1000
0000
1010
0000
0100
0001
,
0000
0000
0001
0000
0100
0000
0010
0000
2000
0000
0002
3003
0110
0000
0000
0000
,
0100
0001
0100
0001
0100
0000
0010
0000
,
1000
0010
1000
0010
1000
0000
0010
0000
,
1000
0000
0001
0100
0000
0010
1000
0000
,
2002
3003
0020
0200
,
0330
2002
3003
2200
,
3300
0022
0033
0001
,
0200
0300
0100
0020
,
0230
0000
0010
0310
0000
1001
1000
0010
,
0100
0000
0100
0000
0001
0000
0010
0000
0100
0010
0100
0010
0100
0000
0000
0000
,
0010
0001
0200
0000
,
0301
0000
2000
0000
0000
0000
3100
0010
,
0100
0010
0001
0000
1000
0000
0100
0010
,
0100
0010
0001
0000
1000
0000
2002
0000
,
0000
0000
0000
0000
0000
0000
0000
0000
3003
0000
0000
0000
0010
0000
0000
0010
,
0000
0000
0010
0000
1000
0000
0001
0000
1000
0000
0001
0000
0100
0010
0100
0010
,
1000
0001
1000
0001
2002
0000
0000
0000
,
0000
0000
0000
0000
3003
0000
0000
0000
0010
0000
0000
0010
0000
0000
0010
0000
,
0100
0001
0100
0001
0010
0100
1000
0010
,
0100
0001
0100
0000
0100
0001
0100
0010
,
0100
0001
1000
0000
2002
0000
0000
0000
,
0000
0000
0000
0000
3003
0000
0000
0000
1000
0000
0000
0001
0000
0000
0010
0000
,
0100
1000
0100
1000
0010
0100
0010
1000
,
0010
0000
0010
0100
0010
1000
0010
0000
,
1000
0001
1000
0001
1000
0100
2000
3001
,
0100
0002
1003
0000
1000
0000
0001
0000
,
0001
0000
0100
0010
0100
0000
0010
0100
,
0010
0000
0000
0000
0110
0000
0001
0000
0000
0100
0000
0000
0010
0000
1000
0000
,
0000
0000
0000
0001
0010
0100
1000
0010
,
0100
0000
0000
0011
0000
0000
0110
0000
1000
0000
0000
0010
0000
0000
0100
0000
,
0001
0000
0000
0000
0000
0000
0000
0000
1000
0000
0100
0010
0100
0000
1000
0000
,
0001
0000
0100
0010
0100
0000
0001
0000
0220
0000
0000
0000
0330
0000
0000
0000
,
0010
0000
1000
0000
0001
0000
0000
0100
0001
0000
1000
0000
0100
0000
0000
0000
,
0010
0000
0022
0000
0033
0010
0100
0000
,
1000
0100
0000
1000
,
0000
0001
0000
0110
,
0000
0000
1000
0000
0100
0000
0010
0001
,
1000
0001
1000
0010
0100
0001
0100
0010
,
1000
0000
0001
0100
0010
1000
0010
0100
,
0001
1001
0000
0000
;

//---------------dance-single - ----------------
#NOTEDATA:;
#CHARTNAME:;
#STEPSTYPE:dance-single;
#DESCRIPTION:;
#CHARTSTYLE:;
#DIFFICULTY:Medium;
#METER:14;
#RADARVALUES:0.538997,0.955369,0.338144,0.587304,0.084536,424.000000,386.000000,38.000000,66.000000,0.000000,0.000000,0.000000,0.000000,0.000000,0.538997,0.955369,0.338144,0.587304,0.084536,424.000000,386.000000,38.000000,66.000000,0.000000,0.000000,0.000000,0.000000,0.000000;
#CREDIT:;
#NOTES:
0000
0000
0000
0000
,
2002
0000
0000
0000
,
0000
0000
3003
0000
1000
0100
0010
0001
,
0100
0010
0100
0010
,
0100
0010
0220
0000
,
0000
0330
0000
0000
,
0000
1001
0100
0010
0100
0010
2002
0000
,
0003
0200
0000
3300
,
0010
0001
0001
0100
,
0010
0000
0000
0000
1000
0001
1000
0001
1000
0001
0100
0000
0010
0000
0010
0000
,
1000
0001
0000
1000
0000
0000
0000
0001
,
0000
0000
0000
1001
0010
0100
0010
0000
,
2002
3000
0020
0000
,
0000
0000
0033
0000
0010
0001
1000
0100
,
2200
0000
0000
0000
3300
0000
2002
3003
0100
0000
0000
0000
0000
0000
0000
0000
,
0010
0000
0000
0000
1001
0010
1000
0001
,
0100
0101
0000
1000
0010
0101
0000
0101
,
0001
1000
0001
1000
0001
1000
0020
0000
0000
0000
0000
0000
0000
0000
0000
0000
,
0000
1030
0000
0000
0000
0010
0000
0000
,
0000
1010
0202
0000
0000
0000
0000
0000
,
0303
0001
0010
0000
,
0100
1000
0000
0001
,
0010
0000
0100
1000
,
0010
0000
0100
1001
0100
0000
0001
0000
,
0000
1000
0010
0000
,
0100
0001
0010
0100
,
1000
0001
2002
0000
,
0000
0000
3003
0000
1000
0100
0010
0001
,
1000
0000
0100
0001
0000
0100
1000
0010
,
2020
0000
0000
3030
0202
0303
2020
0000
,
3030
0000
0000
0000
0000
0000
0202
0303
,
0001
0000
0010
0000
0001
0100
0010
2000
,
3001
0100
1000
1000
,
0100
0001
1000
1000
,
0100
0000
0000
0010
0000
0000
0100
0000
,
1000
0110
1000
0000
0100
0000
0001
0000
,
0001
0100
1000
0001
,
0001
0100
0010
0100
,
0010
0000
0220
0000
0330
1000
0001
0110
,
0100
0000
0000
0100
0000
0000
0100
0000
0001
0000
0000
0000
0010
0000
0000
0000
,
0100
1000
0020
0000
,
0000
0130
0100
0100
,
0010
0000
1000
0000
0100
0000
0000
0010
,
0000
0000
0001
0000
0010
0000
0000
0100
,
0000
1000
0002
0000
,
1003
0000
0001
1000
0000
1000
0001
0000
1100
0000
0000
0000
0010
0001
0010
0001
,
0011
0000
0000
1100
0000
0000
1001
0000
,
0110
0000
0000
0000
0010
0000
0000
0000
1000
0000
0000
1000
0000
0000
1000
0000
0001
0000
0000
0000
0100
0000
0000
0000
0001
0000
1000
0000
0001
0000
1000
0000
,
1001
0000
0010
1000
0001
0100
0010
0000
,
0220
0000
0330
0202
,
0000
0303
2020
3030
,
1000
0001
0100
0010
0100
0001
0010
0000
,
0100
0010
0001
0020
,
0000
0130
1000
0001
,
0100
0000
0020
0230
0302
2003
3020
0130
,
0220
0000
0030
0002
,
0300
1003
0010
0100
,
0001
0000
1000
0000
0001
0100
0010
0100
,
0001
1000
0100
0020
,
0031
0010
0100
2000
,
3000
0000
1000
0010
0001
0010
1000
0000
,
0001
0010
0000
0010
,
0001
0000
0000
0000
1000
0000
0000
0001
,
0000
0000
1000
0000
0010
0100
0020
0000
,
1030
0100
0000
0010
,
0001
0000
1000
0100
,
0010
0000
0000
0001
0000
0000
1000
0000
,
1001
0000
0010
0100
,
0000
0001
0000
1000
,
0000
0010
0000
1000
,
0100
0000
1000
0100
,
0020
0000
0000
0000
0031
0000
1000
0000
0000
0000
2002
3003
0010
0000
0010
0000
,
0010
0000
1000
0100
0010
0001
1000
0000
,
0100
0010
0001
0000
,
0100
0100
0000
0001
,
0010
0100
1000
0010
,
0100
0010
0100
0002
,
0000
0000
0000
2000
,
0000
0000
3003
0000
1000
0000
0000
0000
0000
0000
0000
0000
1000
0001
1000
0001
,
1000
0100
0010
0001
2000
0000
0000
0000
,
0000
0000
0000
0000
0002
0000
0000
3003
,
0001
0000
0200
0000
,
0010
0000
0000
0310
0000
0000
1000
0000
,
0001
1000
2002
0000
,
0000
3003
0000
0000
,
1000
0100
1000
0010
,
0001
0001
0010
1000
,
0001
0000
1000
0000
0001
0100
0002
1003
,
0100
2000
3010
0000
0100
0000
0010
0000
,
0010
0100
0001
1000
,
0010
0000
0000
0000
1000
0000
0010
0000
0000
0010
0000
0000
0010
0000
0000
0000
,
0000
0000
0000
0100
0001
0100
0010
0200
,
0000
0000
0300
0000
0000
0000
0000
0000
0001
0000
0000
0001
0000
0000
0001
0000
,
0000
0000
0000
0000
0010
0001
0010
0100
,
0010
0001
0100
0010
2000
0000
0000
0000
,
3001
0100
0010
0000
1001
0000
0010
0000
,
0100
0001
0000
0100
,
0010
1000
0000
2002
,
0000
0000
3003
0000
,
0000
0010
0100
0010
,
0100
0001
0010
0100
,
1000
0000
0001
0000
0010
0000
0100
1000
,
0100
1000
0000
0000
;

//---------------dance-single - ----------------
#NOTEDATA:;
#CHARTNAME:;
#STEPSTYPE:dance-single;
#DESCRIPTION:;
#CHARTSTYLE:;
#DIFFICULTY:Easy;
#METER:12;
#RADARVALUES:0.362298,0.727901,0.364840,0.462724,0.008899,285.000000,244.000000,41.000000,52.000000,0.000000,0.000000,0.000000,0.000000,0.000000,0.362298,0.727901,0.364840,0.462724,0.008899,285.000000,244.000000,41.000000,52.000000,0.000000,0.000000,0.000000,0.000000,0.000000;
#CREDIT:;
#NOTES:
0000
0000
0000
0000
,
2002
0000
0000
0000
,
3003
0000
0000
0000
,
1000
0100
0010
0000
,
0001
0000
2002
0000
,
0000
3003
0000
0000
,
0000
0000
0000
2002
,
0003
0020
0000
3030
,
0000
0100
1000
0001
,
0010
0000
0001
0000
0000
0220
0000
0000
,
0000
0000
0330
1000
0000
0000
0000
0001
,
0000
0000
0000
1001
0000
0000
0000
0000
,
0220
0000
0000
0000
,
0330
0000
0000
0000
0010
1000
0001
0100
,
0000
0000
0000
0000
0000
0000
0220
0330
2002
0000
0000
0000
0000
0000
0000
0000
,
0000
0000
0000
3003
0000
1000
0001
0010
,
0100
2000
0000
3000
0000
0002
0000
2003
,
3000
0000
0000
2002
0000
0000
0000
0000
,
3003
0000
0000
0000
,
0000
0110
1001
0000
0000
0000
0000
0000
,
0000
1000
0100
0000
,
0100
1000
0000
1000
,
0100
0000
0010
0001
,
0010
0002
0103
0010
,
0000
0010
0100
0000
,
0100
0010
0000
0010
,
0100
0000
1001
0000
,
0000
0000
0000
0000
,
0001
0000
0001
0100
0000
0100
0010
1000
,
0002
0000
0000
0000
2000
3003
1001
0000
,
0000
0000
0000
0000
0000
0000
0220
0330
,
0100
0000
0100
0000
0100
0000
0000
1001
,
0001
0010
0000
0001
,
0010
0000
0001
1000
,
1001
0000
0000
1000
0000
0000
0001
0000
,
2000
3010
1000
0000
,
0010
1000
0000
0010
,
1000
0000
0010
0100
,
0000
0000
0110
0000
0000
0000
0200
0320
,
0130
0000
1001
0000
,
0000
0000
0002
0000
,
0000
1003
0001
0001
,
0001
0000
0100
0000
,
0100
0000
0010
0000
,
0010
0000
1000
0000
,
1001
0000
0110
0000
,
0101
0000
0000
1010
0000
0000
0101
0000
,
0100
0000
0000
0000
0010
0000
0000
0000
1000
0000
0000
1000
0000
0000
1000
0000
0010
0000
0000
0000
0010
0000
0000
0000
0100
0000
0000
0000
0010
0000
0000
0000
,
1000
0100
0010
0001
,
1000
0000
0000
0001
,
0000
0000
1001
0000
,
0110
0000
0000
0100
,
0001
1000
0010
0100
,
0000
0100
0010
1000
,
0001
0100
0000
0000
,
2002
0000
3003
0200
,
0000
0310
1000
0010
,
0100
0001
1000
0000
,
0000
1000
0100
2000
,
3001
0100
0001
0100
,
0001
0000
0000
0000
,
0220
0000
0000
0000
,
0330
0000
1000
0000
,
0001
0000
0000
0000
0000
0000
2002
3003
,
1000
0010
0000
0100
,
0010
0000
1000
0010
,
1000
0000
0000
0001
0000
0000
1000
0000
,
0020
0000
1030
0001
,
0000
1001
0000
0101
,
0000
1010
0000
1000
,
0100
0000
0010
0000
,
0001
0000
0000
0000
0000
2002
3003
0000
,
0000
0000
0010
1000
0100
1000
0010
0000
,
0100
0010
1000
0000
,
0100
0010
0000
0100
,
0010
0001
0100
0010
,
0100
0001
0000
0202
,
0000
0000
0303
0000
,
0000
2002
3003
0000
,
0010
0100
0220
0000
,
0000
0330
0000
0000
,
2002
3003
0001
0000
,
0000
0010
0000
0000
,
0100
0000
2200
0000
,
0000
3300
0000
0000
,
0000
0000
1000
0100
,
0000
0010
0001
0000
,
1000
0000
0100
0000
1000
0000
1001
0001
,
0000
1001
1000
0000
0000
0000
0001
0000
,
0000
0100
0000
0010
,
0000
1001
0000
0000
,
0000
0000
0000
0010
0000
0100
0000
0010
,
0000
1000
0000
0001
0000
0000
0000
0000
,
0000
0000
0200
0000
,
0310
1000
0001
0000
,
1000
0100
0001
0100
,
1000
0100
0000
1000
,
0010
1000
0001
0200
,
0000
0000
0000
0300
,
0000
0001
0010
0100
,
0000
1000
0001
0000
,
0001
1000
0000
1000
,
0001
1001
0000
0000
;

//---------------dance-single - ----------------
#NOTEDATA:;
#CHARTNAME:;
#STEPSTYPE:dance-single;
#DESCRIPTION:;
#CHARTSTYLE:;
#DIFFICULTY:Beginner;
#METER:6;
#RADARVALUES:0.189412,0.454938,0.177971,0.124580,0.000000,149.000000,129.000000,20.000000,14.000000,0.000000,0.000000,0.000000,0.000000,0.000000,0.189412,0.454938,0.177971,0.124580,0.000000,149.000000,129.000000,20.000000,14.000000,0.000000,0.000000,0.000000,0.000000,0.000000;
#CREDIT:;
#NOTES:
0000
0000
0000
0000
,
2002
0000
0000
0000
,
3003
0000
0000
0000
,
0000
0000
0000
0000
,
0000
0000
0220
0000
,
0000
0330
0000
0000
,
0000
0000
0000
2002
,
0000
0000
3003
0000
,
0000
0010
0000
0010
,
0000
0010
0000
0000
,
0000
0000
0000
0000
,
0000
0000
0100
0000
,
0220
0000
0000
0330
,
0000
0000
1000
1000
,
1000
0000
0001
0000
,
0001
0000
0001
0000
,
0000
1000
0000
0000
,
0100
0000
0000
0000
,
0000
0000
0000
0000
,
0000
1001
0000
0000
,
0000
0010
0000
0000
,
0010
0000
0000
0010
,
0000
0000
0010
0000
,
0000
0100
0100
0000
,
0000
0100
0000
0000
,
0100
0000
0000
0100
,
0000
0000
1000
0000
,
0000
0000
0000
0000
,
1000
0000
0000
0000
,
1001
0000
0110
0110
,
0000
0000
0000
1001
,
1001
0000
0000
0000
,
0010
0000
0000
1000
,
0000
0000
0001
0000
,
0000
0000
0000
0000
,
0100
0100
0000
0000
,
0001
0000
0000
1000
,
0000
0000
0010
0000
,
0000
0020
0030
0000
,
0100
0100
0100
0000
,
0000
0000
1000
0000
,
0000
0000
0001
0000
,
0000
0000
0100
0000
,
0100
0000
0010
0000
,
0010
0000
0110
0000
,
1000
0000
0001
0000
,
0100
0000
0000
0010
,
0010
0000
0000
1000
,
1000
0000
0000
0001
,
0001
0000
0000
0100
,
0000
0000
0010
0000
,
1000
0000
0000
1001
,
0000
1000
0000
0001
,
0000
1000
0000
1000
,
0000
0010
0000
0000
,
0220
0000
0000
0330
,
0000
0000
0100
0000
,
0000
0000
0010
0000
,
0000
1000
0000
0100
,
0000
0010
0000
0000
,
0000
0100
0000
0000
,
2002
0000
0000
3003
,
0000
0000
0010
0000
,
0010
0000
0000
0000
,
0001
0000
0000
1000
,
0000
0000
0010
0000
,
0100
0000
0100
0000
,
0001
0000
0000
0010
,
0000
0000
0000
0100
,
0000
0000
0000
1000
,
0000
0000
0000
0000
,
1001
0000
0000
0010
,
0000
0100
0000
0010
,
0000
0000
0000
0000
,
0000
0000
0000
0001
,
0000
0000
0000
1000
,
0000
1000
0000
1000
,
0000
0000
0000
0000
,
0000
1001
0000
0000
,
0000
0000
0010
0000
,
0000
0000
0000
0000
,
0110
0000
0100
0000
,
0000
0010
0000
0000
,
1000
0000
1000
0000
,
0000
0000
0000
0000
,
0001
0000
0001
0000
,
0000
1000
0000
0000
,
0001
0000
0100
0000
,
0000
0100
0000
0100
,
0000
0010
0000
0010
,
0000
0110
0000
0000
,
0000
0000
0000
0000
,
1000
0000
0001
0000
,
0000
0000
0002
0000
,
0003
0000
0100
0000
,
0000
0000
0010
0010
,
0000
0000
0000
1000
,
0000
0000
0000
1001
,
0000
0000
0000
0000
,
0000
0010
0000
0100
,
0000
0001
0000
0001
,
0000
1000
0000
1000
,
0000
1001
0000
0000
;

//---------------dance-double - ----------------
#NOTEDATA:;
#CHARTNAME:;
#STEPSTYPE:dance-double;
#DESCRIPTION:;
#CHARTSTYLE:;
#DIFFICULTY:Easy;
#METER:12;
#RADARVALUES:0.441113,0.909876,0.364840,0.480521,0.013348,347.000000,306.000000,41.000000,54.000000,0.000000,0.000000,0.000000,0.000000,0.000000,0.441113,0.909876,0.364840,0.480521,0.013348,347.000000,306.000000,41.000000,54.000000,0.000000,0.000000,0.000000,0.000000,0.000000;
#CREDIT:;
#NOTES:
00000000
00000000
00000000
00000000
,
00022000
00000000
00000000
00000000
,
00000000
00033000
00000000
00000000
,
00000100
00000000
00001000
00000000
,
00000010
00000100
00000020
00000000
,
00000000
00000030
00000000
00000000
,
00000000
00001001
00000000
00000000
00000000
00000000
00020100
00000000
,
00000000
00002000
00000000
00033000
,
00000000
00010000
00000000
00001000
,
00000000
00000000
01001000
00000000
00000000
02200000
00000000
00000000
,
00000000
00000000
03300000
10000000
00000000
00000000
00000000
00100000
,
00000000
00000000
00000000
10100000
01000000
00000000
00010000
00000000
,
20020000
00000000
00000000
00000000
,
30030000
00000000
00000000
00000000
00100000
01000000
00010000
10000000
,
02000000
00000000
00000000
03020000
00031000
00000000
00000000
00000000
,
00000100
00000000
00000000
00000000
00000002
00000013
00000100
00001000
,
00000010
00000101
00000000
00000010
00000100
00000101
00000000
00000101
,
00000002
00000203
00002300
00023000
00000000
00000000
00000000
00000000
,
00000000
00130000
00000000
00000000
00000000
10000000
00000000
00000000
,
00000000
10010000
00202000
00000000
00000000
00000000
00000000
00000000
,
00303000
00001000
00010000
00000000
,
00010000
00000010
00000000
00000010
,
00000100
00000000
00000001
00001000
,
00000001
00002000
00003100
00010000
,
00000000
00010000
00001000
00000000
,
00001000
01000000
00000000
00100000
,
10000000
00010000
20000000
00000000
,
30000000
00000000
00000000
00000000
00000000
00000000
00000000
01100000
,
01000000
00000000
00001000
00010000
00000000
00000010
00001000
00000001
,
00001001
00000000
00000110
00010010
,
00000000
00000000
00000000
00011000
,
01000000
00000000
00100000
00000000
01000000
00000000
00000000
10010000
,
10000000
01000000
00000000
00010000
,
00001000
00000000
00000100
00000001
,
00000000
00000000
00000000
00000000
,
00002002
00003003
00000001
00000000
00000010
00000000
00000000
00000000
,
00001000
00010000
00000000
00100000
,
10000000
00000000
00010000
10000000
,
00010000
00000000
20020000
00000000
00000000
30030000
01100000
01001000
,
00022000
00000000
00000000
00033000
00001000
00000000
00010000
00000000
,
00000010
00000100
00002002
00000000
,
00003003
00000010
00000100
00000010
,
00000100
00000000
00001000
00000000
00010000
00000000
00000000
01000000
,
00000000
00000000
00010000
00000000
00001000
00000000
00000000
00000010
,
00000000
00001000
00010000
00000000
,
00000101
00000000
11000000
00000000
,
00011000
00000000
00000000
00000010
00000000
00000000
00011000
00000000
,
01000000
00000000
00000000
00000000
00100000
00000000
00000000
00000000
01000000
00000000
00000000
01000000
00000000
00000000
01000000
00000000
00100000
00000000
00000000
00000000
00010000
00000000
00000000
00000000
00001000
00000000
00000010
00000000
00000001
00000000
00000000
00000000
,
00000100
00000010
00001000
00000001
00000100
00000001
00001000
00000010
,
00000110
00000000
00000000
00010100
,
00000000
00000000
00011000
00000000
,
00100000
00010000
01000000
00100000
10000000
00010000
10000000
00000000
,
01000000
00010000
00001000
00000200
,
00000000
00000301
00000010
00001000
,
00010000
00000000
00100000
10000000
00100000
10000000
00100000
10000000
,
20200000
00000000
30300000
02020000
,
03030000
00100000
00001000
00010000
,
00001000
00000000
00010000
00000000
00000010
00000000
00000100
00000001
,
00001000
00000010
00001000
00000000
00001000
00000000
00002000
00000000
,
00003100
00010000
00010000
00010000
,
00010000
00000000
00001000
01000000
00100000
10000000
00010000
10000000
,
01000000
00100000
00000000
00100000
,
01000000
00000000
00000000
00000000
00010000
00000000
00000000
00001000
,
00000000
00000000
00000100
00000000
00000001
00001000
00000001
00000000
,
00000010
00000100
00000000
00000100
,
00000010
00000000
00000010
00000001
,
00001000
00000000
00000000
00000100
00000000
00000000
00010000
00000000
,
00002000
00000000
01003000
00100000
,
00000000
10010000
00000000
01010000
,
00000000
00101000
00000000
00001000
,
00010000
00000000
00010000
00000100
,
00000020
00000030
00000001
00001000
00000000
00001001
00000001
00000000
,
00000100
00001000
00010000
00100000
,
00000000
01000000
20000000
00000000
,
30010000
00100000
00000000
00100000
,
00001000
00010000
00000100
00000010
,
00000001
00000100
00000010
00002000
,
00000000
00000000
00000000
00003000
,
00000000
00000000
00000002
00000000
00000003
00000000
00000020
00002030
,
00013000
00100000
20000000
00000000
,
00000000
00000000
30000000
00000000
,
10000000
00000000
01000000
00000000
,
00010000
00000000
00010000
00000000
,
00001000
00000000
00000200
00000000
,
00000000
00000000
00000301
00000000
,
00001000
00000001
00002000
00000000
,
00003000
00000020
00000000
00000030
,
00020000
00000000
00000000
00000000
00031000
01000000
00200000
00310000
,
00000100
00002000
00003010
00000000
00000000
00000000
00000100
00000000
,
00000000
00000001
00001000
00000001
,
00001000
00000000
00000010
00000000
00000000
00000000
00000000
00010000
,
00000000
00001000
00000000
01000000
00000000
00000000
00000000
00000000
,
00200000
00000000
00000000
10300000
00000000
00000000
00000000
00000000
,
10000000
01000000
00100000
00000000
,
00001000
00010000
00022000
00033000
,
00000010
00000100
00000001
00000000
00001100
00000000
00000001
00000000
,
00000100
00002000
00000000
00013000
,
01000000
10000000
00000000
20020000
,
00000000
00000000
30030000
00000000
,
00000000
10000000
00100000
01000000
,
00000000
00001000
00010000
00001000
,
00010000
00000010
00000100
00000010
,
00000100
00000110
00000000
00000000
;

//---------------dance-double - ----------------
#NOTEDATA:;
#CHARTNAME:;
#STEPSTYPE:dance-double;
#DESCRIPTION:;
#CHARTSTYLE:;
#DIFFICULTY:Medium;
#METER:13;
#RADARVALUES:0.512302,0.909876,0.275855,0.667390,0.035594,403.000000,372.000000,31.000000,75.000000,0.000000,0.000000,0.000000,0.000000,0.000000,0.512302,0.909876,0.275855,0.667390,0.035594,403.000000,372.000000,31.000000,75.000000,0.000000,0.000000,0.000000,0.000000,0.000000;
#CREDIT:;
#NOTES:
00000000
00000000
00000000
00000000
,
00020200
00000000
00000000
00000000
,
00000000
00000000
00030300
00000000
00001000
00100000
01000000
10000000
,
00000000
10000000
00010000
10000000
,
01000000
00100000
00002000
00000000
,
00000000
00000000
00003000
00010000
00000000
00001000
00000000
00010000
,
00000000
00000020
00000130
00000100
00000010
00000100
00000210
00000000
,
00000000
00000002
00000000
00000303
,
00000000
00000001
00000100
00001000
,
00010000
00000000
00200000
00000000
00000000
00300000
10000000
01000000
,
00010000
01000000
00000000
10000000
00000000
00000000
00000000
00010000
,
00000000
00000000
00000000
20010000
30100000
01000000
00010000
00000000
,
22000000
03000000
00020000
00000000
,
00000000
00000000
30030000
00000000
10000000
00100000
01000000
00100000
,
00020000
00000000
00032000
00000000
00003200
00000000
00000002
00000303
00001001
00000000
00000000
00000000
00000000
00000000
00000000
00000000
,
00000110
00000000
00000000
00000000
00001001
00000010
00000100
00000010
,
00010000
00002000
00003100
00001000
00010000
00200000
10300000
00200000
,
00310000
00010000
01000000
02000000
00000000
00000000
00000000
00000000
,
00000000
03100000
00000000
10000000
00010000
00000000
00010000
10000000
,
00000000
00200000
02300000
00000000
00000000
00000000
00000000
00000000
,
00000000
03010000
00100000
00000000
,
00100000
00001000
00000000
00001000
,
00010000
00000000
00010000
00000100
,
00000010
00000000
00000001
00001100
00000001
00000000
00000010
00000000
,
00000000
00000010
00000100
00000000
,
00000100
00010000
00000000
00010000
,
00001000
01000000
00200000
00000000
,
00300000
10000000
00000000
00010000
10000000
00000000
00000000
01010000
,
00100000
00000000
00100000
00001000
00000000
00001000
00010000
00000010
,
00000220
00000000
00000330
00000000
00020020
00030030
00022000
00000000
,
00033000
00000000
00000000
01001000
,
01000000
00000000
00010000
00000000
20000000
30100000
01000000
10020000
,
01030000
00100000
00000000
00100000
,
00001000
00000000
00001000
00010000
,
00000010
00000000
00000000
00000010
00000000
00000000
00000010
00000000
,
00000200
00000000
00000020
00000330
00000010
00000000
00000000
00000000
00000100
00000000
00000000
00000000
00000000
00000000
00000000
00000000
,
00000100
00001000
00000000
00001000
,
00010000
00001000
01000000
00100000
,
10000000
00000000
00020000
00000000
00030000
00000000
10200000
00320000
,
00031000
00000100
00000002
00001000
,
00001003
00000001
00000200
00000000
,
00000000
00000310
00010000
00010000
,
00001000
00000000
01000000
00000000
00001000
00100000
00000000
00010000
,
00100000
00000000
00001000
00000000
00001000
00000000
00010000
00000100
,
00000000
00001000
00000100
00000000
00010000
00000000
00000000
00000000
,
11000000
00000000
00000101
00000000
,
00011000
00000000
00000000
01001000
00000000
00000000
00011000
00000000
,
00010010
00000000
00000000
00000000
00000010
00000000
00000000
00000000
00001000
00000000
00000000
00000100
00000000
00000000
00001000
00000000
00000010
00000000
00000000
00000000
00000100
00000000
00000000
00000000
00001000
00000000
00000000
00010000
00000000
00000000
00001000
00000000
,
00100000
01000000
10000000
01000000
00100000
00001000
00010000
00010000
,
00000020
00000000
00000000
00000200
,
00000000
00000330
00001001
00000000
,
00000001
00000010
00001000
00010000
01000000
10000000
00100000
00000000
,
01000000
00010000
01000000
00200000
,
00000000
10300000
01000000
00010000
,
00001000
00000020
00000000
00000000
,
00000032
00000000
00000000
00002000
,
00003003
00001000
00000100
00000010
,
00000001
00000100
00000020
00020030
,
00031000
00011000
00010000
00002000
,
01003000
00100000
10000000
00010000
,
10000000
02000000
03200000
02300000
,
13000000
00100000
10000000
01000000
,
00100000
00000000
00001000
00000000
00010000
00000000
00000100
00000010
,
00000000
00000100
00000010
00000000
00000000
00000000
00002002
00003003
,
00000001
00000100
00000000
00000001
,
00000010
00000000
00000001
00000100
,
00001000
00000000
00000000
00000000
,
00020000
00000000
00130000
10000000
,
00000000
00010000
00000000
10000000
,
00000000
00100000
00000000
00010000
,
00001000
00000000
00000100
00000001
,
00002000
00003001
00000000
00000001
00000000
00000201
00000310
00001000
,
00000100
00000000
00000100
00010000
00001000
00001000
01000000
00000000
,
00100000
00010000
00002000
00000000
,
00003100
00000002
00000000
00000013
,
00001000
00010000
01000000
10000000
,
01000000
10000000
00100000
02000000
,
00000000
00000000
03000000
10010000
,
00000000
00000000
00000000
00000000
00000000
00000000
20000000
32000000
,
03100000
00001000
00010000
00000100
00000020
00000000
00000000
00000000
,
00000000
00000030
00001001
00000000
,
00000001
00000100
00000010
00001000
,
00000100
00000000
00000100
00001000
,
00000010
00000000
00000220
00000000
,
00000000
00000330
00000000
00000000
,
00010000
00001000
01000000
00100000
,
01000000
00000000
00100000
01000000
,
00010000
00000000
10000000
00000000
01000000
00010000
00002000
00003010
,
00000001
00000200
00000301
00000000
00000010
00000000
00000100
00000000
,
00000100
00000010
00000001
00001000
,
00000100
00000000
00000000
00000000
00020100
00000000
00031000
00000000
00000000
00001000
00000000
00000000
00002000
00000000
00200000
00000000
,
00000000
00003000
00000000
00310000
01000000
00100000
10000000
01000000
,
00100000
00010000
00000000
00010000
01000000
00000000
00200000
00000000
10300000
00000000
00000000
10000000
00000000
00000000
20000000
00000000
,
00020000
00000000
30000000
00000000
00130000
00001000
00100000
00001000
,
00010000
00000010
00000100
00000001
00002002
00000000
00003003
00000000
,
00000001
00000010
00000100
00001000
00000001
00001000
00000010
00000000
,
00000100
00002000
00000000
00013000
,
01000000
20000000
00000000
30020000
,
00000000
00000000
00000000
01030000
,
00000000
00100000
00000000
01000000
,
00001000
00010000
00000100
00010000
,
00010000
00000010
00000100
00000010
,
00000010
00000110
00000000
00000000
;

//---------------dance-double - ----------------
#NOTEDATA:;
#CHARTNAME:;
#STEPSTYPE:dance-double;
#DESCRIPTION:;
#CHARTSTYLE:;
#DIFFICULTY:Hard;
#METER:15;
#RADARVALUES:0.610186,1.137345,0.400434,0.542811,0.120130,480.000000,435.000000,45.000000,61.000000,0.000000,0.000000,0.000000,0.000000,0.000000,0.610186,1.137345,0.400434,0.542811,0.120130,480.000000,435.000000,45.000000,61.000000,0.000000,0.000000,0.000000,0.000000,0.000000;
#CREDIT:;
#NOTES:
// measure 0
00000000
00000000
00000000
00000000
,  // measure 1
00022000
00000000
00000000
00000000
,  // measure 2
00000000
00000000
00033000
00000000
00100000
00010000
01000000
00100000
,  // measure 3
10000000
01000000
00010000
00001000
,  // measure 4
00001000
00000010
00000022
00000000
,  // measure 5
00000000
00000000
00000033
00000001
00001000
00000001
00000100
00000010
,  // measure 6
00000100
00000002
00001003
00000100
00001000
00000100
00020200
00000000
,  // measure 7
00000300
00002000
00000000
00033000
,  // measure 8
00000000
00000000
00010000
00000000
00001000
01000000
00000000
00100000
,  // measure 9
10000000
00000000
00000000
00000000
00010000
01000000
10000000
01000000
00010000
01000000
00100000
00000000
00010000
00000000
00001000
00000000
,  // measure 10
00010000
00100000
00000000
10000000
00000000
01000000
00100000
00000000
,  // measure 11
00100000
00001000
00000000
00101000
00010100
00000100
00001000
00000000
,  // measure 12
00000022
00000030
00000200
00000000
,  // measure 13
00000000
00000000
00000303
00000000
00000001
00000100
00001000
00010000
,  // measure 14
00100000
10000000
00100000
00010000
00001000
00010000
00200000
00000000
10300000
00000000
00000000
00000000
01000000
00000000
00100000
00000000
,  // measure 15
00000000
01000000
10000000
00000000
01010000
00010000
00100000
01000000
,  // measure 16
00010000
00002000
00013000
00000010
00000100
00002000
00013000
00002000
,  // measure 17
00003100
00000001
00001000
00000010
00000100
00000010
00002002
00000000
00000000
00000000
00000000
00000000
00000000
00000000
00000000
00000000
,  // measure 18
00003003
00000110
00000000
00000010
00000100
00000000
00000001
00001000
,  // measure 19
00000100
00000020
00000200
00000000
00000000
00000000
00000000
00000000
,  // measure 20
00000330
00000100
00010000
00000000
,  // measure 21
00010000
00000100
00000000
00000100
,  // measure 22
00010000
00000000
00010000
00001000
,  // measure 23
01000000
00000000
00100000
10010000
01000000
00000000
00001000
00000000
,  // measure 24
00000000
00001000
01000000
00000000
,  // measure 25
01000000
00001000
00000000
00001000
,  // measure 26
00010000
00000010
00000200
00000000
,  // measure 27
00000000
00000000
00000000
00000000
00000300
00000010
00000100
00001001
,  // measure 28
00000001
00000000
00000100
00001000
00000000
00010000
00100000
10000000
,  // measure 29
00020000
00000000
00000000
00000000
20000000
30030000
10010000
00000000
,  // measure 30
00000000
00000000
00000000
00000000
00000000
00000000
02200000
03300000
,  // measure 31
01000000
00000000
01000000
00000000
01000000
00100000
00001000
00011000
,  // measure 32
00000010
00000100
00000000
00000100
,  // measure 33
00000010
00000000
00000010
00001000
,  // measure 34
00000100
00000000
00010000
00001000
00000000
00001000
00100000
00000000
,  // measure 35
11000000
01010000
10000000
00000000
01000000
00000000
00000000
00000000
,  // measure 36
01000000
10000000
00000000
10000000
,  // measure 37
01000000
00000000
00010000
00001000
,  // measure 38
00000100
00000000
00000002
00000000
00000000
00000000
00001003
00000110
,  // measure 39
00001000
00000000
00000000
00001000
00000000
00000000
00001000
00000000
00000001
00000000
00000000
00000000
00000010
00000000
00000000
00000000
,  // measure 40
00001000
00010000
00200000
00000000
,  // measure 41
00000000
00000000
10300000
00000000
00010000
00000000
00000000
10000000
,  // measure 42
00000000
00000000
00100000
00000000
10000000
00000000
00000000
00010000
,  // measure 43
00000000
00000000
01000000
00000000
00100000
00000000
00000000
00010000
,  // measure 44
00000000
00001000
00000100
00000000
,  // measure 45
00000101
00000000
11000000
00000000
,  // measure 46
00011000
00000000
00100000
00011000
00000000
00000100
00011000
00000000
,  // measure 47
00000100
00000000
00000000
00000000
00000010
00000000
00000000
00000000
00000001
00000000
00000000
00000100
00000000
00000000
00001000
00000000
00000001
00000000
00000000
00000000
00001100
00000000
00000000
00000000
00000010
00000000
00000100
00001000
00000000
00000010
00010000
00000000
,  // measure 48
00001000
00000000
00001000
00000000
00100000
00010000
00100000
00010000
00100000
00000000
01000000
00000000
10000000
00000000
00100000
00000000
,  // measure 49
01100000
00000000
00000000
00011000
,  // measure 50
00000000
00000000
00000110
00000000
,  // measure 51
00000001
00001000
00000010
00000100
00000010
00001000
00000200
00000000
,  // measure 52
00020300
00032000
00003200
00000302
,  // measure 53
00000003
00000020
00002030
00023000
,  // measure 54
00230000
00000000
10300000
00010000
01000000
00100000
10000000
00010000
,  // measure 55
20020000
00000000
00030000
00200000
,  // measure 56
30300000
01000000
00010000
00100000
,  // measure 57
01000000
00010000
00001000
00000000
,  // measure 58
00000000
00000100
00000001
00000000
00001000
00000000
00000001
00000000
,  // measure 59
00000100
00000010
00000100
00000010
,  // measure 60
00010000
00000000
00001000
00000000
00011000
00000000
00101000
00001000
,  // measure 61
01000000
00100000
01000000
00100000
,  // measure 62
01100000
00000000
00000000
00000000
10000000
00000000
00010000
00100000
,  // measure 63
00000000
00100000
01000000
00000000
10000000
01000000
00020000
00000000
,  // measure 64
00031000
00000100
00000000
00001000
,  // measure 65
00000100
00000000
00001000
00000100
,  // measure 66
00000001
00000000
00000000
00001000
00000000
00000000
00000001
00000000
,  // measure 67
00000202
00000303
00000010
00002000
,  // measure 68
00000000
00003200
00000000
00000320
,  // measure 69
00000000
00002030
00000000
00013000
,  // measure 70
00200000
00000000
10300000
00010000
,  // measure 71
20000000
00000000
30000000
00010000
10000000
01010000
00100000
01000000
,  // measure 72
00100000
00100000
00010000
00001000
00000100
00000100
00000001
00000000
,  // measure 73
00001000
00000010
00000220
00000300
,  // measure 74
00001000
00001030
00000000
00000001
,  // measure 75
00000100
00001000
00010000
00100000
,  // measure 76
10000000
00010000
01000000
02020000
,  // measure 77
00000000
00000000
00000000
00000000
00000000
00000000
00000000
00000000
03030000
00000000
00000000
00000000
10000000
00000000
00000000
01100000
,  // measure 78
00000000
00000000
00010000
00000000
00001000
00000000
00000000
00000000
00000100
00000000
00000000
00000000
00000001
00000100
00000001
00001000
,  // measure 79
00000001
00000100
00000001
00001000
00000202
00000000
00000000
00000000
,  // measure 80
00000000
00000000
00000000
00000000
00000303
00000000
00000000
00000000
00000001
00000000
00000000
00000110
00000000
00000000
00001000
00000000
,  // measure 81
00010000
00000000
01000000
00000000
10000000
00000000
00100000
01000000
,  // measure 82
00100000
10000000
00010000
10000000
,  // measure 83
01000000
00010000
22000000
00000000
,  // measure 84
00000000
00000000
00000000
00000000
33000000
00000000
00000000
00000000
00100000
00000000
00000000
01010000
00000000
00000000
00100000
00000000
,  // measure 85
00010000
00001000
00000100
00000001
,  // measure 86
00001000
00000100
00000001
00001000
,  // measure 87
00000100
00000000
00000001
00000000
00001000
00000010
00010100
00001000
,  // measure 88
00100000
01010000
00100000
00000000
10000000
00000000
00010000
00000000
,  // measure 89
00010000
01000000
00100000
01000000
,  // measure 90
01000000
00000000
00000000
00000000
00020000
00000000
10030000
00000000
00000000
01010000
00000000
00000000
00100000
00000000
00010000
00000000
,  // measure 91
00000000
00001000
00000000
00000100
00000001
00000100
00001000
00010000
,  // measure 92
00100000
00000000
00000000
10000000
00000000
00000000
00020000
00000000
00130000
00000000
00000000
00011000
00000000
00000000
00000010
00000000
,  // measure 93
00000100
00000000
00000000
00000000
00000001
00000000
00000000
00000000
00001000
00000000
00000001
00000010
00000001
00000000
00001000
00000000
,  // measure 94
00000100
00010000
00001000
01000000
02200000
00000000
03300000
00000000
,  // measure 95
00100000
10000000
00010000
01000000
00100000
00010000
00001000
00000000
,  // measure 96
00000010
00000002
00000000
00000103
,  // measure 97
00001000
00010000
00100000
20000000
,  // measure 98
00000000
00010000
00000000
30010000
,  // measure 99
01000000
00000000
00100000
00000000
10000000
00000000
00010000
00100000
,  // measure 100
00010000
00100000
00010000
00000000
10000000
01000000
00100000
00001000
,  // measure 101
00010000
00000100
00000010
00000001
00000100
00000010
00010000
00001000
,  // measure 102
00010000
00011000
00000000
00000000
;

//---------------dance-double - ----------------
#NOTEDATA:;
#CHARTNAME:;
#STEPSTYPE:dance-double;
#DESCRIPTION:;
#CHARTSTYLE:;
#DIFFICULTY:Challenge;
#METER:18;
#RADARVALUES:0.850446,1.774257,0.560608,0.355942,0.275855,669.000000,606.000000,63.000000,40.000000,0.000000,0.000000,0.000000,0.000000,0.000000,0.850446,1.774257,0.560608,0.355942,0.275855,669.000000,606.000000,63.000000,40.000000,0.000000,0.000000,0.000000,0.000000,0.000000;
#CREDIT:;
#NOTES:
00000000
00000000
00000000
00000000
,
00022000
00000000
00000000
00000000
,
00000000
00000000
00033000
00000000
00000010
00000001
00000100
00001000
,
00000100
00000010
00000100
00000010
00000100
00000000
00001000
00000000
,
00011000
00000000
00000000
00000000
01001000
00000000
00000000
00000000
02200000
00000000
00000000
00000000
03300000
00000000
00010000
01000000
,
00100000
10000000
00010000
00000000
00010000
00000000
01000000
00000000
00100000
00000000
01000000
00000000
00100000
00000000
01000000
00000000
,
00100000
00010000
00001000
00000100
00001000
00000100
00000202
00000000
,
00000300
00002000
00000000
00000000
,
00003003
00000000
00000110
00000000
00000010
00001000
00000000
00001000
,
00000100
00000000
00000010
00000000
00001000
00010000
00001000
00010000
00001000
00010000
00200000
00000000
10000000
00000000
10300000
00000000
,
01000000
00100000
00000000
01100000
00000000
00001000
00010000
00000000
,
00010000
00000010
00000100
00000010
00011000
00100000
01000000
00000000
,
22000000
03000000
00200000
00000000
,
00000000
00000000
30300000
00000000
01010000
00100000
00001000
00010000
,
00001010
00000010
00001000
00000001
00000100
00000001
00002000
00000000
00003001
00000000
00000000
00000000
00000100
00000000
00001000
00000000
,
00000000
00001000
00000100
00000000
00000001
00000100
00001000
00010000
,
00100000
10000000
01000000
00010000
01000000
10000000
00010000
10000000
,
01100000
00100000
10000000
00010000
01000000
00010000
20010000
00000000
00000000
00000000
00000000
00000000
00000000
00000000
00000000
00000000
,
30000000
01010000
00000000
00010000
00100000
00000000
00100000
01000000
,
00010000
00001000
00002002
00000000
00000000
00000000
00000000
00000000
,
00003003
00000000
00000001
00000100
00000010
00000100
00001000
00000000
,
00000100
00001000
00010000
00100000
01000000
00000000
00100000
01000000
,
10000000
01000000
00010000
00000000
00100000
00000000
01000000
00000000
,
10000000
00000000
10010000
01001000
01000000
00100000
00010000
00100000
,
01000000
00000000
00100000
00010000
00001000
00000100
00000010
00000000
,
00001000
00000100
00000010
00000100
00000001
00000000
00001000
00000010
,
00000100
00000001
00000010
00000100
00002000
00000000
00000000
00000000
,
00003000
00000010
00000000
00000100
00001000
00010000
00100000
10000000
,
01100000
00000000
00010000
01100000
00000000
01000000
00100000
00010000
,
00011000
00000010
00011000
00000101
,
00001000
00010000
01000000
11000000
,
00010000
00000000
00100000
00000000
01000000
10000000
00010000
10010000
,
10000000
00100000
01000000
00100000
00010000
00000000
00100000
00010000
,
00001000
00000100
00000010
00000000
00000100
00000010
00000001
00000010
,
00001000
00000000
00000001
00000100
00000000
00000010
00001000
00000000
,
00001001
00010010
00000010
00000100
00001000
00000100
00000010
00000000
,
00000100
00001000
00010000
00100000
01000000
00000000
00010000
00100000
,
01000000
00100000
10000000
00000000
00100000
00010000
10000000
01000000
,
00100000
00010000
20000000
00000000
00000000
31000000
00010000
00011000
,
00000010
00000000
00000000
00010100
00000000
00000000
00000010
00000000
00000100
00000000
00000000
00000000
00000001
00000000
00000000
00000000
,
00000100
00000001
00000100
00000001
00002000
00000000
00000000
00000000
,
00000000
00000000
00003010
00000000
00000100
00000000
00000010
00001000
,
00000000
00000100
00000010
00000000
00000100
00010000
00000000
00001000
,
00010000
00000000
00100000
00000000
11000000
00000000
01000000
00100000
,
00000000
00000000
00000000
01000000
00000000
00000000
10000000
00000000
00000000
00000000
00000000
00000000
01000000
00010000
01000000
00010000
00001000
00000100
00001000
00000100
00000001
00001000
00000001
00001000
,
00001001
00000000
00000000
00000000
00000010
00000000
00001001
00000000
00000000
00000000
00000010
00000000
00001001
00000000
00000100
00000010
00000100
00000000
00000010
00000000
00010000
00001000
00010000
00001000
00100000
01000000
00100000
00000000
00100000
00001000
00100000
00000000
,
00011000
00000000
01000000
00011000
00000000
00000100
00011000
00000000
,
01001000
00000000
00000000
00000000
00101000
00000000
00000000
00000000
00010100
00000000
00000000
00001010
00000000
00000000
00000101
00000000
00000010
00000000
00000000
00000000
00001010
00000000
00000000
00000000
00000100
00001000
00000010
00010000
00001000
00100000
00010000
01000000
,
00100000
00000000
10000000
00000000
01000000
00010000
01000000
00010000
00001000
00000000
00100000
00000000
00001000
00010000
00001000
00010000
,
00001000
00000100
00000001
00000100
00001000
00000000
00010000
01000000
,
10000000
01000000
00010000
00000000
00001000
00000100
00000001
00000100
,
00001000
00010000
00100000
10000000
01000000
00010000
01000000
10000000
,
01000000
10000000
00100000
01000000
00100000
01000000
00100000
00000000
,
00000000
00000000
01000000
00001000
01000000
00001000
00010000
00001000
,
00010000
00001000
00010000
00000010
00000100
00001000
00010000
00100000
,
10000000
00010000
10000000
00010000
10000000
01000000
00010000
01000000
,
00010000
01000000
00010000
00001000
00010000
00000000
00010000
00000000
,
00000010
00000000
00000010
00000000
00000100
00000001
00000100
00001000
,
00010000
00100000
10000000
00100000
01000000
00000000
00000000
00000000
00100000
00000000
00000000
00000000
10010000
00000000
00000000
00000000
,
01000000
00011000
00010100
00011000
,
00001010
00000000
00000010
00000100
00000010
00001000
00000100
00000010
,
00001000
00010000
00001000
00010000
00001000
00010000
00100000
00000000
,
20000000
00000000
30000000
00000000
01000000
00000000
00010000
00001000
,
00000000
00010000
01000000
10000000
00100000
01000000
01100000
00000000
,
10000000
00100000
01000000
00100000
00010000
00000000
00001000
00000100
,
00000010
00000100
00000001
00000000
00000100
00001000
00010000
00100000
,
10000000
00000000
00010000
01000000
00000000
00100000
10000000
00000000
,
20020000
30030000
20000000
32000000
,
00000000
03020000
00000000
00032000
,
00000000
00003020
00000000
00000032
,
00002003
00000000
00003020
00000230
,
00000310
00000100
00000010
00000000
00010000
00000000
00001000
00000000
01000000
00000000
00011000
00000000
00100000
00000000
01000000
10000000
,
01000000
00000000
01000000
00000000
00100000
00000000
00010000
00000000
00100000
00010000
00100000
00010000
10000000
00000000
00000000
00000000
,
00100000
00010000
00002100
00000000
,
00003010
00000012
00000000
00000013
,
00001000
00010000
00100000
10000000
,
01000000
00010000
00001000
00012000
,
00000000
00000000
00000000
00000000
00000000
00000000
00000000
00000000
00000000
00000000
00000000
00000000
00013000
00000000
00000000
00010000
,
00000000
00000000
00010000
00000000
00000010
00000000
00000100
00000000
00000010
00000000
00000000
00000000
00010000
00001000
01000000
00100000
,
01000000
00001000
00100000
00001000
00020000
00000000
00000000
00000000
,
00000000
00000000
00000000
00000000
00000000
00000000
00000000
00000000
00001000
00000000
00000000
00001000
00000000
00000000
00031000
00000000
,
01000000
00100000
01000000
00000000
00100000
10000000
00100000
01000000
,
00100000
10000000
01000000
00000000
00100000
00000000
00001000
00000000
,
00010000
00000010
00000100
00000000
00000210
00000000
00000000
00000000
,
00000000
00000000
00000000
00000000
00000000
00000000
00000000
00000000
00000301
00000000
00000000
00001100
00000000
00000000
00000001
00000000
,
00001000
00000100
00001000
00000100
00010000
00001000
00010000
00001000
,
00010000
00000000
00001000
00010000
00001000
00010000
00001000
00000000
,
00010000
00001000
00010000
00000000
00100000
10000000
11000000
00100000
,
00001000
00010100
00001000
00000000
00000010
00000100
00001000
00000000
,
00001000
00000000
00000100
00000000
00000001
00000000
00001000
00000010
,
00000100
00000000
00000000
00000000
00001000
00000000
00010000
00000000
00000000
11000000
00000000
00000000
00100000
00000000
01000000
00000000
,
00010000
01000000
00000000
00100000
10000000
00010000
10000000
00100000
,
00010000
00000000
00000000
00001000
00000000
00000000
00000100
00000000
00000001
00000000
00000000
00001010
00000000
00000000
00000100
00000000
,
00000010
00000000
00001000
00000000
00000010
00000000
00000000
00000000
00001000
00000000
00010000
00100000
00010000
00000000
00100000
00000000
,
10000000
00000000
01000000
00100000
00000000
00100000
01000000
00000000
20020000
00000000
00000000
00000000
00000000
00000000
30030000
00000000
,
00100000
00000000
01000000
00000000
01100000
00000000
00000000
10000000
01000000
00000000
00100000
00000000
01000000
00000000
00000000
00000000
,
00010000
00002100
00000000
00003010
,
00000001
00000201
00000000
00002300
,
00000000
00010000
00000000
00013000
,
00000000
00000000
00100000
00000000
10000000
00010000
10000000
00000000
,
01000000
00000000
00100000
00001000
00010000
00000010
00000100
00000001
,
00000010
00000100
00010000
00001000
01000000
00010000
01000000
00001000
,
00010000
00011000
00000000
00000000
;
