#TITLE:失恋かぞえうた;
#SUBTITLE:;
#ARTIST:GRAN-DRAMATIC BOYS;
#TITLETRANSLIT:Shitsuren kazoeuta;
#SUBTITLETRANSLIT:;
#ARTISTTRANSLIT:;
#GENRE:Rock;
#CREDIT:;
#BANNER:;
#BACKGROUND:;
#LYRICSPATH:;
#CDTITLE:;
#MUSIC:失恋かぞえうた.mp3;
#OFFSET:-0.362000;
#SAMPLESTART:82.900017;
#SAMPLELENGTH:12.000000;
#SELECTABLE:YES;
#BPMS:0.000000=186.000000
,352.000000=171.690002
,353.000000=165.335999
;
#STOPS:
;
#BGCHANGES:;
#KEYSOUNDS:;
#ATTACKS:;

//---------------dance-single - ----------------
#NOTES:
     dance-single:
     :
     Hard:
     14:
     0.757736,0.915078,0.653824,0.106246,0.183888,649.000000,569.000000,80.000000,13.000000,0.000000,0.000000,0.757736,0.915078,0.653824,0.106246,0.183888,649.000000,569.000000,80.000000,13.000000,0.000000,0.000000:
0000
0000
0000
0000
,
0000
0000
0000
0000
,
0000
0000
0000
0000
,
0000
0000
0000
0000
,
0001
0100
0001
1000
0001
0100
0001
1000
,
0001
0010
0100
2000
0000
3100
0001
0100
,
1000
0010
1000
0001
1000
0010
1000
0001
,
0100
0000
0010
0000
0100
0000
0010
0000
0100
0000
0001
1000
0001
0000
0000
0000
,
0001
0010
0001
0100
1000
0000
1000
0100
,
0000
0001
0010
0100
1000
0000
1001
0000
,
1000
0100
1000
0010
0001
0000
0001
0010
,
0000
1000
0100
0010
0001
0000
1001
1000
,
0010
0100
0010
1000
0100
0000
0001
0100
,
0000
1000
0010
0100
0001
0010
0100
1000
,
0100
0010
0100
1000
0100
0010
0100
1000
,
0001
0001
0001
0000
1000
0000
1000
0000
,
1000
0010
1000
0100
0001
0100
1000
0010
,
0000
0100
0010
0001
0010
0000
1010
0000
,
0001
0010
0001
0100
1000
0100
0001
0010
,
0000
0000
0100
0000
0001
0000
0100
0000
1000
0000
0001
0010
0001
0000
1000
0000
,
0000
0010
0100
0001
0010
0100
0010
0001
,
1000
0100
0010
0100
1000
0010
0100
0001
,
1000
0100
1000
0010
1000
0100
1000
0010
,
1000
1000
1000
0000
0001
0000
0001
0000
,
0000
0000
0101
0000
0000
0000
1001
0000
0000
0000
1100
0000
0000
0000
1000
0100
,
0010
0000
0001
0000
1000
0000
0001
0010
0100
0000
1000
0000
0001
0000
0000
0000
,
0000
0000
1100
0000
0000
0000
1001
0000
0000
0000
0101
0000
0000
0000
0001
0100
,
0010
0000
1000
0000
0001
0000
1000
0010
0100
0000
0001
0000
1000
0000
0000
0000
,
0000
0011
0000
1001
0000
1010
1000
0001
,
0000
0101
0001
1000
0100
0010
0100
1000
,
1001
0100
0001
1000
0001
0010
0001
1000
,
0001
0100
0000
0100
0010
0000
1000
0000
1010
0000
0000
0000
0000
0000
1000
0001
,
1000
0100
1000
0010
0001
0000
0010
1000
,
0000
0001
0100
0010
1010
0000
1001
0000
,
0001
0010
0001
0100
1000
0100
0001
1000
,
0000
0000
0100
0000
0010
0000
1000
0000
0010
0000
0001
1000
0001
1000
0001
0000
,
0100
0010
0100
0001
1000
0010
0100
0001
,
0000
0001
0010
0001
0000
1000
0001
1000
,
0001
0100
0001
1000
0001
0010
0001
0010
,
0100
1000
0100
1000
0010
1000
0010
1000
,
0010
0000
1010
0000
0000
0000
1001
0000
0000
0000
0011
0000
0000
0000
0001
0100
,
0010
0000
1000
0000
0001
0000
1000
0010
0100
0000
0001
0000
1000
0000
0000
0000
,
0000
0000
0011
0000
0000
0000
1001
0000
0000
0000
1010
0000
0000
0000
1000
0100
,
0010
0001
0010
0001
0010
0001
0010
0001
0100
0010
0100
0010
0100
0010
0100
0000
,
0000
0000
0110
0000
0000
0000
0101
0000
0000
0000
1001
0000
0000
0000
1000
0100
,
0010
0001
0100
0010
0110
0000
0101
0000
,
1001
0100
0000
0010
0000
1000
0000
0001
,
1000
0100
0010
0001
1001
0000
0000
0000
,
0201
0000
0310
1000
0010
1000
0000
1100
,
0000
0110
0000
0011
0000
1001
0000
0000
,
1200
0000
0310
0001
0010
0001
0000
0101
,
0000
0110
0000
1010
0000
1001
0000
0000
,
1002
0000
0103
0010
0100
0010
0000
1010
,
0000
1100
0000
0011
0000
1001
0000
0001
,
1000
0000
0000
1000
0010
0000
0000
0010
,
0100
0001
0100
1000
0100
0001
0100
0010
,
1000
0100
1000
0010
1000
0100
0000
0011
,
0000
1100
0000
1010
0000
0101
0000
1000
,
0001
0010
0001
0100
0001
0010
0000
1100
,
0000
0011
0000
0101
0000
1001
0000
0001
,
0002
0000
0000
0100
0203
0000
0000
0010
,
0320
0000
0000
1000
2030
0000
0000
3000
,
1001
0110
1001
0110
,
1100
0011
1001
0000
,
0201
0000
0000
0000
0310
1000
0010
0000
1010
0000
0000
0000
1001
0000
0000
0000
,
1200
0000
0000
0000
0310
0001
0010
0000
0011
0000
0000
0000
0001
1000
0001
1000
,
0001
0100
0010
1000
0010
0001
0010
0100
,
0110
0000
0000
0000
1010
0000
0000
0000
1001
0000
0000
0000
1000
0001
1000
0001
,
2000
0000
0000
0000
3100
0010
0001
0000
0011
0000
0000
0000
0101
0000
0000
0000
,
1010
0000
0000
0000
1001
0000
0000
0000
0011
0000
0000
0000
0001
1000
0001
1000
,
0001
0100
0110
0000
0001
0100
0010
1000
,
1010
0000
0010
0000
0100
0001
0000
0001
1000
0000
0000
0000
0000
0000
0000
0000
,
0001
0000
0010
0000
0001
0000
0100
0000
0001
0000
0010
0100
0010
0000
0100
0000
,
1000
0010
0100
0010
1010
0000
0000
0000
,
1000
0000
0010
0000
0100
0000
0000
0000
0101
0000
0000
0000
0001
0010
0100
0000
,
0000
1000
0001
0100
0010
1000
0001
0100
,
0001
0010
0010
0001
1000
0010
0010
1000
,
0100
0000
0010
0000
0001
0000
1000
0000
0010
0000
0100
0000
0001
1000
0001
1000
,
0001
0000
1000
0100
0010
0000
0000
0000
0001
0010
0100
0000
0000
0000
1000
0010
,
0100
0000
0000
0000
0001
0010
0100
0000
0000
0000
1000
0100
0010
0001
0010
0100
,
1000
0010
0001
0010
1000
0100
0001
0100
,
1000
0010
0001
0010
0000
1000
0100
0010
,
0001
0010
1000
0010
0001
0100
1000
0100
,
0001
0010
0100
0000
1000
0010
0100
0001
,
1000
0010
0001
0010
1000
0100
0001
0100
,
1000
0010
0001
0010
0000
1000
0100
0010
,
0001
0010
1000
0010
0001
0100
0010
1000
,
0010
0000
0100
0000
0010
0000
0100
0000
0010
0000
1000
0001
1000
0000
0000
0000
,
1001
1001
2002
0000
,
0000
0000
0000
0000
0000
0000
0000
0000
0000
0000
0000
0000
0000
0000
0000
0000
0000
0000
0000
0000
0000
0000
0000
0000
0000
0000
0000
0000
0000
0000
0000
0000
0000
0000
0000
0000
0000
0000
0000
0000
0000
0000
0000
0000
0000
0000
0000
0000
0000
0000
0000
0000
0000
0000
0000
0000
0000
0000
0000
0000
0000
0000
0000
0000
0000
0000
0000
0000
0000
0000
0000
0000
0000
0000
0000
0000
0000
0000
0000
0000
0000
0000
0000
0000
0000
0000
0000
0000
0000
0000
0000
0000
0000
0000
0000
0000
0000
0000
0000
0000
0000
0000
0000
0000
0000
0000
0000
0000
0000
0000
3003
0000
0000
0000
0000
0000
0000
0000
0000
0000
0000
0000
0000
0000
0000
0000
0000
0000
0000
0000
0000
0000
0000
0000
0000
0000
0000
0000
0000
0000
0000
0000
0000
0000
0000
0000
0000
0000
0000
0000
0000
0000
0000
0000
0000
0000
0000
0000
0000
0000
0000
0000
0000
0000
0000
0000
0000
0000
0000
0000
0000
0000
0000
0000
0000
0000
0000
0000
0000
0000
0000
0000
0000
0000
0000
0000
0000
0000
0000
0000
0000
0000
;

//---------------dance-single - ----------------
#NOTES:
     dance-single:
     :
     Medium:
     12:
     0.591945,0.658549,0.474023,0.187975,0.016346,507.000000,449.000000,58.000000,23.000000,0.000000,0.000000,0.591945,0.658549,0.474023,0.187975,0.016346,507.000000,449.000000,58.000000,23.000000,0.000000,0.000000:
0000
0000
0000
0000
,
0000
0000
0000
0000
,
0000
0000
0000
0000
,
0000
0000
0000
0000
,
0200
0010
0010
0010
,
0010
0000
0310
2000
0000
3100
0001
0100
,
2000
0000
0001
0000
0001
0000
3001
1000
,
0010
0100
0010
0000
0100
0010
0110
0000
,
0000
0000
1000
0100
0010
0000
0001
0100
,
0000
0001
0100
0010
1000
0000
1001
0000
,
0000
0000
0001
0010
0100
0000
1000
0100
,
0000
1000
0100
0010
0001
0000
1001
0000
,
0000
0000
0010
0100
0001
0000
0100
0010
,
0000
0100
0010
1000
0001
0010
0001
1000
,
0100
0010
0000
0100
0000
1000
0000
0100
,
0010
0010
0010
0000
0001
0000
1000
0000
,
1001
0000
0001
0100
0010
0100
0001
0010
,
0000
0100
1000
0100
0010
0000
0110
0000
,
0000
0000
1000
0010
0100
0010
1000
0100
,
0000
0010
0001
0010
0100
0000
0110
0000
,
0000
0000
0001
0100
0010
1000
0010
0200
,
0000
0310
0001
0010
0100
0010
1000
0010
,
0000
0100
0000
0001
0000
1000
0000
0010
,
0100
0100
0100
0000
0001
0000
1000
0000
,
0000
1010
0000
0101
0000
1010
0000
1001
,
0000
0001
0100
0010
1000
0000
1001
0000
,
0000
0011
0000
1100
0000
0011
0000
1001
,
0000
1000
0100
0010
0001
0000
1001
0000
,
0000
0101
0000
1010
0000
0101
0000
1001
,
0000
0010
0100
0001
1000
0000
0110
0000
,
0010
1000
0000
0001
0000
1000
0000
0010
,
0100
0010
0000
0100
0010
0000
1000
0000
0001
0000
0000
0000
0000
0000
0001
0000
,
1000
0000
0100
0010
0100
0000
1000
0010
,
0000
0100
1000
0100
0001
0000
1001
0000
,
0000
0000
0001
0010
0100
0010
0001
0100
,
0000
0010
0001
0010
1000
0000
1001
0000
,
0000
0000
1000
0100
0010
0100
1000
0001
,
0000
0100
1000
0100
0000
0001
0000
0010
,
0100
1000
0000
0010
0000
0100
0001
0100
,
0010
1000
0100
1000
0010
0100
0001
0100
,
0010
1010
0000
1100
0000
0011
0000
0101
,
0000
0100
0010
1000
0001
0000
0101
0000
,
0000
0011
0000
0110
0000
1100
0000
1000
,
0010
0100
0010
0100
0001
0100
0001
0100
,
0000
0101
0000
1010
0000
1001
0001
1000
,
0000
0010
0100
0001
1000
0000
1001
0000
,
0110
0000
0000
0000
,
0001
0100
1000
0100
0001
0000
0000
0000
,
1200
0000
0310
0001
0010
0002
0000
0100
,
0000
0100
0000
0010
0000
0013
0000
0000
,
0201
0000
0310
1000
0010
2000
0000
0100
,
0000
0100
0000
0010
0000
3010
0000
0000
,
1002
0000
0103
0010
0100
0020
0000
1000
,
0000
1000
0000
0100
0000
0130
0000
0001
,
1000
0000
0000
1000
0010
0000
0000
0010
,
0100
0001
0010
0001
0100
0010
1000
0010
,
0210
0000
0301
0010
0100
1000
0000
1100
,
0000
0110
0000
0011
0000
1001
0000
0000
,
0120
0000
1030
0100
0010
0001
0000
0101
,
0000
0110
0000
1010
0000
1001
0000
0000
,
2000
0000
3000
0010
0020
0000
0030
0100
,
0200
0000
0300
0001
0002
0000
0003
0000
,
1001
0110
1001
0110
,
0010
0010
0010
0000
,
2000
0000
3001
0000
,
0002
0000
0000
0000
1003
0000
0010
0100
,
0001
0010
0001
0100
0001
0010
0100
1000
,
0010
0000
1010
0000
0101
0000
0001
1000
,
0100
0000
0010
0100
1000
0000
1010
0000
,
0201
0000
0010
0000
1300
0000
0001
1000
,
0001
0010
0001
0000
0010
0100
1000
0010
,
0100
0000
0001
0000
1000
0010
0000
1000
0010
0000
0000
0000
0000
0000
0000
0000
,
0000
0001
0010
1000
0010
0001
0100
1000
,
0100
0001
1000
0010
0100
0000
0000
0000
,
0000
0100
0010
0000
1000
0000
0100
0001
,
0000
0100
1000
0010
0100
0001
0010
0100
,
0000
1000
0100
1000
0010
1000
0100
1000
,
0010
0100
0001
0100
0010
0100
0001
0100
,
0020
0000
0000
0200
0000
0000
0000
0330
,
0001
0001
0001
0000
1000
1000
1000
0000
,
0001
0010
0001
0100
0001
0010
0001
0100
,
0001
0010
0001
0100
0000
0010
1000
0010
,
1000
0100
1000
0010
1000
0100
1000
0010
,
1000
0100
0010
0000
0001
0100
0010
1000
,
0010
0100
0010
1000
0010
0100
0010
1000
,
0010
0100
0010
1000
0000
1000
0001
0010
,
0100
1000
0100
0010
0100
1000
0100
0010
,
0000
0000
0000
0000
,
0001
1000
2002
0000
,
0000
0000
0000
0000
0000
0000
0000
0000
0000
0000
0000
0000
0000
0000
0000
0000
0000
3003
0000
0000
0000
0000
0000
0000
0000
0000
0000
0000
0000
0000
0000
0000
;

//---------------dance-single - ----------------
#NOTES:
     dance-single:
     :
     Easy:
     8:
     0.444834,0.621963,0.318739,0.326912,0.000000,381.000000,342.000000,39.000000,40.000000,0.000000,0.000000,0.444834,0.621963,0.318739,0.326912,0.000000,381.000000,342.000000,39.000000,40.000000,0.000000,0.000000:
0000
0000
0000
0000
,
0000
0000
0000
0000
,
0000
0000
0000
0000
,
0000
0000
0000
0000
,
0002
0100
0100
0100
,
0103
0000
0100
0010
0000
0010
1000
0000
,
2000
0000
0100
0000
0100
0000
3100
0010
,
0000
0000
0000
0000
,
0000
0000
0001
0100
0001
0000
1000
0100
,
0000
0100
1000
0000
0001
0000
0001
0000
,
0000
0000
1000
0100
1000
0000
0001
0100
,
0000
0100
0001
0000
1000
0000
1000
0000
,
0000
0000
0001
0010
0001
0000
1000
0010
,
0000
0010
0100
0000
0001
0000
1000
0000
,
1001
0000
0000
0000
,
0010
0010
0010
0000
0010
0000
0010
0000
,
0010
0000
1000
0100
1000
0000
0010
0100
,
0000
0100
0001
0000
1000
0000
1000
0000
,
0000
0000
0001
0010
0001
0000
0010
0100
,
0000
0100
1000
0000
0001
0000
0001
0000
,
0000
0000
1000
0100
0010
0000
0001
1000
,
0000
1000
0001
0000
0100
0000
0010
0000
,
0110
0000
0000
0000
,
1000
1000
1000
0000
1000
0000
1000
0000
,
0000
1100
0000
1001
0000
1100
0000
2000
,
0000
3010
0100
0001
1000
0000
0001
0000
,
0000
0101
0000
1001
0000
0101
0000
0002
,
0000
0013
0100
1000
0001
0000
1000
0000
,
0000
1010
0000
1001
0000
1010
0000
0020
,
0000
0130
0001
1000
0010
0000
0100
0000
,
1001
0000
0000
0000
,
0001
0000
0010
0100
1000
0000
0000
0000
,
0000
0000
0010
0100
0001
0000
0100
0010
,
0000
0010
1000
0000
0001
0000
0100
0000
,
0000
0000
0001
0010
0100
0000
1000
0010
,
0000
0010
0100
0000
0001
0000
1000
0000
,
0000
0000
0020
0000
0130
0001
0100
0020
,
0000
0130
0001
0020
0000
0130
0000
1000
,
0020
0000
0030
0000
0000
0100
0001
0100
,
0010
1000
0100
0010
0001
0100
0010
1000
,
0000
1010
0000
0110
0000
0101
0000
0002
,
0000
0013
0100
1000
0010
0000
0100
0000
,
0000
0101
0000
0110
0000
1010
0000
2000
,
0000
3010
0100
0001
0010
0000
0100
0000
,
0000
1100
0000
1010
0000
0101
0000
0002
,
0000
1003
0100
1000
0010
0000
0100
0000
,
0101
0000
0000
0000
,
0001
1000
0100
1000
0001
0000
0000
0000
,
2000
0000
0000
0000
3200
0000
0000
0310
,
0000
0001
0000
1000
0000
1001
0000
0000
,
0002
0000
0000
0000
0203
0000
0000
0310
,
0000
1000
0000
0001
0000
1001
0000
0000
,
2000
0000
0000
0000
3020
0000
0000
0130
,
0000
0001
0000
0010
0000
0110
0000
0100
,
2000
0000
3000
1000
0020
0000
0030
0010
,
0100
0010
0100
0001
1000
0010
1000
0100
,
2000
0000
0000
0000
3002
0000
0000
1003
,
0000
0100
0000
0010
0000
0011
0000
0000
,
0002
0000
0000
0000
2003
0000
0000
3001
,
0000
0100
0000
0010
0000
1010
0000
0000
,
2000
0000
3000
0010
0200
0000
0300
0001
,
0020
0000
0030
0100
2000
0000
3000
0000
,
1001
0110
1001
0110
,
0010
0010
0010
0000
,
2200
3300
0011
0000
,
0202
0303
1010
0000
,
0001
0100
1000
0010
,
0001
1000
1001
0000
,
1100
0000
0010
0001
0100
0000
0101
0000
,
0010
0010
0010
0000
,
1000
0100
0010
0000
0001
0010
0100
1000
,
0010
0100
0010
0000
,
0000
1000
0100
1000
0100
0000
0010
0000
,
0001
0100
0010
0000
,
0000
0010
0100
0000
0001
0000
0010
0100
,
0000
1000
0010
0100
0001
0000
1000
0000
,
0000
0010
0000
0100
0000
0001
0000
1000
,
0000
0010
0000
0100
0000
0001
0000
0010
,
0200
0300
0200
0300
,
1000
0010
0100
0000
0001
0010
0100
0000
,
2000
0010
0010
0010
,
3010
0000
0010
0100
0000
0100
0001
0000
,
0002
0010
0010
0013
,
0010
0100
1000
0000
0010
0100
0001
0000
,
0200
0010
0010
0010
,
0310
0000
0010
1000
0000
1000
0001
0000
,
0020
0000
0100
0000
0100
0000
0130
1000
,
0000
0000
0000
0000
,
1000
0001
2002
0000
,
0000
0000
0000
0000
0000
0000
0000
0000
0000
0000
0000
0000
0000
0000
0000
0000
0000
3003
0000
0000
0000
0000
0000
0000
0000
0000
0000
0000
0000
0000
0000
0000
;

//---------------dance-single - ----------------
#NOTES:
     dance-single:
     :
     Beginner:
     3:
     0.152948,0.292689,0.024518,0.179802,0.000000,131.000000,128.000000,3.000000,22.000000,0.000000,0.000000,0.152948,0.292689,0.024518,0.179802,0.000000,131.000000,128.000000,3.000000,22.000000,0.000000,0.000000:
0000
0000
0000
0000
,
0000
0000
0000
0000
,
0000
0000
0000
0000
,
0000
0000
0000
0000
,
2000
0000
0000
0000
,
3000
0000
0010
0010
,
0020
0000
0000
0030
,
0000
0000
0000
0000
,
0000
0100
0100
0000
,
0000
0000
0000
0000
,
0000
0001
0001
0000
,
0000
0000
0000
0000
,
0000
0010
0010
0000
,
0000
0000
0100
0100
,
0100
0000
0000
0000
,
1000
0000
1000
0000
,
1000
1000
1000
0000
,
0000
0000
0000
0000
,
0000
0001
0001
0000
,
0000
0000
0000
0000
,
0000
0100
0100
0000
,
0000
0000
0010
0010
,
0010
0000
0000
0000
,
0100
0000
0100
0000
,
0000
0000
0000
0000
,
0002
0003
0002
0003
,
0000
0000
0000
0000
,
2000
3000
2000
3000
,
0000
0000
0000
0000
,
0020
0030
0020
0030
,
0010
0000
0000
0000
,
0200
0000
0300
0000
,
0000
0001
0001
0000
,
0000
0000
0000
0000
,
0000
0100
0100
0000
,
0000
0000
0000
0000
,
0000
0010
0010
0000
,
0000
0000
0000
1000
,
1000
0000
0000
0000
,
0001
0000
1000
0000
,
0001
0000
0000
0000
,
0200
0300
0200
0300
,
0000
0000
0000
0000
,
0020
0000
0000
0000
,
0030
0000
0000
0000
,
1000
0000
0001
0000
,
0100
0000
0000
0000
,
2002
0000
3003
0000
,
1000
0000
0100
0000
,
0100
0000
0010
0000
,
0001
0000
0100
0000
,
0010
0000
0010
0000
,
1000
0000
0001
0000
,
0100
0000
0100
0000
,
0010
0000
0010
0000
,
0010
0000
0000
0000
,
0100
0000
0001
0000
,
0010
0000
0010
0000
,
0100
0000
1000
0000
,
0001
0000
0001
0000
,
1000
0000
0001
0000
,
1000
0000
0001
0000
,
1000
1000
1000
0000
,
0001
0001
0001
0000
,
1001
0000
0010
0000
,
1001
0000
0010
0000
,
0100
0000
0000
0000
,
0001
0001
0001
0000
,
1000
0000
0100
0000
,
0010
0010
0010
0000
,
0100
0000
1000
0000
,
0001
0000
0000
0000
,
0000
0100
0100
0000
,
0001
0000
0001
0000
,
0000
0010
0000
0000
,
0000
0100
0000
0000
,
0000
1000
0000
0000
,
0100
0000
0000
0000
,
0020
0030
0010
0000
,
0002
0003
0002
0003
,
0002
0000
0000
0000
,
0003
0000
0100
0100
,
0200
0000
0300
0000
,
0000
0010
0010
0000
,
0020
0000
0000
0000
,
0030
0000
1000
1000
,
2000
0000
3000
1000
,
0000
0000
0000
0000
,
0001
0001
0002
0000
,
0000
0000
0000
0000
0000
0000
0000
0000
0000
0000
0000
0000
0000
0000
0000
0000
0000
0003
0000
0000
0000
0000
0000
0000
0000
0000
0000
0000
0000
0000
0000
0000
;

//---------------dance-double - ----------------
#NOTES:
     dance-double:
     :
     Easy:
     8:
     0.399300,0.476781,0.114419,0.343258,0.000000,342.000000,328.000000,14.000000,42.000000,0.000000,0.000000,0.399300,0.476781,0.114419,0.343258,0.000000,342.000000,328.000000,14.000000,42.000000,0.000000,0.000000:
00000000
00000000
00000000
00000000
,
00000000
00000000
00000000
00000000
,
00000000
00000000
00000000
00000000
,
00000000
00000000
00000000
00000000
,
20000000
00010000
00010000
00010000
,
30010000
00000000
00000000
00200000
00000000
00301000
00010000
00000000
,
00000200
00000000
00000010
00000000
00000010
00000000
00000310
00000001
,
00000000
00000000
00000000
00000000
,
00000000
00000000
00000001
00000100
00000001
00000000
00000010
00000100
,
00000000
00000100
00010000
00000000
00001000
00000000
00100000
00000000
,
01000000
00000000
10000000
00100000
10000000
00000000
00100000
01000000
,
00000000
01000000
00001000
00000000
00010000
00000000
00000100
00000000
,
00001000
00000000
00000010
00000000
00000100
00000000
00000001
00000010
,
00000000
00000100
00001000
00000000
00000010
00000000
00000100
00000000
,
00000001
00000000
00000000
00000000
,
00000100
00001000
00010000
00000000
01000000
00000000
01000000
00000000
,
10000000
00000000
00100000
01000000
00100000
00000000
10000000
01000000
,
00000000
01000000
00100000
00000000
00001000
00000000
00010000
00000000
,
00000100
00000000
00001000
00000010
00001000
00000000
00000001
00000100
,
00000000
00000100
00000010
00000000
00010000
00000000
00001000
00000000
,
01000000
00000000
00100000
10000000
00100000
10000000
00000000
00020000
,
00000000
00030000
00010000
00000000
00100000
00000000
01000000
00000000
,
10000000
00000000
00000000
00000000
,
01000000
00010000
00001000
00000000
00000100
00000000
00000100
00000000
,
00000000
00000001
00000000
00000001
00000000
00000001
00000000
00000100
,
00002000
00000000
00023000
00000000
,
00030000
00100000
00000000
00100000
00000000
00100000
00000000
10000000
,
00020000
00000000
02030000
00000000
,
03000000
00100000
00000000
00100000
00000000
00100000
00000000
00010000
,
00001000
00000010
00000001
00000100
,
00001010
00000000
00000000
00000000
,
00000002
00002003
00023000
00030000
,
00000000
00000000
10000000
01000000
10000000
00000000
00010000
00100000
,
00000000
00001000
00010000
00000000
00000010
00000000
00000010
00000000
,
00001000
00000000
00000001
00000010
00000001
00000000
00001000
00000010
,
00000000
00010000
00001000
00000000
00100000
00000000
00100000
00000000
,
01000000
00000000
20000000
00000000
30100000
01000000
00000000
00020000
,
00000000
00130000
00001000
00200000
00000000
00310000
00000000
00001000
,
00000010
00000000
00000000
00000000
00000000
00000001
00000100
00000001
,
00000100
00001000
00010000
01000000
,
00000000
10000000
00000000
10000000
00000000
10000000
00000000
00200000
,
00000000
00310000
00001000
00000000
00000020
00000000
00000031
00000000
,
00000000
00000100
00000000
00000100
00000000
00000100
00000000
00000010
,
00020000
00000000
00032000
00000000
,
00003000
01000000
00000000
01000000
00000000
01000000
00000000
00100000
,
00000000
10000000
00010000
10000000
00010000
00000000
01000000
00000000
,
00001000
00000000
00000000
00000000
,
00010000
00000100
00001000
00000100
00010000
00000000
00000000
00000000
,
00000020
00000000
00000000
00000000
00000130
00000000
00000000
00000001
,
00000000
00001000
00000000
00000101
00000000
00001000
00000000
00000000
,
00000200
00000000
00000000
00000000
00010300
00000000
00000000
00001000
,
00000000
00100000
00000000
01010000
00000000
00100000
00000000
00000000
,
20000000
00000000
00000000
00000000
30010000
00000000
00000000
01000000
,
00000000
00100000
00000000
01010000
00000000
00100000
00000000
00000000
,
00020000
00000000
00032000
00000000
,
00003010
00000001
00000100
00000010
,
00002000
00000000
00000001
00000000
00003001
00000000
00000000
00000100
,
00000000
00000010
00000000
00011000
00000000
00100000
00000000
00000000
,
02000000
00000000
10000000
00000000
13000000
00000000
00000000
00100000
,
00000000
01000000
00000000
00011000
00000000
00000010
00000000
00000000
,
00000200
00000000
00000000
00000310
00000020
00000000
00000000
00001000
,
00002030
00000000
00000000
00000001
00003002
00000000
00000000
00000000
,
00000013
00001000
00010000
00100000
,
10000000
00010000
10010000
00000000
,
02000000
00000000
03100000
00000000
,
00200000
00000000
00000000
00000000
01300000
00000000
01000000
00010000
,
00100000
00001000
00001000
00010000
,
00010000
00000010
00000101
00000000
,
00000012
00000000
00001003
00000010
00002000
00000000
00003010
00000000
,
00010000
00001000
00011000
00000000
,
00100000
01000000
01100000
00000000
01000000
00100000
00001000
00010000
,
00000020
00000100
00000130
00000000
,
00000000
00000001
00000100
00000000
00000001
00000000
00000010
00000000
,
00001000
00010000
00100000
00000000
10000000
00000000
00000000
00000000
,
00000000
10000000
00010000
00000000
01000000
00000000
00010000
10000000
,
00000000
01000000
00010000
00000000
00001000
00000100
00000001
00000000
,
00000000
00001000
00000000
00000001
00000000
00001000
00000000
00000001
,
00000000
00000100
00000000
00000010
00000000
00000100
00000000
00000010
,
00002000
00000000
00000000
00003002
00000000
00000000
00000000
00000000
,
00000103
00001000
00010000
00000000
00001000
00010000
01000000
00000000
,
20000000
00010000
00010000
00010000
,
00010000
00000000
30010000
01000000
00000000
01000000
00100000
01000000
,
00002000
00010000
00010000
00010000
,
00013000
00000010
00000100
00000000
00000100
00000010
00001000
00000001
,
00002000
00000100
00000100
00000100
,
00000100
00000000
00003100
00000010
00000000
00000010
00000001
00000100
,
00000020
00000000
00010000
00000000
00010000
00000000
00010030
00001000
,
00000000
00000000
00000000
00000000
,
00011000
00011000
00022000
00000000
,
00000000
00000000
00000000
00033000
;

//---------------dance-double - ----------------
#NOTES:
     dance-double:
     :
     Medium:
     12:
     0.541740,0.622397,0.482196,0.498541,0.020432,464.000000,405.000000,59.000000,61.000000,0.000000,0.000000,0.541740,0.622397,0.482196,0.498541,0.020432,464.000000,405.000000,59.000000,61.000000,0.000000,0.000000:
00000000
00000000
00000000
00000000
,
00000000
00000000
00000000
00000000
,
00000000
00000000
00000000
00000000
,
00000000
00000000
00000000
00000000
,
00000002
00000100
00000100
00000100
,
00000010
00000000
00000013
00000100
00000000
00000100
00010000
00001000
,
00200000
00000000
01000000
00000000
01000000
00000000
01300000
10000000
,
00000000
00000000
00000000
10010000
,
00000000
00000000
10000000
01000000
10000000
00000000
00010000
01000000
,
00000000
00100000
00010000
00001000
00000010
00000000
00000011
00000000
,
00000000
00000000
00000001
00000100
00000001
00000000
00001000
00000100
,
00000000
00000010
00001000
00010000
00100000
00000000
10100000
00000000
,
01000000
00000000
10010000
00000000
00100000
01000000
00000000
00100000
,
00000000
10000000
01000000
00010000
00001000
00010000
00001000
00000100
,
00000001
00000101
00000000
00000010
00000000
00001100
00000000
00000010
,
00000100
00000100
00000100
00000000
00000020
00000000
00002030
00000000
,
00023000
00000000
01030000
00100000
01000000
00010000
00000000
02010000
,
00000000
03100000
00010000
00001000
00000010
00000000
00000011
00000000
,
00000100
00000000
00000010
00000100
00000010
00001000
00000000
00001020
,
00000000
00000130
00001000
00010000
01000000
00000000
11000000
00000000
,
00100000
00000000
01000000
00010000
10000000
00200000
00000000
00320000
,
00000000
00031000
00000010
00000001
00000010
00000001
00000100
00000010
,
00000100
00000000
00000000
00000000
,
00000001
00000001
00000001
00000000
00001100
00000000
00000001
00000000
,
00000000
00000200
00000000
00002300
00000000
00023000
00000000
02030000
,
00000000
13000000
00010000
10000000
10100000
00000000
01010000
00000000
,
00000000
00200000
00000000
00320000
00000000
00032000
00000000
00003020
,
00000000
00000031
00000100
00000001
00000101
00000000
00001010
00000000
,
00000000
00000200
00000000
00002300
00000000
00023000
00000000
02030000
,
00000000
13000000
00100000
01000000
00010000
00000000
10010000
00000000
,
01100000
00000000
00000000
00000000
,
10000000
00010000
00000000
00010000
01000000
00000000
00100000
00000000
01000000
00000000
00000000
00000000
00000000
00000000
00010000
10000000
,
00010000
00000000
00010000
01000000
00010000
00000000
01000000
00100000
,
00000000
00010000
00001000
00000010
00000001
00000000
00000011
00000000
,
00000000
00000000
00000001
00000100
00000001
00001000
00000010
00000100
,
00000000
00001000
00010000
01000000
10000000
00000000
11000000
00000000
,
00100000
00000000
02000000
00000000
03010000
02000000
00000000
03200000
,
00000000
00310000
00001000
00000020
00000000
00000031
00000000
00001000
,
00000001
00000000
00000110
00000000
00000100
00000010
00001000
00000001
,
00000100
00001000
00000100
00001000
00010000
00100000
00010000
00100000
,
00000000
10100000
00000000
10010000
00000000
10100000
00000000
20000000
,
00000000
30100000
00010000
00001000
00000020
00000000
00000032
00000000
,
00000003
00000011
00000000
00001001
00000000
00000011
00000000
00000001
,
00001000
00000100
00001000
00000100
00010000
00001000
00010000
00001000
,
00000000
01001000
00000000
00011000
00000000
01001000
00000000
02000000
,
00000000
03100000
10000000
00100000
02000000
00000000
03020000
00000000
,
20030000
30000000
00000000
00000000
,
10000000
00010000
00100000
00010000
10000000
00000000
00000000
00000000
,
12000000
00000000
13000000
01000000
00010000
00001000
00000000
00000100
,
00000000
00000100
00000000
00000001
00000000
00000001
00000000
00000000
,
00000021
00000000
00001030
00010000
00001000
00010000
00000000
00100000
,
00000000
00100000
00000000
10000000
00000000
10000000
00000000
00000000
,
10020000
00000000
01030000
00100000
01000000
00100000
00000000
10000000
,
00000000
00010000
00000000
01100000
00000000
10000000
00000000
01000000
,
00020000
00000000
00030000
00001000
00020000
00000000
00030000
00100000
,
10000000
00010000
01000000
00100000
00010000
00001000
00000100
00000001
,
00000101
00000000
00000010
00001000
00000001
00000200
00000000
00002300
,
00000000
00023000
00000000
00230000
00000000
20300000
00000000
30000000
,
10010000
00000000
00010000
10000000
01000000
00200000
00000000
02300000
,
00000000
03020000
00000000
00032000
00000000
00003020
00000000
00000031
,
00001000
00000000
00000000
00001000
00000001
00000000
00000000
00000001
,
00001000
00000000
00000000
00001000
00000100
00000000
00000000
00000000
,
00001100
00010100
00011000
01001000
,
01200000
10000000
00310000
00000000
,
01100000
00000000
10000000
01000000
00010000
00000000
00011000
00000000
,
00010100
00000000
00000100
00010000
00001000
00000000
00010010
00000000
,
00000200
00000001
00000010
00000301
,
00001010
00000000
00000101
00000000
00001010
00000000
00000100
00000001
,
00000201
00000000
00001300
00010000
01000000
00000000
11000000
00000000
,
10100000
01010000
10100000
10000000
,
00010000
10000000
10010000
00000000
01000000
00100000
10000000
00010000
,
01000000
00000000
00100000
00000000
10000000
01000000
00000000
00100000
00010000
00000000
00000000
00000000
00000000
00000000
00000000
00000000
,
00000000
10000000
01000000
00010000
01000000
10000000
00100000
00010000
,
00001000
00000010
00001000
00000010
00000002
00000000
00000003
00000000
,
00000000
00000001
00001000
00000000
00000110
00000000
00001000
00000001
,
00000000
00000100
00001000
00000000
00010000
01000000
10000000
01000000
,
00000000
00100000
00000000
00110000
00000000
00010000
00000000
01010000
,
00000000
01000000
00000000
01100000
00000000
01000000
00000000
00100000
,
20000000
30000000
00020000
00030000
,
00002000
00003000
00000002
00000003
,
00000102
00000100
00000100
00000100
,
00000010
00000000
00000013
00010000
00000000
00001000
01000000
00100000
,
20000000
00010000
00010000
01000000
,
31000000
00100000
00000000
00010000
01000000
00100000
01000000
00010000
,
00200000
00001000
00001000
00001000
,
00010000
00000000
00310000
00001000
00000000
00100000
00001000
00010000
,
00000020
00000000
00000100
00000000
00000100
00000000
00000130
00000010
,
00000000
00000000
00000000
00000000
,
00010000
00001000
00022000
00000000
,
00000000
00000000
00000000
00000000
00000000
00000000
00000000
00000000
00000000
00000000
00000000
00000000
00000000
00000000
00000000
00000000
00000000
00000000
00000000
00033000
00000000
00000000
00000000
00000000
00000000
00000000
00000000
00000000
00000000
00000000
00000000
00000000
;

//---------------dance-double - ----------------
#NOTES:
     dance-double:
     :
     Hard:
     14:
     0.712202,0.987824,0.686516,0.269703,0.196147,610.000000,526.000000,84.000000,33.000000,0.000000,0.000000,0.712202,0.987824,0.686516,0.269703,0.196147,610.000000,526.000000,84.000000,33.000000,0.000000,0.000000:
// measure 0
00000000
00000000
00000000
00000000
,  // measure 1
00000000
00000000
00000000
00000000
,  // measure 2
00000000
00000000
00000000
00000000
,  // measure 3
00000000
00000000
00000000
00000000
,  // measure 4
02001000
00100000
10000000
00100000
,  // measure 5
00001000
00000000
03100000
01000000
00000000
00100000
00001000
00010000
,  // measure 6
00010200
00000000
00000010
00000000
00000001
00000000
00000310
00000100
,  // measure 7
00010000
00000000
00001000
00000000
00010000
00000000
00001000
00000000
00010000
00000000
00001000
01000000
00001000
00000000
00000000
00000000
,  // measure 8
01001000
00000000
01000000
00100000
10000000
00000000
01000000
00010000
,  // measure 9
00000000
00001000
00000100
00000001
00000101
00000000
00001010
00000000
,  // measure 10
00000100
00000000
00000001
00001000
00000100
00000000
00000010
00001000
,  // measure 11
00000000
00010000
00100000
10000000
10100000
00000000
01010000
00100000
,  // measure 12
00000000
00000000
10000000
00000000
00010000
01000000
00000000
00100000
,  // measure 13
00000000
00010000
00001000
00000010
00000001
00001000
00000010
00000100
,  // measure 14
00000001
00002000
00003000
00000200
00000300
00020000
00030000
00002000
,  // measure 15
01003000
01000000
01000000
00000000
00011000
00000000
00000100
00000000
,  // measure 16
00001010
00000000
00000100
00000001
00000100
00000010
00000100
00001000
,  // measure 17
00000000
00010000
01000000
10000000
11000000
00000000
00110000
00000000
,  // measure 18
01000000
00000000
00100000
10000000
00100000
01000000
00100000
00010000
,  // measure 19
00000000
00000000
00001000
00000000
00000010
00000000
00000001
00000000
00000100
00000000
00000010
00001000
00000001
00000000
00001000
00000000
,  // measure 20
00000001
00000000
00001000
00000010
00000100
00000001
00000000
00000021
,  // measure 21
00000000
00001030
00010000
00100000
10000000
00010000
10000000
00010000
,  // measure 22
01100000
10000000
00000000
00010000
00000000
10000000
00000000
00010000
,  // measure 23
01000000
01000000
01000000
00000000
00100000
00000000
00010000
00000000
,  // measure 24
00000000
00001000
00000000
00000010
00000000
00000011
00000000
00000201
,  // measure 25
00000000
00000000
00000310
00001000
00000010
00000000
00000100
00000000
00000001
00000000
00000000
00000000
00001010
00000000
00000000
00000000
,  // measure 26
00000000
00000200
00000000
00002300
00000000
00013000
01000000
20000000
,  // measure 27
00000000
00000000
30100000
00000000
01000000
00010000
00100000
00000000
00110000
00000000
00000000
00000000
11000000
00000000
00000000
00000000
,  // measure 28
00000000
20000000
00000000
30020000
00000000
00032000
00000000
00003002
,  // measure 29
00000000
00000103
00000010
00001000
00000001
00000000
00001100
00000000
,  // measure 30
00000010
00000000
00000000
00000000
,  // measure 31
00010000
00001000
00000000
01000000
00100000
00000000
10000000
00000000
00010000
00000000
00000000
00000000
00000000
00000000
10000000
01000000
,  // measure 32
00100000
00000000
00010000
01000000
10100000
00000000
10000000
02000000
,  // measure 33
00000000
03010000
00001000
00000100
00000101
00000000
00001010
00000000
,  // measure 34
00000001
00001000
00000010
00000100
00001001
00000010
00010000
00010010
,  // measure 35
00001000
00000000
01000000
00000000
00100000
00000000
10000000
00000000
00100000
00000000
01000000
00010000
10000000
00010000
01000000
00000000
,  // measure 36
00100000
00000000
20000000
00000000
31000000
00010000
00000000
00002000
,  // measure 37
00000000
00003100
00000001
00000200
00000000
00000302
00000000
00001003
,  // measure 38
00000010
00000100
00000000
00000011
00000000
00000100
00000010
00010000
,  // measure 39
00001000
01000000
00100000
10000000
01000000
00100000
00001000
00010000
,  // measure 40
00000010
00000000
00001100
00000000
00000000
00000000
00000011
00000000
00000000
00000000
00001100
00000000
00000000
00000000
00000010
00000100
,  // measure 41
00000001
00000000
00000100
00000000
00000010
00000000
00001000
00000100
00000010
00000000
00000001
00000000
00000100
00000000
00000010
00000000
,  // measure 42
00010000
00101000
00000000
00010100
00000000
00101000
00010000
00001000
,  // measure 43
01000000
00100000
01000000
00100000
01000000
00100000
01000000
00100000
10000000
00010000
10000000
00010000
10000000
00010000
10000000
00010000
,  // measure 44
10000000
00000000
11000000
00000000
00000000
00000000
00110000
00000000
00000000
00000000
11000000
00000000
00100000
00000000
01000000
00010000
,  // measure 45
10000000
00000000
00100000
00000000
01000000
00000000
00010000
00100000
01000000
00000000
10000000
00000000
00100000
00000000
01000000
00000000
,  // measure 46
00010000
10000000
00000000
01010000
00000000
10000000
00000000
00010000
,  // measure 47
01000000
00100000
00010000
00001000
00000010
00000000
00000000
00000000
,  // measure 48
00000002
00000000
00001003
00000100
00000010
00001000
00000000
00011000
,  // measure 49
00000000
00110000
00000000
10100000
00000000
10010000
00000000
00100000
,  // measure 50
01000000
00000000
00100000
01000000
00010000
10000000
00000000
11000000
,  // measure 51
00000000
01010000
00000000
00011000
00000000
00001100
00000000
00000100
,  // measure 52
00000001
00000000
00000010
00000100
00000010
00000100
00000000
00001100
,  // measure 53
00000000
00000011
00000000
00001100
00000000
00000011
00000000
00000001
,  // measure 54
00002000
00000000
00003000
00000010
00000200
00000000
00000300
00001000
,  // measure 55
00010000
01000000
10000000
00100000
01000000
00010000
10000000
00010000
,  // measure 56
01200000
10000000
00000000
00010000
00300000
10000000
00000000
11000000
,  // measure 57
00000000
00100000
00000000
00011000
00000000
00000100
00000000
00001000
,  // measure 58
00000120
00000001
00000000
00001000
00000030
00000001
00000000
00000100
,  // measure 59
00000000
00001010
00000000
00010000
00000000
00011000
00000000
00100000
,  // measure 60
02010000
00000000
03000000
10000000
01020000
00000000
00030000
01000000
,  // measure 61
01200000
00000000
00300000
00010000
00012000
00000000
00003000
00000000
,  // measure 62
00000011
00001100
00001010
00000101
,  // measure 63
00000001
00001000
00000110
00000000
00001001
00000000
00000000
00000000
,  // measure 64
00010100
00000000
00000000
00000000
00010000
00001000
00010000
00001000
00010000
00000000
00000000
00000000
01001000
00000000
00000000
00000000
,  // measure 65
00110000
00000000
00000000
00000000
00001000
00010000
00001000
00010000
00001000
00000000
00000000
00000000
00010010
00000000
00000010
00000000
,  // measure 66
00010000
00001000
01000000
00100000
10000000
00010000
01000000
00010000
,  // measure 67
01010000
00000000
00000000
00000000
10100000
00000000
00000000
00000000
01010000
00000000
00000000
00000000
00010000
10000000
00010000
10000000
,  // measure 68
00010000
00000000
00000000
00000000
10000000
01000000
10000000
01000000
10000000
00000000
00000000
00000000
00010000
00100000
00010000
00100000
,  // measure 69
00010000
00000000
00000000
00000000
11000000
00000000
00000000
00000000
00110000
00000000
00000000
00000000
01000000
00001000
01000000
00001000
,  // measure 70
01000000
00100000
00010000
00000000
00001000
00000100
00000001
00001000
,  // measure 71
00000010
00000000
00000100
00000000
00000001
00001000
00000000
00000010
00000100
00000000
00000000
00000000
00000000
00000000
00000000
00000000
,  // measure 72
00000001
00000000
00000100
00000000
00001000
00000000
00010000
00000000
01000000
00000000
10000000
01000000
10000000
00000000
01000000
00000000
,  // measure 73
10000000
00100000
01000000
00010000
10010000
00000000
00000000
00000000
,  // measure 74
00000000
01000000
00100000
00000000
10010000
00000000
10000000
01000000
,  // measure 75
00000000
00010000
00001000
00000100
00000001
00001000
00000010
00000100
,  // measure 76
00000000
00000101
00000000
00001010
00000000
01010000
00000000
10100000
,  // measure 77
00000000
00000000
11000000
00000000
00000000
00000000
00110000
00000000
00000000
00000000
00001100
00000000
00000000
00000000
00000010
00000001
,  // measure 78
00000100
00000010
00001000
00000000
00000000
00000000
00001000
00000100
00010000
00001000
01000000
00000000
00100000
10000000
00010000
01000000
,  // measure 79
00100000
00000000
10000000
00010000
01000000
00100000
10000000
00000000
00010000
01000000
00100000
10000000
00100000
01000000
00010000
00000000
,  // measure 80
10000000
00100000
10000000
01000000
10000000
00100000
10000000
01000000
,  // measure 81
10000000
00100000
00010000
00002000
00000000
00003010
00000001
00001000
,  // measure 82
00000010
00000100
00000010
00001000
00000010
00000100
00000010
00001000
,  // measure 83
00000010
00000100
00000001
00000000
00000001
00001000
00000010
00000100
,  // measure 84
00000001
00000010
00001000
00000010
00000001
00000010
00001000
00000010
,  // measure 85
00000001
00000100
00001000
00020000
00000000
01030000
10000000
00100000
,  // measure 86
00010000
01000000
10000000
01000000
00010000
01000000
10000000
01000000
,  // measure 87
00000000
00000000
00000000
00000000
00000000
00000000
00000000
00000000
00000000
00000000
00001000
00010000
00000100
00000000
00000000
00000000
,  // measure 88
00010100
00001010
00000202
00000000
,  // measure 89
00000000
00000000
00000000
00000000
00000000
00000000
00000000
00000000
00000000
00000000
00000000
00000000
00000000
00000000
00000000
00000000
00000000
00000303
00000000
00000000
00000000
00000000
00000000
00000000
00000000
00000000
00000000
00000000
00000000
00000000
00000000
00000000
;
