#TITLE:灼熱Beach Side Bunny;
#SUBTITLE:(Masayoshi Iimori Remix);
#ARTIST:DJ Mass MAD Izm*;
#TITLETRANSLIT:Shakunetsu Beach Side Bunny;
#SUBTITLETRANSLIT:;
#ARTISTTRANSLIT:;
#GENRE:Hip Hop;
#CREDIT:;
#BANNER:beachsidebunnyremix-bn.png;
#BACKGROUND:beachsidebunnyremix-bg.png;
#LYRICSPATH:;
#CDTITLE:;
#MUSIC:Beach Side Bunny (Masayoshi Iimori Remix).mp3;
#OFFSET:-0.040000;
#SAMPLESTART:28.600000;
#SAMPLELENGTH:12.000000;
#SELECTABLE:YES;
#BPMS:0.000000=150.000000
;
#STOPS:
;
#BGCHANGES:;
#KEYSOUNDS:;
#ATTACKS:;

//---------------dance-single - ----------------
#NOTES:
     dance-single:
     :
     Challenge:
     16:
     0.845865,1.000720,1.472039,0.279605,0.596217,720.000000,541.000000,179.000000,34.000000,0.000000,0.000000,0.845865,1.000720,1.472039,0.279605,0.596217,720.000000,541.000000,179.000000,34.000000,0.000000,0.000000:
0000
0000
0000
0000
,
0000
0000
0000
0000
,
1100
0000
0000
0000
1100
0000
0000
0000
1100
0000
0000
0110
0000
0000
0011
0000
,
0101
0000
0000
0000
0101
0000
0000
0000
0101
0000
0000
0110
0000
0000
1010
0000
,
1001
0000
0000
0000
1001
0000
0000
0000
1001
0000
0000
0110
0000
0000
0101
0000
,
0011
0000
0101
0110
2020
0000
3030
0000
,
1001
0000
0000
0000
0110
0000
0000
0000
0011
0000
0000
0101
0000
0000
1100
0000
,
0010
0000
0001
0000
0100
0000
0000
0000
0010
0000
0000
1000
0000
0000
0001
0000
,
0010
0001
0100
0010
0000
0000
0010
1000
0100
0010
0000
0000
,
0010
0000
0001
0000
0100
0000
0010
0000
1000
0000
0100
0000
0010
0000
0001
0000
0100
0000
0220
0000
0000
0330
0000
0000
,
0101
1100
0011
1100
,
1100
0101
1010
0101
,
0011
1010
0101
1010
,
1010
0011
1100
0011
,
0001
0100
0001
0100
0001
0100
0001
0100
0010
0100
0010
0100
0010
0100
0010
0100
,
0010
1000
0010
1000
0010
1000
0010
1000
0100
1000
0100
1000
0100
1000
0100
1000
,
0100
0010
0001
0010
0100
1000
0001
1000
0100
0010
0001
0010
0100
1000
0001
1000
,
0100
0000
0000
0000
0000
0000
0000
0010
,
0101
0000
0011
0011
0000
1100
1100
0000
,
0110
0000
0000
0000
1010
0000
1010
0000
0100
0001
0100
0001
0100
0000
0000
0000
,
1001
0000
1010
1010
0000
0110
0110
0000
,
1001
0000
0000
0000
0101
0000
0101
0000
0020
0000
0000
0000
1030
0001
1000
0000
,
1010
0000
1100
1100
0000
1010
0011
0000
,
0101
0000
0000
0000
0011
0000
0011
0000
0100
1000
0100
1000
0100
0000
0000
0000
,
1001
0000
0101
0101
0000
0011
1010
0000
,
0001
0000
0000
0000
0001
0000
0000
0000
0001
0000
0000
0001
0000
0000
1000
0000
,
1010
0000
0101
0000
0010
0001
0010
0100
0010
1000
0010
0100
0010
0000
0000
0000
,
0101
0000
1010
0000
0100
0001
0100
0000
0110
0000
0000
1010
0000
0000
0101
0000
,
0011
0000
0101
0000
0010
1000
0010
0000
0100
0001
0100
0010
0100
0000
0000
0000
,
1010
0000
1100
0000
0010
0001
0010
0000
0001
0000
0000
1000
0000
0000
0110
0000
,
1010
0000
1100
0000
0010
0001
0010
0000
0100
1000
0100
1000
0100
0000
0000
0000
,
0011
0000
0101
0000
0010
1000
0010
0000
0110
0000
0000
0101
0000
0000
1001
0000
,
1010
0000
1100
0000
0010
0100
0010
0000
0001
0010
0001
0010
0001
0000
0000
0000
,
1001
0000
0000
0000
0000
0000
0000
0000
0000
0000
0010
0100
0010
0000
1001
0000
,
0220
0000
0330
0000
1000
0001
1000
0000
0000
0000
0001
1000
0001
0000
0101
0000
,
0220
0000
0330
0000
0001
1000
0001
0000
0000
0000
1000
0001
1000
0000
1010
0000
,
0110
0000
0000
0000
0100
0001
1000
0000
0000
0000
1000
0001
0100
0000
0110
0000
,
0101
0000
0000
0000
0001
1000
0010
0000
0200
0000
0000
0000
0000
0000
0310
0000
,
1020
0000
0030
0000
1000
0100
0010
0000
0000
0000
1000
0010
0001
0000
0101
0000
,
1001
0000
0000
0000
0001
0100
0010
0000
0000
0000
0001
0010
1000
0000
1010
0000
,
1010
0000
0000
0000
0001
0100
1000
0000
0000
0000
1000
0100
0001
0000
0101
0000
,
2002
0000
0000
0000
0000
0000
0003
3010
,
2002
0000
3003
0000
0100
0010
0001
0000
0000
0000
0001
0010
1000
0000
1100
0000
,
0220
0000
0330
0000
0001
0100
1000
0000
0000
0000
1000
0100
0010
0000
0110
0000
,
0110
0000
0000
0000
0001
1000
0010
0000
0000
0000
0100
1000
0100
0000
0101
0000
,
2002
0000
3003
0000
1000
0010
0100
0000
0000
0000
0000
0000
0000
0000
0001
0000
,
1100
0000
0000
0000
0001
0010
0100
0000
0000
0000
0001
0100
1000
0000
1100
0000
,
1010
0000
0000
0000
1000
0010
0100
0000
0000
0000
1000
0100
0001
0000
0011
0000
,
2200
0000
3300
0000
0010
0100
0001
0000
0000
0000
0100
0010
1000
0000
1010
0000
,
1001
0000
0000
0000
,
0101
0000
0100
0000
0001
0100
0000
0000
0101
0000
0000
1010
0000
0000
0000
0000
,
1010
0000
1000
0000
0010
1000
0000
0000
1100
0000
0000
0011
0000
0000
0101
0000
,
0101
0000
0001
0000
0100
0001
0000
0000
0101
0000
0000
1001
0000
0000
0010
0000
,
1100
0000
1000
0000
0100
1000
0000
0000
1100
0000
0000
0110
0000
0000
0000
0000
,
0011
0000
0001
0000
0010
0001
0010
0000
0101
0000
0100
0000
0001
0100
0001
0000
,
0110
0000
0010
0000
0100
0010
0100
0000
1010
0000
1000
0000
0010
1000
0010
0000
,
1000
0100
1000
0100
1000
0100
1000
0100
1000
0010
0100
0010
1000
0001
0010
0001
,
1000
0000
0000
0110
,
1200
0000
0000
0000
0310
0001
0010
0000
0000
0000
0011
0000
0000
0000
0201
0000
,
0000
0000
0310
1000
0010
0000
1100
0000
0010
0100
0001
0000
0011
0000
0101
0000
,
2001
0000
0000
0000
3010
1000
0010
0000
0000
0000
0110
0000
0000
0000
2001
0000
,
0000
0000
3001
0100
0010
0000
1100
0000
0010
0000
1100
0000
0110
0000
0011
0000
,
0201
0000
0000
0000
0301
1000
0010
0000
0000
0000
1100
0000
0000
0000
0021
0000
,
0000
0000
0130
1000
0001
0000
0101
0000
0010
1000
0100
0000
0101
0000
1100
0000
,
1020
0000
0000
0000
0130
0010
0100
0010
0100
0010
0100
0000
1001
0000
0000
0000
,
0001
0100
0010
1000
0001
0000
1000
0010
0100
0001
0100
0010
2000
0000
3000
0000
,
1002
0000
0003
0000
0010
0001
0010
0000
1010
0000
0000
0000
1000
0100
0001
0000
,
0001
0100
1000
0000
1001
0000
0001
0100
1000
0000
0200
0000
0000
0000
0300
0000
,
2002
0000
3003
0000
1000
0010
0100
0000
1100
0000
0000
0000
1000
0100
0001
0000
,
0000
0000
0001
0010
0100
0000
1100
0000
0010
0000
1100
0000
0101
0000
0000
0000
,
1010
0000
1000
0010
0100
0010
0001
0000
0011
0000
0000
0000
1000
0010
0001
0000
,
0001
0010
1000
0000
1001
0000
0001
0100
2000
0000
0000
0000
3100
0000
0000
0000
,
0101
1100
0101
1001
1100
0101
1100
1001
,
1000
0100
1000
0100
1000
0100
1000
0100
0010
0001
0100
0001
0010
0000
0000
0000
;

//---------------dance-single - ----------------
#NOTES:
     dance-single:
     :
     Hard:
     13:
     0.607378,0.697471,0.583882,0.082237,0.267270,517.000000,446.000000,71.000000,10.000000,0.000000,0.000000,0.607378,0.697471,0.583882,0.082237,0.267270,517.000000,446.000000,71.000000,10.000000,0.000000,0.000000:
0000
0000
0000
0000
,
0000
0000
0000
0000
,
0001
0000
0000
0000
1000
0000
0000
0000
0001
0000
0000
0001
0000
0000
0001
0000
,
0010
0000
0000
0000
0100
0000
0000
0000
1000
0000
0000
1000
0000
0000
0100
0000
,
1000
0000
0000
0000
0001
0000
0000
0000
1000
0000
0000
0010
0000
0000
0100
0000
,
0001
0000
1000
0001
0100
0000
0000
0000
,
0101
0000
0000
0000
0010
0000
0000
0000
1000
0000
0000
1000
0000
0000
1000
0000
,
1010
0000
0000
0000
0100
0000
0000
0000
0010
0000
0000
0010
0000
0000
0010
0000
,
0100
0001
1000
0010
0000
0000
0010
1000
0001
0100
0000
0000
,
0100
0000
0010
0000
1000
0000
0001
0000
0100
0000
0010
0000
1000
0000
0001
0000
0200
0000
0020
0000
0000
0330
0000
0000
,
1100
0011
0101
0101
,
0011
1100
1010
1010
,
1001
0110
1001
1001
,
1010
0101
0011
0011
,
0001
0100
0001
0100
0001
0100
0001
0100
,
0010
0100
0010
0100
0010
0100
0010
0100
,
0010
1000
0100
1000
0010
0100
0001
0100
,
0010
0000
0000
0000
0000
0000
0000
0010
,
1100
0000
1001
1001
0000
0001
0001
0000
,
0101
0000
1001
1001
0000
0000
1000
0000
,
1010
0000
1001
1001
0000
0001
0001
0000
,
0011
0000
1001
1001
0000
0000
0000
0010
,
0110
0000
1010
1010
0000
1000
1000
0000
,
0110
0000
0101
0101
0000
0000
0001
0000
,
0011
0000
0110
0110
0000
0100
0100
0000
,
1000
0000
0000
0000
1000
0000
0000
0000
1000
0000
0000
1000
0000
0000
1000
0000
,
0001
0100
0010
0100
1000
0100
0001
0000
,
1000
0000
1000
0000
0010
0000
0001
0000
0010
0000
0000
1000
0000
0000
0010
0000
,
0100
0001
0010
1000
0010
0001
0100
0000
,
0010
0000
0010
0000
0100
0010
0100
0000
0000
0000
0000
0000
0000
0000
0001
0000
,
1000
0010
0100
0010
0001
0010
0100
0000
,
0010
0000
0010
0000
1000
0000
0001
0000
0100
0000
0000
1000
0000
0000
0100
0000
,
0001
0001
0010
0100
1000
1000
0001
0000
,
1001
0000
0000
0000
0000
0000
0000
0000
0000
0000
0100
0010
0100
0000
0010
0000
,
1010
0000
1000
0001
0000
0001
1000
0001
,
0100
0000
0001
1000
0000
1000
0100
0010
,
0010
0000
0000
0000
0100
1000
0100
0000
0000
0000
0100
0000
1000
0000
0010
0000
,
0100
0000
0000
0000
0100
0001
0100
0000
0000
0000
0000
0000
0000
0000
0100
0000
,
0001
0000
0000
0000
0001
0010
0001
0000
0000
0000
0001
0000
0010
0000
0100
0000
,
1000
0000
0000
0000
1000
0010
1000
0000
0000
0000
1000
0000
0001
0000
0100
0000
,
0100
0000
0000
0000
0100
0010
0100
0000
0000
0000
0100
0000
0010
0000
1000
0000
,
0020
0000
0000
0000
0000
0000
0030
1000
,
0001
0000
0000
0000
0001
0100
0010
0000
0000
0000
0010
0100
0001
0000
1000
0000
,
1000
0000
0000
0000
1000
0100
0010
0000
0000
0000
0010
0100
1000
0000
0001
0000
,
0001
0000
0000
0000
1000
0001
0010
0000
0000
0000
0010
0001
1000
0000
0010
0000
,
0100
0000
0000
0000
0100
0010
0100
0000
0000
0000
0000
0000
0000
0000
0010
0000
,
0010
0000
0000
0000
0010
1000
0100
0000
0000
0000
0100
1000
0010
0000
0100
0000
,
0100
0000
0000
0000
0100
0001
0010
0000
0000
0000
0010
0001
0100
0000
0010
0000
,
0010
0000
0000
0000
1000
0100
0010
0000
0000
0000
0100
0010
0001
0000
1000
0000
,
1001
0000
0000
0000
,
1000
0000
0010
0000
1000
0010
0000
0000
1000
0000
0000
0110
0000
0000
0000
0000
,
0001
0000
0100
0000
0001
0100
0000
0000
0001
0000
0000
0110
0000
0000
0010
0000
,
1000
0000
0100
0000
0010
0001
0000
0000
0010
0000
0000
1001
0000
0000
0000
0000
,
0001
0000
0010
0000
0100
1000
0000
0000
0100
0000
0000
1001
0000
0000
0000
0000
,
0101
0001
0100
0001
1001
1000
0001
1000
,
1010
0010
1000
0010
0110
0100
0010
0100
,
0001
0010
0001
0000
1000
0010
1000
0000
0001
0100
0001
0000
1000
0100
1000
0000
,
0020
0000
0000
0130
,
0101
0000
0000
0000
0001
0100
0001
0000
0000
0000
0101
0000
0000
0000
1100
0000
,
0000
0000
0001
0010
0001
0000
1000
0000
0001
0010
0001
0000
1000
0000
0010
0000
,
1010
0000
0000
0000
1000
0010
1000
0000
0000
0000
1010
0000
0000
0000
0210
0000
,
0000
0000
0301
1000
0001
0000
0100
0000
0200
0000
0010
0000
0010
0000
0310
0000
,
0110
0000
0000
0000
0100
0001
0100
0000
0000
0000
0101
0000
0000
0000
1100
0000
,
0000
0000
0100
0001
0100
0000
0010
0000
0100
0001
0100
0000
0010
0000
1000
0000
,
1010
0000
1000
0100
0010
0001
0011
0000
,
0200
0000
0000
0000
0000
0010
0310
0000
,
0110
0000
0000
0000
1000
0100
1000
0000
0001
0000
0000
0000
1000
0100
1000
0000
,
0001
0100
0001
0000
1000
0000
0100
1000
0200
0000
0010
0000
0300
0000
0000
0000
,
0110
0000
0000
0000
0010
0001
0010
0000
0100
0000
0000
0000
0010
0001
0020
0000
,
0000
0000
0031
0010
0001
0000
1000
0000
0020
0000
1000
0000
1030
0000
0000
0000
,
1001
0000
0101
0100
0010
0000
0110
0010
,
1000
0010
0110
0100
0001
0000
1001
0000
,
1100
0010
0001
0010
0101
0010
1000
0010
,
0100
0010
0100
0010
1000
0001
0110
0000
;

//---------------dance-single - ----------------
#NOTES:
     dance-single:
     :
     Medium:
     11:
     0.434680,0.545847,0.296053,0.106908,0.057566,370.000000,334.000000,36.000000,13.000000,0.000000,0.000000,0.434680,0.545847,0.296053,0.106908,0.057566,370.000000,334.000000,36.000000,13.000000,0.000000,0.000000:
0000
0000
0000
0000
,
0000
0000
0000
0000
,
1000
0000
0000
0000
1000
0000
0000
0000
0001
0000
0000
0001
0000
0000
0001
0000
,
0100
0000
0000
0000
0100
0000
0000
0000
0010
0000
0000
0010
0000
0000
0010
0000
,
1000
0000
0000
0000
1000
0000
0000
0000
0001
0000
0000
0001
0000
0000
0001
0000
,
0100
0000
0010
0100
0110
0000
0000
0000
,
0001
0000
0000
0000
0001
0000
0000
0000
1000
0000
0000
1000
0000
0000
1000
0000
,
0010
0000
0000
0000
0010
0000
0000
0000
0100
0000
0000
0100
0000
0000
0100
0000
,
0002
1003
2000
3001
,
0100
0010
0100
0110
,
1010
0101
1001
1001
,
0011
1100
1001
1001
,
1100
0011
1001
1001
,
0011
1100
1001
1001
,
1000
0100
1000
0000
0010
0100
0010
0000
,
0100
0001
0100
0000
0001
0010
0001
0000
,
0010
0100
1000
0100
0010
0001
0010
0100
,
0110
0000
0000
0000
0000
0000
0000
1000
,
0001
0000
0010
0010
0000
0010
0010
0000
,
0001
0000
1000
1000
0000
1000
1000
0000
,
0010
0000
0100
0100
0000
0100
0100
0000
,
0001
0000
1000
0001
0000
0000
0000
0000
,
1000
0000
0100
0100
0000
0100
0100
0000
,
1000
0000
0001
0001
0000
0001
0010
0000
,
0100
0000
0010
0010
0000
0010
0010
0000
,
0001
0000
0000
0000
0001
0000
0000
0000
0001
0000
0000
0001
0000
0000
1000
0000
,
0010
0100
0000
0100
0001
0000
1001
0000
,
1000
0100
0000
0010
0100
0000
0000
0000
,
1000
0001
0000
0001
0100
0010
1000
0000
,
0001
0001
0000
0001
0000
0000
0000
0000
,
1000
0100
0000
0010
0001
0000
1001
0000
,
0010
0100
0000
0100
0001
0000
1000
0000
,
0001
0100
0010
0000
1000
0000
1001
0000
,
0110
0000
0000
0000
0000
1000
0001
1000
,
1001
0000
0000
0000
0000
0000
0000
0100
,
0100
0000
0000
0000
0000
0000
0000
0010
,
0001
0000
1000
0100
0000
0010
0100
1000
,
0001
0000
0100
0001
2000
0000
3000
0000
,
1001
0000
0010
0100
0000
0001
0100
0010
,
1000
0000
0100
0010
0000
0010
0100
1000
,
1000
0000
0001
0100
0000
0010
1000
0010
,
0200
0000
0000
0000
0000
0000
0300
0001
,
1000
0000
0001
0010
0000
0010
0100
1000
,
0001
0000
1000
0100
0000
0100
0010
0001
,
0001
0000
1000
0001
0000
0100
0010
1000
,
0001
0000
0010
0100
0000
0000
0000
0000
,
1001
0000
0001
0100
0000
1000
0100
0001
,
1000
0000
0001
0100
0000
1000
0100
0001
,
0001
0000
1000
0010
0000
0100
0001
0100
,
0101
0000
0000
0000
,
0000
0000
0001
0000
0000
1000
0000
0000
0001
0000
0000
0010
0000
0000
0000
0000
,
0000
0000
1000
0000
0000
0001
0000
0000
1000
0000
0000
0010
0000
0000
0000
0000
,
0000
0000
0001
0000
0000
1000
0000
0000
0001
0000
0000
0010
0000
0000
0000
0000
,
0000
0000
1000
0000
0000
0001
0000
0000
1000
0000
0000
0010
0000
0000
0000
0000
,
0000
0000
1000
1000
0000
0000
0001
0001
,
0000
0000
0100
0100
0000
0000
0010
0010
,
0100
0001
1000
0010
,
1010
0000
0000
0002
,
0203
0000
0301
1000
0000
1010
0000
0101
,
0000
0001
0010
0001
0100
0001
0010
0010
,
0200
0000
1300
0001
0000
0101
0000
1010
,
0000
1000
0100
0010
0000
0001
0001
0001
,
2000
0000
3001
0010
0000
0011
0000
1100
,
0000
1000
0010
0000
0100
0001
1000
0010
,
1020
0100
0100
0130
,
0000
0000
0000
0010
,
1010
0000
1000
0001
1000
0000
0001
0010
,
0001
0100
0001
0010
0002
0000
0003
0000
,
0020
0000
0031
1000
0001
0000
1000
0010
,
0000
0100
0010
0000
1000
1000
1000
0000
,
0001
0100
1000
0100
,
0001
0010
1000
0010
,
0001
0010
1000
0010
0001
0100
1000
0100
,
0002
0000
2003
3010
;

//---------------dance-single - ----------------
#NOTES:
     dance-single:
     :
     Easy:
     7:
     0.332472,0.424548,0.238487,0.164474,0.000000,283.000000,254.000000,29.000000,20.000000,0.000000,0.000000,0.332472,0.424548,0.238487,0.164474,0.000000,283.000000,254.000000,29.000000,20.000000,0.000000,0.000000:
0000
0000
0000
0000
,
0000
0000
0000
0000
,
1100
1100
1100
0000
,
0110
0110
0110
0000
,
0011
0011
0011
0000
,
0001
0000
1000
0001
1000
0000
0000
0000
,
0001
0100
0101
0000
,
1000
0100
1100
0000
,
0002
0000
2003
0000
,
3020
0000
0000
0130
,
0001
1000
1001
1001
,
1000
0100
1100
1100
,
0100
0010
0110
0110
,
0010
0001
0011
0011
,
0001
0100
0010
1000
,
0100
0010
0001
1000
,
0001
1000
0001
1000
0001
1000
0001
1000
,
0001
0000
0000
0000
0000
0000
0000
0100
,
0100
0000
0010
0010
0000
0010
0010
0000
,
0100
0000
0010
0010
0000
0000
0010
0000
,
1000
0000
0001
0001
0000
0001
0001
0000
,
1000
0000
0001
0001
0000
0000
0000
0000
,
0001
0000
1000
1000
0000
1000
1000
0000
,
0001
0000
1000
1000
0000
0000
1000
0000
,
0010
0000
0100
0100
0000
0100
0100
0000
,
0020
0000
0000
0030
,
1000
0100
0000
0000
1000
0000
1000
0000
,
0001
0100
0000
0000
0001
0000
0001
0000
,
1000
0010
0000
0000
1000
0000
1000
0000
,
0001
0010
0000
0000
0000
0000
0000
0000
,
0001
0100
0000
0000
0010
0000
0010
0000
,
1000
0010
0000
0000
0100
0000
0100
0000
,
0001
1000
0000
0000
0010
0000
0010
0000
,
2000
0000
0000
3000
,
1001
0000
0000
0000
,
0000
0000
0000
0000
0000
0000
0000
0001
,
0001
0000
0100
0001
0000
0001
0100
0000
,
0001
0000
0100
0001
0000
0000
0000
0000
,
1000
0000
0010
1000
0000
1000
0010
0000
,
1000
0000
0010
1000
0000
1000
0010
0000
,
0100
0000
0010
0100
0000
0100
0010
0000
,
0200
0000
0000
0300
,
0001
0000
0010
0001
0000
0010
0001
0000
,
0010
0000
0100
0010
0000
0100
0010
0000
,
0100
0000
1000
0100
0000
1000
0100
0000
,
1000
0000
0001
1000
0000
0000
0000
0000
,
0000
0000
0000
0000
,
1000
0000
0100
1000
0000
0100
1000
0000
,
0100
0000
0010
0100
0000
0010
0100
0000
,
0010
0002
0000
0000
,
1003
0100
1100
0000
,
0001
0010
0011
0000
,
0001
1000
1001
0000
,
0010
0100
0110
0000
,
0200
0310
2000
3001
,
0002
0013
0200
1300
,
0001
1000
0001
1000
,
1001
0000
0000
0010
,
2000
0000
0001
0000
0000
0001
0000
3001
,
0000
0100
0100
0000
,
0002
0000
1000
0000
0000
1000
0000
1003
,
0000
0010
0200
0320
,
2030
0000
0100
0000
0000
0100
0000
3100
,
0000
0010
0010
0000
,
0002
0200
0000
0303
,
0101
0000
0000
1001
,
0001
0000
0010
0000
0000
0000
0100
1000
,
0000
0100
1000
0000
,
1001
1000
0010
0000
,
0000
0100
0001
0000
0000
0100
0010
0000
,
0200
0010
0310
0100
,
0010
0200
0310
0000
,
1000
0001
1000
0000
0001
1000
0001
0000
,
1000
0001
1000
0001
1000
0001
1001
0000
;

//---------------dance-single - ----------------
#NOTES:
     dance-single:
     :
     Beginner:
     3:
     0.167998,0.242599,0.098684,0.032895,0.000000,143.000000,131.000000,12.000000,4.000000,0.000000,0.000000,0.167998,0.242599,0.098684,0.032895,0.000000,143.000000,131.000000,12.000000,4.000000,0.000000,0.000000:
0000
0000
0000
0000
,
0000
0000
0000
0000
,
1000
0000
1001
0000
,
0001
0000
1001
0000
,
1000
0000
1001
0000
,
0001
0000
0010
0000
,
0100
0000
0110
0000
,
0010
0000
0110
0000
,
0100
0000
0010
0000
,
0200
0000
0000
0300
,
0100
0000
0000
0000
,
1000
0000
0000
0000
,
0001
0000
0000
0000
,
0010
0000
0000
0000
,
0001
0000
0000
0000
,
1000
0000
0000
0000
,
0001
0000
0000
0000
,
1001
0000
0000
0000
,
1000
1000
0000
1000
,
1000
1000
0000
1000
,
1000
1000
0000
1000
,
1000
1000
0000
0000
,
0001
0001
0000
0001
,
0001
0001
0000
0001
,
0001
0001
0000
0001
,
0001
0000
0000
0000
,
0100
0100
0000
0010
,
0010
0010
0000
0000
,
0100
0100
0000
0010
,
0010
0000
0000
0000
,
1000
1000
0000
0001
,
0001
0001
0000
0000
,
1000
1000
1000
0000
,
1001
0000
0000
0000
,
0110
0000
0000
0000
,
0000
0000
0000
0000
,
0001
0001
0000
0000
,
0100
0000
0000
0000
,
0010
0010
0000
0000
,
1000
0000
0000
0000
,
1000
1000
0000
0000
,
0002
0000
0000
0003
,
0001
0001
0000
0000
,
0010
0010
0000
0000
,
0100
0100
0000
0000
,
1000
1000
0000
0000
,
0010
0010
0000
0000
,
0100
0100
0000
0000
,
0001
0001
0000
0000
,
1001
0000
0000
0000
,
0010
0000
0010
0000
,
0100
0000
0100
0000
,
0010
0000
0010
0000
,
0100
0000
0100
0000
,
0000
0001
0000
0001
,
0000
1000
0000
1000
,
0000
0001
0000
1000
,
1000
0000
0000
1001
,
1001
0000
0000
0000
,
0000
0010
0000
0010
,
0010
0010
0000
0000
,
0000
0100
0100
0000
,
0001
0001
0000
0000
,
0000
1000
1000
1000
,
0000
2000
0000
3000
,
0000
0000
0000
0100
,
0100
0100
0000
0010
,
0000
0010
0010
0000
,
0001
0001
0000
1000
,
0000
0001
0000
0000
,
0100
0000
0000
0100
,
0000
0000
0100
0000
,
0020
0000
0000
0000
,
0000
0030
0000
0110
;

//---------------dance-double - ----------------
#NOTES:
     dance-double:
     :
     Easy:
     7:
     0.335996,0.424548,0.148026,0.123355,0.000000,286.000000,268.000000,18.000000,15.000000,0.000000,0.000000,0.335996,0.424548,0.148026,0.123355,0.000000,286.000000,268.000000,18.000000,15.000000,0.000000,0.000000:
00000000
00000000
00000000
00000000
,
00000000
00000000
00000000
00000000
,
11000000
11000000
11000000
00000000
,
00101000
00101000
00101000
00000000
,
00010100
00010100
00010100
00000000
,
00000010
00000000
00000001
00000010
00000001
00000000
00000000
00000000
,
00000002
00000203
00002300
00003000
,
00020000
02030000
23000000
30000000
,
00020000
10030000
20000000
30010000
,
01000000
01000000
01000000
01100000
,
10000000
00100000
00010000
00010000
,
00001000
00000010
00000001
00000001
,
00000100
00001000
00010000
00010000
,
01000000
10000000
00100000
00100000
,
00010000
00001000
00010000
00001000
,
00010000
00001000
00010000
00001000
,
00010000
00001000
00010000
00001000
00010000
00001000
00010000
00001000
,
00011000
00000000
00000000
00000000
00000000
00000000
00000000
00000010
,
00000100
00000000
00000001
00000001
00000000
00000001
00000001
00000000
,
00001000
00000000
00000001
00000001
00000000
00000000
00000001
00000000
,
00000100
00001000
00000000
00010000
,
01000000
00000000
10000000
00010000
00000000
00000000
00000000
00000000
,
00010000
00000000
10000000
10000000
00000000
10000000
10000000
00000000
,
00010000
00000000
10000000
10000000
00000000
00000000
10000000
00000000
,
00100000
00010000
00000000
00001000
,
00000010
00000000
00000000
00000000
00000000
00000000
00000000
00000001
,
00001000
00000000
00000010
00000100
00000000
00000100
00000010
00000000
,
00010000
00001000
00000000
00010000
00001000
00000000
01000000
00000000
,
00100000
10000000
00000000
10000000
00100000
00000000
10000000
00000000
,
01000000
00100000
00000000
00010000
00000000
00000000
00000000
00000000
,
01000000
00010000
00000000
00100000
00010000
00000000
00100000
00000000
,
00001000
00010000
00000000
00000100
00010000
00000000
00001000
00000000
,
00000010
00000001
00000100
00000010
,
00000110
00000000
00000000
00000000
,
00011000
00000000
00000000
00000000
,
00000000
00000000
00000000
00000000
00000000
00000000
00000000
01000000
,
00100000
00000000
10000000
00010000
00000000
01000000
00010000
00000000
,
10000000
00000000
00010000
01000000
00000000
00000000
00000000
00000000
,
00001000
00000000
00010000
00000100
00000000
00010000
00001000
00000000
,
00010000
00000000
00000010
00000100
00000000
00000010
00001000
00000000
,
00000001
00000000
00000100
00000010
00000000
00000100
00000001
00000000
,
00002000
00000000
00000000
00000000
00000000
00000000
00003000
00000100
,
00010000
00000000
00001000
00100000
00000000
00001000
00010000
00000000
,
00001000
00000000
01000000
00100000
00000000
01000000
00010000
00000000
,
10000000
00000000
00010000
00100000
00000000
00010000
10000000
00000000
,
10020000
01030000
00000000
00000000
,
00100000
00000000
10000000
01000000
00000000
00100000
00010000
00000000
,
01000000
00000000
00001000
00010000
00000000
00001000
00010000
00000000
,
00000010
00000000
00001000
00000100
00000000
00000010
00000001
00000000
,
00002002
00000000
00000000
00003003
,
00000001
00000100
00001000
00000000
,
00010000
01000000
10000000
00000000
,
10000000
00100000
00010000
00000000
,
00001000
00000010
00000001
00000000
,
00000001
00001000
00000001
00000100
,
00001000
00010000
00001000
00100000
,
01000000
01000000
01000000
01000000
,
11000000
00000000
00000000
10010000
,
10010000
00000000
10000000
00000000
00000000
01000000
00000000
00010000
,
00000000
00001000
00010000
00000000
00000000
00001000
00010000
00000000
,
00000100
00000000
00001000
00000000
00000000
00000010
00000000
00000100
,
00000000
00000001
00000000
00000000
00000000
00001000
00000001
00001000
,
00000001
00000000
00000100
00000000
00000000
00001000
00000000
00000000
,
00000000
00010000
00001000
00000000
00000000
00010000
00001000
00000000
,
01000000
00200000
00000000
00000000
,
20300000
00000000
30020000
01030000
,
00100000
00000000
10000000
00000000
00000000
00000000
00000000
01000000
,
00000000
00100000
00000000
00000000
00000000
00000000
00000000
00000000
,
00010000
00000000
01000000
00000000
00000000
00000000
00001000
00010000
,
00000000
00001000
00010000
00000000
00000000
00000010
00000010
00000000
,
00000100
00000001
00001000
00000100
,
00010000
00001000
01000000
00010000
,
10000000
00010000
10000000
00010000
,
10000000
00010000
10000000
00010000
10000000
00010000
10000000
00000000
;

//---------------dance-double - ----------------
#NOTES:
     dance-double:
     :
     Medium:
     11:
     0.446429,0.515522,0.345395,0.065789,0.053454,380.000000,338.000000,42.000000,8.000000,0.000000,0.000000,0.446429,0.515522,0.345395,0.065789,0.053454,380.000000,338.000000,42.000000,8.000000,0.000000,0.000000:
// measure 0
00000000
00000000
00000000
00000000
,  // measure 1
00000000
00000000
00000000
00000000
,  // measure 2
11000000
10010000
01010000
00000000
,  // measure 3
00101000
00011000
00010010
00000000
,  // measure 4
00001010
00000110
00000101
00000000
,  // measure 5
00001001
00000000
00000001
00000100
00001000
00000000
00000000
00000000
,  // measure 6
00010000
00000000
00000000
00000000
01000000
00000000
00000000
00000000
10000000
00000000
00000000
10000000
00000000
00000000
10000000
00000000
,  // measure 7
00010000
00000000
00000000
00000000
01000000
00000000
00000000
00000000
00100000
00000000
00000000
00100000
00000000
00000000
00100000
00000000
,  // measure 8
00010000
00001000
00000100
00000001
,  // measure 9
00001000
00000001
00001000
00000001
00001000
00000001
00001000
00000001
00001000
00000002
00000000
00000000
,  // measure 10
00000103
00000010
00001010
00001100
,  // measure 11
00000100
00010000
00011000
00101000
,  // measure 12
00100000
01000000
11000000
10100000
,  // measure 13
00100000
01000000
01001000
00011000
,  // measure 14
00010000
00000010
00010000
00000000
00000010
00000100
00000010
00000000
,  // measure 15
00000100
00000001
00000100
00000000
00000001
00000010
00000001
00000000
,  // measure 16
00000010
00001000
00010000
00100000
10000000
01000000
00100000
00010000
,  // measure 17
10010000
00000000
00000000
00000000
00000000
00000000
00000000
10000000
,  // measure 18
00010000
00000000
00010000
00010000
00000000
00010000
00010000
00000000
,  // measure 19
01000000
00000000
00100000
00100000
00000000
00000000
00100000
00000000
,  // measure 20
00010000
00000000
00001000
00001000
00000000
00001000
00001000
00000000
,  // measure 21
00000100
00000000
00000001
00001000
00000000
00000000
00000000
00001000
,  // measure 22
00000001
00000000
00000010
00000010
00000000
00000010
00000010
00000000
,  // measure 23
00001000
00000000
00010000
00010000
00000000
00000000
00010000
00000000
,  // measure 24
01000000
00000000
10000000
10000000
00000000
10000000
10000000
00000000
,  // measure 25
00010000
00000000
00000000
00000000
00010000
00000000
00000000
00000000
00010000
00000000
00000000
00010000
00000000
00000000
01000000
00000000
,  // measure 26
00100000
01000000
00000000
00100000
00010000
00000000
00001000
00000000
,  // measure 27
00000010
00000001
00000000
00000001
00001000
00000000
00001000
00000000
,  // measure 28
00000001
00000100
00000000
00000010
00000100
00000001
00001000
00000000
,  // measure 29
00000001
00000100
00000000
00001000
00010000
00000000
00000000
00000000
,  // measure 30
01000000
10000000
00000000
00100000
01000000
00000000
00100000
00000000
,  // measure 31
01000000
10000000
00000000
00010000
00100000
00000000
00010000
00000000
,  // measure 32
01000000
00100000
00000000
00010000
00001000
00000000
00000010
00000000
,  // measure 33
00000110
00000000
00000000
00000000
00000000
00001000
00000001
00000000
,  // measure 34
00001001
00000000
00000000
00000000
,  // measure 35
00000000
00000000
00000000
00000000
00000000
00000000
00000000
00000001
,  // measure 36
00001000
00000000
00000010
00000100
00000000
00000100
00000010
00000000
,  // measure 37
00011000
00000000
00001000
01000000
00200000
00000000
00000000
10300000
,  // measure 38
00010000
00000000
01000000
00100000
00000000
00100000
01000000
00000000
,  // measure 39
00010000
00000000
10000000
00100000
00000000
00010000
00001000
00000000
,  // measure 40
00000010
00000000
00000001
00001000
00000000
00000010
00000100
00000010
,  // measure 41
00002000
00000000
00000000
00000000
00000000
00000000
00003000
00000001
,  // measure 42
00000100
00000000
00001000
00010000
00000000
01000000
10000000
00000000
,  // measure 43
00010000
00000000
10000000
01000000
00000000
00100000
01000000
00000000
,  // measure 44
00010000
00000000
00001000
00000100
00000000
00000001
00001000
00000000
,  // measure 45
00000001
00000000
00000010
00000100
00000000
00000000
00000000
00000010
,  // measure 46
00000001
00000000
00001000
00000010
00000000
00000100
00001000
00000000
,  // measure 47
00010000
00000000
01000000
10000000
00000000
00100000
01000000
00000000
,  // measure 48
00010000
00000000
10000000
01000000
00000000
00100000
00010000
10000000
,  // measure 49
00020000
02030000
00000000
00000000
,  // measure 50
03010000
00000000
00000000
00000000
10000000
00000000
00000000
00000000
00010000
00000000
00000000
01000000
00000000
00000000
00000000
00000000
,  // measure 51
00100000
00000000
00000000
00000000
00010000
00000000
00000000
00000000
00001000
00000000
00000000
00000010
00000000
00000000
00000000
00000000
,  // measure 52
00000001
00000000
00000000
00000000
00001000
00000000
00000000
00000000
00000001
00000000
00000000
00000100
00000000
00000000
00000000
00000000
,  // measure 53
00000010
00000000
00000000
00000000
00000100
00000000
00000000
00000000
00001000
00000000
00000000
00010000
00000000
00000000
00000000
00000000
,  // measure 54
01000000
00000000
10000000
00100000
10000000
00000000
00100000
00010000
,  // measure 55
00100000
00000000
00010000
00001000
00010000
00000000
00001000
00000010
,  // measure 56
00001000
00000010
00000001
00000100
,  // measure 57
00001000
00000000
00000000
00011000
,  // measure 58
00002000
00000000
00103000
00001000
00000000
00010000
00000000
00011000
,  // measure 59
00000000
00010000
00000100
00000010
00000001
00000100
00000010
00010000
,  // measure 60
00011000
00000000
00001000
01000000
00000000
00100000
00000000
10100000
,  // measure 61
00000000
10000000
01000000
00100000
01000000
10000000
10000000
10000000
,  // measure 62
11000000
00000000
10000000
00100000
00000000
00010000
00000000
00011000
,  // measure 63
00000000
00001000
00100000
01000000
10000000
00100000
01000000
00001000
,  // measure 64
00011000
00000000
00000100
00000010
00000100
00000010
00000001
00000000
,  // measure 65
00001001
00000000
00000000
00000000
00000000
00000001
00001000
00000000
,  // measure 66
00001001
00000000
00000001
00000100
00001000
00000000
00010000
01000000
,  // measure 67
00000000
01000000
10000000
00000000
20020000
00000000
30030000
00000000
,  // measure 68
01100000
00000000
10000000
01000000
00010000
00000000
00001000
00000100
,  // measure 69
00000000
00000001
00000010
00000100
00001000
00000001
00000001
00000000
,  // measure 70
00001001
00010010
00011000
00101000
,  // measure 71
01010000
01001000
00011000
00010100
,  // measure 72
00001000
00000010
00000100
00000000
00000001
00000010
00000100
00000000
,  // measure 73
00010000
00001000
00010000
00001000
00010000
00001000
00011000
00000000
;

//---------------dance-double - ----------------
#NOTES:
     dance-double:
     :
     Challenge:
     16:
     0.812970,1.004112,1.472039,0.148026,0.542763,692.000000,513.000000,179.000000,18.000000,0.000000,0.000000,0.812970,1.004112,1.472039,0.148026,0.542763,692.000000,513.000000,179.000000,18.000000,0.000000,0.000000:
00000000
00000000
00000000
00000000
,
00000000
00000000
00000000
00000000
,
00011000
00000000
00000000
00000000
00011000
00000000
00000000
00000000
00010100
00000000
00000000
00001010
00000000
00000000
00010100
00000000
,
00011000
00000000
00000000
00000000
00011000
00000000
00000000
00000000
01001000
00000000
00000000
00110000
00000000
00000000
01001000
00000000
,
00011000
00000000
00000000
00000000
00011000
00000000
00000000
00000000
00010010
00000000
00000000
00001100
00000000
00000000
00010010
00000000
,
00011000
00000000
00001000
01000000
00100000
00000000
00000000
00000000
,
00011000
00000000
00000000
00000000
00011000
00000000
00000000
00000000
00010100
00000000
00000000
00000110
00000000
00000000
00010100
00000000
,
00011000
00000000
00000000
00000000
00011000
00000000
00000000
00000000
00101000
00000000
00000000
01100000
00000000
00000000
00101000
00000000
,
00100000
00010000
01000000
00001000
00000000
00000000
00010000
00000010
00001000
00000100
00000000
00000000
,
00001000
00000000
00000010
00000000
00010000
00000000
00001000
00000000
00100000
00000000
00001000
00000000
00010000
00000000
01000000
00000000
00010000
00000000
00002000
00000000
00000000
00003000
00000000
00000000
,
00011000
00011000
00001100
00000101
,
00000011
00000011
00001010
00011000
,
00110000
00110000
10100000
11000000
,
01010000
01010000
00011000
00011000
,
00001000
00100000
00001000
00100000
00001000
00100000
00001000
00100000
01000000
10000000
01000000
10000000
01000000
10000000
01000000
10000000
,
00100000
01000000
00100000
01000000
00100000
01000000
00100000
01000000
00001000
00010000
00001000
00010000
00001000
00010000
00001000
00010000
,
00000100
00001000
00000010
00001000
00000100
00000010
00000001
00000010
00000100
00010000
00001000
00010000
00001000
01000000
00100000
01000000
,
00010000
00000000
00000000
00000000
00000000
00000000
00000000
11000000
,
01010000
00000000
00101000
00101000
00000000
11000000
11000000
00000000
,
00101000
00000000
00000000
00000000
00011000
00000000
00011000
00000000
00010000
00000010
00000100
00000000
00000110
00000000
00000000
00000000
,
00000101
00000000
00001010
00001010
00000000
00000101
00000101
00000000
,
00001001
00000000
00000000
00000000
00010100
00000000
00011000
00000000
00001000
01000000
00100000
00000000
10000000
01000000
00100000
00000000
,
00110000
00000000
11000000
11000000
00000000
01010000
01010000
00000000
,
00011000
00000000
00000000
00000000
00010010
00000000
00010010
00000000
00000100
00000001
00001000
00000000
00001001
00000000
00000000
00000000
,
00000011
00000000
00010100
00010100
00000000
00101000
00101000
00000000
,
00011000
00000000
00000000
00000000
00100000
00000000
00000000
00000000
00011000
00000000
00000000
00000010
00000000
00000000
00011000
00000000
,
00101000
00000000
01100000
00000000
01000000
10000000
00100000
00000000
01000000
00010000
01000000
00100000
01000000
00000000
00000000
00000000
,
01001000
00000000
00011000
00000000
00010000
00001000
00000100
00000000
00000101
00000000
00000000
00001001
00000000
00000000
00001010
00000000
,
00000110
00000000
00001100
00000000
00001000
00010000
01000000
00000000
10000000
00100000
01000000
00010000
10000000
00000000
00000000
00000000
,
10010000
00000000
10010000
00000000
10000000
00000000
00010000
00000000
00001000
00000000
00000000
00000001
00000000
00000000
00001001
00000000
,
00000101
00000000
00000101
00000000
00000001
00000100
00001000
00000000
00010000
01000000
00100000
01000000
10000000
00000000
00000000
00000000
,
11000000
00000000
11000000
00000000
10000000
00100000
01000000
00000000
01010000
00000000
00000000
10100000
00000000
00000000
01010000
00000000
,
10010000
00000000
10010000
00000000
10000000
00100000
00010000
00000000
00001000
00000010
00000100
00000010
00000001
00000000
00000000
00000000
,
00002002
00000000
00000000
00000000
00000000
00000000
00000000
00000000
00003003
00000000
00000001
00001000
00000001
00000000
00001000
00000000
,
00001001
00000000
00000000
00000000
,
00000000
00000000
00000000
00000000
00000000
00000000
00000000
10010000
,
10010000
00000000
00000000
00000000
10000000
00100000
01000000
00000000
00000000
00000000
00100000
00010000
00001000
00000000
00000010
00000000
,
00001010
00000000
00000000
00000000
00000010
00000001
00001000
00000000
00000001
00000100
00000010
00001000
00000010
00000100
00000001
00000000
,
00000011
00000000
00000000
00000000
00000010
00001000
00010000
00000000
00000000
00000000
00001000
00000100
00001000
00000000
00010000
00000000
,
00110000
00000000
00000000
00000000
00100000
10000000
00010000
00000000
00000000
00000000
01000000
00100000
00010000
00000000
00001000
00000000
,
00001000
00000000
00000000
00000000
00000100
00000001
00001000
00000000
00000000
00000000
00000010
00000100
00001000
00000000
00010000
00000000
,
02010000
00000000
00000000
00000000
00000000
00000000
00000000
13000000
,
01100000
00000000
00000000
00000000
10000000
00100000
00010000
00000000
00000000
00000000
00001000
00000010
00000001
00000000
00001001
00000000
,
00000101
00000000
00000000
00000000
00000001
00000010
00001000
00000000
00000000
00000000
00010000
00100000
10000000
00000000
10010000
00000000
,
01010000
00000000
00000000
00000000
01000000
00100000
00010000
00000000
00000000
00000000
00001000
00000100
00000001
00000000
00000101
00000000
,
00010010
00000000
00000000
00000000
00010000
00001000
00010000
00000000
00000000
00000000
00000000
00000000
00000000
00000000
11000000
00000000
,
00110000
00000000
00000000
00000000
00010000
01000000
00100000
00000000
00000000
00000000
00010000
00001000
00000010
00000000
00000011
00000000
,
00001100
00000000
00000000
00000000
00000010
00000100
00001000
00000000
00000000
00000000
00010000
01000000
10000000
00000000
11000000
00000000
,
10010000
00000000
00000000
00000000
10000000
01000000
00010000
00000000
00000000
00000000
00001000
00000100
00000001
00000000
00001001
00000000
,
00000110
00000000
00021000
00000000
00000000
00000000
00000000
00030000
,
00012000
00000000
00103000
00000000
00001000
00010000
00000000
00000000
00011000
00000000
00000000
01001000
00000000
00000000
00000000
00000000
,
01200000
00000000
10300000
00000000
00100000
01000000
00000000
00000000
01010000
00000000
00000000
00101000
00000000
00000000
00011000
00000000
,
00021000
00000000
00030100
00000000
00010000
00001000
00000000
00000000
00011000
00000000
00000000
00010010
00000000
00000000
00000000
00000000
,
00000210
00000000
00000301
00000000
00000100
00000010
00000000
00000000
00001010
00000000
00000000
00010100
00000000
00000000
00011000
00000000
,
00011000
00000000
00100000
00000000
00010000
10000000
00100000
00000000
10100000
00000000
01000000
00000000
00001000
00010000
00000100
00000000
,
00001100
00000000
00001000
00000000
00000010
00000100
00000001
00000000
00001001
00000000
00000010
00000000
00000100
00001000
00010000
00000000
,
01000000
10000000
01000000
10000000
00010000
10000000
00010000
10000000
00010000
01000000
00100000
01000000
00001000
00010000
00000100
00001000
,
00000200
00000000
00000000
00000310
,
00000011
00000000
00000000
00000000
00000001
00001000
00000001
00000000
00000000
00000000
00000101
00000000
00000000
00000000
00002100
00000000
,
00000000
00000000
00013000
01000000
10000000
00000000
10010000
00000000
10000000
01000000
00010000
00000000
00001000
00000000
00000100
00000000
,
00000101
00000000
00000000
00000000
00000001
00001000
00000001
00000000
00000000
00000000
00000011
00000000
00000000
00000000
00002010
00000000
,
00000000
00000000
00013000
00100000
10000000
00000000
00010000
00000000
10010000
00000000
01100000
00000000
01010000
00000000
10100000
00000000
,
10010000
00000000
00000000
00000000
10000000
00010000
10000000
00000000
00000000
00000000
10100000
00000000
00000000
00000000
00120000
00000000
,
00000000
00000000
00031000
00000010
00000001
00000000
00001001
00000000
00000001
00000010
00001000
00000000
00010000
00000000
00100000
00000000
,
10100000
00000000
00000000
00000000
10000000
00010000
10000000
00010000
10000000
00010000
10000000
00000000
01100000
00000000
00000000
00000000
,
01001000
00000000
00000000
00000000
00000000
00011000
00010100
00000000
,
00001020
00000000
00000000
00000000
00000130
00000001
00000010
00000000
00001010
00000000
00000000
00000000
00001000
00010000
00100000
00000000
,
00010000
00001000
00000010
00000000
00001000
00000000
00010000
00100000
20000000
00000000
00020000
00000000
30000000
00000000
00030000
00000000
,
10010000
00000000
00000000
00000000
10000000
00100000
00010000
00000000
00011000
00000000
00000000
00000000
00001000
00000010
00000002
00000000
,
00000000
00000000
00000103
00000010
00000100
00000000
00001000
00000000
00010000
00000000
01000000
00000000
01000000
00000000
00000000
00000000
,
11000000
00000000
00000000
00000000
01010000
00000000
00000000
00000000
11000000
00000000
00000000
00000000
10000000
00100000
00010000
00000000
,
00011000
00001100
00011000
00010010
,
00000101
00001001
00001100
00010100
00011000
00101000
00110000
10010000
,
10000000
00100000
10000000
00100000
10000000
00100000
10000000
00100000
01000000
00001000
00100000
00001000
02000000
00000000
00000000
00000000
,
03000000
00000000
00000000
00000000
;

//---------------dance-double - ----------------
#NOTES:
     dance-double:
     :
     Hard:
     13:
     0.612077,0.638980,0.953947,0.090461,0.189145,521.000000,405.000000,116.000000,11.000000,0.000000,0.000000,0.612077,0.638980,0.953947,0.090461,0.189145,521.000000,405.000000,116.000000,11.000000,0.000000,0.000000:
00000000
00000000
00000000
00000000
,
00000000
00000000
00000000
00000000
,
00011000
00000000
00000000
00000000
00011000
00000000
00000000
00000000
00001000
00000000
00000000
01000000
00000000
00000000
00001000
00000000
,
00011000
00000000
00000000
00000000
00011000
00000000
00000000
00000000
00010000
00000000
00000000
00000100
00000000
00000000
00001000
00000000
,
00001010
00000000
00000000
00000000
00001010
00000000
00000000
00000000
00000100
00000000
00000000
00000001
00000000
00000000
00001000
00000000
,
00001100
00000000
00000100
00001000
00020000
00000000
00030000
00000000
,
01010000
00000000
00000000
00000000
11000000
00000000
00000000
00000000
10000000
00000000
00000000
00100000
00000000
00000000
00010000
00000000
,
00011000
00000000
00000000
00000000
00001010
00000000
00000000
00000000
00000010
00000000
00000000
00000001
00000000
00000000
00001000
00000000
,
00000100
00010000
00000100
00010000
00000000
00000000
00010000
00001000
00010000
00001000
00000000
00000000
,
01000000
00100000
01000000
00001000
00010000
00001000
00000100
00000010
00000100
00001000
00000000
00000000
,
00011000
00011000
01010000
11000000
,
10100000
10100000
00110000
00011000
,
00001010
00001010
00000011
00001001
,
00000101
00001100
00011000
01010000
,
01000000
10000000
01000000
10000000
00100000
00010000
00100000
00010000
,
00001000
00000010
00001000
00000010
00000001
00000100
00000001
00000100
,
00001000
00010000
00100000
00010000
00001000
00000100
00001000
00010000
,
00011000
00000000
00000000
00000000
00000000
00000000
00000000
00110000
,
10010000
00000000
11000000
11000000
00000000
00110000
00110000
00000000
,
01001000
00000000
00011000
00011000
00000000
00000000
00010010
00000000
,
00000110
00000000
00000101
00000101
00000000
00001010
00001010
00000000
,
00010100
00000000
00011000
00011000
00000000
00000000
00000000
00100000
,
11000000
00000000
10010000
10010000
00000000
01001000
01001000
00000000
,
00110000
00000000
00101000
00101000
00000000
00000000
00010010
00000000
,
00001100
00000000
00001010
00001010
00000000
00000101
00000101
00000000
,
00000001
00000000
00000000
00000000
00001000
00000000
00000000
00000000
00000100
00000000
00000000
00000100
00000000
00000000
00000010
00000000
,
00000110
00001100
00000100
00010000
00001000
00100000
00010000
00000000
,
01000000
00000000
00100000
00000000
00010000
00000000
00001000
00000000
00000100
00000000
00000000
00000001
00000000
00000000
00000100
00000000
,
00001000
00010000
00100000
10000000
01000000
00010000
01000000
00000000
,
10000000
00000000
00100000
00000000
00000000
00000000
00010000
00000000
00001000
00000000
00000000
00001000
00000000
00000000
00000100
00000000
,
00000001
00000010
00001000
00010000
01000000
00010000
00001000
00000000
,
00000100
00000000
00000001
00000000
00000000
00000000
00000010
00000000
00001000
00000000
00000000
00010000
00000000
00000000
00100000
00000000
,
10000000
00010000
01000000
00100000
00010000
00001000
00000100
00000000
,
00000101
00000000
00000000
00000000
,
00011000
00000000
00000000
00000000
,
00000000
00000000
00000000
00000000
00000000
00000000
00000000
11000000
,
11000000
00000000
00000000
00000000
10000000
00010000
10000000
00000000
00000000
00000000
10000000
00000000
00010000
00000000
01000000
00000000
,
00001000
00000000
00010000
00100000
00020000
00000000
00031000
00000100
,
00000101
00000000
00000000
00000000
00000001
00001000
00000001
00000000
00000000
00000000
00000001
00000000
00001000
00000000
00000100
00000000
,
00001000
00000000
00000000
00000000
00000010
00000100
00000010
00000000
00000000
00000000
00000100
00000000
00001000
00000000
00010000
00000000
,
01010000
00000000
00000000
00000000
10000000
00100000
10000000
00000000
00000000
00000000
10000000
00000000
00100000
00000000
01000000
00000000
,
00020000
00000000
00000000
00000000
00000000
00000000
00030000
01010000
,
01100000
00000000
00000000
00000000
01000000
00100000
01000000
00000000
00000000
00000000
00100000
00000000
00010000
00000000
00001000
00000000
,
00000010
00000000
00000000
00000000
00000001
00001000
00000001
00000000
00000000
00000000
00000100
00000000
00001000
00000000
00010000
00000000
,
01000000
00000000
00000000
00000000
10000000
01000000
10000000
00000000
00000000
00000000
00010000
00000000
00100000
00000000
01000000
00000000
,
10000000
00000000
00000000
00000000
00010000
00100000
00010000
00000000
00000000
00000000
00000000
00000000
00000000
00000000
01001000
00000000
,
00011000
00000000
00000000
00000000
00010000
00000010
00010000
00000000
00000000
00000000
00000010
00000000
00000100
00000000
00001000
00000000
,
00010000
00000000
00000000
00000000
01000000
10000000
01000000
00000000
00000000
00000000
10000000
00000000
00010000
00000000
01000000
00000000
,
00100000
00000000
00000000
00000000
00010000
00001000
00010000
00000000
00000000
00000000
00001000
00000000
00000100
00000000
00000001
00000000
,
00001001
00000020
00000000
00000030
,
00000101
00000000
00000000
00000000
00001010
00000000
00000000
00000000
00000101
00000000
00000000
00001010
00000000
00000000
00000000
00000000
,
00010100
00000000
00000000
00000000
00101000
00000000
00000000
00000000
00010100
00000000
00000000
00101000
00000000
00000000
00000000
00000000
,
11000000
00000000
00000000
00000000
00110000
00000000
00000000
00000000
11000000
00000000
00000000
00110000
00000000
00000000
00000000
00000000
,
01001000
00000000
00000000
00000000
00010010
00000000
00000000
00000000
01001000
00000000
00000000
00010010
00000000
00000000
00000000
00000000
,
00010000
00010000
00000010
00000100
00000001
00000001
00001000
00000100
,
00010000
00010000
00001000
00010000
00100000
00100000
10000000
00010000
,
10000000
01000000
00010000
00001000
00000100
00000010
00000100
00000001
,
00000011
00000000
00000000
00010100
,
00011000
00000000
00000000
00000000
00100000
00010000
10000000
00000000
00000000
00000000
10010000
00000000
00000000
00000000
01100000
00000000
,
00000000
01000000
01000000
00100000
00010000
00010000
00001000
00000100
,
00000101
00000000
00000000
00000000
00000001
00001000
00000010
00000000
00000000
00000000
00000110
00000000
00000000
00000000
00001100
00000000
,
00000000
00001000
00010000
01000000
20000000
00010000
00010000
30010000
,
10010000
00000000
00000000
00000000
10000000
00010000
00100000
00000000
00000000
00000000
00110000
00000000
00000000
00000000
00102000
00000000
,
00000000
00013000
00010000
00001000
01000000
01000000
00100000
00010000
,
00011000
00000000
00000000
00000000
00001000
00010000
00001000
00010000
00001000
00010000
00001000
00000000
00010000
00000000
00000000
00000000
,
00000110
00000000
00000000
00000000
00000000
00000010
00001001
00000000
,
00000101
00000000
00000000
00000000
00000001
00000010
00000100
00000000
00001100
00000000
00000000
00000000
00000001
00000010
00000100
00000000
,
00000000
00000000
00000100
00000000
00010000
00000000
00001000
00100000
02000000
00000000
00000000
00000000
00000000
00000000
03000000
00000000
,
11000000
00000000
00000000
00000000
10000000
01000000
00100000
00000000
00110000
00000000
00000000
00000000
10000000
01000000
00100000
00000000
,
00000000
00000000
00100000
00001000
00010000
00000000
00000100
00000000
00001000
00000000
00001100
00000000
00001100
00000000
00000000
00000000
,
00001010
00000000
00010100
00000000
00001010
00000000
00010000
00001000
,
01001000
00110000
02002000
03003000
,
01000000
00100000
01000000
00100000
01000000
00100000
01000000
00100000
,
00010000
00001000
00000010
00001000
00010000
01000000
02020000
00000000
,
03030000
00000000
00000000
00000000
;
