#TITLE:Scandalous;
#SUBTITLE:;
#ARTIST:Mis-Teeq;
#TITLETRANSLIT:;
#SUBTITLETRANSLIT:;
#ARTISTTRANSLIT:;
#GENRE:R&B;
#CREDIT:;
#BANNER:scandalous-bn.png;
#BACKGROUND:scandalous-bg.png;
#LYRICSPATH:;
#CDTITLE:;
#MUSIC:Scandalous.mp3;
#OFFSET:-0.050000;
#SAMPLESTART:48.019989;
#SAMPLELENGTH:12.000000;
#SELECTABLE:YES;
#BPMS:0.000000=100.000000
;
#STOPS:
;
#BGCHANGES:;
#KEYSOUNDS:;
#ATTACKS:;

//---------------dance-single - ----------------
#NOTES:
     dance-single:
     :
     Hard:
     12:
     0.488071,0.568722,0.224989,0.108328,0.495809,410.000000,383.000000,27.000000,13.000000,0.000000,0.000000,0.488071,0.568722,0.224989,0.108328,0.495809,410.000000,383.000000,27.000000,13.000000,0.000000,0.000000:
0000
0000
0000
0000
,
0000
0000
0000
0000
,
0000
0000
0000
0000
0000
0000
0000
0000
0000
0000
0000
0000
0000
0000
0000
0001
,
0010
0000
0000
1000
0010
0000
0000
0001
0010
0000
0000
1000
0010
0000
0000
0000
,
0001
0000
0001
0000
0100
0000
0000
0000
1000
0000
0200
2000
0000
0000
3300
0000
,
0001
0000
0001
0000
0010
0000
0000
0000
1000
0000
0020
2000
0000
0000
3030
0000
,
0010
0000
0010
0000
0100
0000
0000
0000
0001
0000
1000
0001
0000
0000
0100
0000
,
0110
0010
1000
0001
1002
0000
0013
0000
,
0001
0000
0010
0000
0100
0000
0000
0000
1000
0000
0020
0200
0000
0000
0330
0000
,
0001
0000
1000
0000
0010
0000
0000
0100
0010
0000
2000
0002
0000
0000
3003
0000
,
1000
0000
0100
0000
0010
0000
0000
0001
0010
0000
0100
1000
0000
0000
0100
1000
,
0010
0000
0000
0001
0010
0000
0000
1000
0010
0000
0000
0001
0010
0000
1000
0000
,
0001
0100
0010
0100
0001
0010
0001
0010
0001
0000
0000
0000
1000
0100
0010
0100
,
1000
0000
0010
0100
0001
0100
0010
0100
0001
0000
0000
0001
1000
0001
1000
0001
,
1000
0010
0100
0010
1000
0100
1000
0000
1100
0000
0000
1000
0100
0010
0000
0001
,
1000
0000
0001
0100
0010
0100
0001
0000
0101
0000
0000
0010
0100
0000
0010
0100
,
0000
0001
0010
0100
1000
0100
0010
0001
0010
0000
0000
0000
0001
0000
1000
0001
,
0000
0000
0000
1000
0000
0000
0001
0000
0000
0000
0000
0000
0001
0000
0000
0000
0010
0000
0000
0000
0100
0000
0000
0000
1000
0000
0000
0000
0000
0000
0000
0000
0000
0010
0000
0000
0100
0000
0000
0000
0000
0000
0010
0000
0000
0100
0000
0000
,
0000
0010
1000
0100
1000
0010
0100
0001
1000
0000
1000
0001
0100
0010
0100
0001
,
0010
0000
0000
1000
0010
0000
0000
0001
0010
0000
0000
1000
0010
0000
0001
0000
,
1000
0000
0010
1000
0000
0000
1000
0000
0001
0000
0010
0001
0000
0000
0001
0000
,
1000
0000
0010
1000
0000
0000
1000
0000
0001
0000
0010
0001
0000
0000
0001
0000
,
0100
0000
0010
1000
0000
0000
1000
0000
0100
0000
0010
0001
0000
0000
0001
0000
,
0010
1000
0010
0001
1002
0000
1000
2000
,
0000
0000
3003
0010
0100
0001
1000
0010
0100
0000
0001
0000
1001
0000
1001
0000
,
0000
0000
0000
0100
0010
1000
0001
0100
0010
0000
1000
0000
1001
0000
1001
0000
,
0000
0000
0000
1000
0100
0010
0001
0010
0100
0000
1000
0000
1001
0000
0001
1000
,
0010
0000
0000
0001
0010
0000
0000
1000
0010
0000
0000
0001
0010
0000
0000
0000
,
1100
0000
1001
0000
0000
0000
0000
1000
0100
0000
0100
1000
0000
0000
0000
0000
,
0101
0000
1001
0000
0000
0000
0001
0000
0100
0000
0001
0100
0000
0000
0000
0000
,
0011
0000
1001
0000
0000
0000
0000
0010
1000
0000
1000
0010
0000
0000
0000
0000
,
1100
0000
0010
0000
0100
0000
0010
0000
0100
0000
0001
0010
0000
0000
0010
0000
,
0001
1000
0001
0100
0001
1000
0010
0000
,
1000
0010
1000
0001
1000
0010
0100
0000
,
0010
1000
0010
0100
0010
1000
0001
0000
,
0100
0000
0010
0000
0100
0000
0001
0000
0100
0000
0010
0000
1000
0000
0000
0001
,
0010
0000
0000
1000
0010
0000
0000
0001
0010
0000
0000
1000
0010
0000
0001
0000
,
0100
0000
0010
1000
0000
0000
1000
0000
0010
0000
0100
0001
0000
0000
0001
0000
,
0010
0000
0100
1000
0000
0000
1000
0000
0100
0000
0010
0001
0000
0000
0001
0000
,
1000
0000
0010
1000
0000
0000
1000
0000
0001
0000
0010
0001
0000
0000
0001
0000
,
0100
1000
0100
0001
2001
0000
0001
0002
,
0000
0000
3003
0001
1000
0010
0100
0001
1000
0000
0010
0000
0110
0000
0110
0000
,
0000
0000
0000
1000
0001
0100
0010
1000
0001
0000
0100
0000
0110
0000
0110
0000
,
0000
0000
0000
1000
0010
0100
0001
0100
0010
0000
1000
0000
1001
0000
0001
1000
,
0010
0000
0000
0001
0010
0000
0000
1000
0010
0000
0000
0001
0010
0000
0000
0000
,
1000
0000
0010
0100
0001
0100
0010
0100
0001
0000
0001
0010
0000
0000
0000
0000
,
0101
1001
0000
0000
1100
1001
0000
0000
,
0001
0100
0010
1000
0010
0100
0010
1000
0100
0000
0100
0010
0000
0000
0000
0001
,
0010
0000
0000
1000
0010
0000
0000
0001
0010
0000
0000
1000
0010
0000
0000
0000
;

//---------------dance-single - ----------------
#NOTES:
     dance-single:
     :
     Beginner:
     1:
     0.074996,0.121869,0.024999,0.033332,0.000000,63.000000,60.000000,3.000000,4.000000,0.000000,0.000000,0.074996,0.121869,0.024999,0.033332,0.000000,63.000000,60.000000,3.000000,4.000000,0.000000,0.000000:
// measure 0
0000
0000
0000
0000
,  // measure 1
0000
0000
0000
0000
,  // measure 2
0000
0000
0000
0000
,  // measure 3
0000
0000
0000
0000
,  // measure 4
1000
0000
0001
0000
,  // measure 5
1000
0000
1000
0000
,  // measure 6
0001
0000
1000
0000
,  // measure 7
0001
0000
0000
0000
,  // measure 8
0100
0000
0010
0000
,  // measure 9
0100
0000
0100
0000
,  // measure 10
0010
0000
0100
0000
,  // measure 11
0010
0000
0000
0000
,  // measure 12
1000
0000
0000
0000
,  // measure 13
0010
0000
0000
0000
,  // measure 14
0100
0000
0000
0000
,  // measure 15
0001
0000
0000
0000
,  // measure 16
0010
0000
0000
0000
,  // measure 17
0100
0000
0000
0000
,  // measure 18
1000
0000
0000
0000
,  // measure 19
0001
0000
0000
0000
,  // measure 20
1000
0000
0010
0000
,  // measure 21
1000
0000
0010
0000
,  // measure 22
0100
0000
0001
0000
,  // measure 23
0100
0000
0010
0000
,  // measure 24
0000
0010
0000
0000
,  // measure 25
0000
0010
0000
0000
,  // measure 26
0000
0010
0000
0000
,  // measure 27
0000
0010
0000
0000
,  // measure 28
0000
0000
1001
0000
,  // measure 29
0000
0000
1001
0000
,  // measure 30
0000
0000
1001
0000
,  // measure 31
0000
0000
0000
0000
,  // measure 32
0002
0000
0003
0000
,  // measure 33
2000
0000
3000
0000
,  // measure 34
0020
0000
0030
0000
,  // measure 35
0200
0000
0300
0000
,  // measure 36
0001
0000
0000
0000
,  // measure 37
0010
0000
0001
0000
,  // measure 38
0010
0000
0001
0000
,  // measure 39
1000
0000
0100
0000
,  // measure 40
1000
0000
0001
0000
,  // measure 41
0000
0100
0000
0000
,  // measure 42
0000
0100
0000
0000
,  // measure 43
0000
0100
0000
0000
,  // measure 44
0000
0100
0000
0000
,  // measure 45
0000
1000
0000
0000
,  // measure 46
0000
0000
0000
0000
,  // measure 47
0000
0001
0000
0000
,  // measure 48
0010
0010
0010
0010
;

//---------------dance-single - ----------------
#NOTES:
     dance-single:
     :
     Easy:
     4:
     0.171420,0.182803,0.000000,0.033332,0.000000,144.000000,144.000000,0.000000,4.000000,0.000000,0.000000,0.171420,0.182803,0.000000,0.033332,0.000000,144.000000,144.000000,0.000000,4.000000,0.000000,0.000000:
0000
0000
0000
0000
,
0000
0000
0000
0000
,
0000
0000
0000
0000
,
0010
0010
0010
0010
,
0000
0100
0001
1000
,
0000
0010
1000
0001
,
0000
0010
0100
1000
,
0001
0001
1000
1000
,
0001
0100
0010
1000
,
0000
0010
0100
0001
,
0000
1000
0001
0100
,
0010
0010
0010
0010
,
1000
0001
1000
0000
,
0001
0010
0001
0000
,
0100
0001
0100
0000
,
0010
1000
0010
0000
,
1000
0100
0010
0000
,
0001
0010
0100
0000
,
1000
0001
0100
0000
,
0010
0010
0010
0010
,
1000
0001
0001
1000
,
1000
0001
0001
1000
,
1000
0010
0001
0010
,
1000
1000
0001
0001
,
0000
0100
0001
0100
,
0000
0010
1000
0010
,
0000
1000
0001
1000
,
0010
0010
0010
0010
,
0000
0000
0100
0001
,
0000
0000
1000
0010
,
0000
0000
1000
0100
,
0000
0000
0000
0000
,
0020
0000
0031
0000
,
0002
0000
0103
0000
,
0200
0000
1300
0000
,
2000
0000
3010
0000
,
0010
0010
0010
0010
,
1000
0001
0001
1000
,
1000
0001
0001
1000
,
1000
0010
0001
0010
,
1000
1000
0001
0001
,
0000
1000
0100
1000
,
0000
0001
0010
0001
,
0000
0100
0001
0100
,
0010
0010
0010
0010
,
1000
0100
0010
0000
,
0001
0000
1000
0000
,
0001
0010
0100
0000
,
0010
0010
0010
0010
;

//---------------dance-single - ----------------
#NOTES:
     dance-single:
     :
     Medium:
     8:
     0.311889,0.324984,0.108328,0.024999,0.083329,262.000000,249.000000,13.000000,3.000000,0.000000,0.000000,0.311889,0.324984,0.108328,0.024999,0.083329,262.000000,249.000000,13.000000,3.000000,0.000000,0.000000:
0000
0000
0000
0000
,
0000
0000
0000
0000
,
0000
0000
0000
0000
,
0010
0010
0010
0010
,
1000
0000
0100
0000
0100
0000
0000
0000
1000
0000
0010
1000
0000
0000
0000
0000
,
0001
0000
0100
0000
0100
0000
0000
0000
0001
0000
0010
0001
0000
0000
0000
0000
,
1000
0000
0100
0000
0100
0000
0000
0000
1000
0000
0010
1000
0000
0000
0000
0000
,
1000
0100
0010
0001
0100
0000
0010
0000
,
0100
0000
0001
0000
1000
0000
0000
0000
0010
0000
0100
0010
0000
0000
0000
0000
,
0010
0000
1000
0000
0001
0000
0000
0000
0100
0000
0010
0100
0000
0000
0000
0000
,
0001
0000
0010
0000
0100
0000
0000
0000
1000
0000
0001
1000
0000
0000
0000
0000
,
0010
0010
0010
0010
,
1000
0100
0010
0001
0010
0000
0001
0100
,
0010
0000
1000
0100
0010
0000
0100
1000
,
0001
0010
0100
1000
0100
0000
0010
0000
,
0001
0000
1000
0010
0100
0000
0010
0000
,
1000
0001
0100
0010
0100
0000
0010
0100
,
0001
0000
0010
0000
0100
0000
1000
0001
,
1000
0000
0010
1000
0001
0010
0001
1000
,
0010
0010
0010
0010
,
1000
0000
0100
1000
0000
0000
0000
0000
0001
0000
0100
0001
0000
0000
0000
0000
,
1000
0000
0010
1000
0000
0000
0000
0000
0001
0000
0010
0001
0000
0000
0000
0000
,
1000
0000
0001
1000
0000
0000
0000
0000
0100
0000
0010
0100
0000
0000
0010
0000
,
1000
0001
1000
0001
0200
0000
0010
0310
,
0000
0000
0001
0100
0010
1000
0001
0001
,
0000
0000
1000
0010
0100
0001
1000
1000
,
0000
0000
0010
0100
0001
1000
0010
0010
,
0010
0010
0010
0010
,
1100
1100
0000
0000
1001
0000
0000
0000
,
0101
0101
0000
0000
1001
0000
0000
0000
,
0110
0110
0000
0000
1001
0000
0000
0000
,
0020
0000
0000
0030
,
0010
1000
0001
0010
0010
0000
0000
0000
,
0010
0001
1000
0010
0010
0000
0000
0000
,
0100
0001
1000
0100
0100
0000
0000
0000
,
0100
1000
0001
0100
0100
0000
0000
0000
,
0010
0010
0010
0010
,
1000
0000
0010
1000
0000
0000
0000
0000
0001
0000
0010
0001
0000
0000
0000
0000
,
1000
0000
0100
1000
0000
0000
0000
0000
0001
0000
0100
0001
0000
0000
0000
0000
,
1000
0000
0100
0010
0000
0000
0000
0000
0001
0000
0010
0100
0000
0000
0010
0000
,
1000
0001
1000
0010
0200
0000
0010
0310
,
0000
0000
0100
0001
1000
0010
0100
0100
,
0000
0000
0010
1000
0001
0100
0010
0010
,
0000
0000
1000
0100
0010
0001
1000
1000
,
0010
0010
0010
0010
,
0100
0000
0010
0000
1000
0000
0010
0000
0100
0000
0001
0100
0000
0000
0000
0000
,
0101
1001
0000
0000
1100
1001
0000
0000
,
0001
0000
0010
0000
0100
0000
0010
0000
0001
0000
1000
0001
0000
0000
0000
0000
,
0010
0010
0010
0010
;

//---------------dance-double - ----------------
#NOTES:
     dance-double:
     :
     Easy:
     3:
     0.119042,0.162492,0.024999,0.091662,0.000000,100.000000,97.000000,3.000000,11.000000,0.000000,0.000000,0.119042,0.162492,0.024999,0.091662,0.000000,100.000000,97.000000,3.000000,11.000000,0.000000,0.000000:
00000000
00000000
00000000
00000000
,
00000000
00000000
00000000
00000000
,
00000000
00000000
00000000
00000000
,
00100000
00100000
00100000
00100000
,
00100000
00000000
01000000
00000000
,
00001000
00000000
00010000
00000000
,
00000100
00000000
00001000
00000000
,
00000001
00000001
00000001
00000000
,
00000010
00000000
00000100
00000000
,
00010000
00000000
00001000
00000000
,
01000000
00000000
00100000
00000000
,
10000000
10000000
10000000
10000000
,
10000000
00000000
00010000
00000000
,
00100000
00000000
00001000
00000000
,
00010000
00000000
00000010
00000000
,
00000100
00000000
00000100
00000000
,
00000001
00000000
00001000
00000000
,
00000010
00000000
00010000
00000000
,
00001000
00000000
01000000
00000000
,
00001000
00001000
00001000
00001000
,
00002000
00003000
00020000
00030000
,
00000020
00000030
00000200
00000300
,
00000002
00000003
00000020
00000030
,
00000200
00000300
00010000
00010000
,
00010000
00000000
00011000
00000000
,
00000000
00000000
00011000
00000000
,
00000000
00000000
00011000
00000000
,
00001000
00001000
00001000
00001000
,
00001000
00000000
01000000
00000000
,
00000000
00000000
00100000
00000000
,
00000000
00000000
10000000
00000000
,
00010000
00000000
00000000
00000000
,
00200000
00000000
00300000
00000000
,
00002000
00000000
00003000
00000000
,
00020000
00000000
00030000
00000000
,
00000200
00000000
00000300
00000000
,
00000010
00000010
00000010
00000010
,
00000010
00000000
00000001
00000000
,
00001000
00000000
00000100
00000000
,
00010000
00000000
00001000
00000000
,
00100000
00100000
00100000
00000000
,
00000000
01000000
00000000
00000000
,
00000000
10000000
00000000
00000000
,
00000000
00010000
00000000
00000000
,
01000000
01000000
01000000
01000000
,
01000000
00000000
00001000
00000000
,
00010000
00000000
00000100
00000000
,
00001000
00000000
00000010
00000000
,
00000100
00000100
00000100
00000100
;

//---------------dance-double - ----------------
#NOTES:
     dance-double:
     :
     Medium:
     8:
     0.310699,0.304672,0.116661,0.058330,0.062497,261.000000,247.000000,14.000000,7.000000,0.000000,0.000000,0.310699,0.304672,0.116661,0.058330,0.062497,261.000000,247.000000,14.000000,7.000000,0.000000,0.000000:
00000000
00000000
00000000
00000000
,
00000000
00000000
00000000
00000000
,
00000000
00000000
00000000
00000000
,
00100000
00100000
00100000
00100000
,
00010000
10000000
00010000
00000000
01001000
00000000
00000000
00000000
,
00010000
00000100
00010000
00000000
00001010
00000000
00000000
00000000
,
00000001
00001000
00000001
00000000
00010100
00000000
00000000
00000000
,
00010000
00001000
00010000
00001000
00100000
00000000
01000000
00000000
,
10000000
00000000
00100000
00000000
01000000
00000000
00000000
00000000
00010000
00000000
00100000
00010000
00000000
00000000
00000000
00000000
,
01000000
00000000
00001000
00000000
00010000
00000000
00000000
00000000
00000100
00000000
00001000
00000100
00000000
00000000
00000000
00000000
,
00001000
00000000
00000010
00000000
00000100
00000000
00000000
00000000
00000001
00000000
00001000
00000001
00000000
00000000
00000000
00000000
,
00000010
00000010
00000010
00000010
,
00000001
00000100
00000010
00001000
00000100
00000000
00000010
00001000
,
00010000
00000000
00100000
00000000
10000000
00000000
00010000
10000000
,
01000000
00100000
00010000
10000000
00010000
00000000
01000000
00000000
,
00100000
00000000
00010000
00001000
00000010
00000000
00000001
00000000
,
00001000
00000010
00000100
00000001
00001000
00000000
00000100
00000000
,
00000010
00000000
00001000
00010000
01000000
00000000
10000000
00000000
,
00010000
10000000
00100000
01000000
00100000
00000000
00010000
00001000
,
00000010
00000010
00000010
00000010
,
00000001
00000000
00001000
00000001
00000000
00000000
00000000
00000000
00001000
00000000
00000001
00001000
00000000
00000000
00000000
00000000
,
00000010
00000000
00010000
00000010
00000000
00000000
00000000
00000000
00010000
00000000
00000010
00010000
00000000
00000000
00000000
00000000
,
00001000
00000000
00010000
00001000
00000000
00000000
00000000
00000000
00010000
00000000
00001000
00010000
00000000
00000000
00001000
00000000
,
00100000
01000000
00100000
01000000
20000000
00000000
00010000
00020000
,
00000000
30030000
10000000
00010000
01000000
00100000
00010000
00001000
,
00000000
00000000
00000010
00000001
00001000
00000100
00000010
00001000
,
00000000
00000000
00100000
10000000
00010000
01000000
00100000
10000000
,
00100000
00100000
00100000
00100000
,
10010000
01010000
00000000
00000000
00200000
00000000
00300000
00000000
,
00011000
00010100
00000000
00000000
00000020
00000000
00000030
00000000
,
00000101
00001001
00000000
00000000
00000020
00000000
00000030
00000000
,
00011000
00000000
00000000
00000000
,
00100000
00010000
00100000
00010000
01000000
00010000
01000000
00000000
,
00001000
00010000
00001000
00010000
00000100
00010000
00000100
00000000
,
00000010
00000001
00000010
00000001
00001000
00000001
00001000
00000000
,
00000100
00010000
00000100
00010000
00001000
00010000
00001000
00000000
,
00100000
00100000
00100000
00100000
,
10000000
00000000
00010000
10000000
00000000
00000000
00000000
00000000
00010000
00000000
10000000
00010000
00000000
00000000
00000000
00000000
,
01000000
00000000
00001000
01000000
00000000
00000000
00000000
00000000
00001000
00000000
01000000
00001000
00000000
00000000
00000000
00000000
,
00010000
00000000
00001000
00010000
00000000
00000000
00000000
00000000
00001000
00000000
00010000
00001000
00000000
00000000
00010000
00000000
,
00000100
00000010
00000100
00000010
00000002
00000000
00001000
00002000
,
00000000
00003003
00000100
00000010
00001000
00000001
00000010
00001000
,
00000000
00000000
00010000
00001000
00100000
01000000
00010000
00001000
,
00000000
00000000
00000100
00000001
00001000
00000010
00000100
00000001
,
00000010
00000010
00000010
00000010
,
00000001
00001000
00000010
00000100
00000010
00010000
00000000
00000000
,
00011000
01001000
00000000
00000000
01100000
10100000
00000000
00000000
,
10000000
00010000
01000000
00100000
01000000
00010000
00000000
00000000
,
00100000
00100000
00100000
00100000
;

//---------------dance-double - ----------------
#NOTES:
     dance-double:
     :
     Hard:
     12:
     0.482119,0.589033,0.183324,0.033332,0.479143,405.000000,383.000000,22.000000,4.000000,0.000000,0.000000,0.482119,0.589033,0.183324,0.033332,0.479143,405.000000,383.000000,22.000000,4.000000,0.000000,0.000000:
00000000
00000000
00000000
00000000
,
00000000
00000000
00000000
00000000
,
00000000
00000000
00000000
00000000
,
00100000
00000000
00000000
10000000
00100000
00000000
00000000
00010000
00100000
00000000
00000000
10000000
00100000
00000000
00000000
00000000
,
10000000
00000000
01000000
00000000
01000000
00000000
00000000
00000000
00010000
00000000
00100000
00010000
00000000
00000000
00000000
00000000
,
01000000
00000000
00100000
00000000
00010000
00000000
00000000
00000000
00001000
00000000
00000100
00000001
00000000
00000000
00000000
00000000
,
00000010
00000000
00000001
00000000
00000001
00000000
00000000
00000000
00001000
00000000
00000100
00001000
00000000
00000000
00000010
00000000
,
00001000
00000001
00001000
00000001
00001001
00000000
00000110
00000000
,
00000001
00000000
00000100
00000000
00000100
00000000
00000000
00000000
00001000
00000000
00000010
00001000
00000000
00000000
00000000
00000000
,
00000010
00000000
00000100
00000000
00001000
00000000
00000000
00000000
00010000
00000000
01000000
10000000
00000000
00000000
00000000
00000000
,
00100000
00000000
10000000
00000000
10000000
00000000
00000000
00000000
00010000
00000000
01000000
00010000
00000000
00000000
00000000
10000000
,
00100000
00000000
00000000
00010000
00100000
00000000
00000000
10000000
00100000
00000000
00000000
00010000
00100000
00000000
10000000
00000000
,
00010000
01000000
00100000
01000000
00010000
00100000
00001000
00010000
00001000
00000000
00000000
00000000
00010000
00000010
00010000
00000010
,
00010000
00000000
00000010
00000100
00000001
00000100
00000010
00001000
00000100
00000000
00001000
00000010
00000100
00000010
00001000
00000100
,
00010000
00001000
00100000
00010000
00100000
00010000
00100000
00000000
10010000
00000000
00000000
10000000
00100000
00000000
00000000
01000000
,
00001000
00000000
00100000
01000000
00100000
01000000
00100000
00000000
00101000
00000000
00000000
00001000
00010000
00000000
00001000
00010000
,
00000000
00000010
00001000
00000100
00001000
00000010
00000100
00000001
00000100
00000000
00000000
00000000
00000001
00001000
00000000
00000001
,
00001000
00000000
00000000
00000000
00000000
00000000
00000001
00000000
00000000
00000100
00000000
00000000
00001000
00000000
00000000
00000000
00010000
00000000
00000000
00000000
01000000
00000000
00000000
00000000
10000000
00000000
00000000
00000000
00000000
00000000
00000000
00000000
00000000
01000000
00000000
00000000
00010000
00000000
00000000
00000000
00000000
00000000
00001000
00000000
00000000
00000000
00000000
00000000
,
00000100
00000001
00000100
00000001
00001000
00000001
00001000
00000001
00000100
00000000
00000010
00001000
00000100
00001000
00000001
00001000
,
00000010
00000000
00000000
00000001
00000010
00000000
00000000
00001000
00000010
00000000
00000000
00000001
00000010
00000000
00001000
00000000
,
00000001
00000000
00000010
00000001
00000000
00000000
00000100
00000000
00001000
00000000
00010000
01000000
00000000
00000000
10000000
00000000
,
00100000
00000000
10000000
00100000
00000000
00000000
00010000
00000000
00001000
00000000
00000010
00000001
00000000
00000000
00000010
00000000
,
00000001
00000000
00000100
00000001
00000000
00000000
00000100
00000000
00001000
00000000
00010000
01000000
00000000
00000000
10000000
00000000
,
00010000
01000000
00100000
01000000
01020000
00000000
10000000
20000000
,
00000000
00000000
30030000
01000000
00100000
10000000
00010000
01000000
00100000
00000000
00010000
00000000
00001000
00000000
00001010
00000000
,
00000000
00000000
00000000
00000010
00000100
00000001
00001000
00000010
00000100
00000000
00001000
00000000
00010000
00000000
01010000
00000000
,
00000000
00000000
00000000
01000000
00100000
10000000
00010000
01000000
00100000
00000000
00010000
00000000
00001000
00000000
00000010
00000001
,
00000010
00000000
00000000
00001000
00000010
00000000
00000000
00000001
00000010
00000000
00000000
00001000
00000010
00000000
00000000
00000000
,
00000101
00000000
00001001
00000000
00000000
00000000
00000000
00000010
00001000
00000000
00001000
00000100
00000000
00000000
00000000
00000000
,
00001100
00000000
00010100
00000000
00000000
00000000
00010000
00000000
00001000
00000000
00010000
00001000
00000000
00000000
00000000
00000000
,
00011000
00000000
01001000
00000000
00000000
00000000
00000000
01000000
00100000
00000000
00100000
01000000
00000000
00000000
00010000
00000000
,
10010000
00000000
10000000
00000000
01000000
00000000
00010000
00000000
00001000
00000000
00000100
00000001
00000000
00000000
00001000
00000000
,
00000001
00000010
00000001
00001000
00000001
00000010
00001000
00000000
,
00010000
00100000
10000000
00010000
10000000
00100000
10000000
00000000
,
00100000
01000000
00100000
10000000
00100000
00010000
00001000
00000000
,
00000010
00000000
00000001
00000000
00000010
00000000
00000100
00000000
00000010
00000000
00001000
00000000
00000010
00000000
00000000
00000001
,
00000010
00000000
00000000
00001000
00000010
00000000
00000000
00000001
00000010
00000000
00000000
00001000
00000010
00000000
00000001
00000000
,
00000100
00000000
00000001
00000010
00000000
00000000
00001000
00000000
00010000
00000000
00100000
10000000
00000000
00000000
00100000
00000000
,
10000000
00000000
01000000
10000000
00000000
00000000
01000000
00000000
00010000
00000000
00001000
00000100
00000000
00000000
00000001
00000000
,
00000100
00000000
00000001
00000100
00000000
00000000
00000001
00000000
00000010
00000000
00001000
00010000
00000000
00000000
00100000
00000000
,
10000000
00010000
10000000
00010000
02010000
00000000
00100000
00200000
,
00000000
00000000
03300000
00100000
10000000
00010000
01000000
00100000
10000000
00000000
00100000
00000000
00010000
00000000
00011000
00000000
,
00000000
00000000
00000000
00000010
00000001
00001000
00000100
00000010
00000001
00000000
00000100
00000000
00001000
00000000
00011000
00000000
,
00000000
00000000
00000000
00100000
10000000
00010000
01000000
00100000
10000000
00000000
01000000
00000000
00100000
00000000
01000000
10000000
,
00100000
00000000
00000000
00010000
00100000
00000000
00000000
10000000
00100000
00000000
00000000
00010000
00100000
00000000
10000000
00000000
,
11000000
00000000
00100000
00001000
00010000
00001000
00010000
00000100
00000010
00000000
00000010
00000001
00000000
00000000
00000100
00000000
,
00000101
00001001
00000000
00000000
00001100
00001001
00000000
00000000
,
00000001
00000100
00000010
00010000
00001000
00010000
00001000
01000000
00100000
00000000
00100000
10000000
00000000
00000000
00000000
00010000
,
00100000
00000000
00000000
10000000
00100000
00000000
00000000
00010000
00100000
00000000
00000000
10000000
00100000
00000000
00000000
00000000
;
