#TITLE:Say It Right;
#SUBTITLE:(Sanxion7 Remix);
#ARTIST:Nelly Furtado;
#TITLETRANSLIT:;
#SUBTITLETRANSLIT:;
#ARTISTTRANSLIT:;
#GENRE:Trance;
#CREDIT:;
#BANNER:sayitrightsanxion7remix-bn.png;
#BACKGROUND:sayitrightsanxion7remix-bg.png;
#LYRICSPATH:;
#CDTITLE:;
#MUSIC:Say It Right (Sanxion7 Remix).mp3;
#OFFSET:-0.040000;
#SAMPLESTART:35.099998;
#SAMPLELENGTH:12.000000;
#SELECTABLE:YES;
#BPMS:0.000000=135.000000
;
#STOPS:
;
#BGCHANGES:;
#KEYSOUNDS:;
#ATTACKS:;

//---------------dance-single - ----------------
#NOTES:
     dance-single:
     :
     Hard:
     13:
     0.603742,0.590201,0.208000,0.170182,0.619274,447.000000,425.000000,22.000000,18.000000,0.000000,0.000000,0.603742,0.590201,0.208000,0.170182,0.619274,447.000000,425.000000,22.000000,18.000000,0.000000,0.000000:
0000
0000
0000
0000
,
0000
0000
0000
0000
,
0000
0000
0000
0000
,
0000
0000
0000
0000
0000
0000
0000
0000
0000
0000
0010
0100
0010
0100
0010
0100
,
1000
0100
0010
0002
0000
0013
0001
1000
,
0010
0100
0001
0200
0000
0310
0001
0010
,
1000
0001
0100
0020
0000
0031
0010
0001
,
0010
1000
0100
0020
0000
0130
1000
0100
,
0010
0001
1000
0002
0000
0103
0010
0100
,
0001
0010
1000
0020
0000
0130
0001
0100
,
1000
0010
0001
0020
0000
0130
1000
0100
,
0001
0010
1000
0020
0000
0031
1000
0001
,
1001
1000
0100
0020
0000
0031
0100
0001
,
0101
0100
0010
2000
0000
3100
0010
0100
,
1100
1000
0001
0020
0000
0031
1000
0001
,
1001
1000
0010
0200
0000
0310
1000
0010
,
1010
1000
0100
0002
0000
0103
1000
0100
,
1100
1000
0010
0002
0000
0013
1000
0010
,
0110
0100
0001
0200
0000
0301
1000
0001
,
0010
0000
0100
0000
0010
0000
0200
0000
0000
0000
0300
0000
1000
0001
1000
0001
,
1000
0000
0100
0000
0110
0000
0000
0000
0001
0000
0100
0000
0110
0000
0000
0010
,
1000
0000
0001
0000
0100
0000
0010
1000
0000
0000
1000
0001
0000
0000
0001
0000
,
0000
0000
0100
0000
0001
0100
0000
0010
0000
0000
0100
0000
0010
1000
0000
0100
,
0000
0000
1000
0000
0100
1000
0000
0100
0010
0000
0001
0000
1000
0000
0001
0000
,
0100
0000
0001
0000
0011
0000
0000
0000
0100
0000
1000
0000
1010
0000
0000
0010
,
0100
0000
0001
0000
1000
0000
0100
0010
0000
0000
0010
0001
0000
0000
0001
0000
,
0000
0000
1000
0000
0100
0010
0000
0001
0000
0000
0010
0000
0100
1000
0000
0010
,
0000
0000
0001
0000
0010
1000
0000
0010
0100
0000
0001
0000
0100
0000
0010
0000
,
1000
0000
0001
0000
1001
0000
0000
0000
0010
0000
1000
0000
1001
0000
0000
1000
,
0100
0010
0100
1000
0001
0010
0001
1000
,
0000
0000
0010
0000
1000
0001
0000
0100
0000
0000
0100
0000
0001
1000
0000
0010
,
0000
0000
0100
0000
0001
0010
0000
0001
1000
0000
0100
0000
0010
0000
0100
0000
,
1100
0000
0110
0000
0011
0000
1000
0001
,
1001
0000
0000
0001
0100
0000
0010
0000
1000
0000
0001
0000
1000
0000
0010
0000
,
0000
0000
0100
0000
0001
0010
0000
0100
0000
0000
0010
0000
0001
1000
0000
0100
,
0000
0000
0010
0000
0100
1000
0000
0001
0100
0000
0010
0000
1000
0001
1000
0001
,
1000
0000
0010
0000
0100
0001
0000
0100
0000
0010
1000
0000
0100
0010
0000
0100
,
0000
1000
0001
0000
0100
1000
0000
0100
0000
0001
1000
0000
0010
0100
0000
0010
,
0000
0000
1000
0000
0001
0010
0000
0100
0000
0010
0001
0000
1000
0100
0000
0010
,
0000
0100
1000
0000
0001
0010
0000
1000
0000
0010
0001
0000
0000
1000
0001
1000
,
0001
0000
0100
0000
0010
0100
0000
0001
0000
0010
0001
0000
0100
0010
0000
1000
,
0000
0100
1000
0000
0001
0100
0000
0010
0000
0100
0001
0000
1000
0001
0000
0010
,
0000
0000
0010
0000
0001
1000
0000
0010
0000
1000
0001
0000
1000
0001
0000
0100
,
0000
0001
1000
0000
0001
0010
0000
1000
0000
0010
0001
0000
0000
1000
0100
0010
,
0001
0000
0100
0000
0010
1000
0000
0100
0000
1000
0100
0000
0010
0100
0000
1000
,
0000
0100
0010
0000
0001
1000
0000
0100
0000
0010
0100
0000
0010
0001
0000
0100
,
0000
0000
1000
0000
0100
0001
0000
1000
0000
0010
0001
0000
0010
1000
0000
0001
,
0000
1000
0010
0000
0100
1000
0000
0100
0000
0001
1000
0000
0000
0100
0010
0100
,
0010
0000
1000
0000
0001
0100
0000
0010
0000
1000
0010
0000
0100
0001
0000
1000
,
0000
0001
0010
0000
0001
1000
0000
0100
0000
0010
0100
0000
0010
0001
0000
1000
,
0000
0000
0100
0000
0001
0100
0000
1000
0000
0001
1000
0000
0010
0001
0000
0010
,
0000
1000
0001
0000
0010
0100
0000
1000
0000
0001
0100
0000
0010
0100
0010
0100
,
0010
0000
1000
0100
0000
0000
0100
0000
1000
0000
0000
0000
0101
0000
0000
0000
,
0010
0000
0001
0010
0000
0000
1000
0000
0001
0000
0000
0000
1100
0000
0000
0000
,
0010
0000
0100
1000
0000
0000
0001
0000
0100
0000
0000
0000
0011
0000
0000
0000
,
1000
0000
0001
0100
0000
0000
0001
0000
0010
0000
0000
0000
1100
0000
0000
0000
,
0220
0000
0000
0330
;

//---------------dance-single - ----------------
#NOTES:
     dance-single:
     :
     Medium:
     9:
     0.410598,0.375583,0.255273,0.151273,0.000000,304.000000,277.000000,27.000000,16.000000,0.000000,0.000000,0.410598,0.375583,0.255273,0.151273,0.000000,304.000000,277.000000,27.000000,16.000000,0.000000,0.000000:
0000
0000
0000
0000
,
0000
0000
0000
0000
,
0000
0000
0000
0000
,
0000
0000
0000
0000
0000
0010
0100
0010
,
0000
1000
0100
1000
0000
0010
0100
0010
,
0000
0100
0001
0100
0000
0001
0010
0001
,
0000
0001
0100
0001
0000
1000
0010
1000
,
0000
1000
0100
1000
0000
0001
1000
0001
,
1000
0010
0100
0010
0000
1000
0001
1000
,
0000
0100
0010
0100
0000
1000
0010
0100
,
0000
0100
0001
0100
0000
0001
0010
0100
,
0000
0100
1000
0100
0000
1000
0100
0010
,
0000
1000
0100
1000
0000
0001
0010
0100
,
1000
0001
0100
0001
0000
0100
0001
0010
,
0000
0001
1000
0001
0000
0100
0010
1000
,
0000
0010
0100
0010
0000
0100
0001
1000
,
0000
0010
1000
0010
0000
1000
0100
0010
,
0001
1000
0100
1000
0000
0010
1000
0001
,
0000
0100
0001
0100
0000
0010
0100
1000
,
0000
0100
0010
0001
0000
0000
1000
0000
,
1100
0101
1100
0001
,
0100
0010
1000
0002
0000
0203
0000
2300
,
0000
3000
0100
0000
0001
0000
1000
0000
,
0010
0000
1000
0000
0100
0010
0001
0000
,
0101
1100
0101
1000
,
0010
0100
0001
2000
0000
3200
0000
0302
,
0000
0003
0100
0000
1000
0000
0010
0000
,
0100
0000
0001
0000
0010
0100
1000
0000
,
1010
0011
1010
0001
,
1001
0000
0200
0020
0000
0330
2000
0002
,
0000
3003
0100
0000
0001
0000
1000
0000
,
0010
0000
1000
0000
0100
0010
0001
0000
,
0011
1010
0011
1000
,
1001
0000
0002
0020
0000
0033
0200
2000
,
0000
3300
1000
0000
0010
0000
0100
0001
,
0100
0000
0001
0000
0010
0000
0100
1000
,
0001
0101
1000
1100
,
0010
0000
1000
0000
0010
0100
1000
0001
,
0010
0011
1000
1100
,
0010
0000
0100
0000
0001
1000
0000
0100
,
0010
0110
1000
1010
,
0001
0000
1000
0000
0100
0010
0001
1000
,
0010
1010
0001
0011
,
0100
0000
1000
0000
0010
1000
0000
0001
,
0100
0010
0100
0000
0001
0010
0001
0000
,
1000
0000
0100
0000
0010
0100
1000
0001
,
0010
0001
0010
0000
0100
1000
0100
0000
,
1000
0000
0001
0000
0100
0001
0000
1000
,
0010
1000
0010
0000
0100
0001
0100
0000
,
0001
0000
1000
0000
0001
0100
0010
1000
,
0001
0100
0001
0000
1000
0100
1000
0000
,
0010
0000
0100
0000
0001
1000
0001
1000
,
0001
0010
0100
0000
1000
0000
1100
0000
,
1000
0100
0010
0000
0001
0000
0011
0000
,
0001
0100
1000
0000
0001
0000
1001
0000
,
1000
0100
0001
0000
1000
0000
1001
0000
,
0220
0000
0000
0330
;

//---------------dance-single - ----------------
#NOTES:
     dance-single:
     :
     Easy:
     6:
     0.295793,0.321928,0.170182,0.132364,0.000000,219.000000,201.000000,18.000000,14.000000,0.000000,0.000000,0.295793,0.321928,0.170182,0.132364,0.000000,219.000000,201.000000,18.000000,14.000000,0.000000,0.000000:
0000
0000
0000
0000
,
0000
0000
0000
0000
,
0000
0000
0000
0000
,
0000
0000
0000
0000
,
1000
0100
0010
0000
,
1000
0100
0001
0000
,
1000
0010
0100
0000
,
1000
0010
0001
0000
,
0001
0100
0010
0000
,
0001
0010
1000
0000
,
0001
0010
0100
0000
,
0001
0100
1000
0000
,
1001
1000
0010
0000
,
0001
0010
1000
0000
,
0100
0010
1000
0000
,
0010
0001
0100
0000
,
0110
0001
0100
0000
,
1000
0100
0001
0000
,
0010
0100
0001
0000
,
0100
1000
0010
0110
,
0100
0001
0100
0010
,
0100
0000
1000
0200
0000
0320
0000
2030
,
0000
3000
0001
0000
0101
0000
0010
0000
,
1000
0100
1100
0010
,
0001
0100
0001
1000
,
0001
0000
0010
0200
0000
2300
0000
3002
,
0000
0003
0100
0000
0101
0000
0010
0000
,
1000
0010
1010
0100
,
0010
0001
0010
0100
,
0010
0000
1000
0002
0000
0203
0000
0320
,
0000
0030
1000
0000
1010
0000
0100
0000
,
0110
0001
1000
0001
,
1000
0100
1000
0010
,
1000
0000
0100
0020
0000
0032
0000
2003
,
0000
3000
0001
0000
0101
0000
0010
0000
,
0110
0000
1000
0000
0001
0000
1000
0010
,
1000
0100
0100
0010
,
0100
1000
0001
1001
,
0001
0100
0100
0010
,
0100
0000
0001
0000
1000
0000
0010
0100
,
0010
1000
1000
0010
,
0100
0001
0010
0110
,
1000
0001
0001
0100
,
0001
0000
0010
0000
0100
0000
1000
0010
,
1000
0100
1000
0010
,
0100
0000
0001
0000
0100
0000
0010
1000
,
0001
0100
0001
0010
,
0100
0000
1000
0000
0100
0000
0010
0001
,
1000
0100
0010
0001
,
0010
0100
1000
0110
,
0001
0010
0100
1000
,
0100
0000
0010
0000
0001
0000
1000
0001
,
1000
0100
1100
0001
,
0001
0010
0011
0100
,
0100
0010
0110
0001
,
0001
0000
1000
0001
1000
0000
0010
0000
,
0220
0000
0000
0330
;

//---------------dance-single - ----------------
#NOTES:
     dance-single:
     :
     Beginner:
     3:
     0.145870,0.211782,0.018909,0.000000,0.000000,108.000000,106.000000,2.000000,0.000000,0.000000,0.000000,0.145870,0.211782,0.018909,0.000000,0.000000,108.000000,106.000000,2.000000,0.000000,0.000000,0.000000:
// measure 0
0000
0000
0000
0000
,  // measure 1
0000
0000
0000
0000
,  // measure 2
0000
0000
0000
0000
,  // measure 3
0000
0000
0000
0100
,  // measure 4
0100
0000
0000
0001
,  // measure 5
0001
0000
0000
0010
,  // measure 6
0010
0000
0000
1000
,  // measure 7
1000
0000
0000
0001
,  // measure 8
0001
0000
0000
0010
,  // measure 9
0010
0000
0000
1000
,  // measure 10
1000
0000
0000
0100
,  // measure 11
0100
0000
0000
1000
,  // measure 12
1000
0000
0000
0010
,  // measure 13
0010
0000
0000
0100
,  // measure 14
0100
0000
0000
0001
,  // measure 15
0001
0000
0000
0010
,  // measure 16
0010
0000
0000
0100
,  // measure 17
0100
0000
0000
1000
,  // measure 18
1000
0000
0000
0001
,  // measure 19
0001
0000
0000
0010
,  // measure 20
0010
0010
0010
0000
,  // measure 21
0100
0100
0100
0000
,  // measure 22
0010
0000
0000
0000
,  // measure 23
0000
0000
0000
0001
,  // measure 24
0001
0001
0001
0000
,  // measure 25
1000
1000
1000
0000
,  // measure 26
0001
0000
0000
0000
,  // measure 27
0000
0000
0000
0000
,  // measure 28
0100
0000
0001
0000
,  // measure 29
0100
0000
0001
0000
,  // measure 30
0100
0000
0000
0000
,  // measure 31
0000
0000
0000
0000
,  // measure 32
0010
0010
0010
0000
,  // measure 33
1000
0000
0010
0000
,  // measure 34
1000
0000
0000
0000
,  // measure 35
1001
0000
0000
0010
,  // measure 36
0010
0000
0100
0000
,  // measure 37
0010
0000
0100
0000
,  // measure 38
1000
0000
0010
0000
,  // measure 39
1000
0000
0010
0000
,  // measure 40
0100
0000
0001
0000
,  // measure 41
0100
0000
0001
0000
,  // measure 42
0001
0000
1000
0000
,  // measure 43
0001
0000
1000
0000
,  // measure 44
0010
0000
0100
0000
,  // measure 45
0001
0000
0100
0000
,  // measure 46
0010
0000
1000
0000
,  // measure 47
0100
0000
1000
0000
,  // measure 48
0001
0000
0010
0000
,  // measure 49
0001
0000
0100
0000
,  // measure 50
1000
0000
0010
0000
,  // measure 51
1000
0000
0100
0000
,  // measure 52
1000
1000
1000
0000
,  // measure 53
0001
0001
0001
0000
,  // measure 54
0100
0100
0100
0000
,  // measure 55
0010
0010
0010
0000
,  // measure 56
0110
0000
0000
0000
;

//---------------dance-double - ----------------
#NOTES:
     dance-double:
     :
     Easy:
     5:
     0.267429,0.291201,0.037818,0.226910,0.000000,198.000000,194.000000,4.000000,24.000000,0.000000,0.000000,0.267429,0.291201,0.037818,0.226910,0.000000,198.000000,194.000000,4.000000,24.000000,0.000000,0.000000:
00000000
00000000
00000000
00000000
,
00000000
00000000
00000000
00000000
,
00000000
00000000
00000000
00000000
,
00000000
00000000
00000000
00100000
,
01000000
00100000
00000000
00010000
,
00001000
00010000
00000000
00000100
,
00000010
00000100
00000000
00001000
,
00000001
00001000
00000000
00000100
,
00000010
00010000
00000000
00001000
,
01000000
00100000
00000000
00010000
,
00001000
00000010
00000000
00001000
,
00010000
00100000
00000000
10000000
,
01000000
00010000
00000000
00001000
,
00000010
00000001
00000000
00000100
,
00001000
00010000
00000000
01000000
,
00010000
00001000
00000000
00000010
,
00000100
00010000
00000000
00001000
,
01000000
00100000
00000000
00010000
,
00001000
00000100
00000000
00000001
,
00000010
00001000
00010000
00011000
,
02000000
03200000
02300000
03200000
,
10300000
02000000
00000000
03020000
00000000
00032000
00000000
00003200
,
00000000
00000300
00000001
00000000
00001000
00000000
00001000
00000000
,
00000001
00000100
00000010
00000000
,
00000020
00000230
00000320
00000230
,
00000301
00000200
00000000
00002300
00000000
00023000
00000000
02030000
,
00000000
03000000
10000000
00000000
00100000
00000000
00100000
00000000
,
10000000
00010000
01000000
00000000
,
00020000
20030000
30020000
20030000
,
30100000
00000000
01000000
00001000
00000000
00000000
00001000
00010000
,
00000000
00000010
00000100
00000100
,
00000010
00001000
00000001
00000000
,
00002000
00003020
00002030
00003020
,
00000130
00000000
00000010
00010000
00000000
00000000
00010000
00001000
,
00000000
01000000
00010000
00010000
,
01000000
00100000
10000000
00010000
,
10000000
00100000
10000000
00100000
,
00010000
00001000
00000010
00000001
,
00000100
00001000
00000100
00001000
,
00010000
00100000
10000000
00010000
,
01000000
00100000
01000000
00100000
,
00010000
00001000
00000010
00000001
,
00001000
00000001
00001000
00000001
,
00000100
00001000
00010000
00100000
,
10000000
00010000
00010000
10000000
,
01000000
00000000
00100000
00000000
00001000
00000000
00010000
00001000
,
00010000
00000010
00000010
00010000
,
00000100
00000000
00010000
00000000
00001000
00000000
01000000
00100000
,
01000000
00100000
00100000
01000000
,
00001000
00000000
00010000
00000000
00000010
00000000
00000100
00000010
,
00000100
00000001
00000001
00000100
,
00001000
00000000
00010000
00000000
00100000
00000000
10000000
00010000
,
10000000
01000000
11000000
00000000
,
00010000
00100000
00101000
00000000
,
00001000
00010000
00010100
00000000
,
00000010
00000000
00000001
00000000
00000100
00000000
00000010
00010000
,
00000010
00000000
00000000
00000000
;

//---------------dance-double - ----------------
#NOTES:
     dance-double:
     :
     Hard:
     13:
     0.557819,0.582401,0.094546,0.283637,0.581456,413.000000,403.000000,10.000000,30.000000,0.000000,0.000000,0.557819,0.582401,0.094546,0.283637,0.581456,413.000000,403.000000,10.000000,30.000000,0.000000,0.000000:
00000000
00000000
00000000
00000000
,
00000000
00000000
00000000
00000000
,
00000000
00000000
00000000
00000000
,
00000000
00000000
00000000
00000000
00000000
00010000
00100000
00010000
,
10000000
01000000
00020000
00002000
00033000
00010000
00000010
00010000
,
00000100
00000010
00002000
00020000
00033000
00010000
01000000
00010000
,
00001000
00000100
00000020
00002000
00003030
00000001
00000010
00000001
,
00000100
00001000
00020000
00200000
00330000
10000000
00010000
10000000
,
00100000
00010000
00002000
00000200
00003300
00000001
00001000
00000001
,
00000010
00001000
00020000
02000000
03030000
00100000
00010000
01000000
,
00100000
00010000
00002000
00000200
00003300
00001000
00000100
00000010
,
00010000
00001000
00010000
00011000
00000000
00100000
00010000
00100000
,
01000000
10000000
00200000
00020000
00330000
00001000
00000100
00001000
,
00010000
00000010
00000200
00002000
00003300
00010000
00000010
00010000
,
00000100
00000010
00002000
00020000
00033000
00100000
10000000
00100000
,
01000000
00010000
20000000
00200000
30300000
00010000
00001000
00000100
,
00000001
00000010
00002000
00020000
00033000
00010000
01000000
10000000
,
00100000
00010000
00002000
00000200
00003300
00010000
00000100
00000010
,
00001000
00010000
00200000
20000000
30300000
00010000
00100000
01000000
,
00010000
00000000
00001000
00000000
00000200
00000000
00000002
00000000
00000303
00000000
00000000
00000000
00001000
00000001
00001000
00000001
,
00001000
00000000
00000000
00001000
00000010
00000000
00000000
00000010
00000100
00000000
00000000
00000100
00001000
00000000
00000000
00001000
,
00010000
01000000
00010000
01000000
00000000
11000000
00000000
10010000
,
00000000
00000000
10000000
00000000
01000000
00000000
00000000
00010000
00000000
00000000
10000000
00000000
01000000
00000000
00000000
00100000
,
00000000
00000000
10000000
00000000
01000000
00000000
00000000
00010000
00000000
00000000
10000000
00000000
00010000
00000000
00000000
00000000
,
10000000
00000000
00000000
10000000
00100000
00000000
00000000
00100000
01000000
00000000
00000000
01000000
00100000
00000000
00000000
00100000
,
00010000
00001000
00010000
00001000
00000000
00011000
00000000
00010100
,
00000000
00000000
00000010
00000000
00000001
00000000
00000000
00000100
00000000
00000000
00000010
00000000
00000001
00000000
00000000
00001000
,
00000000
00000000
00000010
00000000
00000001
00000000
00000000
00000100
00000000
00000000
00000010
00000000
00001000
00000000
00000000
00000000
,
00001000
00000000
00000000
00001000
00000100
00000000
00000000
00000100
00000010
00000000
00000000
00000010
00001000
00000000
00000000
00001000
,
00010000
00000000
01000000
10000000
00000000
00010000
10000000
00010000
,
00000000
00000000
01000000
00000000
00100000
00000000
00000000
00010000
00000000
00000000
01000000
00000000
00100000
00000000
00000000
10000000
,
00000000
00000000
01000000
00000000
00100000
00000000
00000000
00010000
00000000
00000000
00001000
00000000
00000100
00000000
00000001
00000000
,
00001000
00000000
00000000
00001000
00000001
00000000
00000000
00000001
00000100
00000000
00000000
00000100
00001000
00000000
00000000
00001000
,
00010000
00000000
01000000
10000000
00000000
00100000
00010000
00001000
,
00000000
00000000
00000100
00000000
00000001
00000000
00000000
00001000
00000000
00000000
00000100
00000000
00000001
00000000
00000000
00000010
,
00000000
00000000
00000100
00000000
00000001
00000000
00000000
00001000
00000000
00000000
00000010
00000000
00000100
00010000
00000100
00010000
,
00000100
00000000
00001000
00000000
00000100
00000010
00000000
00000100
00000000
00000001
00000100
00000000
00000010
00000100
00000000
00000010
,
00000000
00000001
00000010
00000000
00010000
00001000
00000000
00100000
00000000
00001000
00010000
00000000
00100000
10000000
00000000
10000000
,
00000000
00000000
00010000
00000000
01000000
00100000
00000000
01000000
00000000
10000000
01000000
00000000
00100000
10000000
00000000
00100000
,
00000000
01000000
00100000
00000000
00010000
00001000
00000000
01000000
00000000
00001000
00010000
00000000
00000000
00000010
00000100
00000010
,
00000100
00000000
00000001
00000000
00001000
00000100
00000000
00000010
00000000
00000100
00001000
00000000
00000010
00000100
00000000
00001000
,
00000000
00000100
00000010
00000000
00010000
00001000
00000000
00000100
00000000
00001000
00010000
00000000
00100000
10000000
00000000
10000000
,
00000000
00000000
10000000
00000000
00010000
00100000
00000000
01000000
00000000
00100000
00010000
00000000
01000000
00100000
00000000
00010000
,
00000000
00100000
01000000
00000000
00001000
00010000
00000000
00100000
00000000
00010000
00001000
00000000
00000000
01000000
00100000
01000000
,
00100000
00000000
10000000
00000000
01000000
00010000
00000000
00010000
00000000
00001000
00000100
00000000
00000001
00001000
00000000
00001000
,
00000000
00000010
00001000
00000000
00000100
00000010
00000000
00000010
00000000
00001000
00010000
00000000
00001000
00000010
00000000
00000100
,
00000000
00000000
00010000
00000000
00100000
10000000
00000000
10000000
00000000
00010000
01000000
00000000
00100000
00010000
00000000
00010000
,
00000000
00100000
01000000
00000000
00010000
00001000
00000000
00001000
00000000
00000100
00000010
00000000
00000000
00000001
00001000
00000001
,
00001000
00000000
00000010
00000000
00000100
00001000
00000000
00000010
00000000
00000100
00001000
00000000
00010000
01000000
00000000
10000000
,
00000000
00010000
01000000
00000000
10000000
00100000
00000000
01000000
00000000
00100000
10000000
00000000
01000000
00100000
00000000
01000000
,
00000000
00000000
10000000
00000000
01000000
00010000
00000000
00001000
00000000
01000000
00010000
00000000
00001000
00000100
00000000
00000001
,
00000000
00000000
00001000
00000000
00000001
00000010
00000000
00000100
00000000
00001000
00000001
00000000
00000100
00000010
00000100
00000010
,
00000100
00000000
00001000
00010000
00000000
00000000
01000000
00000000
10000000
00000000
00000000
00000000
01010000
00000000
00000000
00000000
,
00100000
00000000
00010000
00001000
00000000
00000000
00000100
00000000
00000001
00000000
00000000
00000000
00001100
00000000
00000000
00000000
,
00000010
00000000
00000100
00001000
00000100
00000000
00001000
00000000
01000000
00000000
00000000
00000000
10010000
00000000
00000000
00000000
,
01000000
00000000
00100000
00010000
00100000
00000000
00001000
00000000
00000100
00000000
00000000
00000000
00001001
00000000
00000000
00000000
,
00010010
00000000
00000000
00000000
;

//---------------dance-double - ----------------
#NOTES:
     dance-double:
     :
     Medium:
     9:
     0.352520,0.402410,0.066182,0.170182,0.000000,261.000000,254.000000,7.000000,18.000000,0.000000,0.000000,0.352520,0.402410,0.066182,0.170182,0.000000,261.000000,254.000000,7.000000,18.000000,0.000000,0.000000:
00000000
00000000
00000000
00000000
,
00000000
00000000
00000000
00000000
,
00000000
00000000
00000000
00000000
,
00000000
00000000
00000000
00000000
00000000
00100000
01000000
00100000
,
10000000
01000000
00000000
00010000
00000000
00001000
00010000
00001000
,
00000010
00000100
00000000
00001000
00000000
00000001
00001000
00000001
,
00000100
00001000
00000000
00010000
00000000
01000000
10000000
01000000
,
00100000
10000000
00000000
00010000
00000000
01000000
00100000
01000000
,
00010000
00100000
00000000
00001000
00000000
00010000
00001000
00010000
,
00000010
00000100
00000000
00000010
00000000
00000100
00001000
00000100
,
00000001
00001000
00000000
00000010
00000000
00000100
00001000
00000100
,
00001000
00010000
00000000
01000000
00000000
10000000
00100000
10000000
,
00010000
00100000
00000000
01000000
00000000
00010000
00001000
00010000
,
00000100
00000010
00000000
00000001
00000000
00000100
00000010
00000100
,
00001000
00010000
00000000
01000000
00000000
10000000
00010000
10000000
,
00100000
00010000
00000000
00001000
00000000
00000010
00000001
00000010
,
00000001
00000100
00000000
00001000
00000000
00010000
01000000
00010000
,
00001000
00100000
00000000
01000000
00000000
10000000
01000000
10000000
,
00100000
00010000
00000000
00001000
00000000
00010000
00000010
00010000
,
00000100
00000010
00000000
00000001
00000000
00000000
00002001
00000000
,
00003010
00000010
00000100
00000100
,
00001000
00000000
00010000
02000000
00000000
23000000
00000000
30020000
,
00000000
00030000
10000000
00000000
00100000
00000000
10000000
00000000
,
01000000
10000000
00100000
00020000
,
00031000
00001000
00000010
00000010
,
00000100
00000000
00000100
00020000
00000000
00032000
00000000
00023000
,
00000000
00030000
00000010
00000000
00000100
00000000
00000010
00000000
,
00001000
00000010
00000100
00002000
,
00013000
00010000
00100000
00100000
,
10000000
00000000
00010000
20000000
00000000
32000000
00000000
03020000
,
00000000
00030000
00001000
00000000
00010000
00000000
00001000
00000000
,
00100000
00001000
00010000
00002000
,
00003100
00000100
00000001
00000001
,
00000010
00000000
00001000
00020000
00000000
00230000
00000000
20300000
,
00000000
30000000
00010000
00000000
10000000
00000000
00010000
00000000
,
00100000
01000000
00010000
00001000
,
00010000
00000010
00010000
00000100
,
00001000
00000000
00000010
00000000
00001000
00000000
00000001
00000100
,
00000010
00010000
00000010
00000100
,
00001000
00000000
00010000
00000000
00001000
00000000
00100000
00010000
,
01000000
00100000
01000000
10000000
,
00010000
00000000
00100000
00000000
00010000
00000000
01000000
00001000
,
00010000
00000010
00010000
00001000
,
00100000
00000000
00010000
00000000
00100000
00000000
01000000
00100000
,
00001000
01000000
00001000
00010000
,
00000010
00000000
00000100
00000000
00000010
00000000
00001000
00000001
,
00000100
00001000
00000100
00000010
,
00010000
00000000
00001000
00000000
00010000
00000000
00000010
00000100
,
00001000
00001000
00010000
00010000
,
01000000
00000000
10000000
00000000
00100000
00000000
01000000
00010000
,
00100000
00100000
01000000
01000000
,
00010000
00000000
00001000
00000000
00000100
00000000
00000001
00001000
,
00001001
00000000
00000010
00000100
00001000
00000000
00010000
00000000
,
01001000
00000000
00100000
10000000
01000000
00000000
00100000
00000000
,
00101000
00000000
00001000
00010000
00000010
00000000
00000100
00000000
,
00011000
00000000
00100000
10000000
00010000
00000000
00110000
00000000
,
02002000
00000000
00000000
03003000
;
