#TITLE:Sansa Kuwa;
#SUBTITLE:(Deela Edit);
#ARTIST:Rikki Ililonga;
#TITLETRANSLIT:;
#SUBTITLETRANSLIT:;
#ARTISTTRANSLIT:;
#GENRE:Breakbeat;
#CREDIT:;
#BANNER:sansakuwa-bn.png;
#BACKGROUND:sansakuwa-bg.png;
#LYRICSPATH:;
#CDTITLE:;
#MUSIC:Sansa Kuwa (Deela Edit).ogg;
#OFFSET:0.015000;
#SAMPLESTART:10.844999;
#SAMPLELENGTH:13.000004;
#SELECTABLE:YES;
#BPMS:0.000000=110.070000
;
#STOPS:
;
#BGCHANGES:;
#KEYSOUNDS:;
#ATTACKS:;

//---------------dance-single - ----------------
#NOTES:
     dance-single:
     :
     Hard:
     11:
     0.431321,0.415546,0.266718,0.128025,0.229377,283.000000,258.000000,25.000000,12.000000,0.000000,0.000000,0.431321,0.415546,0.266718,0.128025,0.229377,283.000000,258.000000,25.000000,12.000000,0.000000,0.000000:
// measure 0
0000
0000
0000
0000
,  // measure 1
0000
0000
0000
0000
,  // measure 2
0000
0000
0000
0000
,  // measure 3
0001
0000
0000
0010
0100
0000
1000
0000
0100
0000
1000
0000
0100
0000
1000
0000
,  // measure 4
0100
1000
0100
1000
0100
0100
0010
0001
,  // measure 5
1001
0000
0110
0001
0100
0001
0100
0000
,  // measure 6
0010
0000
1000
0001
0000
0000
1000
0000
0001
0000
0100
0000
0010
0000
0100
0000
,  // measure 7
0110
0000
1001
0010
1000
0010
1000
0000
,  // measure 8
0001
0000
0100
0010
0000
0000
0100
0000
0001
0000
0100
0000
0001
0000
0010
0000
,  // measure 9
0011
0000
1100
0001
0100
0001
0100
0000
,  // measure 10
0010
0000
1000
0100
0000
0000
1000
0000
0010
0000
1000
0000
0100
0000
0010
0000
,  // measure 11
0110
0000
1001
0100
0001
0100
0001
0000
,  // measure 12
1000
0000
0001
0010
0000
0000
0001
0000
1000
0000
0001
0000
1000
0000
0100
0000
,  // measure 13
1000
0000
0100
0010
0000
0000
0000
0000
0001
0000
0010
0000
0101
0000
0000
0000
,  // measure 14
0001
0000
0010
0100
0000
0000
0000
0000
1000
0000
0010
0100
0000
0000
0000
0000
,  // measure 15
0010
0000
1000
0001
0000
0000
0000
0000
0100
0000
0010
0000
1100
0000
0000
0000
,  // measure 16
0010
0000
1000
0100
0000
0000
0000
0000
0010
0001
0000
0000
1000
0100
1000
0000
,  // measure 17
0010
0000
1000
0010
0000
0000
1000
0000
0000
0000
0100
0000
0110
0000
0000
0000
,  // measure 18
0001
0000
1000
0100
0000
0000
0000
0000
0010
0000
1000
0000
1100
0000
0000
0000
,  // measure 19
0001
0000
0100
0010
0000
0000
0100
0000
0000
0000
0001
0000
0011
0000
0000
0000
,  // measure 20
0100
0000
1000
0001
0000
0000
0000
0000
0100
0000
0001
0000
0101
0000
0000
0000
,  // measure 21
0001
0000
0010
0100
0000
0000
1000
0000
0010
0000
0100
0000
0001
0000
0000
0000
,  // measure 22
0100
0000
0010
1000
0000
0000
0010
0000
0100
0000
0001
0000
1000
0000
0000
0000
,  // measure 23
1000
0000
0010
0100
0000
0000
0001
0000
0100
0000
0010
0000
1000
0000
0000
0000
,  // measure 24
0001
0000
1000
0010
0000
0000
1000
0000
0001
0000
0100
0000
0010
0000
0010
0000
,  // measure 25
0100
0001
1000
0000
0010
1000
1100
0000
,  // measure 26
0010
1000
0100
0000
0001
0100
1000
0000
,  // measure 27
0001
0100
0010
0000
1000
0001
0101
0000
,  // measure 28
0010
0000
0000
1000
0000
0000
0001
0000
0100
0000
0001
0000
0100
0000
0001
0000
0100
0000
0001
0000
0100
0000
0000
0000
,  // measure 29
0001
0000
0000
0010
0001
0000
0000
0010
0001
0000
1000
0000
1000
0000
0001
0000
,  // measure 30
1000
0000
0000
0010
1000
0000
0000
0010
1000
0000
0001
0000
1001
0000
0000
0000
,  // measure 31
0100
0000
0000
0010
0100
0000
0000
0010
0100
0000
0001
0000
0001
0000
0100
0000
,  // measure 32
0010
0000
0000
1000
0010
0000
0000
0100
0010
0000
0000
0000
0010
1000
0010
0000
,  // measure 33
1020
0000
0000
0000
0130
0000
0000
1000
0001
0000
0000
1000
0001
0000
0000
0000
,  // measure 34
0201
0000
0310
0000
2000
0002
0000
3003
,  // measure 35
0021
0000
0000
0000
0130
0000
0000
0001
0010
0000
0000
0001
0010
0000
0000
0000
,  // measure 36
1002
0000
0103
0000
0002
0020
0000
0033
,  // measure 37
0201
0000
0310
0000
1000
0001
0100
0001
,  // measure 38
2001
0000
0000
0000
3010
0000
0000
0000
1000
0000
0100
0010
0100
0000
1000
0000
,  // measure 39
1020
0000
0130
0000
0010
1000
0100
0010
,  // measure 40
0120
0000
0000
0031
0000
0000
1000
0001
1000
0001
1000
0001
,  // measure 41
0100
0000
0000
0000
;

//---------------dance-single - ----------------
#NOTES:
     dance-single:
     :
     Beginner:
     1:
     0.100591,0.153096,0.010669,0.010669,0.000000,66.000000,65.000000,1.000000,1.000000,0.000000,0.000000,0.100591,0.153096,0.010669,0.010669,0.000000,66.000000,65.000000,1.000000,1.000000,0.000000,0.000000:
0000
0000
0000
0000
,
0000
0000
0000
0000
,
0000
0000
0000
0000
,
1000
1000
1000
1000
,
1000
1000
0000
0000
,
0000
0000
0010
0010
,
0010
0000
0000
0000
,
0000
0000
0100
0100
,
0100
0000
0000
0000
,
0000
0000
0001
0001
,
0001
0000
0000
0000
,
0000
0000
1000
1000
,
1000
0000
0000
0000
,
0100
0000
0000
0000
,
0010
0000
0000
0000
,
0001
0000
0000
0000
,
0001
0000
1000
0000
,
1000
0000
0000
0000
,
0200
0000
0300
0000
,
0010
0000
0000
0001
,
0001
0000
0000
0000
,
0100
0000
0000
0010
,
0010
0000
0000
0000
,
1000
0000
0000
0100
,
0100
0000
0000
0000
,
1000
0000
0000
0000
,
0010
0000
0010
0000
,
1000
0000
0000
0000
,
0001
0000
0000
0000
,
0001
0001
0001
0000
,
1000
1000
1000
0000
,
0001
0001
0001
0000
,
0000
0000
0000
0000
,
0010
0010
0000
0000
,
0010
0010
0000
0000
,
0010
0010
0000
0000
,
0100
0100
0000
0000
,
1000
1000
0000
0000
,
1000
1000
0000
0000
,
1000
1000
0000
0000
,
0001
0001
0000
0000
,
0110
0000
0000
0000
;

//---------------dance-single - ----------------
#NOTES:
     dance-single:
     :
     Easy:
     5:
     0.246905,0.306192,0.256049,0.170699,0.000000,162.000000,138.000000,24.000000,16.000000,0.000000,0.000000,0.246905,0.306192,0.256049,0.170699,0.000000,162.000000,138.000000,24.000000,16.000000,0.000000,0.000000:
0000
0000
0000
0000
,
0000
0000
0000
0000
,
0000
0000
0000
0000
,
1000
1000
1000
1000
,
1000
1000
0010
0100
,
0001
1000
0010
0010
,
0010
1000
0001
1000
,
0010
0100
0001
0001
,
0001
0100
0010
0100
,
0001
0010
0100
0100
,
0100
0010
0001
1000
,
0010
1000
0100
0100
,
0100
1000
0010
0100
,
0001
1000
0000
0010
,
1000
0100
0000
0001
,
0100
1000
0000
0010
,
0100
0001
0010
0010
,
0002
2000
3003
1001
,
2000
0200
3300
1100
,
0020
0002
0033
0011
,
0002
0200
0303
0101
,
0200
0020
0330
0110
,
0020
2000
3030
1010
,
2000
0002
3003
1001
,
0002
0020
0033
0011
,
0010
0100
0000
0000
,
1000
0001
0100
1000
,
0100
0001
0000
0000
,
0010
0001
1000
0001
,
1000
0010
1000
0100
,
1000
0001
1000
0100
,
0010
0001
0010
0100
,
0010
1000
0010
0001
,
1001
1001
1000
0100
,
0110
0110
0010
0001
,
0101
0101
0100
0010
,
1010
1010
1000
0100
,
1100
1100
1000
0010
,
0110
0110
0100
0001
,
1001
0110
0010
1000
,
1001
0110
0100
0001
,
1000
0000
0000
0000
;

//---------------dance-single - ----------------
#NOTES:
     dance-single:
     :
     Medium:
     7:
     0.317013,0.371805,0.341399,0.074681,0.000000,208.000000,176.000000,32.000000,7.000000,0.000000,0.000000,0.317013,0.371805,0.341399,0.074681,0.000000,208.000000,176.000000,32.000000,7.000000,0.000000,0.000000:
0000
0000
0000
0000
,
0000
0000
0000
0000
,
0000
0000
0000
0000
,
1000
0010
1000
0010
1000
0010
1000
0010
,
1000
0010
1000
0010
0100
0001
0100
0010
,
0100
0000
1001
0000
0010
0100
0010
0000
,
1000
0000
0100
0000
0001
0100
1000
0000
,
0001
0000
0011
0000
0100
1000
0100
0000
,
1000
0000
0010
0000
0001
0010
1000
0000
,
0010
0000
1010
0000
0100
0001
0100
0000
,
0001
0000
0100
0000
1000
0100
0001
0000
,
1000
0000
0110
0000
1000
0001
1000
0000
,
0001
0000
0010
0000
0100
1000
0001
0000
,
1000
0100
0010
0000
0000
0000
0000
0000
,
0001
0010
0100
0000
0010
0100
1000
0000
,
0100
1000
0001
0000
0000
0000
0000
0000
,
1000
0100
0010
0000
1100
0000
0101
0000
,
1000
0000
0010
0000
0000
1000
0100
0000
,
0010
0000
0001
0000
0000
0100
0001
0000
,
0100
0000
0010
0000
0000
1000
0010
0000
,
1000
0000
0100
0000
0000
0010
0001
0000
,
0100
0000
0010
0100
0000
0000
1001
0000
,
0001
0000
0100
0010
0000
0000
1100
0000
,
1000
0000
0010
0100
0000
0000
0011
0000
,
2000
3001
0000
1010
,
1000
0001
0100
0000
0000
1001
0000
0000
,
0001
1000
0100
0000
1000
0001
0100
0000
,
0001
1000
0010
0000
0000
1001
0000
0000
,
0010
1000
0100
0000
0010
0001
0100
0000
,
0001
1000
0001
1100
,
1000
0001
1000
0101
,
0010
1000
0010
1100
,
0010
0001
0100
0010
,
1100
0000
1100
0000
0010
0001
1000
0000
,
0101
0000
0101
0000
0010
0020
0000
0030
,
1010
0000
1010
0000
1000
0001
0100
0000
,
0011
0000
0011
0000
0100
0200
0000
0300
,
1010
0000
1100
0000
0010
0001
0100
0000
,
0101
0000
0011
0000
0200
2000
0000
3300
,
1100
0000
0101
0000
1000
0001
0100
0000
,
0101
1100
0220
0300
,
1030
0000
0000
0000
;

//---------------dance-double - ----------------
#NOTES:
     dance-double:
     :
     Hard:
     11:
     0.469423,0.459288,0.202706,0.181368,0.272052,308.000000,289.000000,19.000000,17.000000,0.000000,0.000000,0.469423,0.459288,0.202706,0.181368,0.272052,308.000000,289.000000,19.000000,17.000000,0.000000,0.000000:
00000000
00000000
00000000
00000000
,
00000000
00000000
00000000
00000000
,
00000000
00000000
00000000
00000000
,
00001000
00010000
00001000
00010000
00001000
00010000
00001000
00010000
,
00001000
00010000
00001000
00010000
00100000
10000000
00010000
10000000
,
01000000
00000000
00110000
01000000
00010000
01000000
00010000
00000000
,
00100000
00000000
00001000
00010000
00000000
00000000
00000100
00000000
00001000
00000000
00000010
00000000
00000100
00000000
00000010
00000000
,
00001000
00000000
00000101
00000010
00001000
00000010
00001000
00000000
,
00000001
00000000
00000100
00000010
00000000
00000000
00000100
00000000
00001000
00000000
00010000
00000000
01000000
00000000
10000000
00000000
,
00100000
00000000
10010000
01000000
10000000
01000000
10000000
00000000
,
00100000
00000000
01000000
00100000
00000000
00000000
00010000
00000000
00001000
00000000
00000010
00000000
00000001
00000000
00001000
00000000
,
00000100
00000000
00001010
00000100
00000001
00000100
00000001
00000000
,
00000100
00000000
00000010
00010000
00000000
00000000
00001000
00000000
00000100
00000000
00001000
00000000
00010000
00000000
00100000
00000000
,
10000000
00000000
10000000
01000000
00000000
00000000
00100000
00010000
00100000
00000000
00010000
00000000
10000000
00000000
00000000
00000000
,
00100000
00000000
00100000
10000000
00000000
00000000
00010000
00000000
01000000
00000000
01000000
00001000
00000000
00000000
00000000
00000000
,
00010000
00000000
00010000
00000100
00000000
00000000
00001000
00000010
00001000
00000000
00000001
00000000
00000100
00000000
00000000
00000000
,
00000001
00000000
00000001
00000010
00000000
00000000
00000000
00000000
00000001
00000100
00000000
00000000
00000010
00010000
00000010
00000000
,
00010000
00000000
00001000
01000000
00000000
00000000
01001000
00000000
00000000
00000000
01000000
00000000
00010000
00000000
10000000
00000000
,
00100000
00000000
10000000
01000000
00000000
00000000
00010000
00000000
00001000
00000000
00000100
00000000
00000002
00000000
00000000
00000000
,
00001003
00000000
00000010
00000100
00000000
00000000
00000110
00000000
00000000
00000000
00000010
00000000
00010000
00000000
00001000
00000000
,
01000000
00000000
00100000
10000000
00000000
00000000
01000000
00000000
00010000
00000000
00001000
00000000
00000200
00000000
00000000
00000000
,
00000301
00000000
00001000
00000100
00000000
00000000
00001100
00000000
00000000
00000000
00000010
00000000
00000100
00000000
00001000
00000000
,
00010000
00000000
00001000
01000000
00000000
00000000
00100000
00000000
00010000
00000000
00100000
00000000
20000000
00000000
00000000
00000000
,
30010000
00000000
01000000
00010000
00000000
00000000
01010000
00000000
00000000
00000000
10000000
00000000
01000000
00000000
00010000
00000000
,
00001000
00000000
00010000
00000010
00000000
00000000
00000100
00000000
00001000
00000000
00000100
00000000
00000002
00000000
00000000
00000000
,
00000103
00000000
00000010
00001000
00000000
00000000
00000000
00000000
00000001
00000010
00000100
00001000
00000001
00000000
00001000
00000000
,
00000100
00000000
00010000
00001000
00000000
00000000
00000000
00000000
00100000
00000000
00010000
01000000
00000000
00000000
00000000
00000000
,
00010000
00000000
10000000
01000000
00000000
00000000
00000000
00000000
00010000
00100000
01000000
10000000
00010000
00000000
01000000
00000000
,
00001000
00000000
00010000
00000010
00010000
00000000
00001000
00000000
00000100
00000000
00001000
00000000
00010000
00000000
00000000
00000000
,
00010100
00000000
00000000
00000010
00000100
00000000
00000000
00010000
00001000
00000000
01000000
00000000
00100000
00000000
10000000
00000000
,
10100000
00000000
00000000
10000000
00010000
00000000
00000000
10000000
01000000
00000000
00010000
00000000
00000100
00000000
00001000
00000000
,
00001100
00000000
00000000
00000010
00000100
00000000
00000000
00000001
00001000
00000000
00000010
00000000
00010000
00000000
00001000
00000000
,
00011000
00000000
00000000
01000000
00001000
00000000
00000000
01000000
00100000
00000000
00000000
00000000
01000000
00100000
01000000
00000000
,
02100000
00000000
00000000
00000000
03010000
00000000
10000000
00100000
10000000
00000000
00010000
00100000
00010000
00000000
01000000
00000000
,
01002000
00000000
00000000
00000000
00013000
00000000
00000100
00001000
00000100
00000000
00020000
00000000
00000000
00000000
00030010
00000000
,
00001020
00000000
00000000
00000000
00000130
00000000
00000001
00001000
00000001
00000000
00001000
00000100
00001000
00000000
00000010
00000000
,
00001020
00000000
00000130
00001000
00001000
00010000
00010000
01000000
,
02100000
00000000
00000000
00000000
13000000
00000000
00010000
01000000
00010000
00000000
10000000
00100000
10000000
00000000
00010000
01000000
,
00020000
00000000
00000000
00000000
00130000
00000000
00001000
00010000
00001000
00000000
00020000
00000000
00000020
00000000
00030030
00000000
,
00001200
00000000
00000000
00000000
00000310
00000000
00000001
00001000
00000001
00000000
00001000
00000100
00001000
00000000
00000010
00000100
,
00000020
00000000
00010030
00000100
00010000
00002000
02000000
03003000
,
01100000
00000000
00000000
00000000
;

//---------------dance-double - ----------------
#NOTES:
     dance-double:
     :
     Easy:
     5:
     0.207278,0.240580,0.032006,0.330730,0.000000,136.000000,133.000000,3.000000,31.000000,0.000000,0.000000,0.207278,0.240580,0.032006,0.330730,0.000000,136.000000,133.000000,3.000000,31.000000,0.000000,0.000000:
00000000
00000000
00000000
00000000
,
00000000
00000000
00000000
00000000
,
00000000
00000000
00000000
00000000
,
00010000
00001000
00010000
00001000
,
00010000
00001000
00100000
00010000
,
02000000
03100000
10000000
10000000
,
00100000
01000000
00000000
00001000
,
00020000
00030020
00000130
00000100
,
00000001
00001000
00000000
00000010
,
00000200
00000302
00001003
00001000
,
00000100
00010000
00000000
00001000
,
02000000
03200000
01300000
01000000
,
00010000
00100000
00000000
00001000
,
00010000
00001000
00000000
00100000
,
00010000
10000000
00010000
10000000
,
00010000
01000000
00000000
00001000
,
00010000
00000100
00002000
00003001
,
00000100
00000100
00000000
00000010
,
00001000
00001000
00000000
00000100
,
00010000
00010000
00000000
00001000
,
01000000
01000000
00000000
00010000
,
10000000
00100000
00000000
01000000
,
00010000
00100000
00000000
00001000
,
00010000
00000010
00000000
00000100
,
00000001
00001000
00000000
00000110
,
00000001
00000001
00000000
00000000
,
00000010
00000010
00001000
00001000
,
00010000
00010000
00000000
00000000
,
01000000
00000000
01000000
00000000
10000000
00010000
10000000
00000000
,
00020000
02030000
03010000
01000000
,
00002000
00023000
00031000
00010000
,
00000020
00000130
00000010
00000100
,
00000002
00002000
00003003
00001001
,
00000020
00000230
00000310
00000010
,
00020000
00032000
01003000
00000000
,
00200000
20300000
30010000
00010000
,
20000000
32000000
03010000
00000000
,
00002000
00003200
00000301
00000001
,
00002000
00003020
00000130
00000000
,
00020000
00032000
01003000
01000000
,
00200000
00000000
20300000
00000000
30010000
10000000
00010000
00000000
,
10010000
00000000
00000000
00000000
;

//---------------dance-double - ----------------
#NOTES:
     dance-double:
     :
     Medium:
     7:
     0.327682,0.371805,0.298724,0.106687,0.000000,215.000000,187.000000,28.000000,10.000000,0.000000,0.000000,0.327682,0.371805,0.298724,0.106687,0.000000,215.000000,187.000000,28.000000,10.000000,0.000000,0.000000:
00000000
00000000
00000000
00000000
,
00000000
00000000
00000000
00000000
,
00000000
00000000
00000000
00000000
,
00001000
00010000
00001000
00010000
00001000
00010000
00001000
00010000
,
00001000
00010000
00001000
00010000
00000010
00000100
00000001
00001000
,
00000001
00000000
00001100
00000000
00000010
00000100
00000010
00000000
,
00000100
00001000
00010000
00000000
01000000
00000000
10000000
00000000
,
00100000
00000000
10010000
00000000
10000000
00100000
10000000
00000000
,
00100000
00010000
00001000
00000000
00000100
00000000
00000001
00000000
,
00001000
00000000
00000011
00000000
00001000
00000100
00001000
00000000
,
00000010
00000100
00001000
00000000
00010000
00000000
01000000
00000000
,
10000000
00000000
00110000
00000000
01000000
00100000
01000000
00000000
,
00010000
00001000
00000010
00000000
00000001
00001000
00000001
00000000
,
00000100
00000010
00001000
00000000
00000000
00000000
00000101
00000000
,
00000010
00000100
00001000
00000000
00010000
01000000
10000000
00000000
,
00100000
01000000
00010000
00000000
00000000
00000000
10100000
00000000
,
10000000
00100000
00010000
00000000
00002000
00000000
00003200
00000000
,
00000301
00000100
00000000
00000101
00000000
00001000
00000100
00000000
,
00010000
00000000
00001000
01000000
00000000
00000000
01010000
00000000
,
00100000
10000000
00000000
11000000
00000000
00100000
01000000
00000000
,
00010000
00100000
00000000
00000000
00001000
00000000
00011000
00000000
,
00010000
00000010
00000000
00000110
00000000
00000000
00001000
00000000
,
00000001
00000100
00000000
00000000
00000010
00000000
00010010
00000000
,
00001000
01000000
00001000
01000000
00000000
00000000
01100000
00000000
,
10000000
00100000
10000000
00000000
00000000
00000000
10010000
00000000
,
10000000
01000000
00100000
00000000
00000000
00001000
00000000
00000000
,
00010000
00000010
00000100
00000000
00000001
00001000
00000010
00000000
,
00000100
00001000
00010000
00000000
00000000
01000000
00000000
00000000
,
10000000
00010000
01000000
00000000
00010000
10000000
00100000
00000000
,
10000000
00000000
00010000
00000000
10010000
00000000
01000000
00001000
,
00010000
00000000
00001000
00000000
00011000
00000000
00010000
00000010
,
00000100
00000000
00000010
00000000
00000110
00000000
00001000
00000001
,
00000100
00000001
00000101
00001001
,
00010200
00000000
00001300
00000000
00010000
00001000
01000000
00000000
,
10200000
00000000
01300000
00000000
00010000
10000000
00000000
00000000
,
01020000
00000000
00130000
00000000
00001000
00010000
00000100
00000000
,
00002100
00000000
00003010
00000000
00000100
00000001
00000000
00000000
,
00001002
00000000
00000103
00000000
00000010
00010000
00001000
00000000
,
00201000
00000000
00310000
00000000
00010000
01000000
00000000
00000000
,
10200000
00000000
01300000
00000000
00010000
10000000
00100000
00000000
,
02010000
00000000
03100000
00000000
00001000
00010000
00000000
00000000
,
00011000
00000000
00000000
00000000
;
