#TITLE:Rave Lithosphere;
#SUBTITLE:;
#ARTIST:Sampling Masters MEGA;
#TITLETRANSLIT:;
#SUBTITLETRANSLIT:;
#ARTISTTRANSLIT:;
#GENRE:Hardcore;
#CREDIT:;
#BANNER:ravelithosphere-bn.png;
#BACKGROUND:ravelithosphere-bg.png;
#LYRICSPATH:;
#CDTITLE:;
#MUSIC:Rave Lithosphere.mp3;
#OFFSET:-0.040000;
#SAMPLESTART:5.660000;
#SAMPLELENGTH:12.000000;
#SELECTABLE:YES;
#BPMS:0.000000=170.000000
;
#STOPS:76.000000=1.059000,
141.000000=1.059000,
290.500000=0.353000,
291.500000=0.353000,
292.500000=0.353000,
293.500000=0.353000
;
#BGCHANGES:;
#KEYSOUNDS:;
#ATTACKS:;

//---------------dance-single - ----------------
#NOTES:
     dance-single:
     :
     Challenge:
     16:
     0.913109,1.071052,0.794652,0.077738,0.898302,740.000000,648.000000,92.000000,9.000000,0.000000,0.000000,0.913109,1.071052,0.794652,0.077738,0.898302,740.000000,648.000000,92.000000,9.000000,0.000000,0.000000:
0000
0000
0000
0000
,
0000
0000
0000
0000
,
0000
0000
0000
0000
,
1000
0100
1000
0010
0100
0010
0100
0001
0010
0001
0000
0000
,
0100
0001
0010
0001
1000
0000
0001
0000
0010
0000
0010
0100
1000
0000
0010
0100
,
1000
0100
0010
0001
1000
0001
1000
0001
1000
0000
0000
1000
0000
0000
0001
0000
,
0010
0001
0010
0001
0010
0000
0001
0000
0100
0000
0100
0001
1000
0000
0100
0001
,
1000
0000
1000
0010
0000
0000
0010
1000
0000
0000
1000
0001
0000
0000
0001
0010
,
0100
1000
0100
1000
0100
0000
1000
0000
0001
0000
0001
1000
0100
0000
0001
1000
,
0100
0010
0001
0010
0100
1000
0100
1000
0100
0000
0000
0100
0000
0000
0010
0000
,
0001
1000
0001
1000
0001
0000
1000
0000
0100
0000
0100
0010
0001
0000
0100
0010
,
0001
0000
0001
1000
0000
0000
1000
0001
0000
0000
0001
0100
0000
0000
0100
0000
,
0101
0000
0000
0000
0101
0000
0000
0000
1010
0000
0000
0101
0000
0000
0010
1000
,
0001
0100
0001
0100
0001
0000
0000
0000
1010
0000
0000
1010
0000
0000
0101
0000
,
1100
0000
0000
0000
1100
0000
0000
0000
0011
0000
0000
1100
0000
0000
0011
0000
,
0000
0000
0100
0000
0010
0100
0010
0100
0010
0000
0000
1000
0000
0000
0001
0000
,
1001
0000
0000
0000
1001
0000
0000
0000
0110
0000
0000
1001
0000
0000
0010
0100
,
0001
1000
0001
1000
0001
0000
0000
0000
1001
0000
0000
1010
0000
0000
1100
0000
,
1010
0000
0000
0000
1010
0000
0000
0000
0101
0000
0000
1010
0000
0000
0101
0000
,
1001
0000
0010
0100
0001
0000
1000
0100
1000
0100
1000
0100
1000
0000
0010
0000
,
0100
0000
0000
0000
0001
0010
0100
0010
0001
0010
0001
0010
0001
0000
0100
0000
,
0010
0000
0010
0000
0000
1000
0010
1000
0000
0000
0100
0000
0000
1000
0100
1000
,
0000
0000
0010
0000
0000
0100
0001
0100
0000
0000
0010
0000
0000
0100
0010
0100
,
0000
0000
0001
0000
1001
0000
0000
0100
0001
1000
0010
1000
0001
0100
0001
0000
,
1001
0000
0000
0000
0001
0010
0001
1000
0100
1000
0001
0010
0001
1000
0200
0020
,
0000
0330
0001
1000
0000
0010
0100
0010
0000
0000
1000
0000
0000
1000
0010
1000
,
0000
0000
0001
0000
0000
0001
0100
0001
0000
0000
1000
0000
0000
0010
0100
0001
,
0000
0000
1000
0000
1001
0000
1000
0100
0010
0001
0010
0100
1000
0100
0010
0000
,
0011
0000
0000
0000
0001
0100
0010
1000
0010
0100
0001
0100
0010
1000
0010
0100
,
0001
0000
0001
0000
1001
0000
1000
0100
0000
0010
0002
0000
0000
0000
0103
0010
,
0100
1000
0100
0001
1000
0010
0100
0010
0001
0010
1000
0001
0010
0100
0010
1000
,
0010
0001
1000
0000
1001
0000
0000
0100
0010
1000
0010
1000
0010
1000
0010
0000
,
1010
0000
0000
0000
0100
0001
0010
0001
0100
0001
0010
0001
0100
0001
0010
0100
,
1000
0000
0001
1000
0001
0000
0100
0010
0000
1000
0010
0000
0100
0001
0100
0000
,
0100
0001
0100
0000
0100
1000
0100
0000
0100
0001
0100
0000
0001
0010
0100
1000
,
0100
0010
0001
0000
1001
0000
0000
0000
1001
0000
0010
0000
0010
0000
0000
0000
,
1001
0100
0100
0000
0110
1000
1000
0000
,
0110
0000
0001
0000
0001
0000
0000
0000
1000
0000
0100
0010
0001
0000
0001
0000
,
1000
0000
0100
0010
0001
0000
0001
0000
0010
0000
1000
0000
0010
0000
1000
0000
,
0010
0000
0001
1000
0001
0000
0000
0000
0101
0000
0010
0000
0010
0000
0000
0000
,
1010
0100
0100
0000
0011
0100
0100
0000
,
1100
0000
0010
0000
0010
0000
0000
0000
0001
0000
0100
0010
1000
0000
1000
0000
,
0001
0000
0100
0010
1000
0000
1000
0000
0010
0000
0001
0000
0010
0000
0001
0000
,
0010
0000
1000
0000
1001
0000
0000
0000
2000
0000
0000
0100
0000
0000
0010
0000
,
0001
0000
0000
0010
0000
0000
3100
0000
0002
0000
0010
0000
0010
0000
0010
0000
,
0100
0000
0000
1000
0000
0000
0023
0000
0000
0100
0000
0000
0001
0000
0001
0000
,
0100
0000
0000
1000
0030
0000
0100
0000
0010
1000
0000
1000
0100
0000
0100
0010
,
0000
0001
0010
0100
1100
0000
0010
0100
,
0001
0000
0000
0101
0000
0000
2000
0000
0000
0000
3010
0000
0100
0000
0001
0000
,
1001
0000
0000
0011
0000
0000
1001
0000
0110
0000
0000
0000
1000
0000
0100
0000
,
0010
0000
0000
0011
0000
0000
1100
0000
0000
0010
0000
0010
0100
0000
0100
0001
,
0000
0100
1000
0100
0101
0000
0010
1000
,
1010
0000
0000
0110
0000
0000
0101
0000
0000
0000
0001
0000
0100
0000
0010
0000
,
1010
0000
0000
1100
0000
0000
1001
0000
0110
0000
0000
0000
0010
0000
0100
0000
,
0101
0000
0000
1010
0000
0000
1100
0000
0000
0000
0000
0000
0000
0000
0000
0000
,
0001
0000
0010
0000
0100
0000
1000
0000
0000
0000
0000
0000
1010
0000
0000
0010
0000
0000
0010
0000
0000
0000
0000
0000
,
0101
0000
0100
0000
0100
0000
0000
0010
1000
0000
0000
1100
0000
0000
0100
0000
,
0001
0001
0001
0100
1100
1000
0010
0001
,
0011
0010
1000
0100
0101
0001
0100
1100
,
0100
1000
1010
0010
0011
0000
0010
0000
,
0010
0000
0000
1000
0000
0000
1000
0000
0100
0000
0010
0000
,
0001
0100
0010
1000
0010
0100
0002
0000
0000
0000
0000
0000
,
0000
0000
0000
0000
0000
0000
0000
0000
1003
0100
0010
0100
1000
0000
1000
0000
,
0001
0000
0010
0100
1000
0000
0010
0100
1000
0010
0100
0001
0010
0100
0010
0000
,
0101
0000
0000
0101
0000
0000
1010
0000
1000
0010
1000
0010
0100
0001
1000
0000
,
0000
0000
0010
0100
1000
0000
0100
0010
0001
0000
1000
0001
1000
0000
0001
1000
,
0001
0000
1000
0001
1000
0000
0001
1000
0001
0100
0010
1000
0010
0000
0100
0000
,
0001
0000
0100
0001
0010
0000
0100
0001
0010
0100
1000
0100
0010
0001
1000
0000
,
1100
0000
0000
1100
0000
0000
0011
0000
0001
0010
0001
0010
0100
1000
0010
0000
,
0000
0000
0010
1000
0001
0000
0100
0001
1000
0000
0001
1000
0001
0000
1000
0001
,
1000
0000
0001
0000
1001
0000
1000
0001
1000
0000
0010
0100
0010
0000
0100
0010
,
0100
0000
0010
0000
0110
0000
0100
0010
0100
0000
0001
0010
0001
0000
0010
0001
,
0010
0000
0001
0000
0011
0000
0010
0001
0010
0000
1100
0000
1000
0000
0101
0000
,
0001
1100
1000
0101
0101
1010
1100
0011
,
0101
0000
0101
0000
0101
0000
0101
0000
1010
0000
1000
0010
0001
0000
0010
1000
,
0100
0001
0100
1000
0010
0001
0010
1000
0200
0000
0000
0000
0000
0000
0000
0000
,
0000
0000
0000
0000
,
0000
0000
0300
0000
;

//---------------dance-single - ----------------
#NOTES:
     dance-single:
     :
     Hard:
     14:
     0.688534,0.726847,0.190025,0.025913,0.492339,558.000000,536.000000,22.000000,3.000000,0.000000,0.000000,0.688534,0.726847,0.190025,0.025913,0.492339,558.000000,536.000000,22.000000,3.000000,0.000000,0.000000:
0000
0000
0000
0000
,
0000
0000
0000
0000
,
0000
0000
0000
0000
,
0001
0100
0001
0100
0000
0010
1000
0100
1000
0100
0000
0000
,
1000
0000
0100
0000
0010
0000
0100
0000
1000
0000
0001
0100
0001
0000
0100
0001
,
0100
0000
0000
0000
0010
0000
1000
0000
0010
0000
0000
0010
0000
0000
1000
0000
,
0001
0000
0010
0000
0100
0000
0010
0000
0001
0000
1000
0100
1000
0000
0100
1000
,
0100
0000
0010
0001
0000
0000
0001
1000
0000
0000
1000
0010
0000
0000
0010
0100
,
0010
0000
1000
0000
0001
0000
0100
0000
0010
0000
1000
0010
1000
0000
0010
1000
,
0010
0000
0100
0000
0001
0000
0001
0000
0010
0000
0000
0010
0000
0000
0001
0000
,
0100
0000
0001
0000
1000
0000
0010
0000
0100
0000
0001
0010
0001
0000
0010
0001
,
0010
0000
0100
1000
0000
0000
1000
0010
0000
0000
0010
0100
0000
0000
0100
0000
,
0101
0000
0000
0000
0101
0000
0000
0000
1010
0000
0000
1000
0000
0000
0001
1000
,
0001
1000
0001
0000
0100
0000
0000
0000
0010
0000
0000
0010
0000
0000
1000
0000
,
1100
0000
0000
0000
1100
0000
0000
0000
0011
0000
0000
0001
0000
0000
1000
0000
,
0000
0000
0010
0000
0100
0010
0100
0010
0100
0000
0001
1000
0000
1000
0010
0000
,
0110
0000
0000
0000
0110
0000
0000
0000
0101
0000
0000
0001
0000
0000
1000
0100
,
1000
0100
1000
0000
0010
0000
0000
0000
0100
0000
0010
0100
0000
0100
0001
0000
,
1100
0000
0000
0000
0101
0000
0000
0000
1000
0000
0000
0001
0000
0000
0100
0000
,
1010
0000
1000
0100
1000
0000
0000
0001
1000
0000
0100
0000
0001
0000
0100
0000
,
1000
0000
0010
0001
0010
0001
0010
0001
,
0010
0000
0010
0000
0000
1000
0100
0000
0000
0000
0011
0000
0000
0001
0100
0000
,
0000
0000
1010
0000
0000
1000
0001
0000
0000
0000
0110
0000
0000
0100
0001
0000
,
0000
0000
1010
0000
1000
0000
0000
0010
0100
0000
0010
0000
0001
0000
0010
0000
,
1000
0000
0100
0001
0100
0001
0100
0001
,
0000
0000
0100
0000
0000
1000
0001
0000
0000
0000
0011
0000
0000
0100
0010
0000
,
0000
0000
1100
0000
0000
1000
0001
0000
0000
0000
0101
0000
0000
0010
1000
0000
,
0000
0000
1001
0000
0001
0000
0000
1000
0100
0000
0001
0000
0100
0000
1000
0000
,
0001
0000
0010
1000
0010
1000
0010
1000
,
0010
0000
0010
0000
0001
0000
0100
0010
0000
0010
2000
0000
0000
0000
3100
0010
,
0001
0000
0100
0000
0010
0000
1000
0000
0010
0000
0100
0000
0001
0010
0100
1000
,
0100
0010
0001
0000
0010
0000
0000
0100
0010
0000
1000
0000
0010
0000
0001
0000
,
1000
0000
0001
0100
1000
0100
0001
1000
,
0010
0000
0100
0010
0100
0000
0010
1000
0000
0010
0000
0000
0100
0000
0001
0000
,
1000
0000
0010
0000
0100
0000
0001
0000
0010
0000
0100
0000
0010
0001
1000
0100
,
0010
0001
1000
0000
1001
0000
0000
0000
1000
0000
0100
0000
0010
0000
0000
0000
,
0001
0100
0010
0000
1000
0100
0010
0000
,
0001
0000
0100
0000
0010
0000
0000
0000
1000
0000
0001
0100
0001
0000
1000
0000
,
0001
0000
1000
0100
1000
0000
0001
0000
1000
0000
0001
0000
1000
0000
0001
0000
,
1000
0001
1000
0000
0100
0010
0001
0000
,
0010
0100
1000
0000
0100
0010
0001
0000
,
0010
0000
0100
0000
1000
0000
0000
0000
0001
0000
1000
0100
1000
0000
0001
0000
,
1000
0000
0001
0100
0001
0000
1000
0000
0010
0000
0100
0000
0010
0000
0100
0000
,
0010
0000
0100
0000
0010
0000
0000
0000
1000
0000
0000
0100
0000
0000
0010
0000
,
0100
0000
0000
1000
0000
0000
0001
0000
0000
0000
1000
0000
0100
0000
0010
0000
,
0100
0000
0000
1000
0000
0000
0010
0000
0000
0100
0000
0000
0001
0000
0010
0000
,
0100
0000
0000
0010
0000
0000
0001
0000
0000
1000
0000
1000
0001
0000
0001
0010
,
0000
0001
1000
0001
1001
0000
0100
0010
,
0100
0000
0000
0001
0000
0000
1000
0000
0000
0000
0001
0000
0100
0000
0010
0000
,
0100
0000
0000
0001
0000
0000
0100
0000
0000
0010
0000
0000
1000
0000
0100
0000
,
0010
0000
0000
0100
0000
0000
1000
0000
0000
0001
0000
0001
1000
0000
1000
0010
,
0000
0100
0001
0100
0001
0000
0010
0100
,
1000
0000
0000
0100
0000
0000
0010
0000
0000
0000
0001
0000
0100
0000
0010
0000
,
1000
0000
0000
0001
0000
0000
0010
0000
0001
0000
0000
0000
0100
0000
0010
0000
,
1000
0000
0000
0010
0000
0000
0100
0000
0000
0000
0000
0000
0000
0000
0000
0000
,
0001
0000
1000
0000
0001
0000
1000
0000
0000
0000
0000
0000
0010
0000
0000
0010
0000
0000
0010
0000
0000
0000
0000
0000
,
0010
0000
0010
0000
0010
0000
0000
0100
0010
0000
0000
0100
0000
0000
0010
0000
,
1000
0100
0001
0001
0100
1000
0001
0001
,
0001
0100
1000
1000
0100
0001
0100
0100
,
1000
1000
0100
0100
0100
0000
0100
0000
,
0100
0000
0000
0100
0000
0000
0100
0000
0100
0000
0100
0000
,
0200
0000
0300
0000
,
0000
0000
0000
0000
0100
0001
1000
0001
,
0100
0000
0010
1000
0010
0000
1000
0010
1000
0000
0001
0000
1000
0000
0000
0000
,
1000
0000
0000
1000
0000
0000
0100
0000
0010
0000
0001
0000
1000
0000
0001
0000
,
0010
0000
0001
0100
0001
0000
0100
0001
0100
0000
0010
1000
0000
0000
1000
0100
,
0000
0000
0010
0001
0000
0000
1000
0001
1000
0000
0100
0000
0010
0000
0001
0000
,
1000
0000
0100
1000
0100
0000
1000
0100
1000
0000
0001
0000
1000
0000
0000
0000
,
1000
0000
0000
1000
0000
0000
0010
0000
0100
0000
0001
0000
0010
0000
0001
0000
,
0100
0000
0010
1000
0010
0000
1000
0010
1000
0000
0001
0100
0000
0000
0100
0010
,
0000
0000
0010
0000
1000
0000
0010
0000
0000
0000
1000
0100
0000
0000
0100
0010
,
0000
0000
0010
0000
0001
0000
0010
0000
0000
0000
0001
1000
0000
0000
1000
0010
,
0000
0010
0100
0010
1000
1000
0001
0001
,
1000
1000
0001
0001
1000
0100
0001
0100
,
1000
1000
1000
1000
0001
0010
1000
0010
,
0001
0100
0010
1000
0001
0100
0010
1000
0002
0000
0000
0000
0000
0000
0000
0000
,
0000
0000
0003
0000
;

//---------------dance-single - ----------------
#NOTES:
     dance-single:
     :
     Medium:
     12:
     0.540462,0.602467,0.146838,0.060463,0.190025,438.000000,421.000000,17.000000,7.000000,0.000000,0.000000,0.540462,0.602467,0.146838,0.060463,0.190025,438.000000,421.000000,17.000000,7.000000,0.000000,0.000000:
0000
0000
0000
0000
,
0000
0000
0000
0000
,
0000
0000
0000
0000
,
0020
0000
0000
0030
,
1000
0100
0010
0001
0000
1001
0000
1001
,
0001
0000
0100
0000
0000
0000
0010
0000
1000
0000
0000
1000
0000
0000
1000
0000
,
0001
0010
0100
1000
0000
1001
0000
1001
,
1000
0100
0000
0010
0000
0100
0000
1000
,
0001
0100
0010
1000
0000
1010
0000
1010
,
1000
0000
0010
0000
0000
0000
0100
0000
0001
0000
0000
0001
0000
0000
0001
0000
,
1000
0010
0100
0001
0000
0011
0000
0011
,
0001
0100
0000
0010
0000
0100
0000
0001
,
1000
0000
0000
0000
1000
0000
0000
0000
0100
0000
0000
0010
0000
0000
0001
0000
,
1000
0000
0100
0000
0010
0000
0000
0000
0001
0000
0000
0001
0000
0000
1000
0000
,
0001
0000
0000
0000
0001
0000
0000
0000
0010
0000
0000
0100
0000
0000
1000
0000
,
0000
0000
0001
0000
0010
0000
0000
0000
0100
0000
0000
1000
0000
0000
1000
0000
,
0001
0000
0000
0000
0001
0000
0000
0000
1000
0000
0000
0001
0000
0000
0100
0000
,
0010
0000
0100
0000
0001
0000
0000
0000
1000
0000
0000
1000
0000
0000
0001
0000
,
1000
0000
0000
0000
1000
0000
0000
0000
0010
0000
0000
0100
0000
0000
0001
0000
,
1001
0000
0000
1000
0010
0000
0000
0000
1000
0000
0100
0000
0001
0000
0100
0000
,
1000
0000
0001
0100
1000
0100
0001
0100
,
1000
0000
0100
0000
0001
1000
0001
0000
0000
0000
0010
0000
0000
0001
0100
0000
,
0000
0000
0010
0000
0000
1000
0100
0000
0000
0000
0010
0000
0000
0001
0100
0000
,
0000
0010
1000
0000
0001
0100
1000
0100
,
0001
0000
1000
0100
0001
0100
1000
0100
,
0010
0000
0000
0000
0000
0100
1000
0000
0000
0000
0010
0000
0000
0100
0001
0000
,
0000
0000
0010
0000
0000
0100
1000
0000
0000
0000
0010
0000
0000
0100
0001
0000
,
0000
0010
0100
0000
1000
0010
0001
0010
,
1000
0000
0001
0010
1000
0010
0001
0010
,
1000
0000
0010
0000
0001
0000
0100
0010
0000
0010
1000
0000
0000
0000
0100
0000
,
0010
0001
0010
0100
1000
0000
0100
0010
,
0001
0000
0000
0000
1000
0000
0000
0001
0010
0000
1000
0000
0010
0000
0001
0000
,
0010
0000
0000
0000
0001
0000
0000
1000
0100
0000
0001
0000
0100
0000
1000
0000
,
0100
0000
0000
0000
0010
0000
0001
0100
0000
0100
0010
0000
1000
0000
0100
0000
,
0001
0100
1000
0001
1000
0001
1000
0010
,
0001
0010
1000
0000
0001
0100
0010
0000
,
0001
0100
0010
0000
0001
0100
0010
0000
,
0001
0100
0010
0000
1000
0100
0010
0010
,
0001
0100
0010
0010
1000
0001
1000
0001
,
0100
0010
1000
0000
1000
0100
0010
0000
,
1000
0100
0010
0000
1000
0100
0010
0000
,
1000
0100
0010
0000
0001
0010
0100
0100
,
1000
0010
0100
0100
0001
0010
0100
1000
,
0010
0000
0100
0000
0001
0000
0000
0000
1000
0000
0000
0100
0000
0000
1000
0000
,
0010
0000
0000
0100
0000
0000
0001
0000
0000
0000
0001
0000
0010
0000
0001
0000
,
0100
0000
0000
0010
0000
0000
1000
0000
0000
0001
0000
0000
1000
0000
0100
0000
,
0010
0000
0000
0001
0000
0000
0010
0000
0100
1000
0000
1000
0100
0000
0010
0001
,
0000
1000
0001
1000
0010
0000
0100
0001
,
0100
0000
0000
0010
0000
0000
1000
0000
0000
0000
0010
0000
0100
0000
0001
0000
,
0100
0000
0000
0010
0000
0000
1000
0000
0001
0000
0000
0000
1000
0000
0100
0000
,
0010
0000
0000
0001
0000
0000
0010
0000
0100
1000
0000
1000
0100
0000
1000
0010
,
0000
0100
0001
0100
0001
0000
1000
0010
,
0100
0000
0000
0001
0000
0000
0100
0000
0000
0000
0010
0000
1000
0000
0010
0000
,
0100
0000
0000
0001
0000
0000
1000
0000
0010
0000
0000
0100
0000
0000
0001
0000
,
0010
0000
0000
0100
0000
0000
1000
0000
0000
0000
0000
0000
0000
0000
0000
0000
,
0002
0000
0000
0000
1003
0100
0010
0000
,
0001
0010
0100
0000
1000
0100
0010
0000
,
0001
1000
0000
0000
1000
0001
0000
0000
,
0001
1000
0000
0000
1000
0001
0000
0001
,
1000
0000
1000
0001
0100
0000
0100
0000
,
0100
0100
0200
0000
,
0000
0000
0300
0000
,
0000
0000
0000
0000
0001
0010
0100
1000
,
0000
1001
0000
1001
1000
0010
0000
0100
,
0001
0000
0000
0001
0000
0000
0001
0000
1000
0000
0100
0000
0010
0000
0001
0000
,
0000
1001
0000
1001
0001
0010
0000
0100
,
0000
0010
0000
0001
1000
0010
0100
0001
,
0000
0101
0000
0101
0001
0100
0000
0010
,
1000
0000
0000
1000
0000
0000
1000
0000
0001
0000
0100
0000
0010
0000
1000
0000
,
0000
1100
0000
1100
1000
0010
0000
0100
,
0000
0010
0000
1000
0000
0001
0000
0100
,
0000
0010
0000
0100
0000
0001
0000
1000
,
0000
0100
0000
0010
0001
1000
1000
0001
,
0001
1000
1000
0001
0001
0000
1000
0000
,
0001
0001
0200
0320
,
0230
0000
0302
0000
,
0000
0000
0000
0000
,
0000
0000
0003
0000
;

//---------------dance-double - ----------------
#NOTES:
     dance-double:
     :
     Challenge:
     16:
     0.863752,1.024194,0.388688,0.077738,0.893983,700.000000,655.000000,45.000000,9.000000,0.000000,0.000000,0.863752,1.024194,0.388688,0.077738,0.893983,700.000000,655.000000,45.000000,9.000000,0.000000,0.000000:
00000000
00000000
00000000
00000000
,
00000000
00000000
00000000
00000000
,
00000000
00000000
00000000
00000000
,
00010000
01000000
00010000
00100000
01000000
00010000
00001000
00000100
00000001
00001000
00000000
00000000
,
00000001
00000010
00000001
00000010
00000001
00000000
00000100
00000000
00001000
00000000
00010000
00001000
00010000
00000000
00001000
00010000
,
00001000
01000000
00100000
10000000
00010000
01000000
00010000
01000000
00010000
00000000
00000000
10000000
00000000
00000000
01000000
00000000
,
10000000
00100000
10000000
00100000
10000000
00000000
00010000
00000000
01000000
00000000
00010000
00100000
00010000
00000000
10000000
01000000
,
10000000
00000000
00100000
01000000
00000000
00000000
01000000
00100000
00000000
00000000
00100000
01000000
00000000
00000000
00010000
00000000
,
10000000
01000000
10000000
01000000
10000000
00000000
01000000
00000000
00010000
00000000
00001000
00010000
00001000
00000000
00010000
00001000
,
00010000
00000010
00000100
00000001
00001000
00000010
00001000
00000010
00001000
00000000
00000000
00000001
00000000
00000000
00000010
00000000
,
00000001
00000100
00000001
00000100
00000001
00000000
00001000
00000000
00000010
00000000
00001000
00000100
00001000
00000000
00000001
00000010
,
00000001
00000000
00000100
00000010
00000000
00000000
00000010
00000100
00000000
00000000
00000100
00000001
00000000
00000000
00000001
00000000
,
00000101
00000000
00000000
00000000
00001100
00000000
00000000
00000000
00010000
00000000
00000000
01000000
00000000
00000000
10000000
00010000
,
10000000
01000000
00100000
00000000
00110000
00000000
00000000
00000000
01010000
00000000
00000000
10010000
00000000
00000000
10100000
00000000
,
11000000
00000000
00000000
00000000
01010000
00000000
00000000
00000000
00001000
00000000
00000000
00000100
00000000
00000000
00000001
00000000
,
00000000
00000000
00001000
00000000
00000010
00000100
00000010
00000100
00000010
00000000
00001000
00000001
00000000
00000001
00000010
00000000
,
00000011
00000000
00000000
00000000
00001010
00000000
00000000
00000000
00010000
00000000
00000000
00100000
00000000
00000000
10000000
00010000
,
01000000
00100000
01000000
00000000
01010000
00000000
00000000
00000000
00100000
00000000
10000000
01000000
00000000
00100000
00010000
00000000
,
01010000
00000000
00000000
00000000
10100000
00000000
00000000
00000000
10000000
00000000
00000000
01000000
00000000
00000000
00010000
00000000
,
00001000
00000000
00000100
00000000
00000001
00000000
00001000
00000010
00000100
00000010
00001000
00000010
00000100
00000010
00001000
00000000
,
00001001
00000000
00000000
00000000
00000001
00000010
00000100
00000010
00000001
00000010
00000100
00000010
00000001
00000010
00000100
00000000
,
00001000
00000000
00000010
00000000
00000100
00000000
00001000
00010000
00000000
00010000
01000000
00000000
10000000
00000000
00100000
00010000
,
00000000
00010000
00001000
00000000
00000100
00000000
00000010
00010000
00000000
00010000
00001000
00000000
01000000
00000000
00100000
00010000
,
00000000
00010000
00001000
00000000
01000000
00000000
00100000
10000000
01000000
10000000
00100000
10000000
01000000
10000000
00100000
00000000
,
10100000
00000000
00000000
00000000
01000000
00010000
00100000
00010000
01000000
00010000
00100000
00010000
01000000
00010000
10000000
00000000
,
02000000
00000000
00000000
00000000
03000000
00000000
00010000
00001000
00000000
00001000
00000100
00000000
00000001
00000000
00000010
00001000
,
00000000
00001000
00010000
00000000
00100000
00000000
00010000
00001000
00000000
00001000
00000100
00000000
00001000
00000000
00010000
00100000
,
00000000
00100000
10000000
00000000
00100000
00000000
10000000
00010000
01000000
00010000
10000000
00010000
01000000
00010000
10000000
00000000
,
10010000
00000000
00000000
00000000
00010000
10000000
01000000
10000000
00010000
10000000
01000000
10000000
00010000
10000000
01000000
00000000
,
00100000
00000000
00001000
00000000
00010000
00000000
00000010
00000100
00000000
00000010
00001000
00000000
00000000
00000000
00000001
00000100
,
00000010
00001000
00000100
00000010
00000001
00000010
00000100
00001000
00000010
00000100
00000001
00001000
00000001
00000100
00000010
00001000
,
00000100
00000010
00000001
00000000
00001000
00000000
00000010
00000100
00000001
00000100
00000010
00000100
00000001
00000100
00000010
00000000
,
00001000
00000000
00000001
00000000
00000100
00000010
00001000
00000010
00000100
00000010
00001000
00000010
00000100
00000010
00001000
00000001
,
00000100
00000000
00001000
00000000
00010000
00000000
01000000
10000000
00000000
10000000
00100000
00000000
01000000
00010000
10000000
00100000
,
01000000
00010000
10000000
01000000
00100000
00010000
01000000
00100000
10000000
01000000
00100000
00000000
00010000
01000000
00010000
01000000
,
00100000
10000000
01000000
10000000
00100000
00000000
00000000
00000000
11000000
00000000
01000000
00000000
00010000
00000000
00000000
00000000
,
00011000
00001000
00000100
00000000
00000101
00000100
00000001
00000000
,
00001001
00000000
00000001
00000000
00001000
00000000
00000000
00000000
00000010
00000000
00000100
00000001
00000010
00000000
00000010
00000000
,
00000100
00000000
00001000
00000010
00000100
00000000
00000100
00000000
00000001
00000000
00000010
00000000
00001000
00000000
00000010
00000000
,
00000001
00000000
00001000
00000001
00001000
00000000
00000000
00000000
00000101
00000000
00000100
00000000
00001000
00000000
00000000
00000000
,
00011000
00010000
01000000
00000000
11000000
01000000
10000000
00000000
,
10010000
00000000
10000000
00000000
00010000
00000000
00000000
00000000
01000000
00000000
00100000
10000000
01000000
00000000
01000000
00000000
,
00100000
00000000
00010000
01000000
00100000
00000000
00100000
00000000
10000000
00000000
01000000
00000000
00010000
00000000
01000000
00000000
,
10000000
00000000
00010000
00000000
10000000
00000000
00000000
00000000
00100000
00000000
00000000
00010000
00000000
00000000
00001000
00000000
,
00010000
00000000
00000000
00100000
00000000
00000000
00010000
00000000
00000000
00000000
00001000
00000000
00000100
00000000
00000001
00000000
,
00000010
00000000
00000000
00000100
00000000
00000000
00000010
00000000
00000000
00000001
00000000
00000000
00000100
00000000
00001000
00000000
,
00010000
00000000
00000000
01000000
00000000
00000000
00010000
00000000
00000000
00001000
00000000
00001000
00010000
00000000
01000000
10000000
,
00000000
00010000
10000000
00010000
10010000
00000000
00100000
00010000
,
00001000
00000000
00000000
00010000
00000000
00000000
00100000
00000000
00000000
00000000
00010000
00000000
00001000
00000000
00000100
00000000
,
00000001
00000000
00000000
00001000
00000000
00000000
00000001
00000000
00000000
00000000
00000100
00000000
00001000
00000000
00010000
00000000
,
01000000
00000000
00000000
00010000
00000000
00000000
00001000
00000000
00000000
00010000
00000000
00010000
01000000
00000000
10000000
00010000
,
00000000
01000000
00100000
01000000
01100000
00000000
00100000
00010000
,
00001000
00000000
00000000
00000010
00000000
00000000
00001000
00000000
00000000
00000000
00010000
00000000
00100000
00000000
10000000
00000000
,
01000000
00000000
00000000
00010000
00000000
00000000
00001000
00000000
00000000
00000100
00000000
00000000
00001000
00000000
00010000
00000000
,
01000000
00000000
00000000
00010000
00000000
00000000
00001000
00000000
00000000
00000000
00000000
00000000
00000000
00000000
00000000
00000000
,
00000100
00000000
00000001
00000000
00000100
00000000
00000001
00000000
00000000
00000000
00000000
00000000
00001010
00000000
00000000
00000100
00000000
00000000
00000001
00000000
00000000
00000000
00000000
00000000
,
00000011
00000000
00000001
00000000
00000100
00000000
00000000
00001000
00010000
00000000
00000000
01000000
00000000
00000000
10000000
00000000
,
00100000
00100000
00020000
00031000
00000100
00000100
00002000
00013000
,
01000000
01000000
00020000
00031000
00000100
00002000
00013000
01000000
,
00020000
00031000
00000100
00002000
00013000
00000000
01010000
00000000
,
11000000
00000000
00000000
10100000
00000000
00000000
00110000
00000000
00010000
00000000
00001000
00000000
,
00000010
00000001
00000100
00001000
00000100
00000001
00000020
00000000
00000000
00000000
00000000
00000000
,
00000000
00000000
00000000
00000000
00000031
00000000
00000100
00000000
00000010
00001000
00000100
00001000
00000010
00000000
00000100
00000000
,
00001000
00000000
00010000
00001000
00010000
00000000
00001000
00010000
00001000
01000000
00100000
10000000
01000000
00100000
01000000
00100000
,
01000000
00000000
00000000
11000000
00000000
00000000
01010000
00000000
00100000
01000000
00010000
01000000
00100000
00000000
00010000
00000000
,
00001000
00000000
00010000
00001000
00010000
00000000
00001000
00010000
00001000
00000000
00000100
00000001
00000000
00000000
00000001
00000010
,
00000000
00000000
00000010
00001000
00000000
00000000
00001000
00000000
00010000
00100000
10000000
00100000
00010000
00000000
01000000
00000000
,
00100000
00000000
00010000
00001000
00010000
00000000
00001000
00010000
00001000
01000000
00100000
10000000
01000000
00100000
01000000
00100000
,
01000000
00000000
00000000
00110000
00000000
00000000
10100000
00000000
01000000
00010000
00100000
00010000
01000000
00000000
00100000
00000000
,
00010000
00000000
00001000
00010000
00001000
00000000
00010000
00001000
00010000
00000000
00000010
00000100
00000010
00000000
00010000
00001000
,
00010000
00000000
00000100
00000000
00011000
00000000
00001000
01000000
00001000
00000000
01000000
00100000
01000000
00000000
00001000
00010000
,
00001000
00000000
01000000
00000000
00011000
00000000
00010000
00001000
00010000
00000000
00000010
00000100
00000010
00000000
00010000
00001000
,
00010000
00000100
00011000
00100000
01000000
11000000
00100000
00101000
,
00010000
00010100
00000010
00000011
00000101
00000000
00001100
00000000
,
00001000
00000000
00010000
00000000
01000000
00000000
10000000
00000000
00100000
00000000
10000000
01000000
00010000
00000000
00010000
01000000
,
10000000
00100000
00010000
00001000
00000010
00000001
00000100
00000010
00002000
00000000
00000000
00000000
00000000
00000000
00000000
00000000
,
00000000
00000000
00003000
00000000
;

//---------------dance-single - ----------------
#NOTES:
     dance-single:
     :
     Beginner:
     2:
     0.117223,0.164653,0.008638,0.077738,0.000000,95.000000,94.000000,1.000000,9.000000,0.000000,0.000000,0.117223,0.164653,0.008638,0.077738,0.000000,95.000000,94.000000,1.000000,9.000000,0.000000,0.000000:
// measure 0
0000
0000
0000
0000
,  // measure 1
0000
0000
0000
0000
,  // measure 2
0000
0000
0000
0000
,  // measure 3
0000
0000
0000
0100
,  // measure 4
0100
0000
0000
0000
,  // measure 5
1000
0000
0001
0000
,  // measure 6
1000
0000
0000
0000
,  // measure 7
0020
0000
0030
0000
,  // measure 8
0100
0000
0000
0000
,  // measure 9
0001
0000
0010
0000
,  // measure 10
0001
0000
0000
0000
,  // measure 11
2000
0000
3000
0000
,  // measure 12
1000
1000
0000
0000
,  // measure 13
1000
0000
1000
0000
,  // measure 14
0001
0001
0000
0000
,  // measure 15
0000
0000
0001
0000
,  // measure 16
0100
0100
0000
0000
,  // measure 17
0100
0000
0100
0000
,  // measure 18
0010
0010
0000
0000
,  // measure 19
0000
0010
0000
0000
,  // measure 20
0000
0010
0000
0000
,  // measure 21
0000
1000
0000
1000
,  // measure 22
0000
1000
0000
1000
,  // measure 23
0000
0100
0000
0000
,  // measure 24
0000
0100
0000
0010
,  // measure 25
0000
0001
0000
0001
,  // measure 26
0000
0001
0000
0001
,  // measure 27
0000
0100
0000
0000
,  // measure 28
0000
0010
0000
0000
,  // measure 29
0000
1000
0000
0000
,  // measure 30
0000
0001
0000
1000
,  // measure 31
0000
0010
0000
0000
,  // measure 32
0000
0100
0000
0000
,  // measure 33
0000
0001
0000
1000
,  // measure 34
1000
1000
0000
0000
,  // measure 35
0000
0000
0010
0000
,  // measure 36
0010
0000
0010
0000
,  // measure 37
0010
0000
0100
0000
,  // measure 38
0000
0000
0000
0000
,  // measure 39
0000
0000
0100
0000
,  // measure 40
0100
0000
0100
0000
,  // measure 41
0100
0000
1000
0000
,  // measure 42
0000
0000
0000
0000
,  // measure 43
0001
0000
0001
0000
,  // measure 44
0000
0000
0000
0100
,  // measure 45
0000
0000
0010
0000
,  // measure 46
0000
0000
1000
0000
,  // measure 47
0000
0000
0100
0000
,  // measure 48
0000
0000
0000
0010
,  // measure 49
0000
0000
0001
0000
,  // measure 50
0000
0000
1000
0000
,  // measure 51
0000
0000
0010
0000
,  // measure 52
0000
0000
0000
0100
,  // measure 53
0000
0000
0001
0000
,  // measure 54
0000
0000
0000
0000
,  // measure 55
1000
0000
0010
0000
,  // measure 56
0010
0000
0010
0000
,  // measure 57
0000
0000
0100
0000
,  // measure 58
0010
0000
0100
0000
,  // measure 59
0000
0000
0002
0000
,  // measure 60
0000
0003
0001
0000
,  // measure 61
0000
0000
1000
0000
,  // measure 62
0000
0000
0100
0000
,  // measure 63
0000
0000
0010
0000
,  // measure 64
0100
0000
0010
0000
,  // measure 65
0000
0000
0002
0000
,  // measure 66
0003
0000
1000
0000
,  // measure 67
0000
0000
0010
0000
,  // measure 68
1000
0000
0010
0000
,  // measure 69
0000
0000
0200
0000
,  // measure 70
0300
0000
0002
0000
,  // measure 71
0003
0000
2000
0000
,  // measure 72
3000
0000
0000
0000
,  // measure 73
0000
0000
0000
0000
,  // measure 74
0000
0000
0010
0000
,  // measure 75
0000
0000
0220
0000
,  // measure 76
0000
0330
0000
0000
;

//---------------dance-single - ----------------
#NOTES:
     dance-single:
     :
     Easy:
     6:
     0.304781,0.461027,0.086375,0.164113,0.000000,247.000000,237.000000,10.000000,19.000000,0.000000,0.000000,0.304781,0.461027,0.086375,0.164113,0.000000,247.000000,237.000000,10.000000,19.000000,0.000000,0.000000:
0000
0000
0000
0000
,
0000
0000
0000
0000
,
0000
0000
0000
0000
,
1000
1000
1000
1000
,
0001
0000
0010
0000
0000
0010
0000
0010
,
0000
0000
0001
1000
,
0100
0000
1000
0000
0000
1000
0000
1000
,
0000
0010
0000
0010
0000
0010
0000
0000
,
0100
0000
0001
0000
0000
0001
0000
0001
,
0000
0000
0010
0100
,
0010
0000
0000
0000
0000
0010
0000
0010
,
0000
0001
0000
0001
0000
0001
0000
0000
,
1000
1000
1000
0000
,
0100
0000
0100
0000
,
0010
0010
0100
0000
,
0000
0010
0001
1000
,
0001
0001
0001
0000
,
0100
0000
0010
0000
,
1000
1000
0100
0000
,
1100
1000
0010
0100
,
0001
1000
0010
0100
,
0001
0000
0000
1000
0000
0000
0000
0001
,
0000
0000
0000
1000
0000
0000
0000
0001
,
0000
0001
0010
0100
,
1000
0001
0010
0200
,
0300
0000
0000
1000
0000
0000
0000
0001
,
0000
0000
0000
1000
0000
0000
0000
0001
,
0000
0100
0010
1000
,
0001
0100
0010
1000
,
0001
0020
0000
0130
,
0000
0100
0000
0100
,
0000
1000
0100
0010
,
0001
1000
0100
0010
,
0001
0010
0000
0001
,
0100
0010
0000
1000
,
0001
1000
0010
0010
,
0100
0100
0010
0010
,
0100
0100
0001
0010
,
0001
0010
0100
1000
,
1100
1100
1000
1000
,
0001
0001
1000
1000
,
0001
0001
1000
0100
,
1000
0100
0010
0001
,
0011
0011
0002
0000
,
0203
0000
0310
1000
,
0001
0000
2000
0000
,
3200
0000
0310
0001
,
0100
0010
0200
0000
,
0302
0000
1003
0010
,
0100
0000
0020
0000
,
2030
0000
3001
0100
,
0010
1000
0100
0010
,
0100
0000
1000
0010
,
0100
0001
0010
0100
,
0010
0000
0002
0000
,
1003
1001
1000
0100
,
0001
0100
1000
0100
,
0001
0200
1300
0200
,
0301
0000
0200
0000
1300
0000
0000
0010
,
0000
0100
0001
0001
,
0001
0001
0202
0000
,
0000
0003
0320
0000
,
0000
0030
1000
0100
,
0000
0010
0000
0010
0000
0000
0000
0000
,
0100
1000
0010
0000
,
0000
0100
0000
0100
0000
0001
0000
0010
,
0000
0001
0000
0000
0100
0000
0001
0000
,
0000
0010
0000
0010
0000
0000
0000
0000
,
0100
1000
0010
0000
,
0000
1000
0000
1000
0000
0001
0000
0100
,
0000
0001
0000
0101
0000
1000
0000
0100
,
0000
1000
0000
1100
0000
0001
0000
0100
,
0000
0001
0000
0100
0010
0010
0100
0100
,
0010
0010
0100
0100
0001
0000
0001
0000
,
1000
1000
0010
0100
,
0010
0100
2002
0000
,
0000
3003
0000
0000
;

//---------------dance-double - ----------------
#NOTES:
     dance-double:
     :
     Hard:
     14:
     0.672492,0.759886,0.086375,0.051825,0.570076,545.000000,535.000000,10.000000,6.000000,0.000000,0.000000,0.672492,0.759886,0.086375,0.051825,0.570076,545.000000,535.000000,10.000000,6.000000,0.000000,0.000000:
00000000
00000000
00000000
00000000
,
00000000
00000000
00000000
00000000
,
00000000
00000000
00000000
00000000
,
10000000
00100000
10000000
00100000
00000000
00000000
01000000
00010000
01000000
00010000
00000000
00000000
,
10000000
01000000
10000000
01000000
10000000
00000000
00010000
00000000
00000000
00000000
10000000
01000000
10000000
00000000
10000000
01000000
,
00010000
00000000
00001000
00000000
00000000
00000000
00000100
00000000
00000001
00000000
00000000
00001000
00000000
00000000
00000001
00000000
,
00001000
00000010
00001000
00000010
00001000
00000000
00000001
00000000
00000000
00000000
00001000
00000010
00001000
00000000
00001000
00000010
,
00001000
00000000
00000100
00000010
00000000
00000000
00000010
00001000
00000000
00000000
00001000
00010000
00000000
00000000
00010000
00000000
,
00100000
10000000
00100000
10000000
00100000
00000000
10000000
00000000
00000000
00000000
01000000
00100000
01000000
00000000
01000000
10000000
,
00100000
00000000
00010000
00000000
00000000
00000000
00001000
00000000
00000100
00000000
00000000
00000001
00000000
00000000
00000100
00000000
,
00000010
00001000
00000010
00001000
00000010
00000000
00000100
00000000
00000000
00000000
00000001
00000010
00000001
00000000
00000001
00000100
,
00000010
00000000
00010000
00001000
00000000
00000000
00001000
01000000
00000000
00000000
01000000
00100000
00000000
00000000
00100000
00000000
,
01000000
00000000
00000000
00000000
01000000
00000000
00000000
00000000
01000000
00000000
00000000
00010000
00000000
00000000
10000000
00000000
,
01000000
00000000
00010000
00000000
00001000
00000000
00000000
00000000
00000100
00000000
00000000
00000010
00000000
00000000
00000100
00000000
,
00000001
00000000
00000000
00000000
00000001
00000000
00000000
00000000
00000001
00000000
00000000
00001000
00000000
00000000
00000100
00000000
,
00000000
00000000
00000010
00000000
00001000
00000000
00010000
00000000
00100000
00000000
00000000
10000000
00000000
00000000
00010000
00000000
,
00100000
00000000
00000000
00000000
00100000
00000000
00000000
00000000
00100000
00000000
00000000
00010000
00000000
00000000
10000000
00000000
,
00100000
00000000
00010000
00000000
00001000
00000000
00000000
00000000
00000010
00000000
00000000
00000001
00000000
00000000
00000010
00000000
,
00000001
00000000
00000000
00000000
00000001
00000000
00000000
00000000
00000100
00000000
00000000
00001000
00000000
00000000
00010000
00000000
,
01000000
00000000
10000000
00010000
10000000
00000000
00000000
00010000
01000000
00000000
00100000
00000000
00010000
00000000
00001000
00000000
,
00000100
00000000
00000000
00000000
00000001
00001000
00000001
00001000
00000001
00000000
00000100
00000000
00000010
00000000
00000100
00000000
,
00000001
00000000
00000001
00000000
00000000
00001000
00000100
00000000
00000000
00000000
00000010
00000000
00000000
00001000
00010000
00000000
,
00000000
00000000
00100000
00000000
00000000
10000000
01000000
00000000
00000000
00000000
00010000
00000000
00000000
00001000
00000100
00000000
,
00000000
00000000
00000001
00000000
00001000
00000000
00000000
00000100
00000010
00000000
00001000
00000000
00010000
00000000
00100000
00000000
,
10000000
00000000
00000000
00000000
00010000
01000000
00010000
01000000
00010000
00000000
10000000
00000000
01000000
00000000
00200000
00000000
,
00020000
00000000
00330000
00000000
00000000
10000000
00010000
00000000
00000000
00000000
01000000
00000000
00000000
00100000
00010000
00000000
,
00000000
00000000
00001000
00000000
00000000
00000100
00000001
00000000
00000000
00000000
00000010
00000000
00000000
00001000
00010000
00000000
,
00000000
00000000
00100000
00000000
10000000
00000000
00000000
00010000
01000000
00000000
00100000
00000000
00010000
00000000
00001000
00000000
,
00000100
00000000
00000000
00000000
00000001
00001000
00000001
00001000
00000001
00000000
00000100
00000000
00000010
00000000
00001000
00000000
,
00000001
00000000
00000001
00000000
00000100
00000000
00000010
00000100
00000000
00000010
00010000
00000000
00000000
00000000
00001000
00000000
,
01000000
00100000
10000000
01000000
10000000
00000000
00010000
00100000
,
00010000
00000000
00000000
00000000
10010000
00000000
00000000
10000000
01000000
00000000
00010000
00000000
00001000
00000000
00000100
00000000
,
00000001
00000000
00000000
00000000
00001000
00000010
00001000
00000010
00001000
00000000
00000000
00000000
00000001
00000100
00000001
00000100
,
00000001
00000000
00000000
00000000
00000010
00000000
00000001
00001000
00000000
00001000
00000001
00000000
00000010
00000000
00001000
00000000
,
00010000
00000000
00100000
00000000
10000000
00010000
00000000
00010000
10000000
00000000
01000000
00000000
00100000
00000000
01000000
00000000
,
10000000
00010000
01010000
00000000
00100000
00010000
00001000
00000000
,
00000010
00000001
00001000
00000000
00000100
00000010
00001000
00000000
,
00010000
00000000
00100000
00000000
10000000
00000000
00000000
00000000
00010000
00000000
01000000
00100000
01000000
00000000
00010000
00000000
,
01000000
00000000
00100000
10000000
00100000
00000000
01000000
00000000
00010000
00000000
10000000
00000000
00010000
00000000
10000000
00000000
,
01000000
00010000
00001000
00000000
00000100
00000001
00000010
00000000
,
00001000
00010000
00100000
00000000
00010000
00001000
01000000
00000000
,
00100000
00000000
00010000
00000000
00001000
00000000
00000000
00000000
00000100
00000000
00000001
00001000
00000001
00000000
00000100
00000000
,
00000010
00000000
00001000
00000100
00001000
00000000
00000001
00000000
00000010
00000000
00000100
00000000
00000010
00000000
00000100
00000000
,
00010000
00000000
00001000
00000000
01000000
00000000
00000000
00000000
00100000
00000000
00000000
10000000
00000000
00000000
01000000
00000000
,
10000000
00000000
00000000
00100000
00000000
00000000
00010000
00000000
00000000
00000000
00001000
00000000
00000100
00000000
00000001
00000000
,
00001000
00000000
00000000
00000001
00000000
00000000
00000010
00000000
00000000
00000001
00000000
00000000
00001000
00000000
00000010
00000000
,
00000100
00000000
00000000
00001000
00000000
00000000
00010000
00000000
00000000
01000000
00000000
01000000
10000000
00000000
10000000
00100000
,
00000000
01000000
00010000
01000000
00100000
00000000
10000000
01000000
,
10000000
00000000
00000000
00100000
00000000
00000000
01000000
00000000
00000000
00000000
00100000
00000000
00010000
00000000
00001000
00000000
,
00000010
00000000
00000000
00000100
00000000
00000000
00000010
00000000
00000000
00000001
00000000
00000000
00000100
00000000
00000010
00000000
,
00001000
00000000
00000000
00000010
00000000
00000000
00000100
00000000
00000000
00000001
00000000
00000001
00000010
00000000
00000010
00000100
,
00000000
00000010
00001000
00010000
00100000
00000000
10000000
00010000
,
10000000
00000000
00000000
00100000
00000000
00000000
01000000
00000000
00000000
00000000
00100000
00000000
00010000
00000000
00001000
00000000
,
00000100
00000000
00000000
00000001
00000000
00000000
00000010
00000000
00000000
00000100
00000000
00000000
00010000
00000000
00001000
00000000
,
00100000
00000000
00000000
01000000
00000000
00000000
10000000
00000000
00000000
00000000
00000000
00000000
00000000
00000000
00000000
00000000
,
01000000
00000000
00010000
00000000
00001000
00000000
00000100
00000000
00000000
00000000
00000000
00000000
00000001
00000000
00000000
00001000
00000000
00000000
00001001
00000000
00000000
00000000
00000000
00000000
,
00001000
00000000
00000001
00000000
00001001
00000000
00000000
00000000
00000010
00000000
00000000
00000010
00000000
00000000
00000010
00000000
,
00000100
00001000
00020000
01030000
00010000
00001000
00000200
00001300
,
00010000
01000000
00020000
00031000
00000100
00000001
00000000
00000010
,
00001000
00000000
00010000
00100000
10100000
00000000
11000000
00000000
,
01010000
00000000
00000000
00011000
00000000
00000000
00001000
00000000
00000100
00000000
00000001
00000000
,
00001000
00000001
00001000
00000001
00001000
00000001
00001000
00000000
00000000
00000000
00000000
00000000
,
00000000
00000000
00000000
00000000
00000000
00000000
00000000
00000000
00000001
00000010
00000001
00000010
00000001
00000000
00001000
00000000
,
00000000
00000000
00000001
00000010
00000001
00000000
00000001
00000010
00001000
00000000
00010000
00000000
00000000
00000000
00100000
00000000
,
10000000
00000000
00000000
00010000
00000000
00000000
10000000
00000000
00010000
01000000
00010000
01000000
00010000
00000000
10000000
00000000
,
00000000
00000000
00010000
01000000
00010000
00000000
00010000
01000000
00010000
00000000
00100000
01000000
00000000
00000000
01000000
00010000
,
00000000
00000000
00010000
00001000
00000000
00000000
00001000
00000000
00000100
00000001
00000100
00000001
00000100
00000000
00000001
00000000
,
00000000
00000000
00000010
00000100
00000010
00000000
00000010
00000001
00000100
00000000
00001000
00000000
00000000
00000000
00010000
00000000
,
00100000
00000000
00000000
10000000
00000000
00000000
00100000
00000000
01000000
00010000
01000000
00010000
01000000
00000000
00100000
00000000
,
00000000
00000000
10000000
01000000
10000000
00000000
10000000
00100000
01000000
00000000
00001000
00010000
00000000
00000000
00010000
00000010
,
00000000
00000000
00000010
00000100
00000000
00000000
00000100
00000000
00000001
00000000
00000010
00000100
00000000
00000000
00000100
00010000
,
00000000
00000000
00010000
00001000
00000000
00000000
00001000
00000000
01000000
00000000
00100000
10000000
00000000
00000000
10000000
00010000
,
00000000
00000000
00010000
01000000
00000000
00000000
01000000
00000000
00100000
00000000
00010000
00000000
00001000
00000000
00000100
00000000
,
00000001
00000010
00001000
00010000
00110000
00000000
10100000
00000000
,
10000000
00000000
01000000
00000000
00010000
00000000
00001000
00000000
00000100
00000000
00000001
00000010
00000001
00000000
00001000
00000100
,
00001000
00000010
00010000
00000010
00010000
00001000
01000000
00001000
02000000
00000000
00000000
00000000
00000000
00000000
00000000
00000000
,
00000000
00000000
03000000
00000000
;

//---------------dance-double - ----------------
#NOTES:
     dance-double:
     :
     Medium:
     13:
     0.565140,0.625680,0.060463,0.025913,0.280719,458.000000,451.000000,7.000000,3.000000,0.000000,0.000000,0.565140,0.625680,0.060463,0.025913,0.280719,458.000000,451.000000,7.000000,3.000000,0.000000,0.000000:
00000000
00000000
00000000
00000000
,
00000000
00000000
00000000
00000000
,
00000000
00000000
00000000
00000000
,
00000001
00000100
00000001
00000100
00000000
00000000
00000010
00001000
00000010
00001000
00000000
00000000
,
00000001
00000010
00001000
00010000
00000000
00100000
00000000
00100000
,
10000000
00000000
01000000
00000000
00000000
00000000
00100000
00000000
00010000
00000000
00000000
10000000
00000000
00000000
00010000
00000000
,
10000000
00100000
00010000
00001000
00000000
00000010
00000000
00000010
,
00000001
00000000
00000100
00000010
00000000
00000000
00001000
00000010
00000000
00000000
00000100
00000010
00000000
00000000
00001000
00000000
,
00000001
00000100
00001000
00010000
00000000
01000000
00000000
01000000
,
10000000
00000000
00010000
00000000
00000000
00000000
01000000
00000000
00100000
00000000
00000000
10000000
00000000
00000000
00100000
00000000
,
10000000
01000000
00010000
00001000
00000000
00000100
00000000
00000100
,
00000001
00000000
00001000
00000100
00000000
00000000
00000100
00010000
00000000
00000000
00010000
00001000
00000000
00000000
00001000
00000000
,
01000000
00000000
00000000
00000000
01000000
00000000
00000000
00000000
00100000
00000000
00000000
00100000
00000000
00000000
00100000
00000000
,
10000000
00000000
01000000
00000000
00010000
00000000
00000000
00000000
00001000
00000000
00000000
00000100
00000000
00000000
00000001
00000000
,
00000010
00000000
00000000
00000000
00000010
00000000
00000000
00000000
00000100
00000000
00000000
00000100
00000000
00000000
00000100
00000000
,
00000000
00000000
00001000
00000000
00000010
00000000
00000100
00000000
00000001
00000000
00000000
00001000
00000000
00000000
00000001
00000000
,
00001000
00000000
00000000
00000000
00001000
00000000
00000000
00000000
00000100
00000000
00000000
00000010
00000000
00000000
00000001
00000000
,
00000100
00000000
00001000
00000000
00010000
00000000
00000000
00000000
00100000
00000000
00000000
00100000
00000000
00000000
00100000
00000000
,
10000000
00000000
00000000
00000000
00010000
00000000
00000000
00000000
10000000
00000000
00000000
00010000
00000000
00000000
10000000
00000000
,
01010000
00100000
00010000
00000000
00001000
00000100
00000001
00001000
,
00000001
00000000
00000010
00001000
00010000
00000000
00100000
10000000
,
00010000
00000000
10000000
00000000
00100000
00000000
01000000
00100000
00000000
00000000
01000000
00000000
00000000
00000000
00010000
00100000
,
00000000
00000000
00010000
00000000
00000000
00000000
00100000
00001000
00000000
00000000
00100000
00000000
00000000
00000000
00001000
00010000
,
00000000
00001000
01000000
00000000
00100000
00010000
00001000
00000100
,
00000001
00000000
00000010
00000001
00000010
00000001
00000100
00001000
,
00010000
00000000
00001000
00000000
00000000
00000000
01000000
00001000
00000000
00000000
01000000
00000000
00000000
00000000
00100000
01000000
,
00000000
00000000
00100000
00000000
00000000
00000000
10000000
00010000
00000000
00000000
10000000
00000000
00000000
00000000
00010000
00100000
,
00000000
00010000
10000000
00000000
01000000
00010000
00001000
00000100
,
00000001
00000000
00000010
00001000
00000010
00000001
00000100
00001000
,
00000100
00000000
00000001
00000000
00001000
00000000
00000010
00010000
00000000
00010000
00000010
00000000
00000000
00000000
00000100
00000000
,
00001000
00000000
00010000
01000000
10000000
00000000
01000000
00010000
,
00001000
00000100
00000001
00000000
00000001
00000010
00001000
00010000
,
00100000
00000000
10000000
00010000
10000000
00010000
10000000
00010000
,
10000000
00000000
00000000
00000000
01000000
00000000
00100000
00001000
00000000
00001000
00100000
00000000
01000000
00000000
10000000
00000000
,
01000000
10000000
00100000
00010000
00001000
00000100
00000001
00001000
,
00000001
00001000
00001001
00000000
00000001
00000100
00000010
00000000
,
00001000
00000010
00000100
00000000
00000001
00000100
00000010
00000000
,
00001000
00000010
00000100
00000000
00000001
00000100
00001000
00001000
,
00010000
01000000
10000000
10000000
00100000
01000000
00100000
01000000
,
00100000
10000000
00100000
00000000
10000000
01000000
00100000
00000000
,
00010000
00100000
01000000
00000000
10000000
01000000
00100000
00000000
,
00010000
00100000
01000000
00000000
10000000
01000000
00010000
00010000
,
00001000
00000100
00000001
00000001
00001000
00000010
00001000
00000010
,
00000100
00000001
00000100
00000000
00000001
00000000
00000010
00000100
,
00001000
00000000
00000000
00000010
00000000
00000000
00000100
00000000
00000000
00000000
00001000
00000000
00010000
00000000
01000000
00000000
,
10000000
00000000
00000000
00100000
00000000
00000000
10000000
00000000
00000000
01000000
00000000
00000000
00010000
00000000
00001000
00000000
,
00000100
00000000
00000000
00000001
00000000
00000000
00000100
00000000
00000000
00000010
00000000
00000000
00001000
00000000
00000000
00000001
,
00000000
00000100
00000010
00000100
00000001
00000000
00000010
00000100
,
00001000
00000000
00000000
00000010
00000000
00000000
00000100
00000000
00000000
00000000
00001000
00000000
00010000
00000000
01000000
00000000
,
10000000
00000000
00000000
00100000
00000000
00000000
10000000
00000000
00000000
00010000
00000000
00000000
01000000
00000000
00100000
00000000
,
00010000
00000000
00000000
00001000
00000000
00000000
00000100
00000000
00000000
00000001
00000000
00000000
00001000
00000000
00000000
00000010
,
00000000
00000100
00000010
00000100
00000001
00000000
00000010
00000100
,
00000010
00000000
00000000
00000001
00000000
00000000
00001000
00000000
00000000
00000000
00000100
00000000
00000010
00000000
00001000
00000000
,
00010000
00000000
00000000
00100000
00000000
00000000
10000000
00000000
00000000
00010000
00000000
00000000
01000000
00000000
00100000
00000000
,
10000000
00000000
00000000
00010000
00000000
00000000
10000000
00000000
00000000
00000000
00000000
00000000
00000000
00000000
00000000
00000000
,
00200000
01300000
00010000
01010000
,
00100000
00101000
00001000
00010000
,
00000100
00010100
00000010
00000011
,
00000100
00000000
00010100
00000000
00000010
00000001
00000000
00000001
,
00000100
00000000
00000100
00001000
00010000
00000000
00010000
00000000
,
01000000
01000000
20000000
00000000
,
30010000
10000000
00010000
10000000
00010000
10000000
00010000
00000000
00000000
00000000
00000000
00000000
,
00000000
00000000
00000000
00000000
10000000
01000000
00010000
00001000
,
00000000
00000100
00000000
00000100
00000001
00000010
00000000
00000100
,
00001000
00000000
00000000
00000001
00000000
00000000
00001000
00000000
00000001
00000000
00000100
00000000
00001000
00000000
00010000
00000000
,
00000000
00000000
01000000
00000000
00000000
00000000
01000000
00000000
10000000
00000000
00100000
01000000
00000000
00000000
00010000
01000000
,
00000000
00000000
00100000
01000000
00000000
00000000
00010000
00000000
10000000
00000000
00100000
00000000
00010000
00000000
00001000
00000000
,
00000000
00000010
00000000
00000010
00000001
00001000
00000000
00000010
,
00000100
00000000
00000000
00000001
00000000
00000000
00000100
00000000
00000001
00000000
00000010
00000000
00001000
00000000
00010000
00000000
,
00000000
00000000
00100000
00000000
00000000
00000000
00100000
00000000
10000000
00000000
00010000
00100000
00000000
00000000
01000000
00100000
,
00000000
00000000
00010000
00100000
00000000
00000000
01000000
00000000
00100000
00000000
00001000
00010000
00000000
00000000
00000100
00010000
,
00000000
00000000
00001000
00010000
00000000
00000000
00000100
00000000
00000010
00000000
00000001
00001000
00000000
00000000
00000010
00001000
,
00000000
00000000
00000001
00001000
00000000
00000000
00000010
00000000
00000100
00000000
00000001
00000000
00001000
00000000
00000010
00000000
,
00010000
00001000
01000000
00100000
10000000
00000000
10000000
00000000
,
00010000
00000000
00010000
00000000
01000000
00100000
00010000
00000000
,
00001000
00000100
00000001
00000100
00002000
00000000
00000000
00000000
,
00000000
00003000
00000000
00000000
;

//---------------dance-double - ----------------
#NOTES:
     dance-double:
     :
     Easy:
     6:
     0.306015,0.462539,0.025913,0.146838,0.000000,248.000000,245.000000,3.000000,17.000000,0.000000,0.000000,0.306015,0.462539,0.025913,0.146838,0.000000,248.000000,245.000000,3.000000,17.000000,0.000000,0.000000:
00000000
00000000
00000000
00000000
,
00000000
00000000
00000000
00000000
,
00000000
00000000
00000000
00000000
,
00000100
00000010
00000100
00000010
,
00001000
00000000
00000100
00000000
00000000
00000100
00000000
00000100
,
00000000
00000000
00010000
00001000
,
00100000
00000000
00010000
00000000
00000000
00010000
00000000
00010000
,
00000000
01000000
00000000
00100000
00000000
01000000
00000000
00000000
,
00100000
00000000
10000000
00000000
00000000
10000000
00000000
10000000
,
00000000
01000000
00100000
00001000
,
00010000
00000000
00001000
00000000
00000000
00001000
00000000
00001000
,
00000000
00010000
00000000
00000100
00000000
00000010
00000000
00000000
,
00000001
00000001
00000001
00000000
,
00000100
00001000
00010000
01000000
,
10000000
10000000
10000000
00000000
,
00000000
00100000
01000000
00100000
,
10000000
10000000
10000000
00000000
,
01000000
00010000
00001000
00000100
,
00000001
00000001
00000001
00000000
,
00001001
00000000
00000010
00000000
00000010
00000001
00000010
00000000
,
00000010
00000001
00000100
00000010
,
00001000
00000000
00000000
00000100
00000000
00010000
00000000
00001000
,
00000000
00100000
00000000
00001000
00000000
01000000
00000000
00100000
,
00000000
00000000
10000000
00000000
10000000
00100000
10000000
00000000
,
10000000
00010000
10000000
00100000
,
01000000
00000000
00000000
00001000
00000000
00010000
00000000
00000010
,
00000000
00001000
00000000
00000010
00000000
00000100
00000000
00000001
,
00000000
00000000
00000100
00000000
00000100
00000010
00000100
00000000
,
00000100
00000010
00010000
00001000
,
00100000
00000000
00000000
02000000
00000000
00000000
00000000
00000000
,
23000000
30020000
00000000
00230000
,
00000000
00000000
01300000
00000000
01000000
00100000
01000000
00000000
,
01000000
00100000
00001000
00010000
,
00000010
00000200
00000000
00000301
,
00001000
00000001
00000010
00000002
,
00000000
00001003
00000001
00000100
,
00000100
00001000
00001000
00010000
,
00010000
01000000
10000000
00000000
,
00010000
00000000
10000000
00010000
,
10000000
00010000
10000000
01000000
,
01000000
00010000
00010000
00001000
,
00001000
00000100
00000001
00000000
,
00001000
00000000
00000001
00001000
,
00000001
00001000
00000010
00000000
,
00000000
00000000
00000000
00000100
,
00000010
00000000
00010000
00000000
,
00001000
00000000
01000000
01000000
,
00000000
00100000
10000000
00000000
,
00000000
00000000
00000000
01000000
,
00000000
00000000
00100000
00000000
,
00001000
00000000
00010000
00000000
,
00000000
00000100
00000010
00000000
,
00000001
00001000
00000010
00000000
,
00000100
00000010
00010000
00001000
,
01000000
00000000
00100000
00000000
,
01000000
01000000
00100000
10000000
,
01000000
00010000
00001000
00000010
,
00000001
00002000
00003001
00002000
,
00003001
00000000
00002000
00000000
00003001
00000000
00000000
00000100
,
00000000
00000010
00010000
00010000
,
00001000
00001000
00200000
00000000
,
02000000
03300000
11000000
00000000
,
00000000
00000000
00010000
00100000
,
00000000
00100000
00000000
00100000
00000000
00000000
00000000
00000000
,
00001000
00010000
00000100
00001000
,
00000000
00001000
00000000
00001000
00000000
00000010
00000000
00000100
,
00000000
00000010
00000000
00000000
00000100
00000000
00000001
00000000
,
00000000
00000001
00000000
00000001
00000000
00000000
00000010
00000000
,
00000100
00010000
00001000
00010000
,
00000000
00010000
00000000
00010000
00000000
00001000
00000000
00100000
,
00000000
01000000
00000000
10000000
00000000
01000000
00000000
00100000
,
00000000
00001000
00000000
00010000
00000000
00000100
00000000
00000010
,
00000000
00000001
00000000
00000000
00000100
00000020
00000130
00000020
,
00000130
00000020
00000130
00000020
00010030
00000000
00010000
00000000
,
00001000
00010000
00001000
00000000
01000000
00000000
00100000
00000000
,
10000000
00010000
20020000
00000000
,
00000000
00000000
30030000
00000000
;
