#TITLE:Possession;
#SUBTITLE:(Wavelength Remix);
#ARTIST:TAG Underground;
#TITLETRANSLIT:;
#SUBTITLETRANSLIT:;
#ARTISTTRANSLIT:;
#GENRE:Hardcore;
#CREDIT:;
#BANNER:;
#BACKGROUND:;
#LYRICSPATH:;
#CDTITLE:;
#MUSIC:Possession (Wavelength Remix).mp3;
#OFFSET:-0.040000;
#SAMPLESTART:44.079998;
#SAMPLELENGTH:11.999990;
#SELECTABLE:YES;
#BPMS:0.000000=370.000000
,144.000000=92.500000
,160.000000=370.000000
,288.000000=92.500000
,308.000000=185.000000
,340.000000=370.000000
;
#STOPS:
;
#BGCHANGES:;
#KEYSOUNDS:;
#ATTACKS:;

//---------------dance-single - ----------------
#NOTES:
     dance-single:
     :
     Challenge:
     18:
     1.091581,2.374988,1.322676,0.190313,0.808831,803.000000,664.000000,139.000000,20.000000,0.000000,0.000000,1.091581,2.374988,1.322676,0.190313,0.808831,803.000000,664.000000,139.000000,20.000000,0.000000,0.000000:
0000
0000
0000
0000
,
0000
0000
0000
0000
,
0000
0000
0000
0000
,
0000
0000
0000
0000
,
0010
1000
1010
0000
,
0100
0101
0000
0001
,
0011
0000
0100
1100
,
0000
0000
0010
1000
0100
0000
0010
0001
,
0010
0001
0011
0000
,
0100
1000
0100
0000
1000
0010
1000
0000
,
1001
0000
0010
1000
0010
0000
1001
0000
,
0001
1000
0001
0100
0010
1000
0001
1000
,
0001
0100
0101
0100
,
0010
1010
1000
0010
,
0101
0010
1000
1010
,
0100
0000
0001
1000
0100
0000
0010
0100
,
1000
0001
1100
0001
,
0010
0100
1000
0000
0010
0100
0001
0000
,
0101
0001
0010
1100
,
1000
0001
1000
0001
0100
0001
0010
0100
,
1000
0000
0010
0100
0001
0000
0010
0000
,
0100
0000
1200
0000
0010
0000
1300
0100
,
0010
0000
1000
0000
0010
0000
1000
0010
,
0002
0000
0013
0001
2000
0000
0010
0000
,
3100
0010
0110
0010
,
1000
0000
0001
0000
0100
0000
1000
0100
,
0002
0000
0010
0000
0100
0000
0013
0001
,
2000
0000
3010
0100
0010
1000
0001
0100
,
0001
0010
0001
0100
0001
0010
0100
1000
,
0001
0010
0001
0100
0001
0010
0100
1000
,
0010
0100
0010
1000
0010
0100
0001
1000
,
0010
0100
0010
1000
0010
0100
0001
1000
,
0001
0011
1001
0101
,
1001
0011
1001
1010
,
1000
0100
0010
0100
1000
0010
0100
0010
,
0100
0001
0010
0001
0100
0010
1000
0010
,
2000
0000
0000
0000
0000
0000
0020
0000
0000
0000
0000
0000
3000
0000
0130
0010
0002
0000
0000
0000
0000
0000
0000
0000
0000
0000
0000
0000
0003
0000
0000
0000
,
1010
0000
0000
0000
0001
0000
1001
0000
0000
0000
1000
0000
1010
0000
0000
0000
1001
0000
0000
0000
0001
0000
0101
0000
0000
0000
0110
0000
1000
0001
1000
0010
,
1010
0000
1000
1100
0000
0100
0110
0000
0011
0000
0001
0101
0000
0001
1001
0010
,
1100
0110
0101
0110
1001
0000
0000
0000
,
0001
0100
0001
0000
1000
0000
0001
0100
,
0001
1000
0100
0020
,
0001
0000
0130
0000
1000
0000
0010
0100
,
0010
1000
0001
1001
,
1000
0100
1000
0000
0001
0000
1000
0100
,
1000
0001
0010
0210
,
1000
0000
0310
0000
0001
0000
0100
0010
,
0100
0000
0010
1000
0000
1000
0001
0000
,
1000
0100
0010
0100
1000
0000
0001
0000
,
0100
0010
1000
0000
0010
0000
0100
0001
,
1000
0000
0001
0010
0100
0000
0010
0000
,
0001
1000
0100
1000
0001
0000
0100
0000
,
0010
0100
0001
0100
0010
0000
1000
0000
,
0010
1000
0001
0000
1000
0000
0100
1000
,
0001
1001
1010
0101
,
0001
0100
0010
1000
0010
0100
0001
1000
,
0010
0100
0010
0000
1000
0000
0010
0100
,
0010
0000
1000
0000
0001
0010
0001
0000
,
1000
0010
1000
0000
0100
0000
0010
0100
,
0010
0001
0100
0010
,
1000
0100
1000
0000
0001
0000
0100
0010
,
0100
0000
0010
0000
1000
0001
1000
0000
,
0100
0010
0100
0000
0010
0000
0001
0100
,
0001
0000
1000
0100
0000
0010
0100
0010
,
0200
1000
0310
0000
0100
0000
0002
0010
,
0103
0000
0010
0000
0001
0000
2000
0010
,
3100
0000
0010
0100
0001
0000
0010
0000
,
0200
1000
0301
0000
1000
0000
0010
0000
,
0200
0001
0310
0000
0001
0000
0200
0010
,
1300
0001
0100
0010
,
1000
0100
0010
0001
0100
0010
1000
0000
,
0101
0000
0000
1100
0000
0000
0101
0000
,
2002
0000
0003
0000
0020
0000
0000
3030
,
1000
0000
0010
0000
0110
0000
0000
0000
0001
0000
0110
0000
0000
0000
1000
0000
0110
0000
0000
0000
0100
0000
0110
0000
0000
0000
0010
1000
0100
0001
0100
1000
,
0010
0000
1000
0000
1010
0000
0000
0000
0010
0000
1010
0000
0000
0000
0100
0000
0101
0000
0000
0000
0010
0000
1010
0000
0000
0000
0100
0001
0010
1000
0010
0001
,
0100
0000
0001
0000
0101
0000
0000
0000
1000
0000
1100
0000
0000
0000
0001
0000
0101
0000
0000
0000
1000
0000
1100
0000
0000
0000
0010
0100
0001
1000
0100
0010
,
0001
0000
0010
0000
0011
0000
0000
0000
0100
0000
0110
0000
0000
0000
0100
0000
1100
0000
0010
0000
0100
0000
0001
0000
1000
0100
0010
0001
1000
0100
0010
0001
,
1000
0010
0100
0000
1001
0000
0000
0000
0100
0000
0101
0000
0000
0000
0001
0000
,
0011
0000
0000
0000
0100
1000
0010
0000
0100
0000
0001
1000
0010
0000
1000
0100
,
0010
0001
0100
0000
0101
0000
0000
0000
0010
1000
0100
0000
0010
0000
1000
0010
,
0001
0000
0100
0010
1000
0000
1100
0000
1000
0010
0100
0001
0010
0100
0010
0001
,
1000
0010
0100
0000
1001
0000
0000
0000
0100
0000
1100
0000
0000
0000
0100
0000
,
0101
0000
0000
0000
0010
0100
1000
0000
0100
0010
0001
1000
0010
0000
0100
0000
,
0110
1100
0101
0000
0011
1001
0000
0100
,
1100
1000
0100
0010
0001
0100
0010
1000
0100
0010
0001
0100
,
0101
0000
0000
0000
0011
0000
0000
0000
1010
0000
0000
0000
,
1100
0000
0000
0000
1010
0000
0000
0000
0011
0000
0000
0000
,
1001
0000
0000
0000
0101
0000
0000
0000
1100
0000
0000
0000
,
1001
0000
0000
0000
0011
0000
0000
0000
0110
0000
0000
0000
,
1100
0000
0000
0000
1010
0000
0000
0000
0011
0000
0000
0000
,
1001
0000
0000
0000
0101
0000
0000
0000
1100
0000
0000
0000
,
1010
0000
0000
0000
0011
0000
0000
0000
0101
0000
0000
0000
,
0011
0000
0000
0000
1010
0000
0000
0000
1000
0000
0001
0000
,
1001
0000
0000
0000
0101
0000
0000
0000
0011
0000
0000
0000
,
1001
0000
1000
0000
0100
0000
0010
0000
0100
0000
1000
0000
,
1001
0000
0000
0000
1100
0000
0000
0000
1010
0000
0000
0000
,
1001
0000
0001
0000
0010
0000
0100
0000
0010
0000
0001
0000
,
0101
0000
0000
0000
1010
0000
0000
0000
1100
0000
0000
0000
,
0011
0000
0010
0000
0100
0000
1000
0000
0100
0000
0010
0000
,
0001
0000
0100
0000
0010
0000
0001
0000
0010
0000
1000
0000
,
0100
0000
0010
0000
1000
0000
0010
0000
0001
0000
1000
0000
,
1010
0000
0000
0000
0011
0000
0000
0000
1010
0000
0000
0000
,
0011
0000
0010
0000
0100
0000
0001
0000
0100
0000
1000
0000
,
1100
0000
0000
0000
0101
0000
0000
0000
1100
0000
0000
0000
,
0101
0000
0100
0000
0010
0000
0001
0000
0010
0000
1000
0000
,
1010
0000
0000
0000
0011
0000
0000
0000
1010
0000
0000
0000
,
0011
0000
0001
0000
1000
0000
0010
0000
1000
0000
0100
0000
,
1100
0000
0000
0000
0101
0000
0000
0000
1100
0000
0000
0000
,
0101
0000
0001
0000
1000
0000
0010
0000
1000
0000
0001
0000
,
0011
0000
0010
0000
0100
0000
1000
0000
0100
0000
0010
0000
,
0110
0000
0010
0000
0001
0000
0100
0000
0001
0000
0010
0000
,
0110
0000
0100
0000
1000
0000
0010
0000
1000
0000
0100
0000
,
0110
0000
0100
0000
0010
0000
0001
0000
0010
0000
0100
0000
,
0110
0000
0001
0000
0010
0000
1000
0000
0010
0000
0001
0000
,
0110
0000
1000
0000
0100
0000
0001
0000
0100
0000
1000
0000
,
0110
0000
0000
0000
0101
0000
0000
0000
1010
0000
0000
0000
,
1001
0000
0010
0000
1000
0010
0001
0010
,
2000
0000
0000
0000
,
0000
0000
0000
0000
,
0000
0000
0000
0000
,
0000
0000
0000
0000
,
0000
0000
0000
3000
;

//---------------dance-single - ----------------
#NOTES:
     dance-single:
     :
     Hard:
     16:
     0.971956,2.187649,1.284613,0.142735,0.689885,715.000000,580.000000,135.000000,15.000000,0.000000,0.000000,0.971956,2.187649,1.284613,0.142735,0.689885,715.000000,580.000000,135.000000,15.000000,0.000000,0.000000:
0000
0000
0000
0000
,
0000
0000
0000
0000
,
0000
0000
0000
0000
,
0000
0000
0000
0000
,
0100
0001
0101
0000
,
0010
1010
0000
0100
,
0101
0000
0010
1010
,
0000
0000
1000
0001
1000
0000
0020
0000
,
0000
0100
0130
0000
,
0000
0000
1000
0100
1000
0000
0001
0010
,
0001
0000
0100
0110
,
0000
0000
0010
1000
0010
1000
0010
0000
,
1000
0100
1100
0000
,
0010
0011
0000
0100
,
1100
0000
0010
0011
,
0000
0000
0100
0010
0100
0000
0002
0000
,
0000
1003
0100
0001
,
0100
1000
0100
1000
,
0100
0000
0010
0011
,
0000
0000
0100
1000
0010
0000
0100
0000
,
0200
0001
0310
0100
,
0010
0200
1000
0310
,
0200
0010
1300
0001
,
0000
0000
1000
0001
1000
0000
0010
0000
,
0200
0001
1300
0010
,
1000
0001
0010
0100
,
1001
0000
0010
0110
,
0000
0000
0010
0100
0010
1000
0001
0000
,
1000
0100
1000
0010
1000
0100
1000
0010
,
0100
0001
0100
0010
0100
0001
0100
0010
,
1000
0010
1000
0100
1000
0010
1000
0100
,
0010
0001
0010
0100
0010
0001
0010
0100
,
0010
0010
0101
0010
,
1100
0010
1100
1001
,
0001
0010
0100
1000
0001
0010
0100
1000
,
0001
0010
0100
1000
0001
0010
0100
1000
,
0002
0000
0000
2000
0003
0000
3000
0020
0000
0000
0000
0000
0000
0000
0030
0000
,
0110
0000
1000
1001
0000
0010
0110
0000
0101
0000
0001
1001
0000
0110
0010
1000
,
1100
0000
0100
0110
0000
0010
0011
0000
1001
0000
0010
1001
0000
0100
0110
0010
,
1100
0110
0011
0110
1100
0000
0000
0000
,
1000
0100
1000
0000
0010
0000
0000
0000
,
0100
0001
0100
0000
0010
0000
2000
0000
,
0000
3001
1000
0000
,
0010
0100
0010
1000
0100
0010
0001
0000
,
0100
0010
0100
0000
0001
0000
0000
0000
,
1000
0100
1000
0000
0010
0000
0100
0001
,
1000
0010
1000
0000
,
1100
0000
1000
0001
0000
0100
0001
0000
,
0010
0001
0010
0000
0100
0000
0000
0000
,
0100
1000
0100
0000
1000
0000
0002
0000
,
0000
0103
0010
0000
,
0100
0001
0100
0010
0100
1000
0100
0000
,
0001
0010
0100
0000
0010
0000
0000
0000
,
0001
1000
0100
0000
0010
0000
0001
0000
,
1000
0001
0110
1000
,
0001
0000
1000
0000
0001
1000
0001
1000
,
0010
0100
0010
0000
1000
0000
0010
0100
,
0010
0000
1000
0000
0001
0010
0001
0000
,
1000
0100
1000
0000
0100
0000
0010
0100
,
0010
0001
0100
0010
,
1000
0100
1000
0000
0001
0000
0100
0010
,
0100
0000
0010
0000
1000
0001
1000
0000
,
0010
0000
1000
0100
1000
0000
0001
0000
,
0100
0000
0010
1000
0001
1000
0010
0000
,
0100
0001
0010
0000
0100
0000
0010
0001
,
0100
0000
0010
0000
0100
0000
1000
0010
,
0100
0000
0001
0010
0100
0000
0010
0100
,
1000
0010
0100
0001
,
0100
0001
1000
0000
0001
0000
0010
0001
,
1000
0000
0010
0000
0100
1000
0010
0000
,
1010
1100
0110
0011
,
0101
0000
0000
1001
0000
0000
0110
0000
,
2200
0000
0000
0000
0000
0000
0000
0300
0002
0000
0000
0000
0000
0000
0000
3003
,
1000
0000
0100
0000
0010
0000
0000
0000
1000
0000
0100
0000
0000
0000
0010
0000
0011
0000
0000
0000
0001
0000
1001
0000
0000
0000
0001
1000
0001
1000
0010
0100
,
0001
0000
0010
0000
0100
0000
0000
0000
0001
0000
0010
0000
0000
0000
0100
0000
1100
0000
0000
0000
1000
0000
1001
0000
0000
0000
0010
0100
0010
0100
0001
1000
,
0010
0000
0100
0000
0001
0000
0000
0000
0010
0000
0100
0000
0000
0000
1000
0000
1001
0000
0000
0000
1000
0000
1001
0000
0000
0000
0100
0010
0100
0010
1000
0000
,
1001
0000
0010
0000
0100
0000
0000
0000
0001
0000
0011
0000
0000
0000
0001
0000
0011
0000
0010
0000
0100
0000
0010
0000
0100
1000
0100
1000
0100
1000
0100
0000
,
1100
1000
0010
0000
0100
0110
0000
0001
,
1100
0000
0000
0000
0010
0000
0110
0000
0000
0000
0100
0001
0100
0010
1000
0100
,
0010
0001
1001
0000
0010
1010
0000
0100
,
0011
0000
0000
0000
1000
0000
1010
0000
1000
0001
1000
0100
1000
0100
0010
0001
,
0100
0001
1010
0000
0001
0011
0000
0100
,
1001
0000
0000
0000
0001
0000
0011
0000
0000
0000
0100
1000
0100
0010
0001
0100
,
0010
0110
1010
0000
1001
1100
0000
0010
,
0001
0100
0010
1000
0100
0010
0001
0100
0010
1000
0100
1000
,
1100
0000
0000
0000
1100
0000
0000
0000
1100
0000
0000
0000
,
1010
0000
0000
0000
0011
0000
0000
0000
1010
0000
0000
0000
,
0101
0000
0000
0000
0101
0000
0000
0000
0101
0000
0000
0000
,
0011
0000
0000
0000
1010
0000
0000
0000
0011
0000
0000
0000
,
1010
0000
0000
0000
1010
0000
0000
0000
1010
0000
0000
0000
,
0101
0000
0000
0000
1010
0000
0000
0000
0101
0000
0000
0000
,
0011
0000
0000
0000
0011
0000
0000
0000
0011
0000
0000
0000
,
1100
0000
0000
0000
1001
0000
0000
0000
0100
0000
0001
0000
,
1001
0000
0000
0000
1010
0000
0000
0000
1001
0000
0000
0000
,
0101
0000
0000
0000
1001
0000
0000
0000
0101
0000
0000
0000
,
0011
0000
0000
0000
0110
0000
0000
0000
1100
0000
0000
0000
,
1010
0000
0000
0000
0110
0000
0000
0000
0001
0000
0010
0000
,
0011
0000
0000
0000
0101
0000
0000
0000
0011
0000
0000
0000
,
1100
0000
0000
0000
1010
0000
0000
0000
1100
0000
0000
0000
,
0010
0000
1000
0000
0010
0000
0100
0000
0010
0000
0001
0000
,
0010
0000
0000
0000
1100
0000
0000
0000
1001
0000
0000
0000
,
0011
0000
0000
0000
0011
0000
0000
0000
0011
0000
0000
0000
,
0101
0000
0000
0000
0101
0000
0000
0000
0001
0000
1000
0000
,
1100
0000
0000
0000
1100
0000
0000
0000
1100
0000
0000
0000
,
1010
0000
0000
0000
1010
0000
0000
0000
1000
0000
0001
0000
,
0101
0000
0000
0000
0011
0000
0000
0000
0101
0000
0000
0000
,
1010
0000
0000
0000
1100
0000
0000
0000
0010
0000
0100
0000
,
0110
0000
0000
0000
0101
0000
0000
0000
0110
0000
0000
0000
,
1010
0000
0000
0000
0110
0000
0000
0000
1010
0000
0000
0000
,
1000
0000
0100
0000
1000
0000
0010
0000
1000
0000
0100
0000
,
0010
0000
0001
0000
0100
0000
0010
0000
1000
0000
0000
0000
,
0001
0000
0100
0000
0010
0000
0100
0000
0001
0000
0010
0000
,
0100
0000
1000
0000
0010
0000
0100
0000
0001
0000
0000
0000
,
0100
0000
1000
0000
0100
0000
1000
0000
0100
0000
0001
0000
,
0100
0000
0001
0000
1000
0000
0001
0000
1000
0000
0010
0000
,
1010
0000
0000
0000
0101
0000
0000
0000
1001
0000
0000
0000
,
0110
0000
0010
0000
1000
0100
0001
0100
,
2000
0000
0000
0000
,
0000
0000
0000
0000
,
0000
0000
0000
0000
,
0000
0000
0000
0000
,
3000
0000
0000
0000
;

//---------------dance-double - ----------------
#NOTES:
     dance-double:
     :
     Challenge:
     18:
     1.004581,2.661052,0.837377,0.104672,0.846893,739.000000,651.000000,88.000000,11.000000,0.000000,0.000000,1.004581,2.661052,0.837377,0.104672,0.846893,739.000000,651.000000,88.000000,11.000000,0.000000,0.000000:
// measure 0
00000000
00000000
00000000
00000000
,  // measure 1
00000000
00000000
00000000
00000000
,  // measure 2
00000000
00000000
00000000
00000000
,  // measure 3
00000000
00000000
00000000
00000000
,  // measure 4
10010000
10000000
00010000
00000000
,  // measure 5
00001000
00011000
00000000
00001000
,  // measure 6
00001001
00000000
00000010
00000110
,  // measure 7
00000000
00000000
00000001
00000010
00000001
00000000
00000100
00000000
,  // measure 8
00010000
10000000
10010000
00000000
,  // measure 9
01000000
00000000
00010000
00001000
00010000
00000000
01000000
00000000
,  // measure 10
10010000
00000000
00100000
01100000
,  // measure 11
00000000
00000000
01000000
00010000
10000000
00100000
10000000
00000000
,  // measure 12
01000000
00010000
00011000
00000000
,  // measure 13
00001000
00001001
00000000
00010000
,  // measure 14
00011000
00000000
00001000
00001100
,  // measure 15
00000000
00000000
00000100
00001000
00010000
00000000
00100000
00000000
,  // measure 16
00010000
00001000
00011000
00010000
,  // measure 17
01000000
10000000
00100000
10000000
,  // measure 18
10100000
01000000
00010000
01010000
,  // measure 19
01000000
00100000
01000000
00100000
01000000
00100000
01000000
00000000
,  // measure 20
00200000
00010000
00310000
00001000
,  // measure 21
00000100
00000102
00001003
00000001
,  // measure 22
00000201
00000000
00001300
00000000
00010000
00000000
00100000
10000000
,  // measure 23
00100000
00000000
10000000
00010000
10000000
00000000
01000000
00000000
,  // measure 24
00020000
00001000
00031000
00000010
,  // measure 25
00000001
00000010
00001000
00010000
,  // measure 26
00001000
00000100
00001000
00010000
,  // measure 27
00100000
00000000
00010000
00100000
10000000
00100000
10000000
00000000
,  // measure 28
00100000
01000000
00100000
10000000
01000000
00100000
01000000
10000000
,  // measure 29
00100000
01000000
00100000
10000000
01000000
00100000
00001000
00010000
,  // measure 30
00000010
00000100
00000010
00001000
00000100
00000010
00000100
00001000
,  // measure 31
00000010
00000100
00000010
00001000
00000001
00000010
00000001
00000010
,  // measure 32
00000001
00001100
00000011
00000100
,  // measure 33
00001010
00011000
00110000
10010000
,  // measure 34
00100000
01000000
10000000
01000000
00100000
00001000
00000100
00000010
,  // measure 35
00000001
00000010
00000100
00010000
00001000
00100000
01000000
10000000
,  // measure 36
00200000
00000000
00000000
00020000
00000000
00000000
00300000
00002000
00000000
00000000
00030000
00000000
00000000
00000000
00003000
00000000
,  // measure 37
00001001
00000000
00000010
00000000
00000100
00000000
00000110
00000000
00000010
00000000
00001000
00000000
00001100
00000000
00000010
00000000
00010010
00000000
00010000
00000000
00001000
00000000
00101000
00000000
00010000
00000000
00011000
00000000
00001000
01000000
00001000
01000000
,  // measure 38
00100000
01000000
00100000
01100000
10000000
00010000
10010000
01000000
11000000
00010000
01000000
01010000
00100000
00001000
00011000
00000100
,  // measure 39
00000110
00000000
00000000
00000000
00001100
00000000
00000000
00000000
00011000
00000000
00000000
00000000
00010000
01000000
10000000
01000000
10000000
00000000
00000000
00000000
00000000
00000000
00000000
00000000
00000000
00000000
00000000
00000000
00000000
00000000
00000000
00000000
,  // measure 40
00000001
00000010
00001000
00000010
00000001
00000000
00001000
00000100
,  // measure 41
00010000
01000000
00000000
10010000
,  // measure 42
00000000
00000000
10000000
00100000
10000000
00000000
00000000
00000000
,  // measure 43
10000000
00000000
01000000
00010000
00001000
00000000
00000100
00000000
,  // measure 44
00001000
00010000
00001000
00010000
00001000
00000000
00100000
00000000
,  // measure 45
01000000
00010000
00001000
00000000
00000010
00000000
00000001
00001000
,  // measure 46
00000010
00000100
00000010
00001000
,  // measure 47
00000110
00000000
00000000
00010000
00001000
00000000
00100000
00000000
,  // measure 48
01000000
00100000
00010000
00000000
00001000
00000000
00000000
00000000
,  // measure 49
00000001
00000100
00001000
00000000
00010000
00000000
00001000
00010000
,  // measure 50
00100000
00000000
10000000
00000000
00010000
00100000
01000000
00000000
,  // measure 51
10000000
01000000
00100000
01000000
00010000
00001000
00000100
00000000
,  // measure 52
00000001
00001000
00000001
00000000
00000100
00000000
00000010
00000000
,  // measure 53
00010000
00000010
00001000
00000000
00000010
00000000
00000100
00000001
,  // measure 54
00001000
00000101
00000110
00010010
,  // measure 55
00010000
00001000
00010000
00100000
00010000
00001000
00010000
00100000
,  // measure 56
10000000
01000000
10000000
00100000
10000000
00000000
10000000
01000000
,  // measure 57
10000000
00100000
01000000
00000000
00100000
00000000
01001000
00000000
,  // measure 58
00010000
00000000
00001000
00000000
00000010
00000000
00000001
00000100
,  // measure 59
00001000
00010000
00001000
00000100
00000001
00000000
00001000
00000000
,  // measure 60
00000010
00000100
00000010
00001000
00000010
00000000
00000100
00000010
,  // measure 61
00000001
00000100
00001000
00000000
00010000
00000000
00011000
00000000
,  // measure 62
00100000
00000000
10000000
00010000
00100000
00000000
01000000
00000000
,  // measure 63
01100000
00000000
01000000
10000000
00000000
10000000
00100000
01000000
,  // measure 64
00010000
00100000
01000000
00001000
00010000
00000000
00011000
00000000
,  // measure 65
00000010
00000100
00000010
00000000
00000110
00000000
00001000
00000100
,  // measure 66
00001000
00000000
00000001
00001000
00000001
00000000
00000100
00000000
,  // measure 67
00001000
00000100
00001000
00000000
00010000
01000000
00010000
01000000
,  // measure 68
00010000
00000000
00001000
00000000
00000100
00000000
00000010
00000100
,  // measure 69
00000010
00000000
00010000
00000000
00001000
00010000
00001000
00000000
,  // measure 70
00010100
00101000
01010000
00101000
,  // measure 71
00010100
00000000
00000000
00000110
00000000
00000000
00001001
00000000
,  // measure 72
00000220
00000000
00000000
00000300
00020000
00000000
00000000
00030030
,  // measure 73
00000110
00000000
00000000
00000000
00000010
00000000
00000000
00000000
00000000
00000000
00100000
00000000
00000000
00000000
00000000
00000000
00000010
00000000
00000000
00000000
00000000
00000000
00100000
00000000
00000000
00000000
00010000
00100000
00010000
00000000
01000000
00000000
,  // measure 74
00000000
00000000
00000000
00000000
01000000
00000000
00000000
00000000
00000000
00000000
00000100
00000000
00000000
00000000
00000000
00000000
01000000
00000000
00000000
00000000
00000000
00000000
00000100
00000000
00000000
00000000
00010000
00001000
00010000
00001000
00010000
00000000
,  // measure 75
00000000
00000000
00000000
00000000
00010000
00000000
00000000
00000000
00000000
00000000
00000001
00000000
00000000
00000000
00000000
00000000
00010000
00000000
00000000
00000000
00000000
00000000
00000001
00000000
00000000
00000000
00000100
00000010
00000100
00000000
00001000
00000000
,  // measure 76
00000000
00000000
00000000
00000000
10000000
00000000
00000000
00000000
00000000
00000000
00001000
00000000
00000000
00000000
00000000
00000000
10000000
00000000
00001000
00000000
10000000
00000000
00001000
00000000
00100000
01000000
00100000
01000000
00100000
10000000
01000000
00100000
,  // measure 77
00001000
00010000
00011000
00000000
00001000
00011000
00000000
00010000
,  // measure 78
00010010
00000000
00000000
00000000
00000100
00000001
00000100
00000000
00000000
00000000
00000010
00010000
00000010
00000000
00010000
00000000
,  // measure 79
00000100
00001000
00011000
00000000
00010000
00011000
00000000
00001000
,  // measure 80
01001000
00000000
00000000
00000000
00100000
10000000
00100000
01000000
00100000
00000000
01000000
00001000
01000000
00100000
10000000
00010000
,  // measure 81
01000000
01000000
01100000
00000000
00010000
00011000
00000000
00000100
,  // measure 82
00000101
00000000
00000000
00000000
00000010
00010000
00000010
00000000
00000000
00000000
00000001
00000000
00000100
00000000
00001000
00000000
,  // measure 83
00011000
01001000
01100000
00000000
10100000
01100000
00000000
00100000
,  // measure 84
00010000
00001000
00010000
00001000
00000010
00001000
00000010
00000001
00000010
00000001
00000100
00000001
,  // measure 85
00001000
00000000
00000010
00000000
00000100
00000000
00000001
00000000
00000010
00000000
00000100
00000000
,  // measure 86
00010000
00000000
00001000
00000000
00100000
00000000
01000000
00000000
10000000
00000000
00100000
00000000
,  // measure 87
01000000
00000000
00010000
00000000
10000000
00000000
00100000
00000000
01000000
00000000
00010000
00000000
,  // measure 88
00100000
00000000
01000000
00000000
00010000
00000000
00001000
00000000
00000010
00000000
00000001
00000000
,  // measure 89
00000100
00000000
00000010
00000000
00001000
00000000
00000001
00000000
00000010
00000000
00000100
00000000
,  // measure 90
00001000
00000000
00000010
00000000
00000100
00000000
00001000
00000000
00010000
00000000
01000000
00000000
,  // measure 91
10000000
00000000
00100000
00000000
01000000
00000000
00010000
00000000
00100000
00000000
01000000
00000000
,  // measure 92
10000000
00000000
01000000
00000000
00010000
00000000
00001000
00000000
00000100
00000000
00000001
00000000
,  // measure 93
00001001
00000000
00000001
00000000
00000100
00000000
00000010
00000000
00001000
00000000
00000100
00000000
,  // measure 94
00000010
00000000
00001000
00000000
00010000
00000000
00100000
00000000
10000000
00000000
01000000
00000000
,  // measure 95
11000000
00000000
10000000
00000000
01000000
00000000
00100000
00000000
00010000
00000000
01000000
00000000
,  // measure 96
00100000
00000000
00010000
00000000
00001000
00000000
00000010
00000000
00000001
00000000
00001000
00000000
,  // measure 97
00001001
00000000
00000010
00000000
00000100
00000000
00000001
00000000
00001000
00000000
00000100
00000000
,  // measure 98
00000010
00000000
00000001
00000000
00000100
00000000
00001000
00000000
00010000
00000000
01000000
00000000
,  // measure 99
10000000
00000000
00100000
00000000
01000000
00000000
00010000
00000000
00100000
00000000
01000000
00000000
,  // measure 100
10000000
00000000
00010000
00000000
01000000
00000000
00100000
00000000
10000000
00000000
00010000
00000000
,  // measure 101
01100000
00000000
00000000
00000000
10010000
00000000
00000000
00000000
01100000
00000000
00000000
00000000
,  // measure 102
10000000
00000000
01000000
00000000
00010000
00000000
00001000
00000000
00000100
00000000
00000001
00000000
,  // measure 103
00000110
00000000
00000000
00000000
00001001
00000000
00000000
00000000
00000110
00000000
00000000
00000000
,  // measure 104
00000001
00000000
00000100
00000000
00001000
00000000
00010000
00000000
01000000
00000000
10000000
00000000
,  // measure 105
10100000
00000000
00000000
00000000
01001000
00000000
00000000
00000000
10100000
00000000
00000000
00000000
,  // measure 106
10000000
00000000
00100000
00000000
00010000
00000000
00001000
00000000
00000010
00000000
00000001
00000000
,  // measure 107
00000101
00000000
00000000
00000000
00010010
00000000
00000000
00000000
00000101
00000000
00000000
00000000
,  // measure 108
00000001
00000000
00000010
00000000
00001000
00000000
00010000
00000000
00100000
00000000
10000000
00000000
,  // measure 109
01000000
00000000
00010000
00000000
00001000
00000000
00010000
00000000
00001000
00000000
00000100
00000000
,  // measure 110
00000001
00000000
00000010
00000000
00001000
00000000
00000010
00000000
00000001
00000000
00000100
00000000
,  // measure 111
00001000
00000000
00010000
00000000
01000000
00000000
00001000
00000000
00010000
00000000
01000000
00000000
,  // measure 112
10000000
00000000
00100000
00000000
00010000
00000000
00100000
00000000
10000000
00000000
01000000
00000000
,  // measure 113
00010000
00000000
00001000
00000000
00000100
00000000
00010000
00000000
00001000
00000000
00000100
00000000
,  // measure 114
00000001
00000000
00000010
00000000
00001000
00000000
00010000
00000000
00100000
00000000
10000000
00000000
,  // measure 115
10010000
00000000
00000000
00000000
00011000
00000000
00000000
00000000
00001001
00000000
00000000
00000000
,  // measure 116
00011000
00000000
00100000
00000000
10000000
01000000
00010000
01000000
,  // measure 117
20000000
00000000
00000000
00000000
,  // measure 118
00000000
00000000
00000000
00000000
,  // measure 119
30000000
00000000
00000000
00000000
;

//---------------dance-single - ----------------
#NOTES:
     dance-single:
     :
     Medium:
     14:
     0.816987,1.842231,0.961081,0.104672,0.618517,601.000000,500.000000,101.000000,11.000000,0.000000,0.000000,0.816987,1.842231,0.961081,0.104672,0.618517,601.000000,500.000000,101.000000,11.000000,0.000000,0.000000:
0000
0000
0000
0000
,
0000
0000
0000
0000
,
0000
0000
0000
0000
,
0000
0000
0000
0000
,
1000
0010
1010
0000
,
1000
1100
0000
0001
,
0101
0000
1000
1100
,
0000
0000
0010
0100
0010
0000
2000
0000
,
0000
0001
3001
0000
,
0000
0000
0000
0000
,
0101
0000
0010
1010
,
0000
1000
0100
0010
,
0001
0100
0110
0000
,
0001
0011
0000
1000
,
1010
0000
0001
0011
,
0000
0000
0010
0100
0010
0000
0200
0000
,
0000
0010
0310
0000
,
0000
0000
0000
0000
,
0020
0000
0100
0130
,
0000
0000
1000
0001
1000
0000
0010
0000
,
1000
0001
1100
0000
,
0001
0101
0000
1000
,
1100
0000
0001
0101
,
0000
0000
0001
0010
0001
0000
2000
0000
,
0000
0010
3010
0000
,
0100
0001
0100
0001
,
0020
0000
0100
0130
,
0000
0000
1000
0001
1000
0000
0010
0000
,
1000
0100
1000
0100
1000
0000
0010
0000
,
1000
0100
1000
0100
1000
0000
0001
0000
,
0001
0100
0001
0100
0001
0000
0010
0000
,
0001
0100
0001
0100
0001
0000
1000
0000
,
1000
0010
1010
0100
,
0001
0010
0011
0101
,
0010
1000
0000
0010
1000
0000
0100
0010
,
0000
0100
0010
0000
0001
0100
0000
0001
,
0200
0000
0000
0320
0000
0000
0000
2030
0000
0000
0000
0000
0000
0000
0000
0000
,
3001
0000
0100
1100
0000
0100
0101
0000
1000
0000
0010
0011
0000
0010
1000
0001
,
0100
0000
0010
0011
0000
0010
1010
0000
0110
0000
0100
1100
0000
0100
1000
0001
,
0010
0000
1001
0000
1100
0000
0101
0000
1001
0100
0010
0100
0001
0010
0100
1000
,
0010
0100
0101
0000
,
0010
0100
0000
1100
,
0000
0000
1000
0010
1000
0000
0000
0000
,
0001
0100
0001
0000
1000
0000
0010
0000
,
0100
0010
1100
0000
,
0010
1000
0000
0101
,
0000
0000
0010
0001
0010
0000
0000
0000
,
0100
0000
1000
0100
0000
0010
0001
0000
,
0010
0100
1001
0000
,
0001
0100
0000
1100
,
0000
0000
0100
0001
0100
0000
0000
0000
,
1000
0000
0010
1000
0010
0000
0100
0000
,
0001
0010
1100
0000
,
1000
0010
0000
1000
,
0100
0100
0010
0010
,
0001
0000
1000
0000
0001
1000
0001
1000
,
0010
0100
0010
0000
1000
0000
0000
0000
,
0100
0010
0100
0000
1000
0000
0001
0000
,
0000
0001
1000
0000
,
0001
0100
0001
0000
1000
0000
0100
0000
,
1000
0010
1000
0000
0001
0000
0000
0000
,
0010
1000
0010
0000
0001
0000
1000
0000
,
0000
1000
0001
0000
,
0100
0000
0010
0100
0000
0100
0010
1000
,
0001
0100
0001
0000
1000
0000
0000
0000
,
0010
0100
0010
0000
1000
0000
0100
0000
,
0000
0010
0001
0000
,
0100
0010
0100
0000
0001
0000
1000
0000
,
0100
1000
0100
0000
0010
0000
0000
0000
,
0001
0100
0001
0000
1000
0010
1000
0000
,
0100
0100
0010
0010
,
0011
0000
0000
1100
0000
0000
1001
0000
,
0220
0000
0000
0000
0000
0000
0000
0330
,
1000
0000
0000
0000
1100
0000
0000
0000
0000
0000
0011
0000
0000
0000
0000
0000
0110
0000
0000
0000
0000
0000
1001
0000
0000
0000
0010
0100
0001
0000
1000
0000
,
0010
0000
0000
0000
1010
0000
0000
0000
0000
0000
0101
0000
0000
0000
0000
0000
0011
0000
0000
0000
0000
0000
0110
0000
0000
0000
0100
1000
0010
0000
0100
0000
,
0010
0000
0000
0000
1100
0000
0000
0000
0000
0000
0101
0000
0000
0000
0000
0000
1100
0000
0000
0000
0000
0000
1001
0000
0000
0000
1000
0001
0100
0000
0010
0000
,
0100
0000
0101
0000
0000
1100
0000
0000
0101
0001
0010
0100
1000
0100
0010
0001
,
1000
0010
1010
0000
0100
0101
0000
0001
,
1000
0000
0000
0000
1000
0000
1010
0000
0000
0000
0001
1000
0001
0000
1000
0000
,
0010
0100
0110
0000
0010
1010
0000
1000
,
0100
0000
0000
0000
0010
0000
0011
0000
0000
0000
0001
0100
0001
0000
1000
0000
,
0100
0010
0011
0000
0100
1100
0000
1000
,
0010
0000
0000
0000
1000
0000
1100
0000
0000
0000
0010
0100
0010
0000
0001
0000
,
1000
0010
1010
0000
0100
0101
0000
1000
,
0001
0010
0100
1000
0100
0010
0001
0010
0100
1000
0100
0010
,
0001
0000
0000
0000
0101
0000
0000
0000
1001
0000
0000
0000
,
1000
0000
0000
0000
1010
0000
0000
0000
1001
0000
0000
0000
,
0001
0000
0000
0000
0011
0000
0000
0000
1001
0000
0000
0000
,
1000
0000
0000
0000
0100
0000
0000
0000
0001
0000
0000
0000
,
0100
0000
0000
0000
1100
0000
0000
0000
1010
0000
0000
0000
,
0100
0000
0000
0000
0101
0000
0000
0000
0011
0000
0000
0000
,
0010
0000
0000
0000
0110
0000
0000
0000
1001
0000
0000
0000
,
0001
0000
0000
0000
0010
0000
0000
0000
1000
0000
0010
0000
,
0001
0000
0000
0000
0101
0000
0000
0000
1010
0000
0000
0000
,
1000
0000
0000
0000
1100
0000
0000
0000
0011
0000
0000
0000
,
0101
0000
0000
0000
0101
0000
0000
0000
0101
0000
0000
0000
,
1010
0000
0000
0000
1010
0000
0000
0000
0010
0000
1000
0000
,
0100
0000
0000
0000
1100
0000
0000
0000
1100
0000
0000
0000
,
0011
0000
0000
0000
0011
0000
0000
0000
0011
0000
0000
0000
,
0001
0000
1000
0000
0100
0000
1000
0000
0001
0000
0100
0000
,
0001
0000
0010
0000
0001
0000
1000
0000
0010
0000
1000
0000
,
0100
0000
0000
0000
0110
0000
0000
0000
1100
0000
0000
0000
,
1000
0000
0100
0000
0010
0000
0001
0000
0010
0000
0100
0000
,
1000
0000
0000
0000
0101
0000
0000
0000
0110
0000
0000
0000
,
1000
0000
0000
0000
0100
0000
0000
0000
0010
0000
0000
0000
,
0001
0000
0000
0000
1001
0000
0000
0000
0110
0000
0000
0000
,
0100
0000
0010
0000
1000
0000
0001
0000
1000
0000
0010
0000
,
0100
0000
0000
0000
0110
0000
0000
0000
1001
0000
0000
0000
,
0001
0000
0000
0000
0010
0000
0000
0000
0100
0000
0000
0000
,
1000
0000
0100
0000
1000
0000
0100
0000
1000
0000
0100
0000
,
0010
0000
0001
0000
0010
0000
0001
0000
0010
0000
0001
0000
,
0100
0000
0010
0000
0100
0000
0010
0000
0100
0000
0010
0000
,
1000
0000
0001
0000
1000
0000
0001
0000
1000
0000
0000
0000
,
0001
0000
0100
0000
0001
0000
0100
0000
0001
0000
0100
0000
,
0010
0000
1000
0000
0010
0000
1000
0000
0010
0000
1000
0000
,
0010
0000
0000
0000
1100
0000
0000
0000
0101
0000
0000
0000
,
1000
0000
0001
0000
0100
0010
0100
0010
,
2000
0000
0000
0000
,
0000
0000
0000
0000
,
0000
0000
0000
0000
,
0000
0000
0000
0000
,
3000
0000
0000
0000
;

//---------------dance-single - ----------------
#NOTES:
     dance-single:
     :
     Easy:
     12:
     0.570939,1.266534,0.275954,0.076125,0.461509,420.000000,391.000000,29.000000,8.000000,0.000000,0.000000,0.570939,1.266534,0.275954,0.076125,0.461509,420.000000,391.000000,29.000000,8.000000,0.000000,0.000000:
0000
0000
0000
0000
,
0000
0000
0000
0000
,
0000
0000
0000
0000
,
0000
0000
0000
0000
,
1000
0100
1200
0000
,
0010
0010
0000
0001
,
0001
0000
1000
1300
,
0000
0000
0001
1000
0001
0000
1000
0000
,
0000
0010
0010
0000
,
0100
0000
0001
1000
,
1001
0000
0100
0100
,
0000
0001
1000
0001
,
0100
0010
0210
0000
,
1000
1000
0000
0010
,
0010
0000
0001
0301
,
0000
0000
1000
0001
1000
0000
0010
0000
,
0000
0100
0100
0000
,
0010
1000
0010
1000
,
1010
0000
0000
0101
,
0000
0001
1000
0001
,
1000
0100
0010
0000
,
0100
1000
0000
0100
,
1000
0000
0100
1000
,
0000
0000
1000
0001
1000
0000
0001
0000
,
0100
0010
0100
0000
,
0000
0000
0000
0001
,
0100
0000
0001
0100
,
0000
0001
0100
0010
,
1000
0001
1000
0001
,
1000
0001
1000
0001
,
0100
0010
0100
0010
,
0100
0010
0100
0010
,
1000
1000
1000
0001
,
1000
1000
1000
1000
,
0020
0000
0000
0000
,
0000
0000
0000
0000
,
0130
0000
0000
0110
0000
0000
0000
2002
0000
0000
0000
0000
0000
0000
3003
0000
,
0001
0000
0000
0100
0000
0000
1000
0000
0100
0000
0000
0001
0000
1000
0000
0000
,
0100
0000
0000
0001
0000
0000
0100
0000
1000
0000
0000
0001
0000
0000
0010
0000
,
1000
0010
0001
1000
1001
0000
0000
0000
,
0010
0100
0001
0000
,
1000
0001
0000
1001
,
0000
0001
1000
0000
,
0010
1000
0100
1000
,
0010
0100
0001
0000
,
0100
0010
0000
0110
,
0000
0010
0100
0000
,
0010
1000
0001
1000
,
0010
1000
0100
0000
,
0010
0001
0000
0011
,
0000
0001
0010
0000
,
0100
1000
0001
1000
,
0010
1000
0001
0000
,
1000
0100
0000
0000
,
1000
0001
1000
0001
,
0100
0001
0100
0001
,
0010
0100
1000
0000
,
0100
1000
0000
1100
,
0000
0010
0001
0000
,
1000
0001
1000
0001
,
1000
0100
0010
0000
,
0100
0010
0000
0011
,
0000
0001
0100
0000
,
0010
0100
0001
0100
,
0010
0100
0001
0000
,
0100
0001
0000
0101
,
0000
0010
0100
0000
,
1000
0010
1000
0100
,
0010
0001
1000
0000
,
0010
1000
0000
0000
,
0010
0100
0010
0100
,
0001
0000
0000
1000
0000
0000
0010
0000
,
2000
0000
0000
0000
,
3100
0000
0010
0000
0000
0100
0000
0000
0010
0000
0000
0001
0000
0100
0010
0100
,
0010
0000
1000
0000
0000
0010
0000
0000
1000
0000
0000
0100
0000
1000
0100
1000
,
0010
0000
1000
0000
0000
0010
0000
0000
0100
0000
0000
0001
0000
0100
0010
0100
,
0001
0000
0010
0000
0100
1000
0100
0000
1000
0001
1000
0001
1000
0100
1000
0000
,
0010
0000
1000
0000
0000
0100
0000
0000
,
0010
0000
0000
0001
0000
0000
0101
0000
,
0001
0000
0010
0000
0000
0100
0000
0000
,
1000
0000
0000
0001
0000
0000
1001
0000
,
1000
0000
0010
0000
0000
0100
0000
0000
,
1000
0000
0000
0100
0000
0000
0101
0000
,
0001
0010
0001
0000
1000
0100
0000
0010
,
0002
0000
0000
0000
,
1003
0000
0000
0000
0100
0000
0000
0000
1000
0000
0000
0000
,
0100
0000
0000
0000
0010
0000
0000
0000
0100
0000
0000
0000
,
0010
0000
0000
0000
0001
0000
0000
0000
0010
0000
0000
0000
,
0001
0000
0000
0000
1000
0000
0000
0000
0001
0000
0000
0000
,
0100
0000
0000
0000
0001
0000
0000
0000
0100
0000
0000
0000
,
0010
0000
0000
0000
1000
0000
0000
0000
0010
0000
0000
0000
,
1000
0000
0000
0000
0100
0000
0000
0000
1000
0000
0000
0000
,
0001
0000
0000
0000
0100
0000
0000
0000
0001
0000
0010
0000
,
0100
0000
0000
0000
1000
0000
0000
0000
0001
0000
0000
0000
,
0010
0000
0000
0000
0001
0000
0000
0000
1000
0000
0000
0000
,
0100
0000
0000
0000
1000
0000
0000
0000
0010
0000
0000
0000
,
0100
0000
0000
0000
0001
0000
0000
0000
0010
0000
0100
0000
,
0010
0000
0000
0000
0001
0000
0000
0000
1000
0000
0000
0000
,
0010
0000
0000
0000
1000
0000
0000
0000
0100
0000
0000
0000
,
0010
0000
0100
0000
0010
0000
0100
0000
0010
0000
0100
0000
,
1000
0000
0001
0000
1000
0000
0001
0000
1000
0000
0001
0000
,
1000
0000
0000
0000
1010
0000
0000
0000
1010
0000
0000
0000
,
1000
0000
0000
0000
0100
0000
0000
0000
0010
0000
0000
0000
,
0001
0000
0000
0000
0101
0000
0000
0000
0101
0000
0000
0000
,
0100
0000
0000
0000
0010
0000
0000
0000
1000
0000
0001
0000
,
0100
0000
0000
0000
0110
0000
0000
0000
0110
0000
0000
0000
,
0010
0000
0000
0000
1000
0000
0000
0000
0001
0000
0010
0000
,
0100
0000
0000
0000
1100
0000
0000
0000
1100
0000
0000
0000
,
0010
0000
0000
0000
0001
0000
0000
0000
0100
0000
0000
0000
,
0010
0000
1000
0000
0010
0000
1000
0000
0010
0000
0000
0000
,
1000
0000
0100
0000
1000
0000
0100
0000
1000
0000
0000
0000
,
0001
0000
0100
0000
0001
0000
0100
0000
0001
0000
0000
0000
,
0100
0000
0010
0000
0100
0000
0010
0000
0100
0000
0000
0000
,
0001
0000
0000
0000
0011
0000
0000
0000
0101
0000
0000
0000
,
1000
0000
0000
0000
1010
0000
0000
0000
1100
0000
0000
0000
,
1000
0000
0000
0000
0001
0000
0000
0000
1000
0000
0000
0000
,
0001
1000
0010
0100
,
0020
0000
0000
0000
,
0000
0000
0000
0000
,
0000
0000
0000
0000
,
0000
0000
0000
0000
,
0030
0000
0000
0000
;

//---------------dance-single - ----------------
#NOTES:
     dance-single:
     :
     Beginner:
     4:
     0.164485,0.336140,0.076125,0.038063,0.000000,121.000000,113.000000,8.000000,4.000000,0.000000,0.000000,0.164485,0.336140,0.076125,0.038063,0.000000,121.000000,113.000000,8.000000,4.000000,0.000000,0.000000:
0000
0000
0000
0000
,
0000
0000
0000
0000
,
0000
0000
0000
0000
,
0000
0000
0000
0000
,
0000
0000
0100
0000
,
0000
0100
0000
0000
,
0100
0000
0000
0100
,
0000
0000
0000
0000
,
0000
0000
0110
0000
,
0000
0000
0000
0000
,
1001
0000
0000
0000
,
0000
0000
1000
0000
,
1000
0000
0001
0000
,
0000
0001
0000
0000
,
0001
0000
0000
0001
,
0000
0000
0000
0000
,
0000
0000
0110
0000
,
0000
0000
0000
0000
,
1001
0000
0000
0010
,
0000
0000
0000
0000
,
0000
0000
0010
0000
,
0000
0010
0000
0000
,
0010
0000
0000
0010
,
0000
0000
0000
0000
,
0000
0000
0110
0000
,
0000
0000
0000
0000
,
0001
0000
0000
0001
,
0000
0000
0000
0000
,
1000
0000
0000
0000
,
0000
0000
0000
0000
,
1000
0000
0000
0000
,
0000
0000
0000
0000
,
0001
0000
0001
0000
,
0001
0000
0001
0000
,
0001
0000
0000
0000
,
1000
0000
0000
0000
,
0200
0000
0300
0000
,
0100
0000
0010
0000
,
0010
0000
0001
0000
,
0001
0001
0001
0000
,
1000
0000
0000
0000
,
0000
0000
0000
0000
,
0100
0000
0000
0000
,
0010
0000
0010
0000
,
0010
0000
0000
0000
,
0000
0000
0000
0000
,
0001
0000
0000
0000
,
0100
0000
0000
0000
,
0010
0000
0000
0000
,
0000
0000
0000
0000
,
1000
0000
0000
0000
,
0001
0000
0001
0000
,
0001
0000
0000
0000
,
0100
0000
0000
0000
,
1001
0000
0000
0000
,
0000
0000
0000
0000
,
0010
0000
0000
0000
,
0010
0000
0000
0010
,
0000
0000
0000
0000
,
0000
0000
0000
0000
,
1000
0000
0000
0000
,
1000
0000
0000
1000
,
0000
0000
0000
0000
,
0000
0000
0000
0000
,
0001
0000
0000
0000
,
0001
0000
0000
0001
,
0000
0000
0000
0000
,
0000
0000
0000
0000
,
0100
0000
0000
0000
,
0100
0000
0000
0100
,
0000
0000
0000
0000
,
0010
0000
0000
0000
,
2000
0000
3000
0000
,
0001
0000
0001
0000
,
1000
0000
1000
0000
,
0001
0000
0001
0000
,
1000
0000
0001
0000
,
0000
1000
0000
0000
,
1000
0000
0000
0000
,
0000
0010
0000
0000
,
0010
0000
0000
0100
,
0000
0100
0000
0000
,
0100
0000
0000
0000
,
0001
0000
1000
0000
,
0001
0000
0001
0000
,
0001
0000
0000
0000
,
0000
0000
0000
0000
,
0010
0000
0000
0000
,
0000
0000
0000
0000
,
0100
0000
0000
0000
,
0000
0000
0000
0000
,
1000
0000
0000
0000
,
1000
0000
0000
0000
,
0110
0000
0000
0000
,
0000
0000
0000
0000
,
1000
0000
0000
0000
,
0000
0000
0000
0000
,
0001
0000
0000
0000
,
0001
0000
0000
0000
,
0100
0000
0000
0000
,
0010
0000
0000
0000
,
0010
0000
0000
0000
,
0010
0000
0000
0000
,
0100
0000
0000
0000
,
0100
0000
0000
0000
,
0001
0000
0000
0000
,
0001
0000
0000
0000
,
1000
0000
0000
0000
,
1000
0000
0000
0000
,
0010
0000
0000
0000
,
0010
0000
0000
0000
,
0010
0000
0000
0000
,
0010
0000
0000
0000
,
0100
0000
0000
0000
,
0100
0000
0000
0000
,
0100
0000
0000
0000
,
0001
0000
0000
0000
,
2002
0000
0000
3003
;

//---------------dance-double - ----------------
#NOTES:
     dance-double:
     :
     Hard:
     17:
     0.981472,2.485965,1.237035,0.085641,0.704158,722.000000,592.000000,130.000000,9.000000,0.000000,0.000000,0.981472,2.485965,1.237035,0.085641,0.704158,722.000000,592.000000,130.000000,9.000000,0.000000,0.000000:
00000000
00000000
00000000
00000000
,
00000000
00000000
00000000
00000000
,
00000000
00000000
00000000
00000000
,
00000000
00000000
00000000
00000000
,
10000000
01000000
01010000
00000000
,
00010000
00011000
00000000
00001000
,
00001010
00000000
00000010
00000011
,
00000000
00000000
00000001
00001000
00000001
00000000
00000200
00000000
,
00001000
00001300
00010000
00000000
,
00001000
00000000
00000100
00000001
00000100
00000000
00001000
00010000
,
00002000
00013000
00100000
10100000
,
10000000
00000000
01000000
00010000
01000000
00010000
00001000
00000000
,
00000100
00000001
00000011
00000001
,
00000010
00001010
00001000
00010000
,
00011000
00001000
01000000
01010000
,
00000000
00000000
10000000
00100000
10000000
00000000
00100000
00000000
,
00010000
00001000
00010000
00100000
,
10000000
00100000
10000000
00100000
,
10100000
00000000
00100000
01100000
,
00001000
00010000
00000100
00000000
00001000
00000000
00000001
00000000
,
00000010
00010000
10000000
01000000
,
00010000
00001000
00010000
01000000
,
10000000
01000000
00001000
00000001
,
00000100
00000000
00000001
00001000
00000001
00000000
00000020
00000000
,
00001000
00001030
00011000
00000000
,
00001000
01000000
00001000
01000000
,
01001000
00000000
00010000
00011000
,
00000000
00000000
00000010
00000001
00000010
00000000
00000001
00000000
,
00000100
00000010
00001000
00000010
00000100
00000010
00001000
00000010
,
00010000
00001000
00100000
00001000
00010000
00001000
00100000
00001000
,
01000000
00100000
10000000
00100000
01000000
00100000
10000000
00100000
,
01000000
00010000
10000000
00010000
01000000
00010000
10000000
00010000
,
10000000
11000000
00110000
11000000
,
00100000
01010000
00101000
00011000
,
00001000
00010000
00000000
00010000
00000100
00000000
00000010
00000001
,
00000000
00000001
00000100
00000000
00001000
00010000
00001000
00010000
,
00200000
00000000
00000000
20000000
00000000
00300000
00000000
00020000
00000000
00000000
00000000
00000000
00000000
00000000
30030000
00000000
,
11000000
01000000
10000000
10100000
01000000
00010000
01010000
00000000
00011000
00010000
00000010
00001010
00000100
00000110
00000100
00000000
,
00000101
00000010
00001000
00001010
00000100
00010000
00010100
00001000
00011000
00001000
00100000
00110000
00100000
00001000
00011000
00001000
,
01001000
01100000
01010000
01001000
00011000
00000000
00000000
00000000
,
00010000
01000000
00010000
01000000
10000000
00000000
00000000
00000000
,
01000000
01010000
00000000
00011000
,
00000000
00000000
00010000
00001000
00000010
00000000
00000000
00000000
,
00000001
00000000
00000100
00000010
00000100
00000000
00000001
00000000
,
00000100
00001000
00010000
00000000
00011000
00000000
00000000
00000000
,
00100000
10000000
00000000
10100000
,
00000000
00000000
01000000
00010000
00001000
00000000
00000000
00000000
,
00000010
00000000
00000001
00001000
00000000
00001000
00000001
00000000
,
00000100
00000000
00010000
01000000
00100000
00000000
00000000
00000000
,
10000000
00100000
10000000
00000000
00000000
00000000
01000000
00100000
,
10000000
00000000
10000000
01000000
10000000
00000000
01000000
00000000
,
00001000
00000000
00000001
00000100
00000000
00000100
00000001
00000000
,
00000010
00000000
00000100
00000010
00000001
00000000
00000000
00000000
,
00000100
00000010
00000100
00000000
00001000
00010000
00001000
00000000
,
00010000
00010000
01000000
01000000
,
10000000
00100000
10000000
00100000
01000000
00010000
01000000
00010000
,
10000000
00100000
10000000
00000000
01000000
00000000
10000000
00100000
,
10000000
01000000
00010000
00011000
,
00001000
00000000
00010000
00000010
00010000
00000000
00000010
00000100
,
00000010
00000000
00000100
00000000
00000001
00001000
00000001
00000100
,
00000001
00000010
00000001
00000000
00000100
00000000
00000001
00000010
,
00000001
00000100
00001000
00011000
,
00010000
00000000
00001000
01000000
00001000
00000000
01000000
00000000
,
00100000
00000000
10000000
00010000
00000000
10000000
01000000
00100000
,
00010000
10000000
01000000
00000000
00010000
00000000
00001000
00000010
,
00000001
00000100
00000010
00011000
,
00000100
00000000
00000010
00000001
00000010
00000000
00000001
00000000
,
00000100
00000010
00010000
00000010
00000100
00000000
00000001
00000000
,
00000100
00001000
00010000
00000000
01000000
00000000
00010000
00001000
,
01000000
00000000
00100000
00000000
10000000
00010000
10000000
00000000
,
10000000
10000000
00010000
00010000
,
01000000
00000000
00000000
00100000
00000000
00000000
00010000
00000000
,
00002000
00000000
00003020
00000000
,
00000031
00000000
00000100
00000000
00000101
00000000
00000000
00000000
00000001
00000000
00000101
00000000
00000000
00000000
00000100
00000000
00001100
00000000
00000000
00000000
00001000
00000000
00011000
00000000
00000000
00000000
00010000
01000000
00010000
00000000
01000000
00000000
,
10000000
00000000
00100000
00000000
10100000
00000000
00000000
00000000
10000000
00000000
10100000
00000000
00000000
00000000
00100000
00000000
00110000
00000000
00000000
00000000
00010000
00000000
00011000
00000000
00000000
00000000
00001000
00000010
00001000
00000010
00000001
00000100
,
00000001
00000000
00000100
00000000
00000101
00000000
00000000
00000000
00000010
00000000
00010010
00000000
00000000
00000000
00000100
00000000
00000101
00000000
00000000
00000000
00000010
00000000
00010010
00000000
00000000
00000000
00010000
00001000
01000000
00000000
00100000
00000000
,
10100000
00000000
00100000
00000000
01010000
00000000
00100000
00000000
00101000
00000000
00010000
00000000
00010100
00000000
00000100
00000000
00010000
00000000
00001000
00000000
00010000
00000000
00001000
00000000
00010000
00000010
00010000
00000010
00000100
00000001
00001000
00000100
,
00010000
00000100
00010100
00000000
00000010
00000011
00000000
00000001
,
00000101
00000000
00000000
00000000
00001000
00000000
00010000
00000000
00000000
00000000
01000000
10000000
01000000
00000000
10000000
00000000
,
00100000
10000000
10010000
00000000
01000000
01001000
00000000
00100000
,
00110000
00000000
00000000
00000000
00010000
00000000
00001000
00000000
00000010
00000001
00000010
00000001
00000010
00000001
00000100
00000010
,
00001000
00000010
00001010
00000000
00000100
00010100
00000000
00010000
,
00011000
00000000
00000000
00000000
00010000
00000000
00100000
00000000
00000000
00000000
10000000
00010000
10000000
00000000
01000000
00000000
,
00010000
00001000
00001100
00000000
00000010
00000011
00000000
00000001
,
00000010
00001000
00000010
00001000
00010000
00001000
00010000
00100000
00010000
00100000
10000000
00100000
,
10000000
00000000
00000000
00000000
10100000
00000000
00000000
00000000
10010000
00000000
00000000
00000000
,
01010000
00000000
00000000
00000000
00011000
00000000
00000000
00000000
00010010
00000000
00000000
00000000
,
00010100
00000000
00000000
00000000
00001010
00000000
00000000
00000000
00000101
00000000
00000000
00000000
,
00000110
00000000
00000000
00000000
00000011
00000000
00000000
00000000
00001100
00000000
00000000
00000000
,
00001001
00000000
00000000
00000000
00001010
00000000
00000000
00000000
00001001
00000000
00000000
00000000
,
00001100
00000000
00000000
00000000
00010100
00000000
00000000
00000000
00010010
00000000
00000000
00000000
,
00011000
00000000
00000000
00000000
00101000
00000000
00000000
00000000
01001000
00000000
00000000
00000000
,
01010000
00000000
00000000
00000000
10010000
00000000
00000000
00000000
10000000
00000000
00010000
00000000
,
00100000
00000000
00000000
00000000
11000000
00000000
00000000
00000000
10010000
00000000
00000000
00000000
,
01010000
00000000
00000000
00000000
01001000
00000000
00000000
00000000
00011000
00000000
00000000
00000000
,
00010100
00000000
00000000
00000000
00010010
00000000
00000000
00000000
00000110
00000000
00000000
00000000
,
00001001
00000000
00000000
00000000
00000101
00000000
00000000
00000000
00000001
00000000
00000010
00000000
,
00000100
00000000
00000000
00000000
00010100
00000000
00000000
00000000
00011000
00000000
00000000
00000000
,
00101000
00000000
00000000
00000000
01100000
00000000
00000000
00000000
11000000
00000000
00000000
00000000
,
01000000
00000000
10000000
00000000
00100000
00000000
01000000
00000000
00100000
00000000
00010000
00000000
,
00001000
00000000
00000010
00000000
00000100
00000000
00000010
00000000
00001000
00000000
00000010
00000000
,
00000001
00000000
00000000
00000000
00000101
00000000
00000000
00000000
00001100
00000000
00000000
00000000
,
00011000
00000000
00000000
00000000
01010000
00000000
00000000
00000000
01000000
00000000
10000000
00000000
,
00100000
00000000
00000000
00000000
00110000
00000000
00000000
00000000
00011000
00000000
00000000
00000000
,
00001010
00000000
00000000
00000000
00000101
00000000
00000000
00000000
00000100
00000000
00001000
00000000
,
00010000
00000000
00000000
00000000
00011000
00000000
00000000
00000000
01010000
00000000
00000000
00000000
,
11000000
00000000
00000000
00000000
10100000
00000000
00000000
00000000
00100000
00000000
00010000
00000000
,
00001000
00000000
00000000
00000000
00001010
00000000
00000000
00000000
00000011
00000000
00000000
00000000
,
00000101
00000000
00000000
00000000
00001100
00000000
00000000
00000000
00001001
00000000
00000000
00000000
,
00000001
00000000
00000010
00000000
00001000
00000000
00010000
00000000
00000010
00000000
00001000
00000000
,
00010000
00000000
00100000
00000000
00001000
00000000
00010000
00000000
00100000
00000000
10000000
00000000
,
01000000
00000000
00010000
00000000
00001000
00000000
00000100
00000000
00010000
00000000
00001000
00000000
,
00000100
00000000
00000001
00000000
00001000
00000000
00000100
00000000
00000001
00000000
00001000
00000000
,
00000001
00000000
00000010
00000000
00001000
00000000
00010000
00000000
00100000
00000000
10000000
00000000
,
01000000
00000000
00010000
00000000
00001000
00000000
00000100
00000000
00000001
00000000
00000010
00000000
,
00000011
00000000
00000000
00000000
00001010
00000000
00000000
00000000
00011000
00000000
00000000
00000000
,
00110000
00000000
10100000
00000000
00010000
10000000
00010000
10000000
,
00020000
00000000
00000000
00000000
,
00000000
00000000
00000000
00030000
;

//---------------dance-double - ----------------
#NOTES:
     dance-double:
     :
     Easy:
     13:
     0.613080,1.581977,0.694643,0.123703,0.447236,451.000000,378.000000,73.000000,13.000000,0.000000,0.000000,0.613080,1.581977,0.694643,0.123703,0.447236,451.000000,378.000000,73.000000,13.000000,0.000000,0.000000:
00000000
00000000
00000000
00000000
,
00000000
00000000
00000000
00000000
,
00000000
00000000
00000000
00000000
,
00000000
00000000
00000000
00000000
,
01000000
00100000
01100000
00000000
,
00100000
01000000
00000000
00000000
,
01100000
00000000
01000000
00100000
,
00000000
00010000
00001000
00000100
,
00000001
00000001
00000100
00000000
,
00000000
00000000
00000000
00000000
,
00011000
00000000
00000000
01010000
,
00000000
00010000
00001000
00000010
,
00000001
00000100
00000110
00000000
,
00000100
00000010
00000000
00000000
,
00000110
00000000
00000010
00000100
,
00000000
00001000
00010000
00100000
,
10000000
10000000
00100000
00000000
,
00000000
00000000
00000000
00000000
,
00011000
00000000
00000000
00001010
,
00000000
00000001
00001000
00000001
,
00000100
00000010
00000100
00000000
,
00000010
00010000
00000000
00000010
,
00010000
00000000
00001000
01000000
,
00000000
00100000
10000000
00010000
,
01000000
01000000
00100000
00000000
,
00000000
00000000
00000000
00000000
,
10010000
00000000
00000000
01100000
,
00000000
10000000
01000000
00100000
,
00001000
00010000
00001000
00010000
,
00000010
00000100
00000010
00000100
,
00010000
00001000
00010000
00001000
,
01000000
00100000
01000000
00100000
,
10000000
10000000
00010000
00010000
,
01000000
00001000
00001000
00001000
,
00010000
00000000
00000000
00010000
00000000
00000000
00000010
00000000
,
00000000
00000010
00000000
00000000
00000100
00000000
00000000
00000000
,
00000110
00000000
00000000
00000200
00000000
00000000
00000000
00000020
00000000
00000000
00000000
00000000
00000000
00000000
00000330
00000000
,
00001010
00000000
00000000
00001001
00000000
00000000
00001010
00000000
00010010
00000000
00000000
00011000
00000000
01001000
00000000
00000000
,
01010000
00000000
00000000
10010000
00000000
00000000
01010000
00000000
01001000
00000000
00000000
00011000
00000000
00000000
00010010
00000000
,
00000110
00001001
00010100
00011000
00101000
00000000
00000000
00000000
,
00100000
01000000
10000000
00000000
,
01000000
10000000
00000000
10010000
,
00000000
01000000
00100000
00000000
,
10000000
01000000
00010000
00001000
,
00000010
00000001
00000100
00000000
,
00000001
00000100
00000000
00001001
,
00000000
00000010
00000100
00000000
,
00000001
00000010
00001000
00010000
,
00100000
10000000
00010000
00000000
,
10000000
00010000
00000000
01010000
,
00000000
01000000
00100000
00000000
,
00010000
00001000
00000100
00000001
,
00001000
00000010
00000100
00000000
,
00000010
00000100
00000000
00000001
,
00001000
00001000
00000100
00000100
,
00000010
00001000
00010000
01000000
,
10000000
00010000
01000000
00000000
,
01000000
00100000
00000000
10010000
,
00000000
10000000
01000000
00000000
,
00010000
00001000
00000010
00000001
,
00000100
00000010
00001000
00000000
,
00000010
00000100
00000000
00001010
,
00000000
00000100
00000010
00000000
,
00001000
00010000
01000000
10000000
,
00100000
01000000
00010000
00000000
,
10000000
01000000
00000000
00011000
,
00000000
00001000
00000010
00000000
,
00000001
00001000
00000100
00000010
,
00000100
00001000
00000001
00000000
,
00000100
00001000
00000000
00011000
,
00000000
00001000
00100000
01000000
,
10000000
00000000
00000000
00010000
00000000
00000000
01000000
00000000
,
00200000
00000000
00000000
00000000
,
10300000
00000000
11000000
00000000
00000000
10100000
00000000
00000000
11000000
00000000
00000000
10100000
00000000
01000000
00100000
00001000
,
00010000
00000000
00011000
00000000
00000000
00010100
00000000
00000000
00011000
00000000
00000000
00010100
00000000
00000100
00001000
00000010
,
00000100
00000000
00000110
00000000
00000000
00000101
00000000
00000000
00000110
00000000
00000000
00000101
00000000
00000001
00000010
00000100
,
00010000
00000000
00011000
00000000
00000000
01001000
00000000
00000000
01000000
00100000
01000000
00100000
10000000
00010000
10000000
00010000
,
10000000
00000000
02000000
00000000
00000000
03020000
00000000
00000000
,
00032000
00000000
00000000
00010000
00000000
00000000
00013000
00000000
,
00010000
00001000
00000020
00000000
00000000
00000032
00000000
00000000
,
00000203
00000000
00000000
00001000
00000000
00000000
00001300
00010000
,
01000000
10000000
00020000
00000000
00000000
02030000
00000000
00000000
,
03200000
00000000
00000000
00010000
00000000
00000000
00310000
00001000
,
00000010
00000001
00000010
00000000
00000001
00000100
00000000
00000000
,
00000001
00000100
00000001
00000100
00000001
00000100
00000010
00001000
00000010
00001000
00000010
00001000
,
00000001
00000000
00000000
00000000
00000001
00000000
00000000
00000000
00000001
00000000
00000000
00000000
,
00000100
00000000
00000000
00000000
00000010
00000000
00000000
00000000
00010000
00000000
00000000
00000000
,
00001000
00000000
00000000
00000000
00001000
00000000
00000000
00000000
00001000
00000000
00000000
00000000
,
01000000
00000000
00000000
00000000
00100000
00000000
00000000
00000000
10000000
00000000
00000000
00000000
,
01000000
00000000
00000000
00000000
01000000
00000000
00000000
00000000
01000000
00000000
00000000
00000000
,
00100000
00000000
00000000
00000000
00001000
00000000
00000000
00000000
00010000
00000000
00000000
00000000
,
00000010
00000000
00000000
00000000
00000010
00000000
00000000
00000000
00000010
00000000
00000000
00000000
,
00000100
00000000
00000000
00000000
00001000
00000000
00000000
00000000
00010000
00000000
00000000
00000000
,
01000000
00000000
00000000
00000000
01000000
00000000
00000000
00000000
01000000
00000000
00000000
00000000
,
10000000
00000000
00000000
00000000
00010000
00000000
00000000
00000000
10000000
00000000
00000000
00000000
,
01000000
00000000
00000000
00000000
01000000
00000000
00000000
00000000
01000000
00000000
00000000
00000000
,
00010000
00000000
00000000
00000000
00001000
00000000
00000000
00000000
00000010
00000000
00000000
00000000
,
00000001
00000000
00000000
00000000
00000001
00000000
00000000
00000000
00000001
00000000
00000000
00000000
,
00000100
00000000
00000000
00000000
00000010
00000000
00000000
00000000
00000100
00000000
00000000
00000000
,
00001000
00000000
00000000
00000000
00010000
00000000
00000000
00000000
01000000
00000000
00000000
00000000
,
10000000
00000000
00000000
00000000
00010000
00000000
00000000
00000000
10000000
00000000
00000000
00000000
,
00100000
00000000
00000000
00000000
01100000
00000000
00000000
00000000
01100000
00000000
00000000
00000000
,
01000000
00000000
00000000
00000000
01001000
00000000
00000000
00000000
01001000
00000000
00000000
00000000
,
00010000
00000000
00000000
00000000
00011000
00000000
00000000
00000000
00011000
00000000
00000000
00000000
,
00010000
00000000
00000000
00000000
00010010
00000000
00000000
00000000
00010010
00000000
00000000
00000000
,
00000010
00000000
00000000
00000000
00000110
00000000
00000000
00000000
00000110
00000000
00000000
00000000
,
00000100
00000000
00000000
00000000
00000101
00000000
00000000
00000000
00000101
00000000
00000000
00000000
,
00000001
00000000
00000000
00000000
00000010
00000000
00000000
00000000
00000100
00000000
00000000
00000000
,
00010000
00000000
00000000
00000000
00001000
00000000
00000000
00000000
00100000
00000000
00000000
00000000
,
01000000
00000000
00000000
00000000
11000000
00000000
00000000
00000000
11000000
00000000
00000000
00000000
,
10000000
00000000
00000000
00000000
10100000
00000000
00000000
00000000
10100000
00000000
00000000
00000000
,
01000000
00000000
00000000
00000000
01001000
00000000
00000000
00000000
01001000
00000000
00000000
00000000
,
00010000
00000000
00000000
00000000
00010010
00000000
00000000
00000000
00010010
00000000
00000000
00000000
,
00000100
00000000
00000000
00000000
00000101
00000000
00000000
00000000
00000101
00000000
00000000
00000000
,
00000010
00000000
00000000
00000000
00000110
00000000
00000000
00000000
00000110
00000000
00000000
00000000
,
00000100
00000000
00000000
00000000
00010000
00000000
00000000
00000000
00001000
00000000
00000000
00000000
,
01000000
00100000
10000000
00010000
,
02000000
00000000
00000000
00000000
,
00000000
00000000
00000000
03000000
;

//---------------dance-double - ----------------
#NOTES:
     dance-double:
     :
     Medium:
     14:
     0.802034,1.807974,0.903987,0.095157,0.613760,590.000000,495.000000,95.000000,10.000000,0.000000,0.000000,0.802034,1.807974,0.903987,0.095157,0.613760,590.000000,495.000000,95.000000,10.000000,0.000000,0.000000:
00000000
00000000
00000000
00000000
,
00000000
00000000
00000000
00000000
,
00000000
00000000
00000000
00000000
,
00000000
00000000
00000000
00000000
,
00001000
00000010
00010010
00000000
,
00010000
00011000
00000000
00001000
,
01001000
00000000
01000000
01100000
,
00000000
00000000
10000000
00010000
10000000
00000000
00100000
00000000
,
10000000
01000000
00010000
00000000
,
00001000
00000000
00000010
00000000
,
00000011
00000000
00000001
00000101
,
00000000
00000100
00000010
00000100
,
00000001
00000010
00001100
00000000
,
00010000
00011000
00000000
00001000
,
01001000
00000000
00100000
01100000
,
00000000
00000000
01000000
10000000
01000000
00000000
00100000
00000000
,
00010000
01000000
00001000
00000000
,
00010000
00000010
00010000
00000010
,
00000110
00000000
00001000
00001001
,
00000000
00000010
00000100
00000001
,
00000100
00001000
00020000
00031000
,
00000010
00002000
00013000
01000000
,
20000000
31000000
00010000
00002000
,
00003010
00000001
00000100
00000001
,
00000010
00000010
00001000
00000000
,
00010000
01000000
00010000
01000000
,
10000000
00000000
00000000
10010000
,
00000000
01000000
00100000
01000000
,
00010000
00000000
00100000
00000000
00010000
00100000
00010000
00000000
,
01000000
00000000
00100000
00000000
01000000
00100000
01000000
00000000
,
00001000
00000000
00010000
00000000
00001000
00010000
00001000
00000000
,
00010000
00000000
00000010
00000000
00010000
00000010
00010000
00000000
,
00000010
00010010
00010010
00010000
,
00010100
00011000
01001000
01010000
,
00100000
10000000
00000000
00100000
10000000
00000000
01000000
00010000
,
00000000
01000000
00010000
00000000
00001000
00000000
00000100
00000000
,
00000002
00000000
00000000
00000200
00000000
00000000
00000003
00002000
00000000
00000000
00000000
00000000
00000000
00000000
00003300
00000000
,
00011000
00000000
00000000
01100000
00000000
00000000
11000000
00000000
10100000
00000000
00000000
00110000
00000000
00011000
00000000
00000000
,
00001010
00000000
00000000
00000011
00000000
00000000
00000101
00000000
00001010
00000000
00000000
00000110
00000000
00000000
00001100
00000000
,
00011000
01010000
11000000
10010000
01100000
00000000
00000000
00000000
,
00000100
00000010
00000001
00000000
,
00000010
00000001
00000000
00000101
,
00000000
00000100
00001000
00000000
,
00010000
00000000
01000000
00000000
10000000
00010000
10000000
00000000
,
00100000
01000000
00010000
00000000
,
01000000
00010000
00000000
10010000
,
00000000
10000000
01000000
00000000
,
00010000
00000000
00001000
00000000
00000010
00000001
00000010
00000000
,
00000001
00000100
00000010
00000000
,
00000100
00000010
00000000
00010010
,
00000000
00010000
00001000
00000000
,
00010000
00000000
00100000
00000000
10000000
00010000
10000000
00000000
,
01000000
00100000
00010000
00000000
,
00100000
00010000
00000000
01000000
,
00100000
00100000
00010000
00010000
,
00001000
00000000
00000100
00000000
00000001
00001000
00000001
00001000
,
00000010
00000100
00000010
00000000
00001000
00000000
00000000
00000010
,
00000100
00000010
00000000
00001100
,
00000000
00000000
00000010
00000001
00000010
00000000
00000000
00000001
,
00000100
00001000
00010000
00100000
,
10000000
00010000
10000000
00000000
00100000
00000000
00000000
01000000
,
00100000
01000000
00000000
01001000
,
00000000
00000000
00100000
01000000
00100000
00000000
00000000
00000000
,
01000000
00000000
10000000
00100000
00000000
01000000
00010000
00000000
,
01000000
00100000
01000000
00000000
00100000
00000000
00000000
00010000
,
00001000
00000100
00000000
00000101
,
00000000
00000000
00000001
00000010
00000001
00000000
00000000
00000000
,
00000010
00001000
00010000
01000000
,
00010000
00001000
00010000
00000000
00001000
00000000
00000000
01000000
,
00100000
10000000
00000000
00010000
,
01000000
01000000
00100000
00100000
,
00010000
00000000
00000000
00001000
00000000
00000000
00000100
00000000
,
00000002
00000000
00000000
00000000
00002000
00000000
00000000
00003003
,
00000001
00000000
00000100
00000000
00001000
00000000
00000000
00000000
00000100
00000000
00001000
00000000
00000000
00000000
00010000
00000000
01000000
00000000
00000000
00000000
00010000
00000000
01000000
00000000
00000000
00000000
10000000
00010000
10000000
00000000
00100000
00000000
,
10000000
00000000
01000000
00000000
00010000
00000000
00000000
00000000
01000000
00000000
00010000
00000000
00000000
00000000
00001000
00000000
00000100
00000000
00000000
00000000
00001000
00000000
00000100
00000000
00000000
00000000
00000001
00001000
00000001
00000000
00000010
00000000
,
00000001
00000000
00000010
00000000
00001000
00000000
00000000
00000000
00000010
00000000
00001000
00000000
00000000
00000000
00010000
00000000
00100000
00000000
00000000
00000000
00010000
00000000
00100000
00000000
00000000
00000000
10000000
01000000
10000000
00000000
00100000
00000000
,
01000000
00000000
00010000
00000000
00110000
00000000
00000000
00000000
01000000
00000000
11000000
00000000
00000000
00000000
01000000
00000000
00010000
00000000
00001000
00000000
00000100
00000000
00000001
00000000
00001000
00000000
00000010
00000100
00000010
00000100
00000010
00000000
,
00001000
00000001
00000101
00000000
00000001
00000101
00000000
00000100
,
00001000
00000000
00000000
00000000
00010000
00000000
01000000
00000000
00000000
00000000
10000000
00010000
10000000
00000000
00100000
00000000
,
10000000
01000000
01100000
00000000
01000000
01100000
00000000
00010000
,
00001000
00000000
00000000
00000000
00000010
00000000
00000001
00000000
00001000
00000010
00001000
00000010
00001000
00000000
00000001
00000000
,
00000100
00001000
00001100
00000000
00000100
00001100
00000000
00010000
,
01000000
00000000
10000000
00100000
00000000
00010000
00001000
00000010
,
00000001
00001000
00001001
00000000
00000010
00000110
00000000
00000100
,
00000001
00001000
00000001
00001000
00000010
00001000
00000010
00010000
00000010
00010000
00001000
00010000
,
00001000
00000000
00000000
00000000
01001000
00000000
00000000
00000000
01001000
00000000
00000000
00000000
,
01000000
00000000
00000000
00000000
01100000
00000000
00000000
00000000
01100000
00000000
00000000
00000000
,
00100000
00000000
00000000
00000000
10100000
00000000
00000000
00000000
10100000
00000000
00000000
00000000
,
10000000
00000000
00000000
00000000
11000000
00000000
00000000
00000000
11000000
00000000
00000000
00000000
,
01000000
00000000
00000000
00000000
01100000
00000000
00000000
00000000
01100000
00000000
00000000
00000000
,
00100000
00000000
00000000
00000000
00101000
00000000
00000000
00000000
00101000
00000000
00000000
00000000
,
00001000
00000000
00000000
00000000
00011000
00000000
00000000
00000000
00011000
00000000
00000000
00000000
,
00010000
00000000
00000000
00000000
00010010
00000000
00000000
00000000
00000010
00000000
00000100
00000000
,
00000001
00000000
00000000
00000000
00000011
00000000
00000000
00000000
00000011
00000000
00000000
00000000
,
00000010
00000000
00000000
00000000
00001100
00000000
00000000
00000000
00001100
00000000
00000000
00000000
,
00000100
00000000
00000000
00000000
00010100
00000000
00000000
00000000
00010100
00000000
00000000
00000000
,
00010000
00000000
00000000
00000000
00011000
00000000
00000000
00000000
00001000
00000000
00100000
00000000
,
01000000
00000000
00000000
00000000
11000000
00000000
00000000
00000000
11000000
00000000
00000000
00000000
,
10000000
00000000
00000000
00000000
10100000
00000000
00000000
00000000
10100000
00000000
00000000
00000000
,
10000000
00000000
00100000
00000000
10000000
00000000
00100000
00000000
00010000
00000000
00100000
00000000
,
00010000
00000000
00001000
00000000
00010000
00000000
00001000
00000000
00000010
00000000
00001000
00000000
,
00000010
00000000
00000000
00000000
00000011
00000000
00000000
00000000
00000011
00000000
00000000
00000000
,
00000001
00000000
00000000
00000000
00000101
00000000
00000000
00000000
00000101
00000000
00000000
00000000
,
00000100
00000000
00000000
00000000
00001100
00000000
00000000
00000000
00001100
00000000
00000000
00000000
,
00001000
00000000
00000000
00000000
00011000
00000000
00000000
00000000
00001000
00000000
00010000
00000000
,
01000000
00000000
00000000
00000000
11000000
00000000
00000000
00000000
11000000
00000000
00000000
00000000
,
10000000
00000000
00000000
00000000
10100000
00000000
00000000
00000000
10100000
00000000
00000000
00000000
,
00100000
00000000
00000000
00000000
00110000
00000000
00000000
00000000
00110000
00000000
00000000
00000000
,
00010000
00000000
00000000
00000000
00011000
00000000
00000000
00000000
00001010
00000000
00000000
00000000
,
00000001
00000000
00000100
00000000
00000001
00000000
00000100
00000000
00001000
00000000
00000100
00000000
,
00001000
00000000
00010000
00000000
00001000
00000000
00010000
00000000
00100000
00000000
00010000
00000000
,
00100000
00000000
10000000
00000000
00100000
00000000
10000000
00000000
01000000
00000000
10000000
00000000
,
01000000
00000000
00010000
00000000
01000000
00000000
00010000
00000000
00001000
00000000
00010000
00000000
,
00001000
00000000
00000010
00000000
00001000
00000000
00000010
00000000
00000001
00000000
00000010
00000000
,
00000001
00000000
00000100
00000000
00000001
00000000
00000100
00000000
00001000
00000000
00000100
00000000
,
00001000
00000000
00000000
00000000
00011000
00000000
00000000
00000000
01010000
00000000
00000000
00000000
,
10000000
00000000
00100000
00000000
01000000
00001000
01000000
00001000
,
00020000
00000000
00000000
00000000
,
00000000
00000000
00000000
00030000
;
