#TITLE:Pluto Escape;
#SUBTITLE:;
#ARTIST:MidiGuyDP;
#TITLETRANSLIT:;
#SUBTITLETRANSLIT:;
#ARTISTTRANSLIT:;
#GENRE:Hardcore;
#CREDIT:;
#BANNER:plutoescape-bn.png;
#BACKGROUND:plutoescape-bg.png;
#LYRICSPATH:;
#CDTITLE:;
#MUSIC:Pluto Escape.mp3;
#OFFSET:-0.020000;
#SAMPLESTART:104.610008;
#SAMPLELENGTH:11.999990;
#SELECTABLE:YES;
#BPMS:0.000000=95.000000
,102.500000=47.500000
,117.000000=200.000000
,149.000000=210.000000
,181.000000=105.000000
,197.000000=420.000000
,261.000000=105.000000
;
#STOPS:71.000000=0.316000,
78.250000=0.316000,
86.250000=0.316000,
102.500000=1.895000
;
#BGCHANGES:;
#KEYSOUNDS:;
#ATTACKS:;

//---------------dance-single - ----------------
#NOTES:
     dance-single:
     :
     Challenge:
     17:
     0.689898,1.144382,0.330773,0.191113,0.790180,657.000000,612.000000,45.000000,26.000000,0.000000,0.000000,0.689898,1.144382,0.330773,0.191113,0.790180,657.000000,612.000000,45.000000,26.000000,0.000000,0.000000:
0000
0000
0000
0000
,
0000
0000
0000
0000
,
0000
0000
0000
0000
,
0000
0000
0000
0000
,
0100
0010
0100
0001
0100
0000
0000
0010
0010
0000
1000
0001
0000
1100
0000
0001
,
1000
0010
0000
0100
0010
0000
0000
1000
1000
0000
0001
1000
0000
0011
0000
1000
,
0001
0100
1000
0100
0001
0010
0100
1000
1000
0100
0001
0100
1000
0010
0100
0001
,
0100
0000
0010
0000
0001
0000
0010
0000
1000
0000
0100
0000
0010
0000
1000
0000
0010
0001
0010
0001
0100
0010
0100
0010
0001
0100
1000
0100
0001
0010
1000
0010
,
0001
0000
0100
0010
1000
0010
0100
0001
1000
0000
0001
0000
0012
0000
0003
0000
,
1001
0000
0000
0001
0100
0000
0000
1000
0100
0000
0001
1000
1001
0000
0000
0000
,
0101
0000
0000
1000
0010
0000
0000
0001
0010
0000
1000
0001
1001
0000
0000
0000
,
1010
0000
0000
0001
0100
0000
0000
1000
0100
0000
0000
0001
0100
0010
0101
0000
,
1010
0100
0001
0100
1000
0100
0001
0010
1000
0000
0010
0001
1001
0000
0000
0000
,
0101
0000
1000
0010
0001
0000
1000
0100
0001
0000
0100
0010
1001
0000
0010
0100
,
1001
0000
0001
0100
1000
0000
0001
0010
1000
0000
0010
0100
1001
0000
1000
0100
,
0011
0000
0001
0100
0010
1000
0010
0100
0001
0000
1000
0110
0110
0000
1001
0000
,
0001
0100
1000
0001
0010
1000
0100
0001
1000
0010
0001
0100
1000
0100
0001
0001
,
1000
0010
0001
1000
0100
0001
0010
1000
0001
0100
1000
0010
0100
0000
1000
0100
,
0010
1000
0010
0001
0100
0100
0001
0010
1000
0010
0001
0100
1000
0100
0001
0010
,
0100
0001
0100
1000
0010
0010
1000
0100
0001
0100
1100
0000
1010
1000
0010
0001
,
1000
0100
0001
0010
0100
0010
0001
0010
1000
0010
0001
1000
0011
0001
0100
0010
,
1000
0100
0010
0100
1000
0100
0001
0100
1000
0010
0100
0001
0100
0010
0001
0010
,
1000
0100
0010
1000
0010
0001
0100
1000
0100
0100
0001
0010
0100
1000
0100
0010
,
0100
0000
0010
0000
0001
1000
0001
0010
0100
0000
0010
0000
0110
0000
1000
0000
0001
0000
0000
0000
0011
0000
0011
0000
0000
0000
1100
0000
0000
0000
1000
0100
,
0010
0000
0000
0000
0001
0000
1000
0000
0001
0100
1000
0000
1000
0100
0001
0000
0010
0100
1000
0000
0010
0000
1000
0000
0010
0001
0100
0000
1000
0000
0100
0001
,
0010
0000
0100
0000
0010
0001
0010
0001
0100
0010
0100
0001
0010
0100
0010
0100
1000
0010
0100
0010
1000
0000
0000
0000
0010
0010
0000
0000
0100
0100
0000
0000
,
0000
0000
0000
0000
0000
0000
0000
0000
0000
1100
0000
0000
0101
0000
0000
0000
0000
0011
0000
0000
1010
0000
1100
0000
0001
0100
0000
1000
0100
0000
0000
0000
,
0000
0011
0000
0000
1010
0000
1100
0000
0012
0010
0000
0000
1000
0000
0000
0000
0000
0100
0003
0000
0001
0000
0010
0000
2100
0100
0000
0000
0001
0000
0000
0000
,
0000
0010
3000
0000
1000
0000
0100
0000
1002
0010
0000
0000
0100
0000
0000
0000
0000
1000
0000
0000
0013
0000
0001
0000
2002
0000
0000
0000
3003
0000
0000
0000
,
0010
0100
0010
0100
0000
0000
1001
0000
1001
0000
0000
0000
0100
0010
0100
0010
0001
0000
0000
0000
0000
0000
0000
0000
0010
0000
0000
0000
0000
0000
0000
0000
1000
0000
0000
0000
0000
0000
0000
0000
0001
0000
0000
0000
0000
0000
0000
0000
0100
0000
0000
0000
0000
0000
0000
0000
1000
0000
0000
0000
0000
0000
0000
0000
,
0001
0010
1000
0010
0001
1000
0100
0001
,
1000
0010
0001
0010
1000
0001
0100
1000
,
0001
0010
1000
0010
0001
1000
0100
0001
,
0010
1000
0001
0100
1000
0001
0010
1000
,
0001
0100
1000
0100
0001
1000
0010
0001
,
1000
0100
0001
0100
1000
0001
0010
1000
,
0001
0100
1000
0100
0001
1000
0010
0001
,
0100
1000
0002
0010
0013
0100
1000
0010
,
0200
1000
1000
1000
1000
1300
0100
0001
,
1000
0002
0010
0010
0013
1000
0010
0001
,
1000
0000
0020
0000
0100
0000
0130
0000
0010
0000
0001
0010
1000
0000
0100
0000
,
0010
2000
0010
3010
0001
0010
1000
0010
,
0001
0010
0200
1000
0310
0100
0020
0100
,
0031
0000
0020
0000
0100
0000
1030
0000
0001
0000
0100
0001
1000
0000
0010
0000
,
1000
0000
0001
0000
0100
0010
1000
0010
0100
0001
0010
0001
0100
0010
1000
0001
,
0100
0010
1000
0001
1000
0000
0000
0010
0010
0000
0000
0010
1001
0000
0000
0010
,
0100
0000
0000
0000
0000
0000
0000
0000
0100
0000
0010
0000
1000
0000
0000
0000
0000
0000
0000
0000
0000
0100
0000
0000
0100
0000
0000
0000
0000
0000
0000
0000
0000
0100
0000
0000
1001
0000
0000
0000
0000
0000
0000
0000
0000
0010
0000
0000
,
0100
0000
0000
0000
0000
0000
0000
0000
0100
0000
0010
0000
0001
0000
0000
0000
0000
0000
0000
0000
0000
1000
0000
0000
1000
0000
0000
0000
0000
0000
0000
0000
0000
1000
0000
0000
0110
0000
0000
0000
0000
0000
0000
0000
0000
0001
0000
0000
,
0001
0000
0000
0000
0000
0000
0000
0000
0000
0000
0000
0000
0000
0000
0000
0000
0000
0000
0000
0000
0000
0000
0000
0000
0000
0000
0000
0000
0000
0000
0000
0000
0001
0000
0000
0000
0000
0000
0000
0000
1000
0000
0000
0000
0000
0000
0000
0000
0020
0000
0000
0000
0000
0000
0000
0000
0000
0000
0000
0000
0000
0000
0000
0000
0000
0000
0000
0000
0000
0000
0000
0000
0000
0000
0000
0000
0000
0000
0000
0000
0000
0000
0000
0000
0100
0000
0000
0000
0000
0000
0000
0000
0000
0000
0000
0000
0100
0000
0000
0000
0000
0000
0000
0000
0000
0000
0000
0000
0000
0000
0000
0000
0000
0000
0000
0000
0000
0000
0000
0000
0000
0000
0000
0000
0000
0000
0000
0000
0000
0000
0000
0000
0100
0000
0000
0000
0000
0000
0000
0000
0000
0000
0000
0000
0130
0000
0000
0000
0000
0000
0010
0000
0000
0000
0000
0000
1000
0000
0000
0000
0000
0000
0001
0000
0000
0000
0000
0000
0000
0000
0000
0000
0000
0000
0000
0000
0000
0000
0000
0000
0100
0000
0000
0000
0000
0000
0000
0000
0000
0000
0000
0000
,
0010
0000
0000
0000
1000
0001
0100
0010
0100
0000
0000
0000
0000
0000
0000
0000
0010
0000
0000
0000
0000
0000
0000
0000
0001
0000
0000
0000
0000
0000
0000
0000
,
0010
1000
0100
0010
,
2000
3020
0032
0103
,
0010
0001
0010
0000
1000
0000
0100
0000
,
0010
1000
0010
0000
0001
0000
0100
0000
,
0120
1000
0130
2001
,
0100
0010
3100
0010
,
0100
1000
0100
0000
1000
0000
0010
0000
,
0001
0010
1000
0000
0100
0000
0010
0000
,
0002
0103
0010
0001
,
0001
0001
0010
1000
,
0001
0100
1000
0000
0200
0000
0301
0000
,
1000
0100
0010
0000
0001
0000
0100
0000
,
0020
1030
0001
0200
,
0302
0000
1003
0010
0001
0010
1000
0010
,
0001
0010
1000
0100
0001
0100
1000
0100
,
0001
0100
2000
0000
0000
0000
0000
0000
,
0000
3000
0000
0000
;

//---------------dance-single - ----------------
#NOTES:
     dance-single:
     :
     Beginner:
     5:
     0.134409,0.239810,0.169062,0.000000,0.000000,128.000000,105.000000,23.000000,0.000000,0.000000,0.000000,0.134409,0.239810,0.169062,0.000000,0.000000,128.000000,105.000000,23.000000,0.000000,0.000000,0.000000:
// measure 0
0000
0000
0000
0000
,  // measure 1
0000
0000
0000
0000
,  // measure 2
0000
0000
0000
0000
,  // measure 3
0000
0000
0000
0000
,  // measure 4
1000
0000
1000
0000
,  // measure 5
0001
0000
0001
0000
,  // measure 6
0100
0000
0100
0000
,  // measure 7
0010
0000
0010
0010
,  // measure 8
0010
0000
0000
1001
,  // measure 9
1001
0000
0000
0110
,  // measure 10
0110
0000
0000
1001
,  // measure 11
1001
0000
0000
0001
,  // measure 12
0001
0000
0000
0110
,  // measure 13
0110
0000
0000
1001
,  // measure 14
1001
0000
0000
0110
,  // measure 15
0110
0000
0000
0010
,  // measure 16
0010
0000
1000
0000
,  // measure 17
0100
0000
0001
0001
,  // measure 18
0000
0000
0000
0010
,  // measure 19
0000
0000
0000
1000
,  // measure 20
0000
0100
0000
0001
,  // measure 21
0000
0010
0000
1000
,  // measure 22
0000
0000
0100
0000
,  // measure 23
0001
0000
0001
0000
,  // measure 24
0001
0000
0010
0010
,  // measure 25
0010
0000
1000
1000
,  // measure 26
0000
0001
0000
0010
,  // measure 27
0000
0100
0000
1000
,  // measure 28
0000
0100
0000
0010
,  // measure 29
0010
0010
0000
0010
,  // measure 30
0000
0001
0000
0001
,  // measure 31
0000
0100
0000
0100
,  // measure 32
0000
0010
0000
0010
,  // measure 33
0000
1000
0000
1000
,  // measure 34
0000
0001
0000
0001
,  // measure 35
0000
0100
0000
0100
,  // measure 36
0000
0010
0000
0000
,  // measure 37
0110
0110
0000
1000
,  // measure 38
0000
0100
0000
0010
,  // measure 39
0000
0001
0000
0100
,  // measure 40
0000
0010
0000
1000
,  // measure 41
0000
0001
0000
0100
,  // measure 42
0000
0010
0000
0100
,  // measure 43
0000
0001
0000
1000
,  // measure 44
0000
0010
0000
0100
,  // measure 45
0000
0110
0000
0000
,  // measure 46
1001
1001
0000
0000
,  // measure 47
0110
0110
0000
0000
,  // measure 48
1001
1001
0000
0010
,  // measure 49
0000
0110
0000
0000
,  // measure 50
0000
0000
0000
0000
,  // measure 51
0000
1000
0000
0000
,  // measure 52
0000
0001
0000
0000
,  // measure 53
0000
0001
0000
0000
,  // measure 54
0000
0100
0000
0000
,  // measure 55
0000
0000
0000
0000
,  // measure 56
0000
0010
0000
0000
,  // measure 57
0000
0010
0000
0000
,  // measure 58
0000
0000
0000
0000
,  // measure 59
0000
1000
0000
0000
,  // measure 60
0000
0100
0000
0000
,  // measure 61
0000
0100
0000
0000
,  // measure 62
0000
0000
0000
0000
,  // measure 63
0000
1000
0000
0000
,  // measure 64
0000
0001
0000
0000
,  // measure 65
0000
1001
0000
0000
;

//---------------dance-single - ----------------
#NOTES:
     dance-single:
     :
     Hard:
     15:
     0.614293,0.935260,0.279319,0.022052,0.632144,585.000000,547.000000,38.000000,3.000000,0.000000,0.000000,0.614293,0.935260,0.279319,0.022052,0.632144,585.000000,547.000000,38.000000,3.000000,0.000000,0.000000:
0000
0000
0000
0000
,
0000
0000
0000
0000
,
0000
0000
0000
0000
,
0000
0000
0000
0000
,
1000
0100
1000
0100
1000
0000
0010
0100
0001
0000
0010
0100
0000
0001
0000
0100
,
0010
1000
0000
0001
0100
0000
0010
1000
0100
0000
0010
1000
0000
0100
0000
1000
,
0010
0100
0000
0001
0100
0000
0010
1000
0001
0000
0010
1000
0000
0001
0000
1000
,
0010
0000
0100
0000
0000
0000
0001
0000
0010
0000
0000
0000
0100
0000
1000
0000
0010
0100
0010
0100
0001
0100
0001
0100
0010
1000
0010
1000
0100
1000
0100
1000
,
0200
0300
0000
0010
,
1001
0000
0000
0100
,
1001
0000
0000
1000
,
0110
0000
0000
0000
0000
0000
0000
0000
0000
0000
0000
0010
0110
0000
1001
0000
,
0011
0000
0010
0100
1000
0000
0000
0010
0100
0000
0001
1000
0010
0000
0001
0010
,
1001
0000
0000
0010
0100
0000
0001
1000
0100
0000
1000
0010
1000
0001
0000
0010
,
0011
0000
0000
0100
1000
0000
0010
0100
0001
0000
0100
0001
0100
0000
0010
1000
,
1010
0000
0000
0100
0010
0000
0000
1000
0001
0000
0000
0100
0110
0000
1001
0000
,
0001
0010
0100
0001
0100
1000
0010
0100
1000
0100
0001
0010
1000
0010
0001
0000
,
1000
0100
0010
1000
0010
0001
0100
0010
0001
0010
1000
0001
1000
0000
0001
0100
,
1000
0100
0001
1000
0100
0001
0100
1000
0010
0100
1000
0100
0001
0010
0100
1000
,
0100
0010
1000
0010
0001
0100
0010
0001
0010
1000
0110
0000
1001
0001
0010
0100
,
1001
1000
0100
0010
0001
0100
1000
0100
0001
0010
0100
0100
1100
0010
0001
0010
,
1000
0100
0010
0001
1000
0010
0100
1000
0100
0001
1000
0010
0100
1000
0100
1000
,
0100
0001
0100
0001
0010
0100
1000
0010
0100
0100
0001
0010
0100
0001
0100
0001
,
0100
0000
1000
0000
0100
0000
1000
0000
0010
0000
0100
0000
0001
0000
1000
0000
1001
0000
0000
0000
0010
0000
0010
0000
0000
0000
1100
0000
0000
0000
0010
0100
,
1000
0000
0000
0000
0100
0000
0010
0000
0001
1000
0001
0000
1000
0001
1000
0000
0100
0010
0001
0000
0100
0000
0001
0000
1000
0010
0100
0000
0010
0000
1000
0001
,
1000
0000
0100
0000
0010
0000
1000
0000
0010
0000
1000
0000
0010
0000
1000
0000
0010
0000
0100
0000
0110
0000
0000
0000
0010
1000
0000
0010
1000
0000
0000
0000
,
0000
0000
0000
0000
0000
0000
0000
0000
0000
1100
0000
0000
1000
0000
0000
0000
0000
1010
0000
0000
1000
0000
0010
0000
0000
0101
0000
0000
0001
0000
0000
0000
,
0000
0011
0000
0000
0001
0000
0010
0000
0100
1000
0000
0000
1100
0000
0000
0000
0000
1100
0000
0000
1000
0000
0100
0000
0010
0001
0000
0000
0011
0000
0000
0000
,
0000
0011
0000
0000
0001
0000
0100
0000
0010
0100
0000
0000
1001
0000
0000
0000
0000
0110
0000
0000
0010
0000
1000
0000
2002
0000
0000
0000
0000
0000
3003
0000
,
0010
0100
0010
0100
0000
0000
1001
0000
1001
0000
0000
0000
1000
0001
1000
0001
1000
0000
0000
0000
0000
0000
0000
0000
0100
0000
0000
0000
0000
0000
0000
0000
0001
0000
0000
0000
0000
0000
0000
0000
0100
0000
0000
0000
0000
0000
0000
0000
1000
0000
0000
0000
0000
0000
0000
0000
0010
0000
0000
0000
0000
0000
0000
0000
,
0001
0010
1000
0100
0010
0001
0001
0100
,
0010
1000
0001
0010
1000
0010
0001
0100
,
1000
0100
0001
0010
0100
1000
1000
0100
,
0010
0001
0100
0010
1000
0010
0100
0010
,
0001
0010
1000
0001
0100
0010
0010
0100
,
0001
1000
0010
0100
0010
1000
0010
0100
,
0010
0001
0010
1000
0001
0100
0100
0001
,
1000
0010
1000
0100
0010
1000
0010
0001
,
0100
0100
0100
0100
0100
0100
0010
0001
,
0010
1000
1000
1000
0001
0010
1000
0010
,
0001
0000
0100
0000
0100
0000
0100
0000
0010
0000
1000
0100
1000
0000
0010
0000
,
0100
0010
0001
0010
1000
0100
0010
1000
,
0010
0001
0100
0010
1000
0001
0100
0010
,
0001
0000
0010
0000
1000
0000
0100
0000
0010
0000
0001
0100
0010
0000
1000
0000
,
0100
0001
1000
0010
0001
1000
0100
0001
,
1000
0000
0010
0000
0001
0000
0000
0000
0110
0000
0000
1000
1000
0000
0000
0010
,
0010
0000
0000
0100
0101
0000
0000
0001
0001
0000
0000
0010
1001
0000
0000
0100
,
0100
0000
0000
0010
1010
0000
0000
0100
0100
0000
0000
0001
0011
0000
0000
0001
,
0001
0000
0000
0000
0000
0000
1000
0000
1100
0000
0000
0000
0000
0000
0000
0000
0110
0000
0000
0000
0000
0000
0000
0000
0001
1000
0001
0000
0000
0000
0100
0000
,
0100
0000
0000
0000
1000
0001
1000
0001
1000
0000
0000
0000
0000
0000
0000
0000
0010
0000
0000
0000
0000
0000
0000
0000
0100
0000
0000
0000
0000
0000
0000
0000
,
0001
0010
0100
1000
,
0010
0100
0100
0001
,
1000
0001
1000
0000
0100
0000
0010
0000
,
0001
1000
0001
0000
0010
0000
0100
0000
,
1000
0010
1000
0100
,
1000
1000
1000
0010
,
0100
0010
0100
0000
0001
0000
1000
0000
,
0010
0100
0010
0000
1000
0000
0001
0000
,
0100
0010
1000
0001
,
0001
0001
0010
0100
,
0010
0001
0010
0000
0100
0000
1000
0000
,
0001
0010
0001
0000
0100
0000
1000
0000
,
0100
0001
1000
0010
,
0100
0000
0001
0010
0100
1000
0100
0010
,
0001
0100
0010
1000
0010
0100
0001
1000
,
0100
0010
0001
0000
0000
0000
0000
0000
;

//---------------dance-single - ----------------
#NOTES:
     dance-single:
     :
     Medium:
     12:
     0.432630,0.767393,0.205814,0.036753,0.396928,412.000000,384.000000,28.000000,5.000000,0.000000,0.000000,0.432630,0.767393,0.205814,0.036753,0.396928,412.000000,384.000000,28.000000,5.000000,0.000000,0.000000:
0000
0000
0000
0000
,
0000
0000
0000
0000
,
0000
0000
0000
0000
,
0000
0000
0000
0000
,
0100
0010
0000
0010
1000
0000
0000
0100
0010
0000
0100
1000
0000
0010
0000
0010
,
0100
0001
0000
0010
0100
0000
0000
1000
0010
0000
0100
0001
0000
0010
0000
0010
,
0100
1000
0000
0010
0100
0000
0000
0100
0001
0000
1000
0010
0000
0010
0000
0100
,
0010
1000
0000
0001
0100
0000
0000
0010
0100
0000
0001
0010
0000
0010
0000
0100
,
1000
0000
0000
1010
,
1100
0000
0000
0011
,
0101
0000
0000
0110
,
1001
0000
0000
0000
0000
0000
0000
0000
0000
0000
0000
0010
0100
0000
0000
0000
,
1001
0000
0000
1000
0100
0000
0000
1000
0010
0000
0000
0000
0101
0000
0000
0000
,
1010
0000
0000
0001
0100
0000
0000
0001
0010
0000
0000
0000
0011
0000
0000
0000
,
1100
0000
0000
0001
0100
0000
0000
1000
0100
0000
0000
0000
0101
0000
0000
0000
,
1001
0000
0000
1000
0100
0000
0000
0001
0100
0000
0000
1000
0001
0000
0110
0000
,
0001
0010
0100
1000
0100
0010
0001
0100
0010
1000
0010
0100
0001
0000
1001
0000
,
1000
0100
0010
0001
0010
0100
1000
0010
0100
0001
0100
0010
1000
0000
0010
0100
,
0001
1000
0001
0100
0010
1000
0001
0100
0001
1000
0010
0000
1001
0000
1000
0001
,
0100
0010
0100
0001
1000
0010
0100
0001
1000
0000
1001
0000
0001
0100
0010
1000
,
0010
0100
0001
1000
0010
0100
0010
1000
0001
0000
1001
0000
1000
0010
0100
0001
,
0100
0010
1000
0001
0100
0010
0100
0001
1000
0010
0010
0100
0001
1000
0001
0100
,
0010
1000
0001
0100
0001
1000
0010
0000
1001
0000
0100
0001
1000
0010
1000
0001
,
0100
0010
1000
0001
1000
0010
0100
0010
1000
0000
0001
1000
0000
0010
0000
1000
,
0001
1000
0100
0011
1100
0010
0100
0001
,
1000
0000
0010
0100
0010
0100
0010
0100
0010
0100
0010
0000
0200
0000
0000
0000
,
0300
0000
0000
0000
0000
0000
0000
0000
0000
1000
0000
0000
1000
0000
0000
0000
0000
0001
0000
0000
0001
0000
0000
0000
0000
0100
0000
0000
0100
0000
0000
0000
,
0000
0010
0000
0000
0010
0000
0000
0000
0000
1000
0000
0000
1000
0000
0000
0000
0000
0100
0000
0000
0100
0000
0000
0000
0000
0010
0000
0000
0010
0000
0000
0000
,
0000
0001
0000
0000
0001
0000
0000
0000
0000
0100
0000
0000
0100
0000
0000
0000
0000
0010
0000
0000
0010
0000
0000
0000
2002
0000
0000
0000
3003
0000
0000
0000
,
0220
0330
1000
0000
0100
0000
1000
0100
,
1000
0000
0010
0000
0100
0000
0010
0100
,
0010
0000
0100
0000
0001
0000
0100
0001
,
0100
0000
0001
0000
0010
0000
0001
0010
,
0001
0000
0100
0001
0100
0000
0001
0100
,
0001
0000
1000
0010
1000
0000
0010
1000
,
0010
0000
0100
0010
0100
0000
0010
0100
,
0010
0000
1000
0001
0100
0000
0001
1000
,
0100
1000
0010
1000
,
0001
0010
0001
0010
0001
0010
0001
0000
,
0100
0010
0100
0010
0100
0010
0100
0000
,
0000
0010
0100
0010
0000
1000
0001
1000
,
0000
0001
0010
0001
0000
0000
0000
0000
,
0000
0000
1000
0100
1000
0000
0001
0010
,
0001
0000
0100
0010
0100
0000
0001
1000
,
0010
0000
1000
0100
0010
0000
0001
0100
,
0010
0000
0000
0000
1000
0000
0000
0000
0101
0000
0000
0000
0010
0000
0000
0100
,
1000
0000
0000
0100
1000
0000
0000
0000
0010
0000
0000
0000
1100
0000
0000
0001
,
0100
0000
0000
0001
0100
0000
0000
0000
0010
0000
0000
0000
1001
0000
0000
0100
,
0010
0000
0000
0100
0010
0000
0000
0000
0001
0000
0000
0000
1000
0100
0000
0010
,
0001
1000
0001
0000
0000
0000
1000
0000
,
0000
0010
0000
0100
,
0001
0100
0001
0000
,
1000
0100
0000
0000
,
0100
1000
0000
0000
,
0001
1000
0000
1000
,
0010
0100
0001
0000
,
0010
0100
0000
0000
,
0100
0010
0000
0000
,
1001
0000
0000
0100
,
0001
1000
0000
0000
,
0010
0100
0000
0000
,
0100
0010
0000
0000
,
0110
0000
0000
0010
,
0100
0001
1000
0100
,
0010
0001
0100
0010
,
1000
0001
0000
0000
;

//---------------dance-single - ----------------
#NOTES:
     dance-single:
     :
     Easy:
     8:
     0.327623,0.503602,0.139660,0.029402,0.191113,312.000000,293.000000,19.000000,4.000000,0.000000,0.000000,0.327623,0.503602,0.139660,0.029402,0.191113,312.000000,293.000000,19.000000,4.000000,0.000000,0.000000:
0000
0000
0000
0000
,
0000
0000
0000
0000
,
0000
0000
0000
0000
,
0000
0000
0000
0000
,
1000
0010
0000
0010
0100
0000
0000
0100
0001
0000
0001
1000
0000
0010
0000
0100
,
0001
0100
0000
0001
0010
0000
0000
0010
0100
0000
1000
0001
0000
0010
0000
0100
,
1000
0100
0000
0010
0001
0000
0000
0100
0010
0000
0010
1000
0000
0001
0000
0010
,
0100
0010
0000
0100
1000
0000
0000
0001
1000
0000
0010
0100
0000
0010
0000
0000
,
1001
0000
0000
1100
,
0011
0000
0000
0101
,
1100
0000
0000
1100
,
0011
0000
0000
0000
0000
0000
0000
0000
0000
0000
0000
0001
1000
0000
0010
0000
,
1010
0000
1000
0000
0001
0000
0000
0001
0100
0000
0000
0000
0101
0000
0000
0000
,
1010
0000
0000
1000
0100
0000
0000
1000
0001
0000
1000
0000
1001
0000
0000
0000
,
0110
0000
0000
0010
0100
0000
0000
0010
1000
0000
0100
0000
1100
0000
0000
0000
,
0011
0000
0000
0001
1000
0000
0000
1000
0001
0000
0000
0100
0010
0000
0100
0000
,
0001
0010
0001
0100
0010
0010
0001
0010
,
1000
0000
0100
0000
0010
0000
0001
0000
1000
0000
0010
0100
0010
0000
1000
0000
,
0001
0010
0100
0001
0100
1000
0010
0100
,
1000
0100
0001
1000
0010
0000
1000
0001
,
0100
0010
0001
0010
1000
0001
1000
0100
,
0001
0000
0100
0000
1000
0000
0001
0000
0010
0100
0000
0000
1000
0000
0100
0000
,
0010
0001
1000
0001
1001
0001
0010
0100
,
1000
0000
0001
1000
0000
0000
0010
0000
1000
0000
0100
1000
0000
0100
0000
1000
,
0100
0000
0010
0000
0001
0000
0001
0000
1000
0000
0001
0100
0001
0000
1000
0000
,
0010
0200
0000
0000
0000
0300
0010
0000
,
0000
0000
0000
1000
0000
0001
0000
0100
,
0000
0010
0100
0010
0000
1000
0000
0001
,
0000
0010
0000
0100
0000
1100
1001
0000
,
0020
0031
0100
0001
,
1000
0001
0010
0001
,
1000
1000
0100
1000
,
0010
1000
0001
1000
,
0100
0010
0001
0010
,
0100
0010
1000
0010
,
0001
0100
0010
0100
,
1000
0100
0010
0100
,
0001
1000
0010
1000
,
0010
0100
0001
0100
,
0001
1000
0001
1000
,
0001
0100
0010
0100
,
0010
1000
0010
0001
,
0010
1000
0100
0001
,
0100
2000
0000
3002
,
0000
0000
0103
0010
1000
0000
0010
0100
,
0001
0000
0000
0000
1001
0000
0000
0000
0010
0000
0000
0010
0100
0000
0000
0100
,
0001
0000
0000
0001
1000
0000
0000
0010
1000
0000
0000
1000
0100
0000
0000
0100
,
0010
0000
0000
0010
0100
0000
0000
1000
0001
0000
0000
0001
0100
0000
0000
0100
,
0010
0000
0000
0010
0100
0000
0000
0001
1000
0000
0000
1000
0001
0000
0000
0000
,
0100
0100
0010
0000
0000
0000
1000
0000
,
0000
0100
0000
0010
,
0000
0100
0000
0000
,
1000
0001
0000
0000
,
0001
1000
0000
1000
,
0000
0010
0000
0100
,
0000
0001
0000
0000
,
1000
0001
0000
0000
,
0001
1000
0000
0001
,
0000
0100
0000
0010
,
0000
1000
0000
0000
,
1000
0100
0000
0000
,
0100
1000
0000
0000
,
0001
0100
0000
0000
,
0000
0010
0000
0010
,
0000
0010
0000
0010
,
0000
0110
0000
0000
;

//---------------dance-double - ----------------
#NOTES:
     dance-double:
     :
     Challenge:
     17:
     0.681497,1.107354,0.345474,0.058804,0.779154,649.000000,602.000000,47.000000,8.000000,0.000000,0.000000,0.681497,1.107354,0.345474,0.058804,0.779154,649.000000,602.000000,47.000000,8.000000,0.000000,0.000000:
00000000
00000000
00000000
00000000
,
00000000
00000000
00000000
00000000
,
00000000
00000000
00000000
00000000
,
00000000
00000000
00000000
00000000
,
00100000
01000000
00000000
01000000
00010000
00000000
00000000
00100000
01000000
00000000
10000000
01000000
00000000
00010000
00000000
00001000
,
00010000
00001000
00000000
00000010
00000001
00000000
00000000
00000100
00001000
00000000
00010000
00001000
00000000
00010000
00000000
00100000
,
10000000
00010000
10000000
01000000
00010000
01000000
00100000
00001000
00010000
00001000
00000100
00000001
00001000
00000010
00000100
00000010
,
00000100
00000000
00001000
00000000
00010000
00000000
00001000
00000000
00100000
00000000
01000000
00000000
10000000
00000000
01000000
00000000
00100000
00001000
00100000
00001000
00010000
00001000
00010000
00001000
00010000
00000100
00010000
00000100
00000010
00000001
00000010
00000001
,
00000010
00000000
00000001
00001000
00000001
00000010
00000100
00010000
00001000
00000000
00010000
00000000
00011000
00000000
00000000
00001000
,
01000000
00000000
00000000
00100000
00010000
00000000
00000000
00100000
10000000
00000000
00010000
01000000
10100000
00000000
00000000
00100000
,
01100000
00000000
00000000
10000000
01000000
00000000
00000000
00010000
00001000
00000000
00010000
00000100
00010100
00000000
00000000
00001000
,
00001010
00000000
00000000
00000100
00000001
00000000
00000000
00000010
00000001
00000000
00000000
00000001
00000100
00000000
00001000
00000000
,
00011000
00000000
00001000
00100000
00010000
00100000
00001000
01000000
00100000
10000000
01000000
00000000
11000000
00000000
00000000
00100000
,
00110000
00000000
00000000
00010000
01000000
00000000
00000000
00100000
00010000
00000000
00001000
00010000
00011000
00000000
00000000
00010000
,
00010010
00000000
00000000
00000010
00000100
00000000
00000000
00000100
00000001
00000000
00001000
00000010
00000110
00000000
00000000
00000100
,
00000101
00000000
00000000
00000001
00000010
00000000
00000000
00001000
00010000
00000000
00001000
01000000
01001000
00000000
01100000
00000000
,
10000000
01000000
00010000
01000000
10000000
00100000
00010000
00001000
00010000
00100000
01000000
00010000
00001000
00000100
00001000
00010000
,
00000010
00000100
00001000
00000100
00000001
00000010
00001000
00010000
00001000
00000100
00001000
00010000
00100000
00000000
01000000
00010000
,
00100000
01000000
00010000
00001000
00000100
00000001
00000010
00001000
00010000
00001000
00000010
00000100
00001000
00000010
00000100
00001000
,
00010000
01000000
10000000
01000000
00010000
00001000
00010000
00100000
10000000
00100000
00010000
00000000
00001000
01000000
00100000
10000000
,
01000000
00010000
00001000
00000100
00001000
00010000
00000010
00000100
00001000
00010000
00001000
00000100
00000001
00000010
00000100
00001000
,
00000100
00000010
00001000
00010000
00100000
10000000
01000000
00010000
01000000
10000000
00010000
01000000
10000000
01000000
00010000
00100000
,
01000000
00010000
00001000
00000100
00000001
00000010
00001000
00000010
00000001
00000100
00000010
00000001
00000010
00001000
00000100
00000010
,
00001000
00000000
00010000
00000000
01000000
10000000
01000000
00000000
00000000
00000000
10000000
00000000
00010000
00000000
00000000
00000000
10010000
00000000
00000000
00000000
01000000
00000000
01010000
00000000
00000000
00000000
00101000
00000000
00000000
00000000
00001000
00010000
,
00001000
00000000
00000000
00000000
00010000
00000000
00000100
00000000
00001000
00000010
00001000
00000000
00000001
00000100
00000001
00000000
00000100
00000010
00001000
00000000
00000001
00000000
00000010
00000000
00000100
00001000
00000100
00000000
00000010
00000000
00001000
00000000
,
00000010
00000100
00000001
00000000
00000001
00000100
00000010
00001000
00000001
00001000
00000001
00000010
00000001
00001000
00000001
00000010
00000001
00000100
00010000
00001000
01000000
00000000
00000000
00000000
10000000
00010000
00000000
00000000
00010000
10000000
00000000
00000000
,
00000000
00000000
00000000
00000000
00000000
00000000
00000000
00000000
00000000
00101000
00000000
00000000
00011000
00000000
00000000
00000000
00000000
00010100
00000000
00000000
00011000
00000000
00010010
00000000
00000000
00000110
00000000
00000000
00000101
00000000
00000000
00000000
,
00000000
00000110
00000000
00000000
00001010
00000000
00010100
00000000
00001000
00010000
00000000
00000000
01001000
00000000
00000000
00000000
00010000
01000000
00000000
00000000
10100000
00000000
11000000
00000000
01000000
00100000
00000000
00000000
00110000
00000000
00000000
00000000
,
00010000
01000000
00000000
00000000
01001000
00000000
00011000
00000000
00010000
00000010
00000000
00000000
00000110
00000000
00000000
00000000
00000100
00000001
00000000
00000001
00001000
00000000
00001001
00000000
00000110
00000000
00000000
00000000
00000000
00000000
00000000
00000000
,
00010000
00001000
00010000
00001000
00000000
00000000
00100000
00000000
01000000
00000000
00000000
00000000
10000000
00010000
10000000
00010000
10000000
00000000
00000000
00000000
00000000
00000000
00000000
00000000
01000000
00000000
00000000
00000000
00000000
00000000
00000000
00000000
00010000
00000000
00000000
00000000
00000000
00000000
00000000
00000000
01000000
00000000
00000000
00000000
00000000
00000000
00000000
00000000
10000000
00000000
00000000
00000000
00000000
00000000
00000000
00000000
00100000
00000000
00000000
00000000
00000000
00000000
00000000
00000000
,
00010000
00100000
10000000
01000000
00010000
00001000
00010000
00000010
,
00000100
00000001
00000001
00000010
00001000
00000010
00000001
00000100
,
00001000
00000100
00000001
00000010
00001000
00010000
00001000
01000000
,
00100000
10000000
00010000
01000000
10000000
01000000
00010000
00100000
,
10000000
00100000
00010000
01000000
00100000
00010000
00001000
00000100
,
00000001
00001000
00000010
00000100
00001000
00000100
00000001
00000010
,
00000100
00000001
00000100
00001000
00000001
00000100
00001000
00010000
,
01000000
10000000
00100000
01000000
00010000
01000000
00100000
10000000
,
02000000
10000000
10000000
10000000
10000000
13000000
01000000
00010000
,
00002000
00010000
00010000
00013000
00000010
00000100
00000001
00001000
,
00000020
00000000
00000100
00000000
00000100
00000000
00000130
00000000
00000001
00000000
00001000
00000100
00001000
00000000
00000010
00000000
,
00000100
00001000
00010000
00001000
00100000
01000000
10000000
00010000
,
01000000
00100000
00010000
00001000
00000100
00000001
00001000
00000010
,
00000100
00000000
00000001
00000000
00001000
00000000
00000010
00000000
00000100
00000000
00000001
00001000
00000001
00000000
00000010
00000000
,
00000100
00000000
00000010
00001000
00000100
00001000
00000010
00010000
00001000
00100000
01000000
10000000
00010000
01000000
00100000
01000000
,
00001000
00010000
00000010
00001000
00000010
00000000
00000000
00000000
00000101
00000000
00000000
00000001
00001001
00000000
00000000
00001000
,
00001010
00000000
00000000
00000000
00000000
00000000
00000000
00000000
00000100
00000000
00010000
00000000
00000100
00000000
00000000
00000000
00000000
00000000
00000000
00000000
00000000
00010000
00000000
00000000
00011000
00000000
00000000
00000000
00000000
00000000
00000000
00000000
00000000
00001000
00000000
00000000
01001000
00000000
00000000
00000000
00000000
00000000
00000000
00000000
00000000
01000000
00000000
00000000
,
01100000
00000000
00000000
00000000
00000000
00000000
00000000
00000000
00100000
00000000
10000000
00000000
00100000
00000000
00000000
00000000
00000000
00000000
00000000
00000000
00000000
10000000
00000000
00000000
10010000
00000000
00000000
00000000
00000000
00000000
00000000
00000000
00000000
00010000
00000000
00000000
01010000
00000000
00000000
00000000
00000000
00000000
00000000
00000000
00000000
01000000
00000000
00000000
,
01001000
00000000
00000000
00000000
00000000
00000000
00000000
00000000
00000000
00000000
00000000
00000000
00000000
00000000
00000000
00000000
00000000
00000000
00000000
00000000
00000000
00000000
00000000
00000000
00000000
00000000
00000000
00000000
00000000
00000000
00000000
00000000
00001000
00000000
00000000
00000000
00000000
00000000
00000000
00000000
00010000
00000000
00000000
00000000
00000000
00000000
00000000
00000000
00001000
00000000
00000000
00000000
00000000
00000000
00000000
00000000
00000000
00000000
00000000
00000000
00000000
00000000
00000000
00000000
00000000
00000000
00000000
00000000
00000000
00000000
00000000
00000000
00000000
00000000
00000000
00000000
00000000
00000000
00000000
00000000
00000000
00000000
00000000
00000000
00010000
00000000
00000000
00000000
00000000
00000000
00000000
00000000
00000000
00000000
00000000
00000000
00010100
00000000
00000000
00000000
00000000
00000000
00000000
00000000
00000000
00000000
00000000
00000000
00000000
00000000
00000000
00000000
00000000
00000000
00000000
00000000
00000000
00000000
00000000
00000000
00000000
00000000
00000000
00000000
00000000
00000000
00000000
00000000
00000000
00000000
00000000
00000000
00000100
00000000
00000000
00000000
00000000
00000000
00000000
00000000
00000000
00000000
00000000
00000000
00000010
00000000
00000000
00000000
00000000
00000000
00000001
00000000
00000000
00000000
00000000
00000000
00000010
00000000
00000000
00000000
00000000
00000000
00000000
00000000
00000000
00000000
00000000
00000000
00000001
00000000
00000000
00000000
00000000
00000000
00000000
00000000
00000000
00000000
00000000
00000000
00001000
00000000
00000000
00000000
00000000
00000000
00000000
00000000
00000000
00000000
00000000
00000000
,
00001001
00000000
00000000
00000000
00000010
00000100
00000010
00000000
00000100
00000000
00000000
00000000
00000000
00000000
00000000
00000000
00000001
00000000
00000000
00000000
00000000
00000000
00000000
00000000
00000010
00000000
00000000
00000000
00000000
00000000
00000000
00000000
,
00001000
00010000
00100000
20000000
,
00010000
00010000
30010000
10000000
,
01000000
00010000
00001000
00000000
00010000
00000000
00001000
00000000
,
00010000
00001000
00000100
00000000
00000001
00000000
00001000
00000000
,
00000020
00000130
00000001
00002000
,
00000001
00000001
00003001
00000010
,
00000001
00000010
00001000
00000000
00000010
00000000
00001000
00000000
,
00000010
00001000
00010000
00000000
00100000
00000000
10000000
00000000
,
00010000
01000000
00100000
20000000
,
01000000
01000000
31000000
10000000
,
01000000
00010000
00001000
00000000
00010000
00000000
00001000
00000000
,
00010000
00001000
00000100
00000000
00000001
00000000
00000010
00000000
,
00001000
00010000
00100000
10000000
,
10000000
00000000
00010000
01000000
00100000
10000000
00100000
01000000
,
00010000
00100000
00001000
00010000
00000100
00001000
00000010
00000100
,
00000001
00000100
00000020
00000000
00000030
00000000
00000000
00000000
;

//---------------dance-double - ----------------
#NOTES:
     dance-double:
     :
     Hard:
     15:
     0.614293,0.973942,0.205814,0.073505,0.679922,585.000000,557.000000,28.000000,10.000000,0.000000,0.000000,0.614293,0.973942,0.205814,0.073505,0.679922,585.000000,557.000000,28.000000,10.000000,0.000000,0.000000:
00000000
00000000
00000000
00000000
,
00000000
00000000
00000000
00000000
,
00000000
00000000
00000000
00000000
,
00000000
00000000
00000000
00000000
,
00000001
00000010
00000000
00000010
00000100
00000000
00000000
00000001
00000100
00000000
00000010
00000001
00000000
00000010
00000000
00001000
,
00000100
00000010
00000000
00000010
00001000
00000000
00000000
00010000
00100000
00000000
10000000
01000000
00000000
00100000
00000000
01000000
,
00010000
00001000
00000000
00000100
00000001
00000000
00000000
00000010
00000100
00000000
00000001
00000100
00000000
00001000
00000000
00000010
,
00000100
00000000
00001000
00000000
00000000
00000000
00001000
00000000
00010000
00000000
00000000
00000000
00000000
00000000
01000000
00000000
10000000
00010000
10000000
00010000
01000000
00100000
01000000
00100000
10000000
00010000
10000000
00010000
01000000
00100000
01000000
00100000
,
10000000
00000000
00000000
01000000
00010000
00000000
00000000
00001000
00000100
00000000
00000000
00000000
00000001
00000000
00000000
00000000
,
00000100
00000000
00000000
00001000
00010000
00000000
00000000
01000000
10000000
00000000
00000000
00000000
00010000
00000000
00000000
00000000
,
10000000
00000000
00000000
00100000
00010000
00000000
00000000
00001000
00000010
00000000
00000000
00000000
00000001
00000000
00000000
00000000
,
00001000
00000000
00000000
00000100
00000010
00000000
00000000
00001000
00010000
00000000
00000000
00100000
00100000
00000000
11000000
00000000
,
00010000
00100000
00010000
00100000
00010000
00000000
00000000
10000000
01000000
00000000
00010000
00001000
00000100
00000000
00000000
00000000
,
00000001
00000000
00000000
00000010
00001000
00000000
00010000
00100000
10000000
00000000
01000000
00100000
00010000
00000000
00000000
00000000
,
00100000
00000000
00000000
01000000
00010000
00000000
00001000
00000100
00000001
00000000
00001000
00000010
00000100
00000000
00000000
00000000
,
00000001
00000000
00000000
00000010
00000100
00000000
00000010
00000001
00001000
00000000
00000100
00000010
00000010
00000000
00001001
00000000
,
00000001
00000100
00001000
00000100
00000001
00000010
00001000
00000010
00000001
00000100
00001000
00010000
01000000
10000000
00010000
00000000
,
10000000
01000000
00010000
01000000
10000000
00100000
00010000
00100000
10000000
01000000
00010000
00001000
00000100
00000000
00000001
00000100
,
00000010
00000001
00000010
00001000
00000100
00000010
00001000
00000010
00000001
00000100
00001000
00010000
01000000
00000000
10000000
01000000
,
00100000
10000000
00100000
00010000
01000000
00100000
00010000
00100000
10000000
00010000
10010000
00000000
01000000
00010000
00100000
00010000
,
01000000
00100000
00010000
00001000
00000100
00000001
00001000
00000001
00000100
00001000
00010000
01000000
10000000
00100000
01000000
00100000
,
10000000
00100000
00010000
00001000
00000010
00000100
00001000
00000100
00000010
00000001
00001000
00000100
00000001
00000100
00001000
00000010
,
00000100
00001000
00010000
01000000
10000000
01000000
00010000
00001000
00000100
00000001
00001000
00000010
00000001
00000010
00001000
00000100
,
00000010
00000000
00000001
00000000
00000100
00000000
00000010
00000000
00001000
00000000
00000010
00000000
00000100
00000000
00001000
00000000
00010000
00000000
01000000
00000000
10000000
00000000
00010000
00000000
00000000
00000000
10010000
00000000
00000000
00000000
00010000
10000000
,
00010000
00000000
00000000
00000000
10000000
00000000
00010000
00000000
01000000
00001000
01000000
00000000
00001000
00010000
00001000
00000000
00010000
00000100
00010000
00000000
00000100
00000000
00001000
00000000
00000010
00000100
00000010
00000000
00000100
00000000
00000001
00001000
,
00000001
00000100
00000010
00000100
00000001
00001000
00000010
00000100
00000001
00001000
00000010
00000000
00000100
00000000
00000010
00000000
,
00000000
00000000
00000000
00000000
00000000
00000000
00000000
00000000
00000000
00010000
00000000
00000000
00011000
00000000
00000000
00000000
00000000
00001000
00000000
00000000
01001000
00000000
01100000
00000000
00000000
00100000
00000000
00000000
10100000
00000000
00000000
00000000
,
00000000
10000000
00000000
00000000
11000000
00000000
01100000
00000000
00010000
10000000
00000000
00000000
10010000
00000000
00000000
00000000
00000000
00100000
00000000
00000000
00101000
00000000
00011000
00000000
00010000
00000100
00000000
00000000
00010100
00000000
00000000
00000000
,
00000000
00000100
00000000
00000000
00000110
00000000
00000011
00000000
00000001
00001000
00000000
00000000
00001001
00000000
00000000
00000000
00000000
00000010
00000000
00000000
00000110
00000000
00010100
00000000
00011000
00000000
00000000
00000000
00000000
00000000
00000000
00000000
,
00001000
00010000
00001000
00010000
00000000
00000000
00001000
00000000
00100000
00000000
00000000
00000000
01000000
10000000
01000000
10000000
01000000
00000000
00000000
00000000
00000000
00000000
00000000
00000000
10000000
00000000
00000000
00000000
00000000
00000000
00000000
00000000
01000000
00000000
00000000
00000000
00000000
00000000
00000000
00000000
10000000
00000000
00000000
00000000
00000000
00000000
00000000
00000000
00100000
00000000
00000000
00000000
00000000
00000000
00000000
00000000
00010000
00000000
00000000
00000000
00000000
00000000
00000000
00000000
,
00001000
00000010
00000001
00000100
00000001
00000100
00000001
00000010
,
00001000
00010000
00100000
10000000
00100000
10000000
01000000
00010000
,
00001000
00000100
00000001
00001000
00000001
00001000
00000010
00000100
,
00001000
00010000
01000000
10000000
01000000
10000000
01000000
00010000
,
00001000
00000100
00000001
00001000
00000001
00001000
00000100
00000010
,
00000001
00000100
00001000
00010000
00001000
00010000
00100000
10000000
,
01000000
00010000
00001000
00000010
00001000
00000010
00000001
00001000
,
00000010
00000100
00000001
00000010
00000100
00001000
00000100
00000010
,
00000002
00001000
00001000
00001000
00001000
00001003
00000010
00000100
,
00001000
00020000
01000000
01000000
01030000
10000000
00100000
01000000
,
00020000
00000000
00100000
00000000
00100000
00000000
00130000
00000000
00010000
00000000
01000000
00001000
01000000
00000000
00001000
00000000
,
00010000
00000010
00000100
00000001
00000010
00000100
00001000
00000100
,
00000010
00000001
00002000
00000010
00000010
00003010
00000200
00000001
,
00000001
00000000
00000301
00000000
00000100
00000000
00001000
00000000
00010000
00000000
01000000
10000000
01000000
00000000
10000000
00000000
,
00100000
00000000
01000000
00000000
00010000
10000000
00010000
10000000
00100000
01000000
00100000
01000000
00010000
10000000
00010000
10000000
,
00100000
01000000
00100000
01000000
00010000
00000000
00000000
00000000
01010000
00000000
00000000
00100000
00101000
00000000
00000000
00001000
,
00011000
00000000
00000000
00000000
00000000
00000000
00000000
00000000
00010000
00000000
00000100
00000000
00010000
00000000
00000000
00000000
00000000
00000000
00000000
00000000
00000000
00000000
00000000
00000000
00000010
00000000
00000000
00000000
00000000
00000000
00000000
00000000
00000000
00000100
00000000
00000000
00000101
00000000
00000000
00000000
00000000
00000000
00000000
00000000
00000000
00000001
00000000
00000000
,
00001001
00000000
00000000
00000000
00000000
00000000
00000000
00000000
00000100
00000000
00010000
00000000
00000100
00000000
00000000
00000000
00000000
00000000
00000000
00000000
00000000
00010000
00000000
00000000
00011000
00000000
00000000
00000000
00000000
00000000
00000000
00000000
00000000
00000000
00000000
00000000
00001000
00000000
00000000
00000000
00000000
00000000
00000000
00000000
00000000
00100000
00000000
00000000
,
01100000
00000000
00000000
00000000
00000000
00000000
00000000
00000000
00000000
00000000
00000000
00000000
00000000
00000000
00000000
00000000
00000000
00000000
00000000
00000000
00000000
00000000
00000000
00000000
00000000
00000000
00000000
00000000
00000000
00000000
00000000
00000000
01000000
00000000
00000000
00000000
00000000
00000000
00000000
00000000
10000000
00000000
00000000
00000000
00000000
00000000
00000000
00000000
01000000
00000000
00000000
00000000
00000000
00000000
00000000
00000000
00000000
00000000
00000000
00000000
00000000
00000000
00000000
00000000
00000000
00000000
00000000
00000000
00000000
00000000
00000000
00000000
00000000
00000000
00000000
00000000
00000000
00000000
00000000
00000000
00000000
00000000
00000000
00000000
10000000
00000000
00000000
00000000
00000000
00000000
00000000
00000000
00000000
00000000
00000000
00000000
10010000
00000000
00000000
00000000
00000000
00000000
00000000
00000000
00000000
00000000
00000000
00000000
00000000
00000000
00000000
00000000
00000000
00000000
00000000
00000000
00000000
00000000
00000000
00000000
00000000
00000000
00000000
00000000
00000000
00000000
00000000
00000000
00000000
00000000
00000000
00000000
00010000
00000000
00000000
00000000
00000000
00000000
00000000
00000000
00000000
00000000
00000000
00000000
01000000
00000000
00000000
00000000
00000000
00000000
00100000
00000000
00000000
00000000
00000000
00000000
01000000
00000000
00000000
00000000
00000000
00000000
00000000
00000000
00000000
00000000
00000000
00000000
00000000
00000000
00000000
00000000
00000000
00000000
00000000
00000000
00000000
00000000
00000000
00000000
00010000
00000000
00000000
00000000
00000000
00000000
00000000
00000000
00000000
00000000
00000000
00000000
,
10000000
00000000
00000000
00000000
01000000
00100000
01000000
00000000
10000000
00000000
00000000
00000000
00000000
00000000
00000000
00000000
00010000
00000000
00000000
00000000
00000000
00000000
00000000
00000000
01000000
00000000
00000000
00000000
00000000
00000000
00000000
00000000
,
00100000
10000000
01000000
00010000
,
00002000
00000100
00000100
00003100
,
00000001
00001000
00000001
00000000
00000000
00000000
00000000
00000000
,
00001000
00000001
00001000
00000000
00000001
00000000
00000100
00000000
,
00000010
00010000
00001000
02000000
,
00100000
00100000
00100000
03100000
,
10000000
00010000
10000000
00000000
00000000
00000000
00000000
00000000
,
00010000
10000000
00010000
00000000
10000000
00000000
00100000
00000000
,
00010000
00001000
00000010
00000002
,
00000100
00000103
00001000
00010000
,
00001000
00010000
00001000
00000000
00000000
00000000
00000000
00000000
,
00010000
00001000
00010000
00000000
00001000
00000000
00100000
00000000
,
01000000
10000000
00020000
01000000
,
01030000
00000000
10000000
00010000
10000000
00010000
01000000
00001000
,
01000000
00001000
00010000
00000100
00010000
00000100
00000010
00000001
,
00000010
00000001
00000020
00000000
00000000
00000000
00000000
00000000
,
00000000
00000030
00000000
00000000
;

//---------------dance-double - ----------------
#NOTES:
     dance-double:
     :
     Medium:
     12:
     0.404278,0.647488,0.014701,0.014701,0.382226,385.000000,383.000000,2.000000,2.000000,0.000000,0.000000,0.404278,0.647488,0.014701,0.014701,0.382226,385.000000,383.000000,2.000000,2.000000,0.000000,0.000000:
00000000
00000000
00000000
00000000
,
00000000
00000000
00000000
00000000
,
00000000
00000000
00000000
00000000
,
00000000
00000000
00000000
00000000
,
10000000
01000000
00000000
01000000
10000000
00000000
00000000
00010000
01000000
00000000
01000000
00010000
00000000
00100000
00000000
00001000
,
00010000
00000100
00000000
00000100
00010000
00000000
00000000
00000100
00000010
00000000
00000001
00001000
00000000
00000010
00000000
00000100
,
00000010
00010000
00000000
00010000
00000010
00000000
00000000
00001000
00000100
00000000
00010000
00001000
00000000
00100000
00000000
01000000
,
10000000
00010000
00000000
00010000
10000000
00000000
00000000
00100000
01000000
00000000
00010000
00100000
00000000
01000000
00000000
10000000
,
01000000
00000000
00000000
00010000
,
00001000
00000000
00000000
00000100
,
00000001
00000000
00000000
00000100
,
00001000
00000000
00000000
00000000
00000000
00000000
00000000
00000000
00000000
00000000
00000000
00010000
01000000
00000000
10000000
00000000
,
00010000
00000000
00000000
00010000
01000000
00000000
00000000
01000000
00100000
00000000
00000000
00000000
00010000
00000000
00000000
00000000
,
00001000
00000000
00000000
00001000
00000100
00000000
00000000
00000100
00000001
00000000
00000000
00000000
00000010
00000000
00000000
00000000
,
00001000
00000000
00000000
00001000
00010000
00000000
00000000
00010000
00100000
00000000
00000000
00000000
10000000
00000000
00000000
00000000
,
00010000
00000000
00000000
10000000
01000000
00000000
00000000
00100000
00010000
00000000
00000000
01000000
00100000
00000000
01000000
00000000
,
00010000
00100000
00010000
01000000
00010000
00000000
10000000
00000000
01000000
00100000
01000000
10000000
01000000
00000000
00100000
00000000
,
00001000
00100000
00001000
00010000
00001000
00000000
00010000
00000000
00000100
00000010
00000100
00001000
00000100
00000000
00000010
00000001
,
00001000
00000001
00000010
00000000
00000100
00000000
00001000
00000010
00000100
00000010
00001000
00000000
00000010
00000000
00010000
00000100
,
00001000
00000100
00010000
00000000
00001000
00000000
01000000
00010000
00100000
00010000
10000000
00000000
00100000
10000000
01000000
00100000
,
00010000
00000000
01000000
00000000
00001000
00010000
00000100
00001000
00000010
00000000
00000100
00000000
00000001
00000010
00000100
00001000
,
00000010
00000000
00010000
00000000
00001000
01000000
00100000
10000000
01000000
00010000
00001000
00000100
00000001
00000100
00001000
00000000
,
00000001
00000000
00000100
00001000
00010000
01000000
10000000
00000000
00100000
00000000
10000000
01000000
00010000
01000000
10000000
00000000
,
00100000
00000000
00010000
00001000
00000010
00000001
00001000
00000000
00000001
00000000
00000100
00000010
00000000
00001000
00000000
00000100
,
00000010
00000000
00000001
00000100
00001000
00010000
01000000
10000000
00010000
00000000
10000000
00100000
10000000
00000000
00010000
01000000
,
00010000
00000000
10000000
01000000
00010000
00001000
00000100
00000001
00001000
00000010
00000100
00000000
00000001
00000000
00001000
00000000
,
00000000
00000000
00000000
00000000
00000000
00000000
00000000
00000000
00000000
00000100
00000000
00000000
00000100
00000000
00000000
00000000
00000000
00010000
00000000
00000000
00001000
00000000
00001000
00000000
00000000
01000000
00000000
00000000
01000000
00000000
00000000
00000000
,
00000000
00100000
00000000
00000000
10000000
00000000
10000000
00000000
00000000
00010000
00000000
00000000
01000000
00000000
00000000
00000000
00000000
01000000
00000000
00000000
00001000
00000000
00001000
00000000
00000000
00010000
00000000
00000000
00000100
00000000
00000000
00000000
,
00000000
00000100
00000000
00000000
00000010
00000000
00000010
00000000
00000000
00000001
00000000
00000000
00000100
00000000
00000000
00000000
00000000
00000100
00000000
00000000
00000010
00000000
00000010
00000000
00020000
00000000
00000000
00000000
00000000
00000000
00000000
00000000
,
00002000
00000000
00000000
00033000
00001000
00000000
01000000
00000000
00100000
00000000
00000000
00000000
10000000
00000000
00000000
00000000
,
00010000
00000000
10000000
01000000
00100000
00000000
00001000
00000000
,
00010000
00000000
00000010
00000100
00000001
00000000
00001000
00000000
,
00000100
00000000
00000010
00000001
00001000
00000000
00000010
00000000
,
00000100
00000000
00000001
00000010
00000100
00000000
00010000
00000000
,
00001000
00000000
01000000
00100000
10000000
00000000
00010000
00000000
,
01000000
00000000
00010000
00100000
01000000
00000000
10000000
00000000
,
00010000
00000000
10000000
01000000
00100000
00000000
00001000
00000000
,
00010000
00000000
00000010
00000100
00000010
00000100
00000010
00000000
,
00001000
00000001
00001000
00000001
00001000
00000000
00000100
00000000
,
00000010
00000000
00000001
00000100
00001000
00000000
00010000
01000000
,
10000000
00000000
00010000
00100000
01000000
10000000
00100000
01000000
,
00010000
00100000
00010000
00100000
00010000
00000000
01000000
00000000
,
00100000
00000000
10000000
01000000
00010000
00000000
00001000
00000100
,
00000001
00000000
00000001
00000100
00001000
00000000
00010000
01000000
,
10000000
00000000
00100000
01000000
00100000
00000000
01000000
00100000
,
01000000
00000000
00000000
00000000
10010000
00000000
00000000
00000000
10000000
00000000
00000000
00000000
00100000
00000000
00000000
00010000
,
00001000
00000000
00000000
00000100
00000001
00000000
00000000
00000000
00000001
00000000
00000000
00000000
00000010
00000000
00000000
00001000
,
00010000
00000000
00000000
00100000
10000000
00000000
00000000
00000000
10000000
00000000
00000000
00000000
01000000
00000000
00000000
00010000
,
00001000
00000000
00000000
00000100
00000001
00000000
00000000
00001000
00000010
00000000
00000000
00000100
00000001
00000100
00000000
00000010
,
00010000
00001000
00100000
00000000
00010000
00000000
00100000
00000000
,
01000000
00100000
00000000
00000000
,
00010000
10000000
00010000
00000000
,
01000000
00001000
00000000
00000000
,
00010000
00000100
00000000
00000000
,
00000010
00000001
00000000
00000100
,
00000001
00000100
00000010
00000000
,
00000010
00010000
00000000
00000000
,
00001000
00100000
00000000
00000000
,
01000000
10000000
00000000
01000000
,
00100000
01000000
00000000
10000000
,
00010000
01000000
00000000
00000000
,
01000000
00001000
00000000
00000000
,
00010000
00000010
00000000
00001000
,
00000010
00000100
00000001
00000000
,
00000010
00000100
00000000
00000000
,
00000000
00000110
00000000
00000000
;

//---------------dance-double - ----------------
#NOTES:
     dance-double:
     :
     Easy:
     8:
     0.278269,0.431659,0.088206,0.095557,0.000000,265.000000,253.000000,12.000000,13.000000,0.000000,0.000000,0.278269,0.431659,0.088206,0.095557,0.000000,265.000000,253.000000,12.000000,13.000000,0.000000,0.000000:
00000000
00000000
00000000
00000000
,
00000000
00000000
00000000
00000000
,
00000000
00000000
00000000
00000000
,
00000000
00000000
00000000
00000000
,
10000000
00000000
01000000
00000000
00100000
00010000
10000000
00000000
,
01000000
00000000
00010000
00000000
00001000
00000100
00000001
00000000
,
00001000
00000000
00000010
00000000
00000100
00000001
00000010
00000000
,
00000001
00000000
00000010
00000000
00001000
00010000
00100000
10000000
,
00010000
00000000
00000000
10000000
,
00100000
00000000
00000000
00010000
,
00001000
00000000
00000000
00000100
,
00000001
00000000
00000000
00000000
00000000
00000000
00001000
00000001
,
00001000
00000100
00000010
00002000
,
00023000
00130000
10000000
02000000
,
03020000
00031000
00010000
00000200
,
00000320
00000000
00000031
00000000
00001000
00000000
00000001
00000100
,
00000001
00000010
00000001
00000010
00000100
00001000
00000100
00000100
,
00010000
00001000
00010000
00001000
01000000
00100000
01000000
00010000
,
10000000
00010000
10000000
01000000
00100000
01000000
01000000
10000000
,
00100000
10000000
00100000
01000000
00001000
00000000
00010000
00000100
,
00010000
00000100
00000010
00000001
00000010
00000010
00000001
00000100
,
00000001
00000100
00000010
00010000
00000010
00010000
00001000
00010000
,
00001000
01000000
00100000
01000000
00100000
10000000
01000000
10000000
,
01000000
00100000
00001000
00100000
00001000
00010000
00000000
00001000
,
00010000
00000100
00001000
00001000
00001000
00000010
00000010
00000100
,
00000100
00000001
00001000
00000001
00001000
00001001
00000010
00000100
,
00000000
00000000
00000000
00001001
00000000
00010100
00000000
00011000
,
00000000
01001000
00000000
01100000
00000000
10100000
00000000
10010000
,
00000000
01001000
00000000
00011000
00000000
00010010
00000110
00000000
,
00000200
00000301
00000100
00000001
,
00000100
00001000
00010000
01000000
,
10000000
00100000
01000000
00100000
,
01000000
00100000
00010000
00001000
,
00000010
00000001
00001000
00000001
,
00001000
00000100
00000010
00001000
,
00010000
01000000
10000000
01000000
,
10000000
00100000
01000000
00001000
,
00010000
00000010
00000010
00000010
,
00000100
00000001
00000100
00000001
00000100
00000001
00000100
00000000
,
00000000
00000000
00000001
00001000
00000001
00000000
00000100
00000000
,
00000010
00000000
00001000
00000001
00001000
00000000
00000010
00000000
,
00000100
00001000
00010000
01000000
,
10000000
00000000
00100000
01000000
00100000
00000000
01000000
00100000
,
01000000
00000000
00010000
10000000
00010000
00000000
10000000
00010000
,
10000000
00000000
00010000
00100000
01000000
00000000
10000000
01000000
,
00100000
00010000
10000000
01000000
,
00020000
00032000
00003100
00000001
,
00000020
00002030
00013000
00100000
,
20000000
30020000
10030000
01000000
,
00100000
00010000
00000000
01000000
,
00000000
00010000
00000000
10000000
,
00000000
00100000
00000000
00000000
,
00000000
01000000
00000000
00000000
,
00000000
01000000
00000000
00001000
,
00000000
00010000
00000000
00000100
,
00000000
00000010
00000000
00000000
,
00000000
00000010
00000000
00000000
,
00000000
00000010
00000000
00000000
,
00000000
00000001
00000000
00000100
,
00000000
00000010
00000000
00010000
,
00000000
00001000
00000000
00000000
,
00000000
00001000
00000000
00000000
,
00000000
01000000
00000000
00100000
,
00000000
10000000
00000000
10000000
,
00000000
00010000
00000000
00010000
,
00000000
10000000
00000000
00000000
;
