#TITLE:Parlez-vous Freezepop?;
#SUBTITLE:;
#ARTIST:Freezepop;
#TITLETRANSLIT:;
#SUBTITLETRANSLIT:;
#ARTISTTRANSLIT:;
#GENRE:Pop;
#CREDIT:;
#BANNER:parlezvousfreezepop-bn.png;
#BACKGROUND:parlezvousfreezepop-bg.png;
#LYRICSPATH:;
#CDTITLE:;
#MUSIC:Parlez-vous Freezepop?.mp3;
#OFFSET:-0.037000;
#SAMPLESTART:53.012997;
#SAMPLELENGTH:11.999990;
#SELECTABLE:YES;
#BPMS:0.000000=137.000000
;
#STOPS:
;
#BGCHANGES:;
#KEYSOUNDS:;
#ATTACKS:;

//---------------dance-single - ----------------
#NOTES:
     dance-single:
     :
     Hard:
     13:
     0.582205,0.625324,0.101886,0.000000,0.125042,440.000000,429.000000,11.000000,0.000000,0.000000,0.000000,0.582205,0.625324,0.101886,0.000000,0.125042,440.000000,429.000000,11.000000,0.000000,0.000000,0.000000:
0000
0000
0000
0000
,
0000
0000
0000
0000
,
0000
0000
0000
0000
,
0000
0000
0000
0000
,
0100
0000
0001
0001
0001
0000
1001
0000
,
0010
0000
0100
0000
0100
0000
0000
0000
0000
0000
0001
0000
0100
0000
0001
1000
,
0001
0100
0001
0010
0001
0100
0001
0010
,
0100
1000
0100
0001
0000
0100
1000
1000
,
0010
0100
0010
0100
0010
1000
0100
1000
,
0000
1000
0010
0001
0000
1000
0100
0001
,
1000
0010
1000
0100
1000
0010
1000
0100
,
0010
0001
0100
0010
0000
0001
0010
0001
,
0010
1000
0010
1000
0010
0100
0010
0100
,
0000
0001
0010
1000
0000
0001
0100
1000
,
0010
0100
0010
1000
0010
0100
0010
1000
,
0000
0100
0001
0100
0000
1000
0010
1000
,
0001
0100
0010
0001
0010
1000
0010
0100
,
0001
0100
0010
1000
0000
0010
0001
0010
,
0100
0010
0100
0001
0100
0010
0100
0001
,
1000
0100
0001
0100
0000
0100
1000
1000
,
0010
0100
0010
0100
0010
1000
0001
1000
,
0100
0010
0100
0010
0100
1000
0001
1000
,
1001
0000
0000
0000
0001
1000
0001
1000
0001
0000
0001
0000
0010
0000
0010
0000
,
0100
1000
0100
1000
0100
1000
0100
0000
0000
0000
1000
0000
0100
0000
1000
0000
,
0001
0010
0001
1000
1000
1000
0010
0010
,
0100
0001
0100
0001
0100
0001
0100
0000
0000
0000
0010
0000
1000
0000
0001
0000
,
1000
0100
1000
0010
1000
0100
1000
0010
,
0100
0001
0100
0010
0100
0001
0100
0010
,
1000
0001
0100
1000
0100
0001
1000
0000
,
0001
0000
1000
0000
0100
0000
0001
0000
0100
0000
1000
0000
0010
0000
0010
0100
,
0010
0000
1000
0100
0010
0001
1100
0100
,
0010
0000
0001
0010
0100
1000
0101
0010
,
1000
0001
0010
1000
0010
0001
1000
0000
,
0001
0000
1000
0000
0010
0000
0001
0000
0010
0000
1000
0000
0100
0000
0100
0010
,
0100
0010
0100
0000
0000
0000
1000
0010
1000
0000
0100
0000
0010
0000
0000
0000
,
0010
0001
0010
0000
0100
0000
0010
0001
0010
0000
0100
0000
1000
0000
0000
0000
,
0001
0100
0001
0000
0000
0000
0100
0010
0100
0000
0001
0000
1000
0000
0000
0000
,
0100
0001
0100
0000
0010
0000
0010
1000
0010
0000
1000
0000
0001
0000
0001
0000
,
0001
0010
0001
0000
0000
0000
0100
0001
0100
0000
0010
0000
1000
0000
0000
0000
,
1000
0100
1000
0000
0010
0000
0100
0010
0100
0000
0001
0000
1000
0000
0000
0000
,
0010
0100
0010
0000
0000
0000
1000
0001
1000
0000
0001
0000
0100
0000
0000
0000
,
0001
0010
0001
0000
1000
0000
1000
0000
0000
0000
0000
0000
0001
0000
0001
0000
,
0100
0010
1000
0010
0000
0001
0010
0001
,
0000
0010
1000
1010
0000
0001
1000
0001
,
1000
1000
0100
1000
0000
0100
0001
0100
,
1000
1000
1000
1100
0000
0010
0001
0010
,
0100
1000
1000
1000
0010
0001
0010
0000
,
0000
0100
0100
0100
0010
1000
0010
0001
,
0000
1000
0100
0001
0100
1000
1001
0000
,
0000
0001
0100
1000
0100
0001
0001
0001
,
1000
0100
0010
0100
0001
0001
0001
0000
,
0000
0100
1000
0010
0100
0100
0100
0010
,
0000
1000
0010
0001
0010
1000
1001
0000
,
0000
0000
0001
0000
0100
0000
1000
0000
0100
0000
0001
0000
0001
0000
0001
1000
,
0001
0010
0001
0100
1000
1000
1000
0000
,
0000
0001
0010
0001
0100
1000
1000
1000
,
0000
0001
0010
0100
1000
0001
1100
0010
,
0001
1000
0100
0010
0001
1000
1010
0100
,
0000
0000
0000
0100
0100
0100
0010
1000
,
0000
0010
0001
0011
0000
0010
1000
0010
,
1000
0100
0010
0001
0000
0100
1000
0100
,
0001
0001
1000
1000
0000
0000
0000
0000
;

//---------------dance-single - ----------------
#NOTES:
     dance-single:
     :
     Medium:
     9:
     0.350646,0.426357,0.083361,0.120411,0.000000,265.000000,256.000000,9.000000,13.000000,0.000000,0.000000,0.350646,0.426357,0.083361,0.120411,0.000000,265.000000,256.000000,9.000000,13.000000,0.000000,0.000000:
0000
0000
0000
0000
,
0000
0000
0000
0000
,
0000
0000
0000
0000
,
0000
0000
0000
0000
,
0100
0000
0010
0010
0010
0000
1000
0000
,
0001
0001
0001
0000
0000
1000
1000
0000
,
0000
0000
0010
0100
0010
1000
0100
0010
,
0000
0000
0001
1000
0000
0000
0000
0000
,
0000
0001
0010
0001
0010
0100
0000
0100
,
0000
1000
0000
1000
0000
0010
0000
0010
,
0000
0000
0100
0010
0100
0001
0010
0100
,
0000
0010
0000
0010
0000
0001
0000
0001
,
0000
1000
0001
1000
0010
1000
0010
1000
,
0000
0100
0000
0100
0000
0010
0000
0010
,
0000
0001
1000
0001
0100
0001
0100
0001
,
0000
1000
0000
1000
0000
0010
0000
0010
,
0000
0000
1000
0100
1000
0010
0100
0001
,
0000
0100
0000
0100
0000
0010
0000
0010
,
0000
0000
0100
0010
0100
0001
1000
0010
,
0000
0000
0100
0010
0000
0000
0000
0000
,
0000
1000
1100
0000
,
0000
0001
0101
0000
,
0000
0000
0010
0100
1000
0100
1000
0100
,
0000
0000
0000
0110
0000
0001
1000
0001
,
0000
0000
0000
0100
0001
0100
0001
0100
,
0000
0000
0000
1001
0000
0000
0000
0000
,
0000
0000
1000
0100
0010
0001
0000
0000
,
0000
0000
1000
0100
0010
0001
0000
0000
,
0000
1000
0001
1000
0001
1000
0000
0000
,
0000
0001
1000
0001
1000
0001
0000
0000
,
0000
0000
0001
0010
0100
1000
0000
0000
,
0000
0000
0001
0010
0100
1000
0000
0000
,
0000
0010
0100
0010
0100
0010
0000
0000
,
0000
0100
0010
0100
0010
0100
0000
0000
,
2200
0000
3300
0100
0010
0001
0100
0020
,
0000
0000
0000
0000
0000
1030
0001
0000
,
0202
0000
0000
0000
0303
0000
0001
0020
,
0000
0000
0100
0100
0000
0000
0130
0000
,
0022
0000
0033
0010
0100
1000
0001
0200
,
0000
0000
0000
0000
0000
0310
1000
0000
,
2020
0000
0000
0000
3030
0000
1000
0020
,
0000
0000
0100
0100
0000
0000
0100
0130
,
0000
0010
0000
1000
0000
0100
0000
0001
,
0000
0100
0000
2000
0000
3010
0100
0010
,
0000
0100
0000
0001
0000
0010
0000
1000
,
0000
0010
0010
0010
0000
0001
1000
0001
,
0000
0000
0100
0010
1000
0001
0000
0000
,
0000
0000
0100
0010
1000
0001
0000
0000
,
0000
0100
0010
1000
0010
0100
0000
0000
,
0000
0010
0100
0001
0100
0010
0000
0000
,
0000
0000
0010
1000
0001
0100
0000
0000
,
0000
0000
0010
1000
0001
0100
0000
0000
,
0000
0010
1000
0001
1000
0010
0000
0000
,
0000
0100
0001
1000
0001
0100
0000
0000
,
0000
0000
0001
0100
0010
1000
0000
0000
,
0000
0000
0001
0100
0010
1000
0000
0000
,
0000
0001
0100
1000
0100
0001
0000
0000
,
0000
1000
0100
0001
0100
1000
0000
0000
,
0000
0000
0000
0100
0100
0100
0001
1000
,
0000
0010
0000
1100
0000
0001
0000
0100
,
0010
1000
0010
0100
0000
0001
1000
0001
,
0010
0010
0100
0100
0000
0000
0000
0000
;

//---------------dance-single - ----------------
#NOTES:
     dance-single:
     :
     Beginner:
     2:
     0.121734,0.198562,0.120411,0.083361,0.000000,92.000000,79.000000,13.000000,9.000000,0.000000,0.000000,0.121734,0.198562,0.120411,0.083361,0.000000,92.000000,79.000000,13.000000,9.000000,0.000000,0.000000:
// measure 0
0000
0000
0000
0000
,  // measure 1
0000
0000
0000
0000
,  // measure 2
0000
0000
0000
0000
,  // measure 3
0000
0000
0000
0000
,  // measure 4
0001
0000
0000
1000
,  // measure 5
0000
0000
0000
0001
,  // measure 6
0001
0000
0100
0000
,  // measure 7
0000
1001
0000
0000
,  // measure 8
0000
0100
0000
0000
,  // measure 9
0000
0000
0000
0000
,  // measure 10
0000
0100
0000
0001
,  // measure 11
0000
0000
0000
0000
,  // measure 12
0000
1000
0000
1000
,  // measure 13
0000
0000
0000
0000
,  // measure 14
0000
0010
0000
0100
,  // measure 15
0000
0000
0000
0000
,  // measure 16
0000
0001
0000
0001
,  // measure 17
0000
0000
0000
0000
,  // measure 18
0000
1000
0000
0010
,  // measure 19
0000
1001
0000
0000
,  // measure 20
0000
0110
0000
0000
,  // measure 21
0000
0110
0000
0000
,  // measure 22
0000
1000
1000
1000
,  // measure 23
0000
0000
0000
0000
,  // measure 24
0000
0001
0001
0001
,  // measure 25
0000
0000
0000
0000
,  // measure 26
0000
0010
0010
0000
,  // measure 27
0000
0100
0100
0000
,  // measure 28
0000
0020
0000
0030
,  // measure 29
0000
0200
0000
0300
,  // measure 30
0000
1000
1000
0000
,  // measure 31
0000
0001
0001
0000
,  // measure 32
0000
2000
0000
3000
,  // measure 33
0000
0001
0000
0000
,  // measure 34
1001
0000
0000
0010
,  // measure 35
0020
0000
0030
0000
,  // measure 36
0200
0000
0300
0000
,  // measure 37
2000
0000
3000
0000
,  // measure 38
0010
0000
0100
0200
,  // measure 39
0000
0300
0000
0000
,  // measure 40
0002
0000
0003
0000
,  // measure 41
2000
0000
3000
0000
,  // measure 42
1001
0000
0000
0000
,  // measure 43
0000
0000
0000
0010
,  // measure 44
0010
0000
0000
0000
,  // measure 45
0100
0100
0000
0000
,  // measure 46
0000
1000
1000
0000
,  // measure 47
0000
0001
0001
0000
,  // measure 48
0000
1001
0000
1001
,  // measure 49
0000
0000
0010
0010
,  // measure 50
0000
0100
0100
0000
,  // measure 51
0000
0010
0010
0000
,  // measure 52
0000
0110
0000
0000
,  // measure 53
0000
0110
0000
0000
,  // measure 54
0000
1000
1000
0000
,  // measure 55
0000
0100
0100
0000
,  // measure 56
0000
0110
0000
0000
,  // measure 57
0000
1001
0000
0000
,  // measure 58
0000
0001
0001
0001
,  // measure 59
0000
0000
0000
0000
,  // measure 60
1000
0000
0000
0010
,  // measure 61
0000
0110
0000
0000
;

//---------------dance-single - ----------------
#NOTES:
     dance-single:
     :
     Easy:
     6:
     0.226266,0.369510,0.148198,0.037049,0.000000,171.000000,155.000000,16.000000,4.000000,0.000000,0.000000,0.226266,0.369510,0.148198,0.037049,0.000000,171.000000,155.000000,16.000000,4.000000,0.000000,0.000000:
0000
0000
0000
0000
,
0000
0000
0000
0000
,
0000
0000
0000
0000
,
0000
0000
0000
0000
,
0000
0000
0000
1000
0000
0000
0001
0000
,
0000
0100
0100
0000
0000
0000
0010
0000
,
0000
1000
0100
0010
,
0000
0000
0001
1000
0000
0000
0000
0000
,
0000
0010
1010
0000
,
0000
0000
0000
0000
,
0000
0000
0001
0000
0010
0000
0100
1000
,
0000
0000
0000
0000
,
0000
0000
0010
0000
0100
0000
0001
1000
,
0000
0000
0000
0000
,
0000
0000
1000
0000
0001
0000
0100
0010
,
0000
0000
0000
0000
,
0000
0000
0100
0000
0001
0000
1000
0010
,
0000
0000
0000
0000
,
0000
0001
0010
0100
,
0000
0000
1000
0001
0000
0000
0000
0000
,
0000
1000
1100
0000
,
0000
0001
0101
0000
,
0000
0000
0100
0100
,
0010
0000
0010
0010
0000
0000
0000
0000
,
0000
1000
1000
1000
,
0001
0000
0001
0001
0000
0000
0000
0000
,
0000
1000
0110
0000
,
0000
0001
0110
0000
,
0000
0100
1010
0000
,
0000
0100
0011
0000
,
0000
0100
1001
0000
,
0000
0010
1001
0000
,
0000
0010
1100
0000
,
0000
0010
0101
0000
,
0002
0000
1003
0100
,
0001
0000
0000
0000
,
2000
0000
0000
0000
0000
0000
0001
3001
,
0000
0000
0100
0100
0000
0000
0010
0010
,
2000
0000
3001
0010
,
1000
0000
0000
0000
,
0002
0000
0000
0000
0000
0000
1000
1003
,
0000
0000
0010
0100
0000
0000
0010
0100
,
0010
0000
0000
0000
0000
1000
0000
0000
,
0000
0100
0000
0010
0000
0000
0000
0000
,
0001
0000
0000
0000
0000
0100
0000
0000
,
0010
0100
0010
0100
0000
0000
1001
0000
,
1000
0100
0010
0010
,
0001
0100
0010
0010
,
0000
1001
0000
1001
,
0000
0000
0000
0000
0010
0100
0010
0100
,
0000
0001
0100
0100
,
0010
1000
0001
0001
,
1000
0100
0010
0001
1000
0001
0000
0000
,
0001
0100
0010
1000
0001
1000
0000
0000
,
0000
1000
1010
0000
,
0000
0001
0101
0000
,
0000
0010
0100
0001
1000
0001
0000
0000
,
0000
0100
0010
1000
0001
1000
0000
0000
,
0000
0000
1000
0001
,
0000
0000
0000
0100
0000
0000
0001
0000
,
0100
0000
0000
0010
0000
0000
0100
0000
,
0001
1000
0001
1000
0000
0000
0000
0000
;

//---------------dance-double - ----------------
#NOTES:
     dance-double:
     :
     Hard:
     13:
     0.561034,0.625324,0.111148,0.018525,0.111148,424.000000,412.000000,12.000000,2.000000,0.000000,0.000000,0.561034,0.625324,0.111148,0.018525,0.111148,424.000000,412.000000,12.000000,2.000000,0.000000,0.000000:
00000000
00000000
00000000
00000000
,
00000000
00000000
00000000
00000000
,
00000000
00000000
00000000
00000000
,
00000000
00000000
00000000
00000000
,
00001000
00000100
00010100
00001000
00000000
00010000
00100000
00000000
,
10000000
00000000
10000000
00000000
10000000
00000000
00000000
00000000
00000000
00000000
01000000
00000000
00010000
00000000
00001000
00010000
,
00001000
01000000
00100000
01000000
10000000
01000000
00010000
00002000
,
00000000
00000000
00000100
00003100
00000000
00000001
00000010
00000001
,
00000100
00001000
00010000
01000000
01000000
10000000
01000000
00010000
,
00000000
10000000
00100000
00010000
00000000
10000000
01000000
00010000
,
00001000
00000100
00000010
00000100
00000001
00000100
00001000
00010000
,
00000000
00001000
00000100
00000001
00000000
00001000
00000010
00000001
,
00000010
00001000
00000100
00000010
00001000
00010000
00001000
00010000
,
00000000
00100000
10000000
01000000
00000000
00100000
00010000
01000000
,
00100000
10000000
01000000
10000000
00010000
10000000
01000000
00010000
,
00000000
00001000
00000010
00000001
00000000
00000100
00001000
00010000
,
00001000
00000100
00000001
00000100
00000010
00000100
00001000
00000100
,
00000000
00000001
00000010
00001000
00000000
00000001
00000100
00001000
,
00000000
00000001
00000010
00000001
00001000
00000001
00000100
00002000
,
00000000
00000000
00010000
00013000
00000000
01000000
10000000
00100000
,
00010000
00001000
00010000
00001000
00011000
00000000
00010100
00000000
,
00001000
00010000
00001000
00010000
00011000
00000000
00101000
00000000
,
00100000
00000000
00010000
00000000
01000000
00010000
01000000
00010000
01000000
00000000
01000000
00000000
00001000
00000000
00001000
00000000
,
00010000
00000100
00010000
00000100
00010000
00000100
00010000
00000000
00000000
00000000
00000010
00000000
00000100
00000000
00001001
00000000
,
00000100
00000010
00000001
00000100
00000100
00000100
00001000
00010000
,
00001000
01000000
00001000
01000000
00001000
01000000
00001000
00000000
00000000
00000000
00100000
00000000
01000000
00000000
10000000
00000000
,
00000000
10000000
00100000
10000000
01000000
01000000
00010000
01000000
,
10000000
00100000
00010000
00001000
00000100
00000100
00000001
00001000
,
00000001
00000100
00000010
00001000
00000100
00000100
00010000
00001000
,
01000000
00000000
00100000
00000000
10000000
00000000
00010000
00000000
01000000
00000000
01000000
00000000
00100000
00000000
10000000
00010000
,
10000000
00000000
01000000
00010000
00001000
00000100
00000001
00000000
,
00001100
00000000
00000001
00000100
00001000
00010000
01000000
00000000
,
00010000
01000000
00100000
00010000
00001000
00000100
00000001
00000000
,
00001000
00000000
00000010
00000000
00000100
00000000
00001000
00000000
00010000
00000000
01000000
00000000
10000000
00000000
00100000
01000000
,
00100000
01000000
00100000
00000000
00000000
00000000
10000000
01000000
10000000
00000000
00010000
00000000
00000000
00000000
00000000
00000000
,
00100000
01000000
00100000
00000000
00000000
00000000
00001000
00010000
00001000
00000000
00000100
00000000
00000001
00000000
00000000
00000000
,
00000010
00000100
00000010
00000000
00000000
00000000
00001000
00010000
00001000
00000000
01000000
00000000
00100000
00000000
00000000
00000000
,
10000000
01000000
10000000
00000000
00010000
00000000
00010000
00000000
00000000
00000000
00000000
00000000
00100000
00000000
00100000
00000000
,
00001000
00010000
00001000
00000000
00000000
00000000
00000000
00000000
00000000
00000000
00010000
00000000
00000010
00000000
00000000
00000000
,
00000100
00000001
00000100
00000000
00000000
00000000
00000010
00010000
00000010
00000000
00000100
00000000
00001000
00000000
00000000
00000000
,
00010000
01000000
00010000
00000000
00000000
00000000
10000000
00100000
10000000
00000000
00010000
00000000
01000000
00000000
00001000
00000000
,
00010000
00001000
00010000
00000000
00000010
00000000
00000010
00000000
00000000
00000000
00000000
00000000
00000100
00000000
00000100
00000000
,
00000001
00000100
00001000
00010000
00000000
00001000
00000100
00000001
,
00000000
00000100
00001000
00011000
00000000
00100000
10000000
01000000
,
00010000
00001000
00000010
00001000
00000000
00010000
00100000
10000000
,
01000000
01000000
00100000
00100000
00000000
01000000
00010000
00001000
,
00000100
00000001
00000001
00000001
00000010
00001000
00000010
00000000
,
00000000
00000001
00000100
00000100
00001000
00001000
00010000
00100000
,
00000000
10000000
01000000
00010000
01000000
10000000
10010000
00000000
,
00000000
10000000
01000000
00010000
00001000
00001000
00000010
00000010
,
00000000
00000001
00000100
00000010
00000100
00001000
00010000
00000000
,
01000000
10000000
00100000
01000000
00100000
00010000
00001000
00000010
,
00000000
00000001
00000100
00001000
00000100
00000001
00000101
00000000
,
00001000
00010000
01000000
10000000
01000000
00010000
01010000
01000000
,
10000000
00100000
10000000
01000000
00010000
00001000
00000100
00000000
,
00000001
00000100
00000001
00000010
00001000
00010000
00100000
10000000
,
00000000
01000000
00100000
01000000
00010000
00010000
00001000
00000000
,
00000100
00000010
00000100
00001000
00010000
00010000
00001000
00001000
,
00011000
00000000
00000010
00000100
00000100
00000100
00000001
00001000
,
00000000
00000001
00000010
00001000
00000000
00010000
01000000
10000000
,
00100000
01000000
00100000
10000000
00000000
01000000
00010000
00001000
,
00010000
00010000
00001000
00001000
00000000
00000000
00000000
00000000
;

//---------------dance-double - ----------------
#NOTES:
     dance-double:
     :
     Medium:
     8:
     0.334768,0.397934,0.083361,0.018525,0.000000,253.000000,244.000000,9.000000,2.000000,0.000000,0.000000,0.334768,0.397934,0.083361,0.018525,0.000000,253.000000,244.000000,9.000000,2.000000,0.000000,0.000000:
00000000
00000000
00000000
00000000
,
00000000
00000000
00000000
00000000
,
00000000
00000000
00000000
00000000
,
00000000
00000000
00000000
00000000
,
00100000
00000000
01000000
00100000
00000000
00000000
01001000
00000000
,
00000000
00010000
00010000
00000000
00000000
00000010
00000100
00000000
,
00000000
00000000
00000100
00000001
00000100
00000000
00000010
00000000
,
00000000
00000000
00010000
00001000
00000000
01000000
00000000
00000000
,
00000000
00000000
01000000
00000000
10010000
00000000
00000000
00100000
,
00000000
00000000
00000000
00010000
00000000
00000000
00000000
10000000
,
00000000
00000000
00100000
01000000
00100000
00000000
01000000
00001000
,
00000000
00000000
00000000
00010000
00000000
00000010
00000000
00000000
,
00000000
00000100
00000001
00000100
00000001
00000000
00001000
00000010
,
00000000
00000000
00000000
00001000
00000000
00000000
00000000
00000100
,
00000000
00000000
00010000
00001000
00010000
00000000
00001000
01000000
,
00000000
00000000
00000000
00100000
00000000
10000000
00000000
00000000
,
00000000
00000000
00010000
01000000
00010000
00000000
00100000
00001000
,
00000000
00000000
00000000
00010000
00000000
00000010
00000000
00000000
,
00000000
00000000
00000100
00000001
00000100
00000000
00000010
00010000
,
00000000
00000000
00001000
00010000
00000000
00001000
00000000
00000000
,
00000000
01000000
00100000
01000000
00100000
00000000
00000000
00000000
,
00000000
00000100
00000010
00000100
00000010
00000000
00000000
00000000
,
00000000
00000000
00000000
00000001
00000100
00000001
00000100
00002000
,
00000000
00000000
00000000
00013000
00000000
00000000
01000000
00000000
,
10000000
00000000
00000000
00100000
00010000
00100000
00010000
00002000
,
00000000
00000000
00000000
00003010
00000000
00000001
00000000
00000000
,
00000000
00000000
00000001
00000100
00000010
00001000
00000000
00000000
,
00000000
00000000
00000100
00010000
00001000
01000000
00000000
00000000
,
00000000
00100000
01000000
00100000
01000000
00001000
00000000
00000000
,
00000000
00010000
00000010
00010000
00000010
00000100
00000001
00000001
,
00000000
00000000
00000100
00000010
00001000
00000001
00000000
00000000
,
00000000
00000000
00000010
00010000
00001000
00100000
00000000
00000000
,
00000000
00010000
01000000
00100000
10000000
10000000
00000000
00000000
,
00000000
10000000
01000000
00100000
00010000
00010000
00000000
00000000
,
01001000
00000000
00000000
00000000
00000000
00001000
00010000
00000000
,
00000010
00000100
00000000
00000000
00000000
00000100
00000010
00000000
,
00010010
00000000
00000000
00000000
00000000
00001000
00010000
00000000
,
00001000
01000000
00100000
00100000
00000000
00000000
00100000
00100000
,
10000000
01000000
00000000
00000000
00000000
00010000
00001000
00000000
,
00000010
00000001
00001000
00000000
00000000
00000001
00001000
00000000
,
00000001
00000010
00000000
00000000
00000000
00001000
00010000
00000000
,
00100000
10000000
00010000
00010000
00000000
00000000
00010000
00010000
,
01000000
00000000
00000000
00000000
00000000
00011000
00000000
00000000
,
00010100
00000000
00000000
00000011
00000000
00000001
00001000
00000001
,
00000100
00000000
00000000
00000000
00000000
00000110
00000000
00000000
,
00000010
00000010
00010000
00010000
00000000
00001000
01000000
00001000
,
00000000
00000000
01000000
00100000
01000000
00001000
00000000
00000000
,
00000000
00000000
00010000
00000010
00000100
00000010
00000000
00000000
,
00000000
00000100
00000001
00001000
00000100
00000100
00010000
00000000
,
00001000
01000000
00010000
10000000
01000000
01000000
00100000
00100000
,
00000000
00000000
10000000
01000000
00100000
00001000
00000000
00000000
,
00000000
00000000
00010000
00000100
00000010
00000001
00000000
00000000
,
00000000
00000001
00000100
00000010
00010000
00010000
00000000
00000000
,
00000000
00001000
01000000
00100000
10000000
10000000
00000000
00000000
,
00000000
00000000
10000000
01000000
00010000
00001000
00000000
00000000
,
00000000
00000000
00000100
00000001
00000010
00001000
00000000
00000000
,
00000000
00010000
01000000
00010000
00001000
00000100
00000000
00000000
,
00000000
00001000
00000100
00001000
00010000
01000000
00000000
00000000
,
00000000
00000000
00000000
00100000
00100000
00100000
10000000
00010000
,
00000000
00000000
00000000
00101000
00000000
00000000
00000000
00000000
,
00000100
00001000
00000010
00000100
00000000
00000010
00010000
00001000
,
00010000
00010000
00001000
00001000
00000000
00000000
00000000
00000000
;

//---------------dance-double - ----------------
#NOTES:
     dance-double:
     :
     Easy:
     6:
     0.226266,0.312662,0.296395,0.009262,0.000000,171.000000,139.000000,32.000000,1.000000,0.000000,0.000000,0.226266,0.312662,0.296395,0.009262,0.000000,171.000000,139.000000,32.000000,1.000000,0.000000,0.000000:
00000000
00000000
00000000
00000000
,
00000000
00000000
00000000
00000000
,
00000000
00000000
00000000
00000000
,
00000000
00000000
00000000
00000000
,
00000010
00000000
00000000
00001010
00000000
00000000
00000100
00000000
,
00000000
00010000
00001000
00000000
00000000
00000000
00001000
00000000
,
00000000
01000000
00100000
10000000
,
00000000
10010000
00000000
00000000
,
00000000
01000000
00001000
00000000
,
00000000
00000000
00000000
00000000
,
00000000
00000010
00000100
00001001
,
00000000
00000000
00000000
00000000
,
00000000
01000000
00100000
10010000
,
00000000
00000000
00000000
00000000
,
00000000
00000001
00000010
00000011
,
00000000
00000000
00000000
00000000
,
00000000
10000000
01000000
11000000
,
00000000
00000000
00000000
00000000
,
00000000
00001000
00010000
00001000
,
00000000
00011000
00000000
00000000
,
00000000
00000010
00001001
00000000
,
00000000
00000100
00001001
00000000
,
00000000
00000000
00000000
00000100
00010000
00000100
00010000
00000100
,
00000000
00000000
00000000
00011000
00000000
00000000
00000000
00000000
,
00000000
00000000
00000000
01000000
00001000
01000000
00001000
01000000
,
00000000
00000000
00000000
00011000
00000000
00000000
00000000
00000000
,
00000000
00000010
00010010
00000000
,
00000000
00010000
00011000
00000000
,
00000000
00001000
00101000
00000000
,
00000000
01000000
11000000
00000000
,
00000000
10000000
10100000
00000000
,
00000000
01000000
01001000
00000000
,
00000000
00010000
00011000
00000000
,
00000000
00000010
00000110
00000000
,
00000001
00001000
00001000
00000000
00000000
00001000
00000000
00000000
,
00000100
00010000
00010000
00000000
00000000
00010000
00000000
00000000
,
00001000
00100000
00100000
00000000
00000000
00100000
00000000
00000000
,
00020000
00000000
01030000
01000000
00000000
00000000
01000000
01000000
,
01000000
00001000
00010000
00000000
00000000
00001000
00000000
00000000
,
00010000
00000100
00001000
00000000
00000000
00000100
00000000
00000000
,
00001000
00000001
00000100
00000000
00000000
00000001
00000000
00000000
,
00000010
00000000
00000100
00000100
00000000
00000000
00000100
00000100
,
00010000
00000000
00000000
00000000
00000000
00001000
00000000
00000000
,
01000000
00000000
00000000
01100000
00000000
00000000
00000000
00000000
,
10000000
00000000
00000000
00000000
00000000
00010000
00000000
00000000
,
00100000
00001000
00000000
00011000
,
00000000
00000100
00001010
00000000
,
00000000
00010000
00011000
00000000
,
00000000
01010000
01010000
00000000
,
00000000
10100000
10100000
00000000
,
00000000
10000000
01000000
00000000
,
00000000
00010000
00001000
00000000
,
00000000
00000010
00000011
00000000
,
00000000
00000010
00000011
00000000
,
00000000
00000001
00000100
00000000
,
00000000
00001000
00010000
00000000
,
00000000
01000000
11000000
00000000
,
00000000
01000000
11000000
00000000
,
00000000
10000000
01000000
00010000
,
00000000
00000000
00000000
00011000
00000000
00000000
00000010
00000000
,
00000100
00000000
00000000
00010000
00000000
00000000
00001000
00000000
,
00010000
00001000
00010000
00001000
00000000
00000000
00000000
00000000
;
