#TITLE:P.H.U.K.;
#SUBTITLE:;
#ARTIST:Orbital;
#TITLETRANSLIT:;
#SUBTITLETRANSLIT:;
#ARTISTTRANSLIT:;
#GENRE:House;
#CREDIT:;
#BANNER:phuk-bn.png;
#BACKGROUND:phuk-bg.png;
#LYRICSPATH:;
#CDTITLE:;
#MUSIC:P.H.U.K..mp3;
#OFFSET:-0.050000;
#SAMPLESTART:22.510008;
#SAMPLELENGTH:13.000004;
#SELECTABLE:YES;
#BPMS:0.000000=128.000000
,96.000000=64.000000
,128.000000=128.000000
;
#STOPS:
;
#BGCHANGES:;
#KEYSOUNDS:;
#ATTACKS:;

//---------------dance-single - ----------------
#NOTES:
     dance-single:
     :
     Hard:
     13:
     0.598067,0.779742,0.176370,0.000000,0.960753,451.000000,432.000000,19.000000,0.000000,0.000000,0.000000,0.598067,0.779742,0.176370,0.000000,0.960753,451.000000,432.000000,19.000000,0.000000,0.000000,0.000000:
0000
0000
0000
0000
,
0000
0000
0000
0000
,
0000
0000
0000
0000
,
0000
0000
0000
0000
,
0001
0100
0001
0000
1000
0000
0100
0000
1000
0010
1000
0010
1000
0000
0000
0000
,
0100
1000
0100
0000
1000
0000
0100
0000
0010
0001
0010
0001
0010
0000
0000
0000
,
0001
1000
0001
0000
0100
0000
0010
0000
1000
0001
1000
0001
1000
0000
0000
0000
,
0101
0000
0000
0110
0000
0000
1010
0000
0000
1000
0000
1000
0001
0000
0000
0010
,
0001
0000
0000
0100
0000
0100
0001
0000
0010
0100
0000
0100
1000
0000
0000
0010
,
1000
0000
0000
0100
0000
0100
1000
0000
0010
0100
0000
0001
1000
0000
0000
0100
,
0010
0000
0000
0001
0000
0001
0100
0000
0010
1000
0000
1000
0100
0000
0000
0000
,
1100
0000
0000
1010
0000
0000
1001
0000
0000
0001
0000
0100
0010
0000
0000
0100
,
0001
0000
0000
0010
0000
0010
0001
0000
0100
0010
0000
0010
1000
0000
0000
0100
,
1000
0000
0000
0010
0000
0010
1000
0000
0100
0010
0000
0001
1000
0000
0000
0100
,
0010
0000
0000
0001
0000
0001
0010
0000
0100
1000
0000
0010
0100
0000
0000
0000
,
0110
0000
0000
0101
0000
0000
1001
0000
0000
1000
0000
0010
0100
0000
0000
0001
,
0010
0000
0000
1000
0000
0000
0010
0000
0001
1000
0000
1000
0001
0000
0000
1000
,
0100
0000
0000
0001
0000
0000
0100
0000
1000
0001
0000
0001
1000
0000
0000
0010
,
0100
0000
0000
1000
0000
0000
0100
0000
0001
0010
0000
0010
0001
0000
0100
0000
,
0010
1000
0000
0010
0100
0000
0010
0001
0000
0010
0100
0000
0010
1000
0000
1000
,
0001
0000
0000
0100
0000
0100
0001
0000
0100
1000
0000
0100
0001
0000
0000
0000
,
1000
0000
0000
0010
0000
0010
1000
0000
0010
0001
0000
0010
1000
0000
0000
0010
,
0100
0000
0000
0010
0000
0000
0001
0000
0010
1000
0000
1000
0001
0000
1000
0000
,
0100
1000
0000
0100
0010
0000
0100
0001
0000
0100
0010
0000
0100
1000
0000
0010
,
1000
0000
0100
0010
0100
0000
0010
0001
0010
0000
0000
0000
0000
0000
0000
0000
0000
0000
0000
0000
0000
0000
0000
0000
1001
0000
0000
0000
0010
0000
0000
0000
,
0100
0000
0010
0001
0010
0000
1000
0100
1000
0000
0000
0000
0000
0000
0000
0000
0000
0000
0000
0000
0000
0000
0000
0000
0000
0000
0000
0000
1100
0000
0000
0000
,
0010
0000
0001
0100
0001
0000
1000
0100
1000
0000
0000
0000
0000
0000
0000
0000
0000
0000
0000
0000
0000
0000
0000
0000
0000
0000
0000
0000
0000
0000
0000
0000
,
0011
0000
0100
1000
0000
0000
0000
0000
0000
0000
0000
0000
0000
0000
0000
0000
,
1000
0000
1000
0100
0010
0000
0000
0000
0010
0000
0010
0001
0100
0000
0000
0000
0100
0000
0100
0010
1000
0000
0000
0000
1000
0000
1000
0001
0100
0000
0000
0000
,
0001
0000
0001
0010
0100
0000
0000
0000
0100
0000
0100
1000
0001
0000
0000
0000
0001
0000
0001
0100
0010
0000
0000
0000
0010
0000
0010
1000
0001
0000
0000
0000
,
1000
0000
0100
0010
0001
0000
0000
0000
1000
0000
0100
0001
0100
0000
0000
0000
1000
0000
0010
0100
0001
0000
0000
0000
1000
0000
0001
0010
0100
0000
0000
0000
,
0001
0000
0100
0010
1000
0000
0000
0000
0001
0000
0010
1000
0010
0000
0000
0000
0001
0000
0010
0100
1000
0000
0000
0000
0010
0000
0100
0000
0001
1000
0001
1000
,
0001
0010
0000
0010
0001
0000
0100
0000
0001
0010
0000
0001
0010
0100
1000
0000
,
1000
0100
0000
0100
1000
0000
0010
0000
1000
0100
0000
1000
0100
0010
0001
0000
,
0100
0010
0000
0010
0100
0000
0001
0000
0100
0010
0000
0100
0010
1000
0001
0000
,
1001
0000
0000
0101
0000
0000
0011
0000
0000
0010
0000
0100
1000
0000
0000
0000
,
0001
0010
0000
0010
0100
0000
0010
0000
0100
1000
0000
0100
1000
0001
0010
0000
,
0100
0010
0000
0010
0001
0000
1000
0000
0100
0010
0000
0100
0010
0001
1000
0000
,
0010
1000
0000
1000
0001
0000
0100
0000
0001
1000
0000
0001
1000
0100
0010
0000
,
0100
1000
0100
1000
0100
0000
0010
0000
0001
0100
0001
0100
0001
0000
0000
0000
,
0010
0100
0000
0100
1000
0000
0001
0000
1000
0010
0000
1000
0010
0100
0001
0000
,
0100
0010
0000
0010
1000
0000
0001
0000
0100
0010
0000
0100
0010
1000
0001
0000
,
0100
0001
0000
0001
0010
0000
0100
0000
0010
0001
0000
0010
0001
1000
0100
0000
,
0010
0100
0000
1000
0001
0000
0100
0010
0000
0001
0010
0000
1000
0001
0000
0100
,
0010
0000
0000
1010
0000
0000
1000
0000
0001
1000
0000
0010
1000
0001
1000
0000
,
0001
0000
0000
0101
0000
0000
0100
0000
0010
1000
0000
0100
1000
0010
1000
0000
,
0100
0000
0000
0110
0000
0000
0011
0000
0001
1000
0000
0001
1000
0000
0000
0001
,
0100
1000
0000
0100
0001
0000
0010
1000
0000
0010
0001
0000
0100
0010
0000
1000
,
0001
0000
0000
0000
;

//---------------dance-double - ----------------
#NOTES:
     dance-double:
     :
     Hard:
     13:
     0.535741,0.824298,0.306327,0.018565,0.765818,404.000000,371.000000,33.000000,2.000000,0.000000,0.000000,0.535741,0.824298,0.306327,0.018565,0.765818,404.000000,371.000000,33.000000,2.000000,0.000000,0.000000:
00000000
00000000
00000000
00000000
,
00000000
00000000
00000000
00000000
,
00000000
00000000
00000000
00000000
,
00000000
00000000
00000000
00000000
,
10000000
00000000
00000000
00000000
00100000
00000000
00000000
00000000
01000000
00001000
00000000
00010000
00000100
00000000
00000000
00000000
,
00000010
00000000
00000000
00000000
00001000
00000000
00000000
00000000
00010000
00001000
00000000
00001000
01000000
00000000
00000000
00000000
,
00100000
00000000
00000000
00000000
00010000
00000000
00000000
00000000
00001000
00010000
00000000
00010000
00000100
00000000
00000000
00000000
,
00000010
00000000
00000000
00000001
00000000
00000000
00001100
00000000
00000000
00000010
00000000
00000010
00000100
00000000
00000000
00001000
,
00010000
00000000
00000000
01000000
00000000
00000000
10000000
00000000
00100000
01000000
00000000
01000000
00100000
00000000
00000000
00010000
,
00001000
00000000
00000000
00000100
00000000
00000000
00000001
00000000
00000010
00000100
00000000
00000100
00000010
00000000
00000000
00001000
,
00010000
00000000
00000000
00100000
00000000
00000000
10000000
00000000
00010000
00100000
00000000
00100000
00010000
00000000
00000000
00000000
,
00001000
00000000
00000000
00000100
00000000
00000000
00000101
00000000
00000000
00001000
00000000
00000001
00001000
00000000
00000000
00000100
,
00010000
00000000
00000000
00001000
00000000
00000000
00000100
00000000
00000001
00001000
00000000
00001000
00000001
00000000
00000000
00000010
,
00001000
00000000
00000000
00010000
00000000
00000000
00100000
00000000
01000000
00100000
00000000
00100000
01000000
00000000
00000000
01000000
,
00001000
00000000
00000000
00010000
00000000
00000000
00100000
00000000
10000000
00010000
00000000
00010000
10000000
00000000
00000000
00000000
,
11000000
00000000
00000000
00100000
00000000
00000000
00001000
00000000
00000000
00010000
00000000
00010000
00000010
00000000
00000000
00000000
,
00001100
00000000
00000000
00001010
00000000
00000000
00010010
00000000
00010000
00001000
00000000
00001000
01000000
00000000
00000000
00000000
,
01010000
00000000
00000000
00110000
00000000
00000000
00101000
00000000
00001000
00010000
00000000
00010000
00000010
00000000
00000000
00000000
,
00000101
00000000
00000000
00000110
00000000
00000000
00001010
00000000
00000100
00010000
00000000
00010000
00001000
00000000
00010000
00000000
,
00100000
01000000
00000000
01000000
00100000
00000000
00010000
00001000
00000000
00001000
00000100
00000000
00000010
00001000
00000000
00001000
,
00000001
00000000
00000000
00000100
00000000
00000000
00001000
00000000
00000100
00000010
00000000
00000100
00002000
00000000
00000000
00000000
,
00013000
00000000
00000000
00100000
00000000
00000000
10000000
00000000
01000000
00100000
00000000
01000000
00020000
00000000
00000000
00000000
,
00031000
00000000
00000000
00000100
00000000
00000000
00000001
00000000
00000010
00001000
00000000
00001000
00000010
00000000
00000001
00000000
,
00000100
00001000
00000000
00010000
00100000
00000000
00010000
00001000
00000000
00000100
00000010
00000000
00010000
00001000
00000000
00000010
,
00001000
00010000
10100000
00000000
00000000
00000000
01000000
00001000
,
00000100
00000001
00001100
00000000
00000000
00000000
00000000
00000100
,
00010000
01000000
00110000
00000000
00000000
00000000
00000000
00000000
,
00100000
00000000
00010000
00000010
00000000
00000000
00000000
00000000
00000000
00000000
00000000
00000000
00000000
00000000
00000000
00000000
,
00000101
00000100
00000001
00000000
00001100
00000100
00001000
00000000
00000110
00000010
00000100
00000000
00011000
00001000
00010000
00000000
,
10100000
00100000
10000000
00000000
00110000
00100000
00010000
00000000
01100000
01000000
00100000
00000000
00011000
00010000
00001000
00000000
,
00000100
00000000
00000001
00001000
00000001
00000000
00000000
00000000
00000010
00000000
00001000
00010000
00001000
00000000
00000000
00000000
00010000
00000000
01000000
10000000
01000000
00000000
00000000
00000000
10000000
00000000
00100000
00010000
00100000
00000000
00000000
00000000
,
00010000
00000000
00001000
00000100
00000010
00000000
00000000
00000000
00001000
00000000
00000001
00000010
00000100
00000000
00000000
00000000
00010000
00000000
00001000
00010000
00100000
00000000
00000000
00000000
01000000
10000000
01000000
10000000
00010000
00100000
00010000
00100000
,
00010000
00000000
00000000
01010000
00000000
00000000
01000000
00000000
00100000
00010000
00000000
00001000
00000100
00000000
00000000
00000000
,
00000001
00000000
00000000
00000011
00000000
00000000
00001000
00000000
00010000
01000000
00000000
10000000
00100000
00000000
00000000
00000000
,
00010000
00000000
00000000
00011000
00000000
00000000
00000100
00000000
00000001
00001000
00000000
00000010
00000001
00000000
00000000
00000000
,
00000010
00000000
00000000
00010010
00000000
00000000
00010100
00000000
00000000
00001000
00000000
00010000
00100000
00000000
00000000
01000000
,
10000000
00000000
00000000
00100000
00010000
00000000
00001000
00000000
00000100
00000001
00000000
00001000
00000001
00001000
00000001
00000000
,
00000010
00000000
00000000
00001000
00010000
00000000
00100000
00000000
10000000
00010000
00000000
01000000
00100000
01000000
00100000
00000000
,
00010000
00000000
00000000
00001000
00000100
00000000
00000001
00000000
00001000
00000010
00000000
00000100
00001000
00000100
00001000
00000000
,
00010000
00100000
00010000
00100000
00010000
00000000
10000000
00000000
01000000
00010000
01000000
00010000
01000000
00000000
00010000
00000000
,
00001000
00000000
00000000
00000101
00000000
00000000
00001000
00000000
00000010
00000100
00000000
00001000
00010000
00001000
00010000
00000000
,
00100000
00000000
00000000
11000000
00000000
00000000
00100000
00000000
00010000
00001000
00000000
00000100
00000001
00000100
00000001
00000000
,
00001000
00000000
00000000
00010010
00000000
00000000
00001000
00000000
00000100
00010000
00000000
00001000
00000010
00001000
00000010
00000000
,
00001000
01000000
00000000
00100000
00010000
00000000
00100000
10000000
00000000
01000000
00010000
00000000
00001000
00000010
00000000
00000100
,
00001000
00000000
00000000
00001000
00000000
00000100
00000001
00000000
00001000
00000010
00000000
00000010
00000100
00000000
00000000
00001000
,
00010000
00000000
00000000
00010000
00000000
00100000
10000000
00000000
00010000
01000000
00000000
01000000
00100000
00000000
00000000
00010000
,
00001000
00000000
00000000
00001100
00000000
00000000
00011000
00000000
00000010
00001000
00000000
00001000
00000010
00000000
00000000
00000100
,
00001000
00010000
00000000
00100000
10000000
00000000
01000000
00010000
00000000
00001000
00000010
00000000
00000001
00001000
00000000
00000100
,
00000010
00000000
00000000
00000000
;

//---------------dance-single - ----------------
#NOTES:
     dance-single:
     :
     Beginner:
     1:
     0.072935,0.088649,0.064978,0.000000,0.000000,55.000000,48.000000,7.000000,0.000000,0.000000,0.000000,0.072935,0.088649,0.064978,0.000000,0.000000,55.000000,48.000000,7.000000,0.000000,0.000000,0.000000:
// measure 0
0000
0000
0000
0000
,  // measure 1
0000
0000
0000
0000
,  // measure 2
0000
0000
0000
0000
,  // measure 3
0000
0000
0000
0000
,  // measure 4
1000
0000
0000
0000
,  // measure 5
0010
0000
0000
0000
,  // measure 6
0100
0000
0000
0000
,  // measure 7
1001
0000
0000
0000
,  // measure 8
0010
0000
0000
0000
,  // measure 9
0001
0000
0000
0000
,  // measure 10
0010
0000
0000
0000
,  // measure 11
0001
0000
0000
0000
,  // measure 12
1000
0000
0000
0000
,  // measure 13
0100
0000
0000
0000
,  // measure 14
1000
0000
0000
0000
,  // measure 15
0100
0000
0000
0010
,  // measure 16
0010
0000
0000
0000
,  // measure 17
0001
0000
0000
0000
,  // measure 18
0010
0000
0000
0000
,  // measure 19
0110
0000
0000
0000
,  // measure 20
1000
0000
0000
0000
,  // measure 21
0010
0000
0000
0000
,  // measure 22
1000
0000
0000
0000
,  // measure 23
1001
0000
0000
0000
,  // measure 24
0001
0000
0000
0000
,  // measure 25
1000
0000
0000
0000
,  // measure 26
0010
0000
0000
0000
,  // measure 27
0110
0000
0000
0000
,  // measure 28
1000
0000
0000
0000
,  // measure 29
0100
0000
0000
0000
,  // measure 30
0010
0000
0000
0000
,  // measure 31
0001
0000
1000
0000
,  // measure 32
0001
0000
0000
0000
,  // measure 33
0100
0000
0000
0000
,  // measure 34
0001
0000
0000
0000
,  // measure 35
1001
0000
0000
0000
,  // measure 36
1000
0000
0000
0000
,  // measure 37
0100
0000
0000
0000
,  // measure 38
1000
0000
0000
0000
,  // measure 39
1001
0000
0000
0000
,  // measure 40
0010
0000
0000
0000
,  // measure 41
0100
0000
0000
0000
,  // measure 42
0010
0000
0000
0000
,  // measure 43
0110
0000
0000
0000
,  // measure 44
0100
0000
0000
0000
,  // measure 45
0001
0000
0000
0000
,  // measure 46
0100
0000
0001
0000
,  // measure 47
1000
0000
0000
0010
;

//---------------dance-single - ----------------
#NOTES:
     dance-single:
     :
     Easy:
     6:
     0.275827,0.378732,0.167087,0.148522,0.000000,208.000000,190.000000,18.000000,16.000000,0.000000,0.000000,0.275827,0.378732,0.167087,0.148522,0.000000,208.000000,190.000000,18.000000,16.000000,0.000000,0.000000:
0000
0000
0000
0000
,
0000
0000
0000
0000
,
0000
0000
0000
0000
,
0000
0000
0000
0000
,
0001
0010
0001
0001
,
1000
0100
1000
1000
,
0010
0001
0010
1000
,
0001
1000
1001
0110
,
1000
1000
0100
0001
,
1000
1000
0010
0001
,
1000
0001
0100
1000
,
0001
1000
1001
0110
,
0001
0001
0010
1000
,
0001
0001
0100
1000
,
0001
1000
0010
0001
,
1000
0001
1001
0110
,
1000
0100
0010
1000
,
0001
0100
0010
0001
,
1000
0100
0001
0100
,
1000
0010
0001
0100
,
1000
0010
1000
1100
,
0001
0100
0001
0011
,
1000
0001
1000
0110
,
0001
0010
1000
0100
,
0001
1000
0001
0000
0000
0000
0010
0100
,
1000
0001
1000
0000
0000
0000
0000
0010
,
0001
0010
1000
0000
0000
0000
0000
0000
,
1001
0010
0000
0000
0000
0000
0000
0000
,
2000
0100
3002
0100
2003
0010
3002
0010
,
2003
0100
3020
1000
0032
0010
0203
0001
,
0320
0001
0230
1000
0302
0010
0203
0010
,
0302
0100
2003
0010
3200
0001
1300
0001
,
1000
0100
0010
0011
,
1000
0010
0100
0101
,
0001
0100
1000
0100
,
0001
0010
1000
1000
,
0001
0100
0010
1010
,
0001
0010
0100
1100
,
1000
0100
0001
0100
,
1000
0010
0001
0100
,
1000
0010
0100
0101
,
1000
0100
0010
0011
,
0001
0010
1000
0010
,
0001
0100
1000
0010
,
0001
1000
0100
1100
,
1000
0001
0010
0011
,
0200
0000
0310
0001
,
1000
0100
0001
0100
,
1000
0000
0000
0000
;

//---------------dance-single - ----------------
#NOTES:
     dance-single:
     :
     Medium:
     10:
     0.342132,0.577728,0.129957,0.000000,0.171729,258.000000,244.000000,14.000000,0.000000,0.000000,0.000000,0.342132,0.577728,0.129957,0.000000,0.171729,258.000000,244.000000,14.000000,0.000000,0.000000,0.000000:
0000
0000
0000
0000
,
0000
0000
0000
0000
,
0000
0000
0000
0000
,
0000
0000
0000
0000
,
1000
0000
0100
0000
0010
1000
0010
0000
,
0001
0000
0100
0000
0010
0001
0010
0000
,
1000
0000
0100
0000
0001
0100
1000
0000
,
0010
0000
0000
0010
0000
0000
0010
0000
0000
0000
0000
0000
1001
0000
0000
0000
,
0001
0000
0100
0000
0010
1000
0100
0000
,
0001
0000
0100
0000
1000
0010
0100
0000
,
0001
0000
0010
0000
0100
1000
0001
0000
,
1000
0000
0000
1000
0000
0000
1000
0000
0000
0000
0000
0000
0110
0000
0000
0000
,
0001
0000
0100
0000
0001
0100
1000
0000
,
0001
0000
0010
0000
0001
0010
1000
0000
,
0001
0010
1000
0100
,
0001
0000
0000
0001
0000
0000
0001
0000
0000
0000
0000
0000
0110
0000
0000
0000
,
0100
0000
0000
1000
0000
0000
0100
0000
1000
0000
0000
0000
0001
0000
0000
0000
,
0010
0000
0000
0001
0000
0000
0010
0000
0001
0000
0000
0000
1000
0000
0000
0000
,
0001
0000
0000
0100
0000
0000
0001
0000
1000
0000
0000
0000
0001
0000
0000
0000
,
0010
0100
0000
0010
0100
0000
0000
0000
1000
0000
0000
0000
0001
0000
0000
0000
,
0010
0000
0100
0000
1000
0010
0100
0000
,
0010
0000
0001
0000
0010
1000
0001
0000
,
0100
0000
1000
0000
0100
0001
1000
0000
,
0010
1000
1010
1001
,
0001
0010
1000
0000
0000
0000
0000
0100
,
1000
0010
0001
0000
0000
0000
0000
0010
,
0100
0001
1000
0000
0000
0000
0000
0000
,
0110
0000
1000
0001
0000
0000
0000
0000
0000
0000
0000
0000
0000
0000
0000
0000
,
0001
0010
0001
0000
0001
0100
0010
0000
0010
1000
0010
0000
0010
1000
0100
0000
,
0100
0010
0100
0000
0100
1000
0010
0000
1000
0001
1000
0000
1000
0010
0100
0000
,
0100
0001
0100
0000
0100
0001
0010
0000
0010
0100
0010
0000
0010
0001
1000
0000
,
0001
0100
0001
0000
0001
1000
0010
0000
0100
0010
0100
0000
0001
1000
0001
0010
,
0100
0000
0000
0100
0000
0000
1000
0000
0010
0000
0000
0000
0100
0000
0000
0000
,
0010
0000
0000
0010
0000
0000
0100
0000
0001
0000
0000
0000
0010
0000
0000
0000
,
0001
0000
0000
0001
0000
0000
1000
0000
0100
0000
0000
0000
0010
0000
0000
0000
,
0100
1000
1100
0011
,
1000
0000
0000
1000
0000
0000
0010
0000
0100
0000
0000
0000
1000
0000
0000
0000
,
0100
0000
0000
0100
0000
0000
0001
0000
0010
0000
0000
0000
0100
0000
0000
0000
,
0001
0000
0000
0001
0000
0000
0100
0000
1000
0000
0000
0000
1001
0000
0000
0000
,
0010
1000
0100
0010
0001
0100
0010
0000
,
0100
0001
1100
0101
,
0010
0000
1000
0100
0001
0000
1000
0000
,
0010
0000
0000
0100
0000
0000
0010
0000
1000
0000
0000
0000
1001
0000
0000
0000
,
1000
0010
0000
1000
0010
0000
0000
0000
0100
0000
0001
0000
0100
0000
0010
0000
,
1000
0001
1010
0011
,
1000
0000
0001
0100
1000
0000
0010
0000
,
0100
0000
0000
0001
0000
0000
0100
0000
0000
0010
0000
0000
1000
0000
0000
0000
,
1000
0100
0010
0001
0100
0010
1000
0001
;

//---------------dance-double - ----------------
#NOTES:
     dance-double:
     :
     Easy:
     6:
     0.240023,0.243785,0.083544,0.250631,0.009283,181.000000,172.000000,9.000000,27.000000,0.000000,0.000000,0.240023,0.243785,0.083544,0.250631,0.009283,181.000000,172.000000,9.000000,27.000000,0.000000,0.000000:
00000000
00000000
00000000
00000000
,
00000000
00000000
00000000
00000000
,
00000000
00000000
00000000
00000000
,
00000000
00000000
00000000
00000000
,
10000000
01000000
00010000
00002000
,
00003010
00000001
00000100
00002000
,
00013000
01000000
00100000
00020000
,
00031000
00000000
00000000
00010000
00000000
00000000
00001000
00000000
00000000
00000000
00000000
00000000
00000000
00000000
00000000
00000000
,
10000000
01000000
00010000
00010000
,
10000000
00100000
00010000
00010000
,
10000000
01000000
00010000
00001000
,
00000010
00000010
00000010
00001001
,
00000001
00000100
00001000
00001000
,
00000001
00000010
00001000
00001000
,
00000001
00000100
00001000
00010000
,
00100000
10000000
00010000
10010000
,
01000000
00100000
00010000
00001000
,
00000100
00000010
00001000
00010000
,
00100000
01000000
00010000
00001000
,
00000100
00000001
00000100
00000001
,
00000010
00001000
00010000
00010000
,
00100000
00010000
00001000
00001000
,
00000100
00001000
00010000
00010000
,
00100000
10000000
00010000
01000000
,
10000000
00100000
00010000
00000000
00000000
00000000
00000000
00000000
,
00000001
00000100
00001000
00000000
00000000
00000000
00000000
00000000
,
10000000
01000000
00010000
00000000
00000000
00000000
00000000
00000000
,
00001001
00000000
00000010
00000100
00000000
00000000
00000000
00000000
00000000
00000000
00000000
00000000
00000000
00000000
00000000
00000000
,
00020000
00032000
00003200
00000302
,
00000023
00002030
00023000
00230000
,
20300000
32000000
03020000
00032000
,
00003020
00000000
00000032
00000000
00000203
00000000
00000320
00000100
,
00000130
00000010
00001000
00001001
,
00000100
00010000
00001000
01000000
,
00100000
10000000
00010000
10010000
,
10000000
01000000
00010000
00001000
,
00000010
00000001
00001000
00000110
,
00000010
00010000
00001000
00100000
,
00010000
01000000
00100000
01100000
,
00020000
00032000
00003200
00000302
,
00001003
00000010
00001000
00001010
,
00000100
00001000
00010000
00100000
,
10000000
01000000
10000000
11000000
,
00020000
00230000
00302000
00023000
,
00030010
00000100
00001000
00001000
,
00010000
00100000
01000000
01000000
,
00010000
00001000
00000100
00000100
,
00000001
00001000
00010000
10000000
;

//---------------dance-double - ----------------
#NOTES:
     dance-double:
     :
     Medium:
     9:
     0.314284,0.445567,0.167087,0.037131,0.139240,237.000000,219.000000,18.000000,4.000000,0.000000,0.000000,0.314284,0.445567,0.167087,0.037131,0.139240,237.000000,219.000000,18.000000,4.000000,0.000000,0.000000:
00000000
00000000
00000000
00000000
,
00000000
00000000
00000000
00000000
,
00000000
00000000
00000000
00000000
,
00000000
00000000
00000000
00000000
,
00100000
00000000
01000000
00000000
00010000
00001000
00010000
00000000
,
00000100
00000000
00000010
00000000
00001000
00010000
00001000
00000000
,
01000000
00000000
00100000
00000000
00010000
00001000
00010000
00000000
,
00000010
00000000
00000000
00000100
00000000
00000000
00001000
00000000
00000000
00000000
00000000
00000000
00000000
00000000
00000000
00000000
,
00100000
00000000
10000000
00000000
00010000
01000000
00100000
00000000
,
00010000
00000000
00001000
00000000
00010000
00100000
01000000
00000000
,
00010000
00000000
00001000
00000000
00000100
00000001
00000100
00000000
,
00001000
00000001
00000101
00001010
,
00000100
00000000
00000001
00000000
00001000
00000010
00000100
00000000
,
00001000
00000000
00010000
00000000
00001000
00000100
00000010
00000000
,
00001000
00000000
00010000
00000000
00100000
10000000
00100000
00000000
,
00010000
10000000
11000000
01010000
,
10000000
00000000
01000000
00000000
00010000
00001000
00010000
00000000
,
00100000
00000000
00010000
00000000
00001000
00000100
00001000
00000000
,
00010000
00000000
00001000
00000000
00000010
00000001
00000010
00000000
,
00000001
00000010
00001000
00001001
,
00000001
00000000
00000010
00000000
00001000
00010000
00001000
00000000
,
00000100
00000000
00001000
00000000
00010000
00100000
00010000
00000000
,
00001000
00000000
00010000
00000000
01000000
10000000
01000000
00000000
,
10000000
01000000
00010000
00001000
,
00000010
00000001
00001100
00000000
00000000
00000000
00000101
00001000
,
00010000
00100000
10000000
00000000
00000000
00000000
00000000
01100000
,
10000000
00100000
00010000
00000000
00000000
00000000
00000000
00000000
,
00001001
00000000
00000010
00000100
00000000
00000000
00000000
00000000
00000000
00000000
00000000
00000000
00000000
00000000
00000000
00000000
,
00000001
00000100
00000000
00000010
00001000
00000000
00000000
00000000
00000100
00010000
00000000
00001000
01000000
00000000
00000000
00000000
,
00100000
10000000
00000000
00010000
01000000
00000000
00000000
00000000
00100000
00010000
00000000
00001000
00000010
00000000
00000000
00000000
,
00000001
00000100
00000000
00001000
00010000
00000000
00000000
00000000
01000000
10000000
00000000
00010000
00100000
00000000
00000000
00000000
,
00001000
00010000
00000000
00000010
00000100
00000000
00000000
00000000
00000001
00000010
00000000
00000100
00010000
00001000
00010000
00001000
,
01000000
00000000
00000000
00010000
00000000
00000000
01000000
00000000
00100000
00000000
00000000
00000000
00010000
00000000
00000000
00000000
,
00001000
00000000
00000000
00000100
00000000
00000000
00001000
00000000
00010000
00000000
00000000
00000000
00000010
00000000
00000000
00000000
,
00000100
00000000
00000000
00000001
00000000
00000000
00000100
00000000
00000010
00000000
00000000
00000000
00001000
00000000
00000000
00000000
,
00000100
00010000
00001000
00100000
,
00010000
00000000
00000000
10000000
00000000
00000000
00010000
00000000
01000000
00000000
00000000
00000000
00100000
00000000
00000000
00000000
,
00001000
00000000
00000000
00010000
00000000
00000000
00001000
00000000
00100000
00000000
00000000
00000000
01000000
00000000
00000000
00000000
,
00010000
00000000
00000000
00001000
00000000
00000000
00010000
00000000
00000010
00000000
00000000
00000000
00000100
00000000
00000000
00000000
,
00001001
00000101
00001100
00001001
,
00000001
00000000
00000000
00000010
00000000
00000000
00000001
00000000
00000100
00000000
00000000
00000000
00001000
00000000
00000000
00000000
,
00010000
00000000
00000000
00100000
00000000
00000000
00010000
00000000
00100000
00000000
00000000
00000000
10000000
00000000
00000000
00000000
,
01000000
00000000
00000000
00010000
00000000
00000000
01000000
00000000
00010000
00000000
00000000
00000000
00001000
00000000
00000000
00000000
,
00000020
00000032
00000203
00000320
,
00001030
00000100
00001100
00010100
,
00010000
00001000
00101000
00110000
,
00001000
00000000
00000000
00010000
00000000
00000000
00100000
00000000
10000000
00000000
00000000
00000000
00100000
00000000
00000000
00000000
,
10000000
00010000
00001000
00000001
,
00000101
00000000
00000000
00000000
;
