#TITLE:Overheat;
#SUBTITLE:;
#ARTIST:FALSEBOI;
#TITLETRANSLIT:;
#SUBTITLETRANSLIT:;
#ARTISTTRANSLIT:;
#GENRE:Hardcore;
#CREDIT:;
#BANNER:overheat-bn.png;
#BACKGROUND:overheat-bg.png;
#LYRICSPATH:;
#CDTITLE:;
#MUSIC:Overheat.mp3;
#OFFSET:-0.050000;
#SAMPLESTART:35.970001;
#SAMPLELENGTH:12.000000;
#SELECTABLE:YES;
#BPMS:0.000000=80.000000
,8.000000=160.000000
;
#STOPS:
;
#BGCHANGES:;
#KEYSOUNDS:;
#ATTACKS:;

//---------------dance-single - ----------------
#NOTES:
     dance-single:
     :
     Challenge:
     15:
     0.833167,0.895765,0.361925,0.000000,0.987539,564.000000,529.000000,35.000000,0.000000,0.000000,0.000000,0.833167,0.895765,0.361925,0.000000,0.987539,564.000000,529.000000,35.000000,0.000000,0.000000,0.000000:
0000
0000
0000
0000
,
0000
0000
0000
0000
,
1000
0000
0100
0010
0100
0000
1000
0000
0001
0000
0100
0010
0100
0000
0000
0000
,
0001
0000
0010
0100
0010
0000
0001
0000
1000
0000
0010
0100
0010
0000
0000
0000
,
1000
0000
0010
1000
0010
0000
0100
0000
0001
0000
0010
0001
0010
0000
0000
0000
,
0001
0000
0010
0001
0010
0000
0001
0000
1000
0000
0010
1000
0010
0000
0000
0000
,
0100
0000
0001
0010
0001
0000
0100
0000
0010
0000
1000
0100
1000
0000
0000
0000
,
0010
0000
1000
0100
1000
0000
0010
0000
0100
0000
0001
0010
0001
0000
0000
0000
,
1000
0000
0010
0100
0010
0000
0100
0000
0001
0000
0010
0100
0010
0000
0000
0000
,
0100
1000
0100
0010
0001
0010
0100
1000
0100
0010
0001
0010
0100
1000
0100
0010
,
0001
0100
0010
1000
0000
1000
0001
0000
1000
0000
0100
0000
0010
0000
0001
0000
,
1000
0100
0010
0001
0000
0001
1000
0000
0001
0000
0010
0000
0100
0000
1000
0000
,
0010
0100
0001
0100
0000
0100
0010
0000
0100
0000
0010
0000
1000
0000
0001
0000
,
0100
0010
1000
0010
0000
0010
0100
0000
0010
0000
0100
0000
0001
0000
1000
0000
,
0001
0100
0010
0100
0000
0100
0001
0000
1000
0000
0100
0000
0001
0000
0100
0000
,
1000
0010
0100
0010
0000
0010
1000
0000
0001
0000
0100
0000
1000
0000
0100
0000
,
0001
0010
0001
0010
0000
0100
1000
0000
0010
0000
0001
0000
0010
0000
1000
0000
,
0010
1000
0001
0100
0001
1000
0010
1000
0001
0100
0001
1000
0010
1000
0001
0100
,
0001
0000
0000
0011
0000
0000
0010
0000
0110
0000
0000
0011
0000
0000
0000
0000
,
1000
0000
0000
1010
0000
0000
0010
0000
0110
0000
0000
1010
0000
0000
0000
0000
,
0010
0000
0000
0110
0000
0000
0100
0000
0101
0000
0000
0110
0000
0000
0000
0000
,
0010
0000
0000
0110
0000
0000
0010
0000
1010
0000
0000
0110
0000
0000
0000
0000
,
0001
0000
0000
1001
0000
0000
1000
0000
0110
0000
0000
1001
0000
0000
0000
0000
,
1000
0000
0000
1100
0000
0000
0010
0000
1001
0000
0000
0011
0000
0000
0000
0000
,
0001
0000
0000
0101
0000
0000
1000
0000
0110
0000
0000
1010
0000
0000
0000
0000
,
1000
0100
0010
0001
0010
0100
1000
0100
0010
0100
1000
0100
0010
0001
0010
0100
,
1000
0000
0010
0000
0100
0000
1000
0000
0100
0001
0100
0001
0100
0000
0000
0000
,
0001
0000
0010
0000
0100
0000
0001
0000
0100
1000
0100
1000
0100
0000
0000
0000
,
1000
0000
0010
0000
0100
0000
1000
0000
0100
0001
0100
0001
0100
0000
0000
0000
,
0001
0100
1000
0100
0001
0010
1100
0000
,
1000
0000
0000
1000
0010
0000
0000
0010
0001
0000
0000
0001
0010
0000
0000
0010
,
1000
0000
0000
1000
0010
0000
0000
0010
0001
0000
0000
0001
0010
0000
0000
0010
,
1000
0000
0000
1100
0000
0000
0001
0000
0100
0000
0000
0101
0000
0000
0000
0000
,
0001
0000
0000
0101
0000
0000
1000
0000
0100
0000
0000
1100
0000
0000
0000
0000
,
0010
1000
0100
1000
0010
1000
0001
0000
0100
0001
0010
0001
0100
0001
1000
0000
,
0010
1000
0000
0010
0000
0000
0010
0100
0010
1000
0000
1000
0001
0000
0000
0000
,
0010
0001
0000
0010
0000
0000
0100
0000
0010
0001
0010
0100
0010
0000
0000
0000
,
0010
0001
0000
0100
0000
0000
0100
0010
0100
0001
0000
0001
1000
0000
0000
0000
,
0010
0100
0000
0001
0000
0000
0001
0010
0100
1000
0100
0010
0001
0000
0000
0000
,
0011
0000
0000
1100
0000
0000
1000
0100
0010
0001
0000
0010
0001
0000
0000
0000
,
0101
0000
0000
1010
0000
0000
0010
0100
0001
0100
0010
0000
1000
0000
0000
0000
,
1001
0000
0000
0011
0000
0000
0001
0010
0100
1000
0000
0100
1000
0000
0000
0000
,
1001
0000
0000
1010
0000
0000
0010
0000
0100
0001
0100
0001
0100
0001
0100
0001
,
0100
0000
0010
0000
0001
0000
0010
0000
1000
0010
1000
0010
1000
0000
0000
0000
,
0100
0000
0010
0000
1000
0000
0010
0000
0001
0010
0001
0010
0001
0000
0000
0000
,
0100
0000
0010
0000
0001
0000
0010
0000
1000
0100
1000
0100
1000
0000
0000
0000
,
0010
0000
0100
0000
1000
0000
0100
0000
0001
0010
0001
0010
0001
0000
0000
0000
,
0001
0000
0000
0001
0100
0000
0000
0100
1000
0000
0000
1000
0100
0000
0000
0100
,
0001
0000
0000
0001
0100
0000
0000
0100
1000
0000
0000
1000
0100
0000
0000
0100
,
0001
0000
0000
0001
0100
0000
0000
0100
1000
0000
0000
1000
0100
0000
0000
0100
,
0001
0000
1000
0000
0001
0000
1000
0000
0100
0010
0001
0010
0100
1000
0100
0010
,
0001
0100
0010
0100
0001
0100
0010
0000
1000
0010
0100
0010
1000
0010
0100
0000
,
0001
0100
0000
0010
0001
0000
0010
0000
1000
0001
0000
1000
0001
0000
0000
0000
,
1000
0100
0000
0010
1000
0000
0010
0000
0001
1000
0000
0001
1000
0000
0000
0000
,
0010
0100
0000
1000
0100
0000
0001
0000
0010
0100
0000
0010
0100
0000
0000
0000
,
1000
0010
0000
0100
1000
0000
0100
0000
0010
0100
0000
0010
0100
0000
0000
0000
,
0010
0000
1000
0100
1000
0000
0010
0000
0100
0000
0001
0100
0001
0000
0000
0000
,
0100
0000
0001
0010
0001
0000
0100
0000
0010
0000
1000
0010
1000
0000
0000
0000
,
0010
0000
1000
0100
1000
0000
0010
0000
0100
0000
0001
0010
0001
0000
0000
0000
,
0010
0001
1000
0100
1000
0001
0010
0001
1000
0100
1000
0001
0010
0001
1000
0000
,
1100
0000
0000
0000
,
0000
0000
0000
0000
0000
0000
0010
0010
;

//---------------dance-single - ----------------
#NOTES:
     dance-single:
     :
     Hard:
     13:
     0.618966,0.607841,0.268859,0.000000,0.584251,419.000000,393.000000,26.000000,0.000000,0.000000,0.000000,0.618966,0.607841,0.268859,0.000000,0.584251,419.000000,393.000000,26.000000,0.000000,0.000000,0.000000:
0000
0000
0000
0000
,
0000
0000
0000
0000
,
1000
0000
0000
1000
0000
0000
0100
0000
0010
0000
0000
0001
0000
0000
0000
0000
,
0001
0000
0000
0001
0000
0000
0100
0000
0010
0000
0000
1000
0000
0000
0000
0000
,
1000
0000
0000
1000
0000
0000
0100
0000
0001
0000
0000
0100
0000
0000
0000
0000
,
0010
0000
0000
0010
0000
0000
0001
0000
0100
0000
0000
1000
0000
0000
0000
0000
,
0100
0000
0000
0100
0000
0000
0001
0000
0010
0000
0000
0100
0000
0000
0000
0000
,
1000
0000
0000
1000
0000
0000
0010
0000
0100
0000
0000
1000
0000
0000
0000
0000
,
0100
0000
0000
0100
0000
0000
0001
0000
1000
0000
0000
0010
0000
0000
0000
0000
,
1000
0001
0100
0001
1000
0010
0100
0010
,
1000
0000
0001
0010
0000
0010
0001
0000
1000
0000
0100
0000
0001
0000
0000
0000
,
0000
0000
1000
0010
0000
0010
1000
0000
0001
0000
0100
0000
1000
0000
0000
0000
,
0000
0000
0010
0100
0000
0100
0001
0000
1000
0000
0010
0000
0001
0000
0000
0000
,
0000
0000
0100
0010
0000
0010
1000
0000
0001
0000
0010
0000
1000
0000
0000
0000
,
0000
0000
0001
0100
0000
0100
0010
0000
1000
0000
0100
0000
0010
0000
0001
0000
,
0000
0000
1000
0010
0000
0010
0100
0000
0001
0000
0010
0000
0100
0000
1000
0000
,
0000
0000
0001
0100
0000
1000
0100
0000
0001
0000
0010
0000
1000
0000
0010
0000
,
0001
0100
0010
1000
0001
0100
0010
1000
,
0001
0000
0000
0101
0000
0000
0001
0000
0100
0000
0000
1010
0000
0000
0000
0000
,
1000
0000
0000
1100
0000
0000
1000
0000
0100
0000
0000
0011
0000
0000
0000
0000
,
0100
0000
0000
0110
0000
0000
0100
0000
0001
0000
0000
1010
0000
0000
0000
0000
,
0010
0000
0000
0110
0000
0000
0010
0000
1000
0000
0000
0101
0000
0000
0000
0000
,
1000
0000
0000
1100
0000
0000
0010
0000
0001
0000
0000
0101
0000
0000
0000
0000
,
0001
0000
0000
0101
0000
0000
0010
0000
1000
0000
0000
1100
0000
0000
0000
0000
,
1000
0000
0000
1001
0000
0000
0100
0000
0001
0000
0000
0011
0000
0000
0000
0000
,
0100
0001
0010
0001
0001
0010
0001
0100
,
0010
1000
1000
0100
0001
0100
1000
0000
,
0000
0001
0001
0100
1000
0100
0001
0000
,
0000
0100
0100
0010
0001
0010
1000
0000
,
0000
0100
0100
0010
1000
0010
0001
0000
,
1000
0000
0000
1000
0100
0000
0000
0100
0001
0000
0000
0001
0100
0000
0000
0100
,
1000
0000
0000
1000
0100
0000
0000
0100
0001
0000
0000
0001
0100
0000
0000
0100
,
1000
0000
0000
0010
0000
0000
1000
0000
0100
0000
0000
0011
0000
0000
0000
0000
,
1001
0000
0000
0001
0000
0000
0100
0000
0010
0000
0000
1010
0000
0000
0000
0000
,
1000
0100
0001
0100
1000
0010
0001
0010
,
1000
0100
0000
1000
0000
0000
0010
0000
0100
0001
0000
0010
0001
0000
0000
0000
,
0001
0100
0000
0001
0000
0000
0100
0000
0010
1000
0000
0010
1000
0000
0000
0000
,
0010
1000
0000
0001
0000
0000
0100
0000
0001
0010
0000
0100
0010
0000
0000
0000
,
0001
1000
0000
0100
0000
0000
1000
0000
0010
0100
0010
0000
0100
0000
0000
0000
,
0001
0010
0000
0100
0000
0000
1000
0000
0010
0100
0000
0001
1000
0000
0000
0000
,
0010
1000
0000
0100
0000
0000
1000
0000
0010
0100
0000
0001
1000
0000
0000
0000
,
0010
1000
0000
0100
0000
0000
1000
0000
0010
0100
0000
0001
0010
0000
0000
0000
,
0001
0100
0000
0010
0000
0000
1000
0000
0001
0010
0001
0000
1000
0010
1000
0000
,
0010
1000
1000
0100
0001
0100
1000
0000
,
0010
0100
0100
1000
0100
0001
0010
0000
,
0100
0001
0001
0100
1000
0010
0100
0000
,
0001
1000
1000
0010
0001
0010
1000
0000
,
0001
0000
0000
0001
0010
0000
0000
0010
1000
0000
0000
1000
0010
0000
0000
0010
,
0001
0000
0000
0001
0010
0000
0000
0010
1000
0000
0000
1000
0010
0000
0000
0010
,
0001
0000
0000
0001
0010
0000
0000
0010
1000
0000
0000
1000
0010
0000
0000
0010
,
0001
0000
0100
0000
0010
0000
1000
0000
0001
1000
0001
1000
0001
0000
0000
0000
,
0001
0010
1000
0010
0001
0100
1000
0100
,
0001
0000
0000
0101
0000
0000
1000
0000
0010
0000
0000
1010
0000
0000
0000
0000
,
1000
0000
0000
1010
0000
0000
0001
0000
0100
0000
0000
0101
0000
0000
0000
0000
,
0001
0000
0000
0011
0000
0000
1000
0000
0100
0000
0000
1100
0000
0000
0000
0000
,
1000
0000
0000
1010
0000
0000
0001
0000
0100
0000
0000
0101
0000
0000
0000
0000
,
0001
0000
0010
0001
0000
0000
0010
0000
0100
0000
0010
0100
0000
0000
0000
0000
,
0100
0000
1000
0100
0000
0000
1000
0000
0010
0000
1000
0010
0000
0000
0000
0000
,
0100
0000
0001
0100
0000
0000
0001
0000
0010
0000
0001
0010
0000
0000
0000
0000
,
0100
1000
0100
0001
0100
1000
0100
0001
,
1100
0000
0000
0000
,
0000
0000
0000
0000
0000
0000
0010
0010
;

//---------------dance-single - ----------------
#NOTES:
     dance-single:
     :
     Medium:
     9:
     0.450560,0.479874,0.217155,0.103407,0.144770,305.000000,284.000000,21.000000,10.000000,0.000000,0.000000,0.450560,0.479874,0.217155,0.103407,0.144770,305.000000,284.000000,21.000000,10.000000,0.000000,0.000000:
0000
0000
0000
0000
,
0000
0000
0000
0000
,
1000
1010
1000
1010
,
0001
0011
0001
0011
,
1000
1010
1000
1010
,
0001
0011
0001
0011
,
1000
0000
0000
0010
0000
0000
1000
0000
0010
0000
0000
1000
0000
0000
0000
0000
,
0001
0000
0000
0010
0000
0000
0001
0000
0010
0000
0000
0001
0000
0000
0000
0000
,
1000
0000
0000
0010
0000
0000
1000
0000
0010
0000
0000
1000
0000
0000
0000
0000
,
0001
0010
0100
1000
0100
0010
0001
0000
,
1000
0000
0100
0000
1000
0100
0010
0000
,
0001
0000
0100
0000
0001
0100
0010
0000
,
1000
0000
0001
0000
1000
0001
0010
0000
,
0001
0000
0010
0000
0001
0010
0100
0000
,
1000
0010
0100
0000
0100
0001
0100
0000
,
0001
0010
0100
0000
0100
1000
0100
0000
,
1000
0001
0010
0000
0010
0001
0010
0000
,
0001
0100
0010
1000
0010
0100
0001
0000
,
1000
0100
1000
0011
,
0001
0100
0001
1010
,
1000
0001
1000
0110
,
0010
1000
0010
0101
,
1000
0000
0000
0100
0000
0000
0010
0000
0100
0000
0000
1000
0000
0000
0000
0000
,
0001
0000
0000
0010
0000
0000
0100
0000
0010
0000
0000
0001
0000
0000
0000
0000
,
0100
0000
0000
0010
0000
0000
1000
0000
0010
0000
0000
0100
0000
0000
0000
0000
,
0010
0100
0001
1000
0001
0100
0010
0000
,
2000
0000
3100
0000
1000
0100
0001
0000
,
2000
0000
3010
0000
1000
0010
0001
0000
,
2000
0000
3100
0000
1000
0100
0001
0000
,
2000
0000
3010
0000
1000
0010
0001
0000
,
0010
1000
0010
0001
,
0010
1000
0010
0001
,
0020
0000
0000
0000
0030
0000
1000
0000
0001
0000
0000
1000
0000
0000
0000
0000
,
0200
0000
0000
0000
0300
0000
0010
0000
0001
0000
0000
0010
0000
0000
0000
0000
,
0002
0000
2000
3003
,
0001
0000
0000
0010
0000
0000
0001
0000
1000
0000
0000
0000
0001
0000
0000
0000
,
1000
0000
0000
0010
0000
0000
1000
0000
0001
0000
0000
0000
1000
0000
0000
0000
,
0001
0000
0000
0010
0000
0000
0001
0000
1000
0000
0000
0000
0001
0000
0000
0000
,
1000
0000
0000
0010
0000
0000
1000
0000
0001
0000
0000
0000
1000
0000
0000
0000
,
0001
0000
0000
0100
0000
0000
0010
0000
1000
0000
0000
0000
0001
0000
0000
0000
,
1000
0000
0000
0010
0000
0000
0100
0000
0001
0000
0000
0000
1000
0000
0000
0000
,
0001
0000
0000
0100
0000
0000
0010
0000
1000
0000
0000
0000
0001
0000
0000
0000
,
1000
0000
0000
0100
0000
0000
0010
0000
0001
0000
0010
0000
0001
0000
0000
0000
,
0100
0001
0100
0001
1000
0000
1000
0000
,
0010
1000
0010
1000
0001
0000
0001
0000
,
0100
0001
0100
0001
1000
0000
1000
0000
,
0010
1000
0010
1000
0001
0000
1000
0000
,
0100
0001
0100
1000
,
0100
0001
0100
1000
,
0100
0001
0100
1000
,
0100
0001
0100
1000
,
0002
0000
2000
3003
,
1000
1100
0010
0011
,
0001
0101
0010
1010
,
1000
1001
0010
0110
,
0100
0101
0010
1010
,
1000
0000
0000
0100
0000
0000
0010
0000
0001
0000
0000
1000
0000
0000
0000
0000
,
0001
0000
0000
0010
0000
0000
0100
0000
1000
0000
0000
0001
0000
0000
0000
0000
,
1000
0000
0000
0001
0000
0000
0100
0000
0010
0000
0000
1000
0000
0000
0000
0000
,
1000
0010
0100
0001
0100
0010
1000
0001
,
1001
0000
0000
0000
,
0000
0000
0000
0000
0000
0000
0010
0010
;

//---------------dance-single - ----------------
#NOTES:
     dance-single:
     :
     Easy:
     5:
     0.296927,0.319270,0.031022,0.020681,0.000000,201.000000,198.000000,3.000000,2.000000,0.000000,0.000000,0.296927,0.319270,0.031022,0.020681,0.000000,201.000000,198.000000,3.000000,2.000000,0.000000,0.000000:
0000
0000
0000
0000
,
0000
0000
0000
0000
,
1000
1000
0010
0000
,
0001
0001
0010
0000
,
1000
1000
0100
0000
,
0001
0001
0100
0000
,
1000
1000
0100
0010
,
0001
0001
0100
0010
,
1000
1000
0001
0010
,
0001
0100
0010
1000
,
0100
0100
1000
0000
,
0001
0001
1000
0000
,
0010
0010
1000
0000
,
1000
0100
0010
0001
,
0100
0100
0001
0000
,
0010
0010
0001
0000
,
1000
1000
0001
0000
,
1000
0100
0010
0001
,
0100
0010
0100
0010
,
1000
0010
1000
0010
,
0100
0010
0100
0010
,
0100
0001
0100
0001
,
0010
0001
0010
0001
,
0010
0100
0010
0100
,
0010
1000
0010
1000
,
0010
0001
0001
0010
,
0001
0100
0010
0000
,
1000
0010
0100
0000
,
0010
1000
0001
0000
,
0100
0001
1000
0000
,
0001
0010
1000
0010
,
0001
0010
1000
0010
,
0001
0000
0101
0000
,
1000
0000
1100
0000
,
0001
0010
0100
1000
,
0010
1000
0100
0000
,
0001
0100
1000
0000
,
0010
0100
0001
0000
,
0010
1000
0010
0000
,
0001
1000
0010
0000
,
0100
1000
0100
0000
,
0001
0010
0100
0000
,
0010
0001
0010
1000
,
0001
0100
0010
0010
,
1000
0100
0010
0010
,
0001
1000
0010
0010
,
1000
0001
0100
0100
,
0001
0010
1000
0010
,
0001
0010
1000
0010
,
0001
0010
1000
0010
,
0001
0010
1000
0010
,
0002
0000
0000
0000
,
1003
0000
0010
0000
,
0001
0000
0100
0000
,
1000
0000
0100
0000
,
0001
0000
0010
0000
,
1000
0100
0010
0001
,
0001
0010
0100
1000
,
0010
0100
0001
1000
,
1000
0001
0100
0010
,
0120
0000
0000
0000
,
0000
0000
0000
1030
;

//---------------dance-single - ----------------
#NOTES:
     dance-single:
     :
     Beginner:
     2:
     0.143293,0.191562,0.031022,0.000000,0.000000,97.000000,94.000000,3.000000,0.000000,0.000000,0.000000,0.143293,0.191562,0.031022,0.000000,0.000000,97.000000,94.000000,3.000000,0.000000,0.000000,0.000000:
0000
0000
0000
0000
,
0000
0000
0000
0000
,
1000
0000
0000
0000
,
0001
0000
0000
0000
,
1000
0000
0000
0000
,
0001
0000
0000
0000
,
1000
0000
1000
0000
,
0001
0000
0001
0000
,
1000
0000
1000
0000
,
0001
0000
0001
0000
,
0100
0000
0010
0000
,
0010
0000
0100
0000
,
0100
0000
0001
0000
,
0001
0000
0100
0000
,
0010
0000
1000
0000
,
1000
0000
0010
0000
,
0010
0000
0100
0000
,
0100
0000
0010
0000
,
1000
0000
0000
0000
,
0100
0000
0000
0000
,
1000
0000
0000
0000
,
0100
0000
0000
0000
,
0010
0000
0010
0000
,
0001
0000
0001
0000
,
0010
0000
0010
0000
,
0001
0000
1000
0000
,
0001
0000
0100
0000
,
0001
0000
0100
0000
,
0010
0000
1000
0000
,
0010
0000
1000
0000
,
1001
0000
0000
0000
,
0000
0000
0000
0000
,
0010
0000
0010
0000
,
1000
0000
1000
0000
,
0001
0000
0000
0000
,
1000
0000
0100
0000
,
1000
0000
0010
0000
,
1000
0000
0100
0000
,
1000
0000
0001
0000
,
0001
0000
0010
0000
,
0001
0000
0100
0000
,
0001
0000
0010
0000
,
0001
0000
1000
0000
,
0010
0000
0010
0000
,
0100
0000
0100
0000
,
0010
0000
0010
0000
,
0100
0000
0100
0000
,
0110
0000
0000
0000
,
0000
0000
0000
0000
,
0000
0000
0000
0000
,
0000
0000
0000
0000
,
0001
0000
0000
0000
,
1000
0000
0000
0000
,
0001
0000
0000
0000
,
1000
0000
0000
0000
,
0001
0000
0000
0000
,
1000
0000
1000
0000
,
0001
0000
0001
0000
,
1000
0000
1000
0000
,
0001
0000
0001
0000
,
1001
0000
0000
0000
,
0000
0000
0000
0010
;

//---------------dance-double - ----------------
#NOTES:
     dance-double:
     :
     Easy:
     5:
     0.307267,0.319916,0.062044,0.217155,0.000000,208.000000,202.000000,6.000000,21.000000,0.000000,0.000000,0.307267,0.319916,0.062044,0.217155,0.000000,208.000000,202.000000,6.000000,21.000000,0.000000,0.000000:
00000000
00000000
00000000
00000000
,
00000000
00000000
00000000
00000000
,
10000000
00010000
10000000
00000000
,
00010000
00100000
00010000
00000000
,
01000000
00001000
01000000
00000000
,
00001000
00010000
00001000
00000000
,
00010000
00000100
00010000
00000000
,
00000010
00000001
00000010
00000000
,
00000100
00001000
00000100
00000000
,
00001000
00000010
00000100
00000001
,
00000010
00001000
00010000
00100000
,
10000000
00010000
01000000
00100000
,
00010000
00001000
00000100
00000001
,
00001000
00000010
00000100
00000001
,
00000100
00001000
00010000
01000000
,
10000000
01000000
00100000
00010000
,
01000000
00100000
01000000
00100000
,
00010000
00001000
00000010
00000001
,
00002000
00003010
00002000
00003010
,
00000200
00000301
00000200
00000301
,
00002000
00003010
00000020
00010030
,
00020000
00031000
00002000
00103000
,
02000000
13000000
02000000
13000000
,
00020000
00130000
00020000
00130000
,
02000000
03100000
00200000
00301000
,
00002000
00000000
00020000
00033000
,
00010000
00000010
00010000
00010000
,
00000010
00000100
00000010
00000010
,
00000100
00000001
00000100
00000100
,
00000010
00010000
00000010
00000010
,
00010000
00001000
00010000
00001000
,
00010000
00001000
00010000
00001000
,
00011000
00000000
00101000
00000000
,
00011000
00000000
00010100
00000000
,
00022000
00000000
00000000
00033000
,
00001000
00100000
01000000
00000000
,
10000000
00100000
01000000
00000000
,
00001000
00010000
00000100
00000000
,
00001000
00000010
00000100
00000000
,
00000001
00000100
00000010
00000000
,
00010000
00001000
00100000
00000000
,
01000000
10000000
00100000
00000000
,
01000000
00010000
02000000
00000000
,
03100000
10000000
00010000
01000000
,
00010000
00100000
00001000
00010000
,
00000100
00001000
00000010
00000100
,
00000001
00000010
00000100
00010000
,
00001000
00010000
00001000
00010000
,
00001000
00010000
00001000
00010000
,
00001000
00010000
00001000
00010000
,
00001000
00010000
00001000
00010000
,
00000200
00000000
00020300
00000000
,
00031000
00100000
00001000
00000000
,
01000000
10000000
01000000
00000000
,
10000000
00100000
00010000
00000000
,
00001000
00000010
00000001
00000000
,
00000100
00000010
00000100
00000000
,
00000001
00001000
00000001
00000000
,
00000001
00000100
00001000
00000000
,
00010000
00001000
01000000
00100000
,
01100000
00000000
00000000
00000000
,
00000000
00000000
00000000
00000000
00000000
00000000
10000000
00010000
;

//---------------dance-double - ----------------
#NOTES:
     dance-double:
     :
     Medium:
     9:
     0.431356,0.479874,0.196474,0.124089,0.170622,292.000000,273.000000,19.000000,12.000000,0.000000,0.000000,0.431356,0.479874,0.196474,0.124089,0.170622,292.000000,273.000000,19.000000,12.000000,0.000000,0.000000:
00000000
00000000
00000000
00000000
,
00000000
00000000
00000000
00000000
,
10000000
00000000
00000000
01000000
00000000
00000000
10000000
00000000
10000000
00000000
00000000
00010000
00000000
00000000
00000000
00000000
,
01000000
00000000
00000000
00001000
00000000
00000000
00010000
00000000
00010000
00000000
00000000
00001000
00000000
00000000
00000000
00000000
,
00010000
00000000
00000000
00000010
00000000
00000000
00000100
00000000
00000100
00000000
00000000
00000010
00000000
00000000
00000000
00000000
,
00001000
00000000
00000000
00000001
00000000
00000000
00000010
00000000
00000010
00000000
00000000
00000001
00000000
00000000
00000000
00000000
,
00000100
00000000
00000000
00000010
00000000
00000000
00001000
00000000
00001000
00000000
00000000
00000010
00000000
00000000
00000000
00000000
,
00010000
00000000
00000000
00000100
00000000
00000000
00001000
00000000
00001000
00000000
00000000
00000100
00000000
00000000
00000000
00000000
,
00010000
00000000
00000000
00001000
00000000
00000000
00100000
00000000
00100000
00000000
00000000
00001000
00000000
00000000
00000000
00000000
,
01000000
00100000
10000000
00000000
00010000
01000000
00100000
00000000
,
10000000
00000000
01000000
00000000
00010000
00001000
00000100
00000000
,
00000001
00000000
00001000
00000000
00000001
00001000
00000001
00000000
,
00000010
00000000
00001000
00000000
00010000
00100000
10000000
00000000
,
00010000
00000000
01000000
00000000
00100000
10000000
00100000
00000000
,
01000000
00000000
00100000
00000000
00010000
00001000
00000100
00000000
,
00000001
00000000
00001000
00000000
00000010
00000100
00001000
00000000
,
00010000
01000000
10000000
00000000
00100000
01000000
00010000
00000000
,
01000000
00100000
01000000
00000000
00010000
10000000
00010000
00000000
,
10000000
01010000
10000000
01010000
,
00100000
00000000
00000000
00010000
00000000
00000000
00001000
00000000
00000010
00000000
00000000
00000001
00000000
00000000
00000000
00000000
,
00000100
00001010
00000100
00001010
,
00000100
00000000
00000000
00001000
00000000
00000000
00010000
00000000
01000000
00000000
00000000
10000000
00000000
00000000
00000000
00000000
,
00010000
01100000
00010000
01100000
,
01000000
00000000
00000000
00100000
00000000
00000000
00010000
00000000
00001000
00000000
00000000
00000010
00000000
00000000
00000000
00000000
,
00000001
00001001
00001000
00001001
,
00000001
00000100
00000010
00001000
00000100
00000010
00000100
00000000
,
00001000
00000010
00000100
00000000
00001000
00010000
01000000
00000000
,
10000000
00100000
01000000
00000000
00100000
00010000
00001000
00000000
,
00000010
00000001
00000010
00000000
00000001
00000100
00001000
00000000
,
00010000
01000000
10000000
00000000
10000000
00010000
10000000
00000000
,
10000000
00010000
00001000
00000001
,
00000001
00001000
00010000
10000000
,
00100000
00000000
00000000
01000000
00000000
00000000
00100000
00000000
00100000
00000000
00000000
01000000
00000000
00000000
00000000
00000000
,
00001000
00000000
00000000
00010000
00000000
00000000
00001000
00000000
00001000
00000000
00000000
00010000
00000000
00000000
00000000
00000000
,
00000220
00000000
00000000
00000330
,
00002002
00000000
00003003
00000000
00001000
00000010
00000100
00000000
,
00002002
00000000
00003003
00000000
00000001
00000100
00000010
00000000
,
00020020
00000000
00030030
00000000
00010000
00001000
01000000
00000000
,
02200000
00000000
03300000
00000000
10000000
00010000
01000000
00000000
,
00100000
00000000
00000000
10000000
00000000
00000000
00100000
00000000
01000000
00000000
00010000
00000000
01000000
00000000
00000000
00000000
,
00001000
00000000
00000000
00010000
00000000
00000000
00000100
00000000
00001000
00000000
00000100
00000000
00000010
00000000
00000000
00000000
,
00000001
00000000
00000000
00001000
00000000
00000000
00000010
00000000
00000100
00000000
00000010
00000000
00001000
00000000
00000000
00000000
,
00000001
00000100
00001000
00000000
00010000
01000000
10000000
00000000
,
00010000
00010000
10000000
01010000
,
00100000
00010000
00010000
00011000
,
00000010
00000001
00000001
00001100
,
00000010
00000100
00000100
00001001
,
00000001
00001000
00010000
10000000
,
10000000
00010000
00001000
00000001
,
00000001
00001000
00010000
10000000
,
10000000
00010000
00001000
00000001
,
00002002
00000000
00000000
00003003
,
00000001
00000100
00001000
00000000
,
00010000
01000000
10000000
00000000
,
10000000
00100000
00010000
00000000
,
00001000
00000010
00000001
00000000
,
00001000
00000000
00000000
00000010
00000000
00000000
00001000
00000000
00001000
00000000
00000000
00000010
00000000
00000000
00000000
00000000
,
00010000
00000000
00000000
00001000
00000000
00000000
00010000
00000000
00010000
00000000
00000000
00001000
00000000
00000000
00000000
00000000
,
01000000
00000000
00000000
00100000
00000000
00000000
01000000
00000000
01000000
00000000
00000000
00100000
00000000
00000000
00000000
00000000
,
10000000
00010000
01000000
00000000
01000000
00010000
00100000
00000000
,
00011000
00000000
00000000
00000000
,
00000000
00000000
00000000
00000000
00000000
00000000
00000100
00001000
;

//---------------dance-double - ----------------
#NOTES:
     dance-double:
     :
     Hard:
     13:
     0.602717,0.575849,0.310222,0.000000,0.506696,408.000000,378.000000,30.000000,0.000000,0.000000,0.000000,0.602717,0.575849,0.310222,0.000000,0.506696,408.000000,378.000000,30.000000,0.000000,0.000000,0.000000:
00000000
00000000
00000000
00000000
,
00000000
00000000
00000000
00000000
,
10000000
00000000
00000000
01000000
00000000
00000000
10000000
00000000
00100000
00000000
00000000
00010000
00000000
00000000
00000000
00000000
,
00001000
00000000
00000000
00000010
00000000
00000000
00000001
00000000
00000001
00000000
00000000
00001000
00000000
00000000
00000000
00000000
,
00000001
00000000
00000000
00000100
00000000
00000000
00000001
00000000
00000010
00000000
00000000
00001000
00000000
00000000
00000000
00000000
,
00010000
00000000
00000000
00100000
00000000
00000000
10000000
00000000
10000000
00000000
00000000
00010000
00000000
00000000
00000000
00000000
,
10000000
00000000
00000000
01000000
00000000
00000000
10000000
00000000
00100000
00000000
00000000
00010000
00000000
00000000
00000000
00000000
,
00001000
00000000
00000000
00000010
00000000
00000000
00000001
00000000
00000001
00000000
00000000
00001000
00000000
00000000
00000000
00000000
,
00000001
00000000
00000000
00000100
00000000
00000000
00000010
00000000
00000100
00000000
00000000
00001000
00000000
00000000
00000000
00000000
,
00010000
01000000
10000000
00100000
01000000
00010000
00100000
10000000
,
00100000
00010000
01000000
00100000
00010000
00001000
00010000
00001000
,
00000010
00000001
00001000
00000100
00000010
00000001
00000010
00000001
,
00000100
00001000
00010000
00100000
10000000
00010000
10000000
00010000
,
01000000
00100000
00010000
00001000
00000100
00000001
00000100
00000001
,
00001000
00000010
00000100
00001000
00010000
01000000
00010000
01000000
,
10000000
00010000
01000000
00100000
00010000
00001000
00010000
00001000
,
00000100
00000001
00001000
00000000
00000100
00001000
00000001
00000000
,
00001000
00000010
00000100
00000001
00000010
00000100
00001000
00000010
,
00000100
00000000
00000000
00000101
00000000
00000000
00000001
00000000
00001000
00000000
00000000
00001001
00000000
00000000
00000000
00000000
,
00000010
00000000
00000000
00010010
00000000
00000000
00010000
00000000
00001000
00000000
00000000
01001000
00000000
00000000
00000000
00000000
,
01000000
00000000
00000000
01100000
00000000
00000000
00100000
00000000
10000000
00000000
00000000
10100000
00000000
00000000
00000000
00000000
,
10000000
00000000
00000000
10010000
00000000
00000000
00010000
00000000
01000000
00000000
00000000
01001000
00000000
00000000
00000000
00000000
,
00001000
00000000
00000000
00011000
00000000
00000000
00010000
00000000
00000100
00000000
00000000
00010100
00000000
00000000
00000000
00000000
,
00001000
00000000
00000000
00001010
00000000
00000000
00000100
00000000
00000001
00000000
00000000
00001001
00000000
00000000
00000000
00000000
,
00000100
00000000
00000000
00000101
00000000
00000000
00000001
00000000
00001000
00000000
00000000
00001001
00000000
00000000
00000000
00000000
,
00000001
00000100
00001000
00010000
00100000
10000000
00100000
10000000
,
00010000
01000000
00100000
01000000
10000000
01000000
00010000
00000000
,
10000000
01000000
00100000
01000000
00010000
00001000
00000100
00000000
,
00000001
00000100
00000010
00000100
00001000
00000100
00000001
00000000
,
00001000
00000010
00000100
00001000
00010000
01000000
10000000
00000000
,
01000000
00000000
00000000
01000000
00010000
00000000
00000000
00010000
00001000
00000000
00000000
00001000
00000100
00000000
00000000
00000100
,
00000001
00000000
00000000
00000001
00000010
00000000
00000000
00000010
00001000
00000000
00000000
00001000
00010000
00000000
00000000
00010000
,
00100000
00000000
00000000
10100000
00000000
00000000
10000000
00000000
00010000
00000000
00000000
10010000
00000000
00000000
00000000
00000000
,
01000000
00000000
00000000
01010000
00000000
00000000
00010000
00000000
00100000
00000000
00000000
00101000
00000000
00000000
00000000
00000000
,
00001000
00010000
00000100
00000000
00001000
00000010
00000100
00000000
,
00000001
00001000
00000000
00000001
00001000
00000000
00000010
00000000
00000000
00000100
00000000
00000010
00000100
00000000
00000000
00000000
,
00000010
00010000
00000000
00000010
00010000
00000000
00001000
00000000
00000000
01000000
00000000
00100000
01000000
00000000
00000000
00000000
,
00010000
10000000
00000000
00010000
10000000
00000000
00100000
00000000
00000000
01000000
00000000
00010000
01000000
00000000
00000000
00000000
,
00100000
00000000
00000000
00010000
00000000
00000000
00001000
00000000
00000000
00000010
00000000
00000000
00000001
00000000
00000000
00000000
,
00001000
00000010
00000000
00001000
00000001
00000000
00000100
00000000
00000000
00000001
00000000
00001000
00000100
00000000
00000000
00000000
,
00010000
00001000
00000000
00010000
00001000
00000000
01000000
00000000
00000000
00010000
00000000
10000000
00010000
00000000
00000000
00000000
,
10000000
00100000
00000000
10000000
00100000
00000000
01000000
00000000
00000000
00010000
00000000
00100000
00010000
00000000
00000000
00000000
,
01000000
00000000
00000000
00100000
00000000
00000000
00010000
00000000
00000000
00001000
00000000
00000000
00000010
00000000
00000000
00000000
,
00000001
00000100
00000010
00000100
00001000
00000100
00000001
00000000
,
00001000
00000010
00000100
00001000
00010000
01000000
10000000
00000000
,
00010000
01000000
00100000
01000000
10000000
01000000
00010000
00000000
,
01000000
00100000
00010000
00001000
00000100
00000001
00000010
00000000
,
00001000
00000000
00000000
00001000
00010000
00000000
00000000
00010000
00100000
00000000
00000000
00100000
10000000
00000000
00000000
10000000
,
01000000
00000000
00000000
01000000
00010000
00000000
00000000
00010000
00001000
00000000
00000000
00001000
00000100
00000000
00000000
00000100
,
00000001
00000000
00000000
00000001
00000010
00000000
00000000
00000010
00001000
00000000
00000000
00001000
00010000
00000000
00000000
00010000
,
00100000
00000000
00000000
00100000
10000000
00000000
00000000
10000000
00010000
00000000
00000000
00010000
10000000
00000000
00000000
10000000
,
00010000
01000000
00100000
00000000
10000000
01000000
00100000
00000000
,
00010000
00000000
00000000
01010000
00000000
00000000
01000000
00000000
00100000
00000000
00000000
10100000
00000000
00000000
00000000
00000000
,
10000000
00000000
00000000
11000000
00000000
00000000
00100000
00000000
00001000
00000000
00000000
00101000
00000000
00000000
00000000
00000000
,
00010000
00000000
00000000
00010100
00000000
00000000
00001000
00000000
00000010
00000000
00000000
00001010
00000000
00000000
00000000
00000000
,
00000100
00000000
00000000
00000101
00000000
00000000
00000001
00000000
00001000
00000000
00000000
00001001
00000000
00000000
00000000
00000000
,
00000001
00000000
00000000
00000100
00000000
00000000
00001000
00000000
00010000
00000000
00000000
11000000
00000000
00000000
00000000
00000000
,
10000000
00000000
00000000
01000000
00000000
00000000
00010000
00000000
00001000
00000000
00000000
00000101
00000000
00000000
00000000
00000000
,
00000001
00000000
00000000
00000100
00000000
00000000
00001000
00000000
00010000
00000000
00000000
11000000
00000000
00000000
00000000
00000000
,
10000000
00010000
01000000
00100000
00010000
00001000
00000100
00000001
,
00001001
00000000
00000000
00000000
,
00000000
00000000
00000000
00000000
00000000
00000000
10000000
00010000
;

//---------------dance-double - ----------------
#NOTES:
     dance-double:
     :
     Challenge:
     15:
     0.808054,0.863774,0.217155,0.000000,0.956517,547.000000,526.000000,21.000000,0.000000,0.000000,0.000000,0.808054,0.863774,0.217155,0.000000,0.956517,547.000000,526.000000,21.000000,0.000000,0.000000,0.000000:
// measure 0
00000000
00000000
00000000
00000000
,  // measure 1
00000000
00000000
00000000
00000000
,  // measure 2
00000010
00000000
00001000
00000001
00001000
00000000
00000010
00000000
00000100
00000000
00000001
00001000
00000001
00000000
00000000
00000000
,  // measure 3
00000100
00000000
00001000
00010000
01000000
00000000
10000000
00000000
00010000
00000000
10000000
00010000
10000000
00000000
00000000
00000000
,  // measure 4
00100000
00000000
01000000
00010000
01000000
00000000
00100000
00000000
01000000
00000000
00100000
10000000
00100000
00000000
00000000
00000000
,  // measure 5
10000000
00000000
01000000
00010000
00001000
00000000
00000100
00000000
00000001
00000000
00001000
00000001
00001000
00000000
00000000
00000000
,  // measure 6
00000001
00000000
00001000
00000010
00001000
00000000
00000001
00000000
00001000
00000000
00000001
00000010
00000001
00000000
00000000
00000000
,  // measure 7
00000010
00000000
00001000
00010000
00100000
00000000
10000000
00000000
00010000
00000000
10000000
00010000
10000000
00000000
00000000
00000000
,  // measure 8
01000000
00000000
00100000
00010000
00100000
00000000
01000000
00000000
10000000
00000000
00100000
10000000
00100000
00000000
00000000
00000000
,  // measure 9
01000000
00010000
10000000
00100000
10000000
00010000
01000000
00010000
10000000
00100000
10000000
00010000
01000000
00010000
10000000
00100000
,  // measure 10
10000000
01000000
00100000
00010000
00000000
00010000
01000000
00000000
00100000
00000000
00010000
00000000
00001000
00000000
00000100
00000000
,  // measure 11
00000001
00001000
00000010
00000100
00000000
00000100
00000010
00000000
00000100
00000000
00001000
00000000
00010000
00000000
01000000
00000000
,  // measure 12
10000000
00010000
01000000
00100000
00000000
00100000
01000000
00000000
00100000
00000000
00010000
00000000
00001000
00000000
00000100
00000000
,  // measure 13
00000001
00000010
00000100
00001000
00000000
00001000
00000001
00000000
00000100
00000000
00001000
00000000
00010000
00000000
01000000
00000000
,  // measure 14
10000000
00100000
01000000
00010000
00000000
00010000
00100000
00000000
01000000
00000000
00010000
00000000
00001000
00000000
00000100
00000000
,  // measure 15
00000001
00001000
00000100
00001000
00000000
00001000
00000001
00000000
00000010
00000000
00001000
00000000
00010000
00000000
00100000
00000000
,  // measure 16
10000000
00010000
00100000
00010000
00000000
00010000
10000000
00000000
01000000
00000000
00010000
00000000
00001000
00000000
00000100
00000000
,  // measure 17
00000001
00000010
00000100
00001000
00000100
00000010
00000001
00000010
00000100
00001000
00000100
00000010
00000001
00000010
00000100
00001000
,  // measure 18
00000010
00000000
00000000
00001010
00000000
00000000
00001000
00000000
00000100
00000000
00000000
00010100
00000000
00000000
00000000
00000000
,  // measure 19
00010000
00000000
00000000
00011000
00000000
00000000
00001000
00000000
01000000
00000000
00000000
01001000
00000000
00000000
00000000
00000000
,  // measure 20
01000000
00000000
00000000
01100000
00000000
00000000
00100000
00000000
10000000
00000000
00000000
10010000
00000000
00000000
00000000
00000000
,  // measure 21
00010000
00000000
00000000
01010000
00000000
00000000
01000000
00000000
00001000
00000000
00000000
01001000
00000000
00000000
00000000
00000000
,  // measure 22
00001000
00000000
00000000
00011000
00000000
00000000
00010000
00000000
00000010
00000000
00000000
00010010
00000000
00000000
00000000
00000000
,  // measure 23
00000100
00000000
00000000
00000101
00000000
00000000
00000001
00000000
00001000
00000000
00000000
00001001
00000000
00000000
00000000
00000000
,  // measure 24
00000001
00000000
00000000
00000010
00000000
00000000
00001000
00000000
00010000
00000000
00000000
00100000
00000000
00000000
00000000
00000000
,  // measure 25
10000000
01000000
00100000
00010000
00100000
01000000
10000000
00010000
00100000
00001000
00010000
00000100
00001000
00000010
00000100
00000001
,  // measure 26
00000100
00000000
00001000
00000000
00010000
00000000
01000000
00000000
10000000
00010000
10000000
00010000
10000000
00000000
00000000
00000000
,  // measure 27
01000000
00000000
00010000
00000000
00001000
00000000
00000100
00000000
00000001
00001000
00000001
00001000
00000001
00000000
00000000
00000000
,  // measure 28
00000010
00000000
00001000
00000000
00010000
00000000
00100000
00000000
10000000
00010000
10000000
00010000
10000000
00000000
00000000
00000000
,  // measure 29
01000000
00010000
00001000
00000100
00000001
00001000
00001001
00000000
,  // measure 30
00000001
00000000
00000000
00000001
00000010
00000000
00000000
00000010
00001000
00000000
00000000
00001000
00010000
00000000
00000000
00010000
,  // measure 31
00100000
00000000
00000000
00100000
10000000
00000000
00000000
10000000
01000000
00000000
00000000
01000000
00010000
00000000
00000000
00000000
,  // measure 32
00001000
00000000
00000000
00000100
00000000
00000000
00000001
00000000
00000001
00000000
00000000
00001001
00000000
00000000
00000000
00000000
,  // measure 33
00000010
00000000
00000000
00001000
00000000
00000000
00010000
00000000
00010000
00000000
00000000
10100000
00000000
00000000
00000000
00000000
,  // measure 34
10000000
00100000
01000000
00010000
01000000
00100000
10000000
00000000
00010000
01000000
00100000
10000000
00100000
01000000
00010000
00000000
,  // measure 35
10000000
00100000
00000000
10000000
00000000
00000000
00010000
01000000
00100000
10000000
00000000
10000000
00010000
00000000
00000000
00000000
,  // measure 36
01000000
00001000
00000000
01000000
00000000
00000000
00001000
00010000
00000100
00010000
00000000
00010000
00000010
00000000
00000000
00000000
,  // measure 37
00000100
00000001
00000000
00000100
00000000
00000000
00000010
00001000
00000001
00000100
00000000
00000100
00000001
00000000
00000000
00000000
,  // measure 38
00001000
00000100
00000000
00010000
00000000
00000000
00001000
00000000
01000000
00100000
01000000
00100000
01000000
00000000
00000000
00000000
,  // measure 39
01010000
00000000
00000000
10100000
00000000
00000000
10000000
01000000
00100000
00010000
00000000
00010000
01000000
00000000
00000000
00000000
,  // measure 40
01001000
00000000
00000000
00011000
00000000
00000000
00010000
00000100
00000010
00000001
00000000
00000001
00001000
00000000
00000000
00000000
,  // measure 41
00000101
00000000
00000000
00001010
00000000
00000000
00000001
00000100
00000010
00010000
00000000
00010000
00001000
00000000
00000000
00000000
,  // measure 42
00010000
00000000
00001000
00000000
01000000
00000000
00100000
00000000
10000000
00010000
10000000
00010000
10000000
00010000
10000000
00010000
,  // measure 43
01000000
00000000
00010000
00000000
00001000
00000000
00000100
00000000
00000001
00001000
00000001
00001000
00000001
00000000
00000000
00000000
,  // measure 44
00000100
00000000
00001000
00000000
00010000
00000000
01000000
00000000
10000000
00010000
10000000
00010000
10000000
00000000
00000000
00000000
,  // measure 45
00100000
00000000
00010000
00000000
00001000
00000000
00000010
00000000
00000001
00001000
00000001
00001000
00000001
00000000
00000000
00000000
,  // measure 46
00000010
00000000
00001000
00000000
00010000
00000000
00100000
00000000
10000000
00010000
10000000
00010000
10000000
00000000
00000000
00000000
,  // measure 47
01000000
00000000
00000000
01000000
00010000
00000000
00000000
00010000
00001000
00000000
00000000
00001000
00000100
00000000
00000000
00000100
,  // measure 48
00000001
00000000
00000000
00000001
00000010
00000000
00000000
00000010
00001000
00000000
00000000
00001000
00010000
00000000
00000000
00010000
,  // measure 49
00100000
00000000
00000000
00100000
10000000
00000000
00000000
10000000
01000000
00000000
00000000
01000000
00010000
00000000
00000000
00010000
,  // measure 50
00001000
00000000
00000100
00000000
00000001
00000000
00000100
00000000
00000010
00001000
00000010
00001000
00000010
00001000
00000010
00001000
,  // measure 51
00000100
00010000
00001000
00010000
00000100
00000000
00010000
00000000
00001000
01000000
00100000
01000000
00001000
00000000
00100000
00000000
,  // measure 52
01000000
10000000
00000000
01000000
10000000
00000000
00100000
00000000
00010000
00000000
00000000
00001000
00000000
00000000
00000010
00000000
,  // measure 53
00000001
00001000
00000000
00000001
00001000
00000000
00000010
00000000
00000100
00000000
00000000
00001000
00000000
00000000
00010000
00000000
,  // measure 54
00100000
10000000
00000000
00100000
10000000
00000000
01000000
00000000
00010000
00000000
00000000
00001000
00000000
00000000
00000100
00000000
,  // measure 55
00000001
00001000
00000000
00000001
00001000
00000000
00000010
00000000
00000100
00000000
00000000
00000001
00000000
00000000
00001000
00000000
,  // measure 56
00000100
00000000
00010000
00001000
00010000
00000000
00001000
00000000
00100000
00000000
00001000
00010000
00001000
00000000
01000000
00000000
,  // measure 57
00100000
00000000
10000000
00010000
10000000
00000000
00100000
00000000
01000000
00000000
00010000
10000000
00010000
00000000
01000000
00000000
,  // measure 58
00001000
00000000
00010000
00001000
00010000
00000000
00000100
00000000
00010000
00000000
00001000
00010000
00001000
00000000
00100000
00000000
,  // measure 59
00001000
00010000
00000100
00001000
00000010
00000100
00000001
00000010
00000100
00010000
00001000
01000000
00100000
10000000
00010000
01000000
,  // measure 60
00100000
00000000
00000000
00000000
,  // measure 61
00000000
00000000
00000000
00000000
00000000
00000000
00000100
00000001
;
