#TITLE:On-Do;
#SUBTITLE:;
#ARTIST:PONxU1;
#TITLETRANSLIT:;
#SUBTITLETRANSLIT:;
#ARTISTTRANSLIT:;
#GENRE:Rock;
#CREDIT:;
#BANNER:ondo-bn.png;
#BACKGROUND:ondo-bg.png;
#LYRICSPATH:;
#CDTITLE:;
#MUSIC:On-Do.mp3;
#OFFSET:-0.050000;
#SAMPLESTART:11.429999;
#SAMPLELENGTH:11.999990;
#SELECTABLE:YES;
#BPMS:0.000000=210.000000
;
#STOPS:
;
#BGCHANGES:;
#KEYSOUNDS:;
#ATTACKS:;

//---------------dance-single - ----------------
#NOTES:
     dance-single:
     :
     Challenge:
     18:
     0.954677,1.597039,0.000000,0.074459,1.745144,718.000000,718.000000,0.000000,8.000000,0.000000,0.000000,0.954677,1.597039,0.000000,0.074459,1.745144,718.000000,718.000000,0.000000,8.000000,0.000000,0.000000:
0000
0000
0000
0000
,
0000
0000
0000
0000
,
0000
0000
0000
0000
,
0000
0000
0000
0000
,
1000
1000
1000
0100
,
1000
0000
0100
1000
0000
0100
1000
0000
0000
0010
0000
0000
,
0001
0001
0001
0100
,
0001
0000
0010
0001
0000
0010
0001
0000
0000
0100
0000
0000
,
0001
0010
0100
1000
0100
0010
0001
0000
0100
0000
0010
0000
1000
0100
0010
0001
0010
0100
1000
0000
0010
0000
0100
0000
,
0001
0010
0100
1000
0100
0010
0001
0000
0100
0000
0010
0000
1000
0100
0010
0001
0010
0100
1000
0000
0010
0000
0100
0000
,
0001
0000
0000
0000
0000
0000
0001
0000
0000
0000
0000
0000
0001
0000
0000
0000
0000
0000
0010
0100
1000
0001
0000
0000
,
1000
0000
0000
0000
0000
0000
1000
0000
0000
0000
0000
0000
1000
0000
0000
0000
0000
0000
0010
0100
0001
1000
0000
0000
,
0100
0000
0000
0000
0000
0000
0100
0000
0000
0000
0000
0000
0100
0000
0000
0000
0000
0000
0001
1000
0010
0100
0000
0000
,
0010
0000
0000
0000
0000
0000
0010
0000
0000
0000
0000
0000
0010
0000
0000
0000
0000
0000
1000
0001
0100
0010
0000
0000
,
1000
0000
0000
0000
0000
0000
1000
0000
0000
0000
0000
0000
1000
0000
0000
0000
0000
0000
0010
1000
0001
0100
0000
0000
,
0001
0000
0000
0000
0000
0000
0001
0000
0000
0000
0000
0000
0001
0000
0000
0000
0000
0000
0100
0001
1000
0010
0000
0000
,
0100
0000
0000
0000
0000
0000
0100
0000
0000
0000
0000
0000
0100
0000
0000
0000
0000
0000
0001
0010
0100
1000
0000
0000
,
0002
0000
0000
2003
0000
0000
3010
0100
0001
1000
0000
0000
,
0001
0000
0010
0000
0100
0000
1000
0000
0100
0000
0010
0000
0001
0000
0010
0000
0100
0000
1000
0001
0010
0001
1000
0000
,
0001
0000
0010
0000
0100
0000
1000
0000
0100
0000
0010
0000
0001
0000
0010
0000
0100
0000
1000
0001
0010
0001
1000
0000
,
0001
0000
0010
0000
0100
0000
1000
0000
0100
0000
0010
0000
0001
0000
0010
0000
0100
0000
1000
0100
0010
0001
1000
0000
,
0020
0000
0000
2030
0000
0000
3001
1000
0001
1000
0000
0000
,
1000
0000
0100
0000
0010
0000
0001
0000
0010
0000
0100
0000
1000
0000
0100
0000
0010
0000
0001
1000
0100
1000
0001
0000
,
1000
0000
0100
0000
0010
0000
0001
0000
0010
0000
0100
0000
1000
0000
0100
0000
0010
0000
0001
1000
0100
1000
0001
0000
,
1000
0000
0100
0000
0010
0000
0001
0000
0010
0000
0100
0000
1000
0000
0100
0000
0010
0000
0001
1000
0010
0100
0010
0000
,
0100
0000
0000
0000
0010
0000
1000
0000
0000
0000
0001
0000
0010
0000
0000
0100
0000
0000
0000
0000
0000
0100
0000
0000
,
0010
0000
0000
0000
0001
1000
0001
0000
0000
0000
0000
0000
0010
0000
0000
0000
0001
1000
0001
0000
0000
0000
0000
0000
,
0010
0000
0000
0000
0001
1000
0001
0000
0000
0000
0000
0000
0100
0000
0000
0000
0000
0000
0010
0000
0000
0000
0000
0000
,
0100
0000
0000
0000
0001
1000
0001
0000
0000
0000
0000
0000
0100
0000
0000
0000
0010
0000
1000
0000
0000
0000
0010
0000
,
0001
0000
0010
1000
0000
0010
0100
0001
1000
0010
0000
0000
,
0010
0000
0000
0000
1000
0100
1000
0000
0000
0000
0000
0000
0010
0000
0000
0000
0100
0000
0010
0000
0000
0000
0001
0000
,
0010
0000
0000
0000
1000
0000
0001
0000
0000
0000
0100
0000
0001
0000
0010
0000
0001
0000
1000
0000
0000
0000
1000
0001
,
1000
0000
0100
0001
0000
0100
1000
0000
0100
0001
0000
0000
,
0200
0000
0000
2300
0000
0000
3100
0001
0100
1000
0000
0000
,
0100
0000
0100
0000
0100
0000
0100
0000
0100
0000
0100
0000
,
0100
0000
0000
0010
0000
0001
1000
0000
0001
1000
0000
0000
,
0010
0000
0100
0100
0000
0010
0010
0000
0000
1000
0000
0000
,
0001
0000
0000
0100
0000
0010
1000
0000
0010
1000
0000
0000
,
0001
0000
1000
1000
0000
0001
0001
0000
0000
0100
0000
0000
,
0010
0000
0000
1000
0000
0100
0010
0000
0100
0010
0000
0000
,
0001
0000
0100
1000
0000
0100
0001
0000
0000
1000
0000
0000
,
1000
0001
1000
0010
1000
0001
0100
0001
1000
0010
1000
0001
,
0100
0001
1000
0010
1000
0001
0100
0001
1000
0010
1000
0001
,
0100
0000
0010
0001
0000
0010
1000
0000
0001
1000
0000
0000
,
0010
0000
0100
1000
0000
0100
0001
0000
0000
1000
0000
0000
,
0001
0000
0100
1000
0000
0100
1000
0000
0100
0001
0000
0000
,
1000
0000
0001
0010
0000
1000
0010
0000
0000
0001
0000
0000
,
1000
0010
0100
0001
0100
0010
1000
0010
0100
0001
0100
0010
,
1000
0001
0100
0010
0100
0001
1000
0001
0100
0010
0100
0001
,
0010
1000
0010
0001
0010
1000
0010
0001
0010
1000
0010
0001
,
0100
1000
0100
0001
0100
1000
0100
0001
0100
1000
0100
0001
,
2000
0000
0000
0000
,
0000
0000
0000
0000
,
3001
0000
0001
0000
0001
0000
0001
0000
0001
0000
0001
0000
,
0001
0000
0001
0000
0001
0000
0001
0000
0001
0000
0001
0000
,
0001
0000
0001
0000
0001
0000
0001
0000
0001
0000
0001
0000
,
0001
0000
0001
0000
0001
0000
0001
1000
0001
1000
0001
0000
,
0001
1000
0100
0001
0000
0000
0000
1000
0010
0001
0000
0000
,
0000
0001
0100
1000
0000
0000
0000
0001
0010
1000
0000
0000
,
1000
0000
1000
0000
1000
0000
1000
0000
1000
0000
1000
0000
,
1000
0000
0000
1000
0000
0000
1000
0001
1000
0001
0000
0000
,
0001
0100
0010
0100
1000
0100
0010
0001
0010
0100
0010
1000
,
0001
0010
0100
0010
1000
0010
0100
0001
0100
0010
0100
1000
,
0010
0100
0001
0100
0010
1000
0100
1000
0010
0100
0001
0100
,
0010
0000
0001
0000
0010
0000
1000
0000
0010
0000
0001
0000
,
0010
0000
0000
0000
,
0000
0000
0000
0000
,
1000
0000
0000
0000
,
0100
0100
0100
0000
,
1000
0000
0000
0000
0010
0100
0010
0000
0000
0000
0000
0000
1000
0000
0000
0000
0100
0010
0100
0000
0000
0000
0000
0000
,
1000
0000
0000
0000
0010
0100
0010
0000
0000
0000
0000
0000
1000
0000
0000
0000
0000
0000
0001
0000
0000
0000
0000
0000
,
0010
0000
0000
0000
0100
1000
0100
0000
0000
0000
0000
0000
1000
0000
0000
0000
0000
0000
0001
0000
0000
0000
0001
0000
,
1000
0000
0100
0001
0000
0100
1000
0001
1000
0001
0000
0000
,
0100
0000
0000
0000
0001
0100
0001
0000
0000
0000
0000
0000
1000
0000
0000
0000
0000
0000
0001
0000
0000
0000
0001
0000
,
1000
0000
0100
0001
0000
0100
1000
0010
1000
0010
0000
0000
,
1000
0000
0001
1000
0000
1000
0010
0000
0001
0010
0000
0000
,
1000
0000
0001
0100
0000
1000
0100
0001
0100
0001
0000
0000
,
1000
0000
0100
0001
0000
0100
1000
0000
0100
0001
0000
0100
,
1000
0000
0100
0001
0000
0100
0010
0000
0100
1000
0000
1000
,
0001
0000
0100
1000
0000
0100
0001
0000
0100
1000
0000
0100
,
0001
0000
0010
1000
0000
0010
0001
0100
0010
1000
0000
1000
,
0010
0000
0100
1000
0000
0100
1000
0000
0100
0001
0000
0100
,
1000
0000
0100
0001
0000
0100
0010
1000
0001
0100
0000
0001
,
0010
0000
0100
0001
0000
0100
0001
0000
0100
1000
0000
0100
,
0001
0000
0100
1000
0000
0100
0010
0001
1000
0010
0000
1000
,
0001
0000
0100
0010
0000
0010
0100
0001
1000
0001
0000
0001
,
1000
0000
0010
0100
0000
0100
0010
1000
0001
1000
0000
1000
,
0001
0000
0100
0010
0000
0010
0100
0001
1000
0001
0000
0001
,
1000
0100
0010
0001
1000
0000
0001
0000
0010
0000
0100
0000
1000
0100
0010
0001
1000
0000
0001
0000
0010
0000
0100
0000
,
1000
0100
0010
0001
1000
0000
0001
0000
0010
0000
0100
0000
1000
0000
0000
0000
0000
0000
0001
0000
0000
0000
0000
0000
,
0001
0010
0100
1000
0001
0000
1000
0000
0100
0000
0010
0000
0001
0010
0100
1000
0001
0000
1000
0000
0100
0000
0010
0000
,
0001
0010
0100
1000
0001
0000
1000
0000
0100
0000
0010
0000
0001
0000
0100
0000
0010
0000
0100
0000
1000
0000
0100
0000
,
0002
0000
0000
0003
;

//---------------dance-single - ----------------
#NOTES:
     dance-single:
     :
     Hard:
     15:
     0.804428,1.079081,0.000000,0.065152,1.317002,605.000000,605.000000,0.000000,7.000000,0.000000,0.000000,0.804428,1.079081,0.000000,0.065152,1.317002,605.000000,605.000000,0.000000,7.000000,0.000000,0.000000:
0000
0000
0000
0000
,
0000
0000
0000
0000
,
0000
0000
0000
0000
,
0000
0000
0000
0000
,
1000
1000
0100
0010
,
0001
0000
0100
0010
0000
0001
0010
0000
0000
1000
0000
0000
,
0001
0001
0100
0010
,
0100
0000
0001
0010
0000
1000
0010
0000
0000
0001
0000
0000
,
1000
0100
0010
0001
0010
0100
1000
0100
0010
0001
0010
0100
,
1000
0100
0010
0001
0010
0100
1000
0100
0010
0001
0010
0100
,
1000
0000
0010
0001
0000
0000
1000
0000
0010
0001
0000
0000
,
1000
0000
0010
0001
0000
0000
0010
0000
0000
1000
0000
0000
,
0001
0000
0010
1000
0000
0000
0010
0000
0000
0001
0000
0000
,
1000
0000
0000
0001
0000
0000
0100
0010
1000
0001
0000
0000
,
1000
0000
0100
0001
0000
0000
0100
0000
0000
1000
0000
0000
,
0001
0000
0000
0100
0000
0000
0001
0100
0010
1000
0000
0000
,
1000
0000
0100
0001
0000
0000
0100
0000
0000
1000
0000
0000
,
0020
0000
0000
0230
0000
0000
0301
0010
0100
1000
0000
0000
,
0001
0010
0100
1000
0100
0010
0001
0010
0100
1000
0001
0000
,
1000
0100
0010
0001
0010
0100
1000
0100
0010
0001
1000
0000
,
0001
1000
0010
0100
0010
1000
0001
1000
0010
0100
0010
0000
,
2000
0000
0000
3200
0000
0000
0301
0100
1000
0001
0000
0000
,
0100
0001
1000
0010
1000
0001
0100
0001
1000
0010
1000
0000
,
0010
1000
0001
0100
0001
1000
0010
1000
0001
0100
0001
0000
,
1000
0001
0100
0010
0100
0001
1000
0001
0100
0010
0100
0000
,
0002
0000
0000
0203
0000
0000
1300
0100
0001
1000
0000
0000
,
0001
0000
0100
1000
0000
0000
0001
0000
0100
1000
0000
0000
,
0001
0000
0100
1000
0000
0000
0100
0000
0000
0001
0000
0000
,
1000
0000
0100
0001
0000
0000
0100
0000
0000
1000
0000
0000
,
0010
0000
0000
0100
0000
0000
0001
0010
0100
1000
0000
0000
,
1000
0000
0100
0001
0000
0000
0100
0000
0000
1000
0000
0000
,
0010
0000
0000
0100
0000
0000
0001
1000
0001
1000
0000
0000
,
0001
0000
0100
1000
0000
0000
0100
0000
0000
0001
0000
0000
,
1000
0000
0000
0010
0000
0000
0100
0001
1000
0010
0000
0000
,
1000
0000
1000
0000
1000
0000
1000
0000
1000
0000
1000
0000
,
1000
0000
0000
1000
0100
0010
0001
0000
0100
0010
0000
0010
,
1000
0000
0100
0010
0000
0100
1000
0000
0000
0001
0000
0000
,
0010
0000
0000
0100
0000
1000
0001
0000
0001
0100
0000
0000
,
0010
0000
1000
0100
0000
0010
0100
0000
0000
1000
0000
0000
,
0001
0000
0000
1000
0000
0100
0010
0000
0100
1000
0000
0000
,
0001
0000
0010
0100
0000
0010
1000
0000
0000
0010
0000
0000
,
0001
0010
0100
1000
0100
0010
0001
0010
0100
1000
0100
0010
,
0001
0010
0100
1000
0100
0010
0001
1000
0010
1000
0001
1000
,
0001
0000
0000
0100
0000
0010
1000
0000
0010
0001
0000
0000
,
0010
0000
1000
0100
0000
0001
0100
0000
0000
1000
0000
0000
,
0001
0000
0000
0010
0000
0100
0001
0000
0100
1000
0000
0000
,
0001
0000
1000
0010
0000
0001
0010
0000
0000
1000
0000
0000
,
1000
0100
0010
0001
0010
0100
1000
0100
0010
0001
0010
0100
,
1000
0100
0010
0001
0010
0100
1000
0010
0100
0001
0100
0010
,
0100
0001
1000
0010
1000
0001
0100
0001
1000
0010
1000
0001
,
0100
0001
1000
0010
1000
0001
0100
0001
1000
0010
1000
0010
,
0100
0000
0000
0000
,
0000
0000
0000
0000
,
0001
0000
0001
0000
0001
0000
0001
0000
0001
0000
0001
0000
,
0001
0000
0001
0000
0001
0000
0001
0000
0001
0000
0001
0000
,
0001
0000
0001
0000
0001
0000
0001
0000
0001
0000
0001
0000
,
0001
0000
0001
0000
0001
0000
0001
1000
0001
1000
0000
0000
,
1000
0100
0010
0001
0000
0000
1000
0100
0010
0001
0000
0000
,
1000
0100
0010
0001
0000
0000
1000
0100
0010
0001
0000
0000
,
0100
0000
0100
0000
0100
0000
0100
0000
0100
0000
0100
0000
,
0100
0000
0000
0100
0000
0000
0100
0010
0100
0010
0000
0000
,
0100
0001
1000
0010
0000
0000
0010
1000
0001
0100
0000
0000
,
0100
0001
1000
0010
0000
0000
0010
1000
0001
0100
0000
0000
,
0100
0001
1000
0010
1000
0001
0100
0001
1000
0010
1000
0001
,
0100
0000
0001
0000
1000
0000
0010
0000
1000
0000
0001
0000
,
0100
0000
0000
0000
,
0000
0000
0000
0000
,
0001
0000
0000
0000
,
1000
1000
1000
0000
,
1000
0000
0100
0001
0000
0000
1000
0000
0100
0001
0000
0000
,
1000
0000
0100
0001
0000
0000
0100
0000
0000
1000
0000
0000
,
0001
0000
0100
1000
0000
0000
0100
0000
0000
0001
0000
0000
,
1000
0000
0000
0001
0000
0000
1000
0001
0100
0010
0000
0000
,
0100
0000
1000
0100
0000
0000
0001
0000
0000
1000
0000
0000
,
0010
0000
0000
0010
0000
0000
0010
0100
0001
1000
0000
0000
,
0010
0000
0100
1000
0000
0000
0100
0000
0000
0001
0000
0000
,
1000
0000
0000
0001
0000
0000
1000
0100
0010
0001
0000
0000
,
1000
0000
0100
0001
0000
0100
1000
0000
0100
0001
0000
0100
,
1000
0000
0100
0001
0000
0100
1000
0000
0100
0001
0000
0000
,
0001
0000
0100
1000
0000
0100
0001
0000
0100
1000
0000
0100
,
0001
0000
0000
0100
0000
0000
1000
0010
0100
0001
0000
0000
,
1000
0000
0010
0100
0000
0010
0001
0000
0010
1000
0000
0000
,
0100
0000
0000
0100
0000
0000
0100
1000
0001
0010
0000
0000
,
0001
0000
0100
1000
0000
0100
0010
0000
0100
0001
0000
0000
,
1000
0000
1000
0001
0000
0000
1000
0100
0010
0001
0000
0000
,
0001
0000
0001
1000
0000
0000
0001
0010
0100
1000
0000
0000
,
1000
0000
1000
0001
0000
0000
1000
0100
0010
0001
0000
0000
,
0001
0000
0001
1000
0000
0000
0001
0010
0100
1000
0000
0000
,
0010
0100
0001
1000
0001
0100
0010
0100
0001
1000
0001
0100
,
0010
0100
0001
1000
0001
0100
0010
0000
0000
0100
0000
0000
,
0100
0010
1000
0001
1000
0010
0100
0010
1000
0001
1000
0010
,
0100
0010
1000
0001
1000
0010
0100
0000
0000
0010
0000
0000
,
2000
0000
0000
3000
;

//---------------dance-single - ----------------
#NOTES:
     dance-single:
     :
     Medium:
     14:
     0.756561,0.949591,0.335068,0.111689,1.061047,569.000000,533.000000,36.000000,12.000000,0.000000,0.000000,0.756561,0.949591,0.335068,0.111689,1.061047,569.000000,533.000000,36.000000,12.000000,0.000000,0.000000:
0000
0000
0000
0000
,
0000
0000
0000
0000
,
0000
0000
0000
0000
,
0000
0000
0000
0000
,
0001
0001
0001
0010
,
0100
0000
1000
0100
0000
0001
0100
0000
0000
1000
0000
0000
,
0010
0010
0010
0100
,
0001
0000
0010
1000
0000
0010
0001
0000
0000
1000
0000
0000
,
2002
0000
0000
3003
,
0220
0000
0000
0330
,
0100
0000
0100
0001
0000
0000
0100
0000
0100
0001
0000
0000
,
0100
0000
0010
1000
0000
0000
1010
0000
0000
1100
0000
0000
,
0010
0000
0100
1000
0000
0000
1100
0000
0000
0011
0000
0000
,
0001
0000
0000
0100
0000
0000
1000
0100
0001
1000
0000
0000
,
0010
0000
0100
0001
0000
0000
0010
0000
0000
0100
0000
0000
,
1000
0000
0000
0001
0000
0000
0100
1000
0100
0001
0000
0000
,
1000
0000
0001
0010
0000
0000
0001
0000
0000
1000
0000
0000
,
1001
0000
0000
0101
0000
0000
0010
1000
0100
0010
0000
0000
,
1000
0100
0010
0001
0010
0100
1000
0100
0010
0001
0000
0000
,
0001
0100
0010
1000
0010
0100
0001
0100
0010
1000
0000
0000
,
1000
0001
0100
0010
0100
0001
1000
0001
0100
0010
0000
0000
,
1010
0000
0000
0101
0000
0000
0001
0010
0100
1000
0000
0000
,
0001
0010
0100
1000
0100
0010
0001
0010
0100
1000
0000
0000
,
1000
0010
0100
0001
0100
0010
1000
0010
0100
0001
0000
0000
,
0001
1000
0010
0100
0010
1000
0001
0010
0100
0010
0000
0000
,
1100
0000
0000
0011
0000
0000
1000
0100
0010
0001
0000
0000
,
0000
0000
1000
0100
0000
0000
0000
0000
1000
0100
0000
0000
,
0000
0000
1000
0100
0000
0000
0010
0000
0000
0001
0000
0000
,
0000
0000
0001
0100
0000
0000
0010
0000
0000
1000
0000
0000
,
0010
0000
0000
0100
0000
0000
0001
0000
1000
0010
0000
0000
,
0000
0000
0100
0010
0000
0000
0001
0000
0000
0010
0000
0000
,
1001
0000
0000
1001
0000
0000
0001
0010
0100
1000
0000
0000
,
0000
0000
0010
0100
0000
0000
1000
0000
0000
0100
0000
0000
,
0101
0000
0000
0101
0000
0000
0001
0010
0100
1000
0000
0000
,
1000
0000
0100
0000
0010
0000
0001
0000
0010
0000
0100
0000
,
1000
0000
0000
1010
0000
0010
1000
0000
0010
0100
0000
0000
,
0101
0000
0001
0100
0000
0001
1000
0000
0000
1001
0000
0000
,
0010
0000
0000
0011
0000
0010
0100
0000
0010
0001
0000
0000
,
0101
0000
0100
0010
0000
0100
0001
0000
0000
1100
0000
0000
,
0010
0000
0000
0110
0000
0100
0001
0000
0100
0010
0000
0000
,
1001
0000
1000
0100
0000
1000
0001
0000
0000
0100
0000
0000
,
0001
0010
0001
0100
0000
0000
0001
0010
0001
0100
0000
0000
,
0010
1000
0010
0100
0000
0000
0010
1000
0100
1000
0001
1000
,
0010
0000
0000
0110
0000
0100
0001
0000
0001
1000
0000
0000
,
1001
0000
1000
0010
0000
0010
0100
0000
0000
0101
0000
0000
,
1010
0000
1000
0001
0000
0001
0010
0000
0000
0110
0000
0000
,
1100
0000
1000
0010
0000
0100
0001
0000
0000
1000
0000
0000
,
1000
0010
1000
0100
0000
0000
1000
0010
1000
0100
0000
0000
,
0010
0001
0010
0100
0000
0000
0010
0001
1000
0001
0000
0000
,
0100
0001
0100
0010
0000
0000
0100
0001
0100
0010
0000
0000
,
0100
0001
1000
0001
0000
0000
1000
0100
0010
0001
0000
0000
,
2002
0000
0000
0000
,
0000
0000
0000
3003
,
0100
0000
0010
0000
0100
0000
0010
0000
0100
0000
0010
0000
,
0100
0000
0010
0000
0100
0000
0010
0000
0100
0000
0010
0000
,
0100
0000
0010
0000
0100
0000
0010
0000
0100
0000
0010
0000
,
0100
0000
0010
0000
0100
0000
0010
0000
0100
0000
0010
0000
,
2000
0000
3002
0000
,
2003
0000
3002
0000
,
0103
0000
0010
0000
0100
0000
0010
0000
0100
0000
0010
0000
,
0100
0100
0100
0100
,
0001
1000
0001
1000
0000
0000
1000
0001
1000
0001
0000
0000
,
0001
1000
0001
1000
0000
0000
1000
0001
1000
0001
0000
0000
,
1100
0101
1100
0101
,
1000
0000
0100
0000
0001
0000
0010
0000
1000
0000
0100
0000
,
0001
0000
0000
0000
,
0000
0000
0000
0000
,
1000
0000
0000
0000
,
0100
0100
0100
0000
,
0010
0000
0100
0001
0000
0000
0100
0000
0010
1000
0000
0000
,
0010
0000
0100
0001
0000
0000
1000
0000
0000
1000
0000
0000
,
0001
0000
0010
0100
0000
0000
1000
0000
0000
1000
0000
0000
,
0100
0000
0000
0001
0000
0000
0100
1000
0100
1000
0000
0000
,
0001
0000
0100
1000
0000
0000
0100
0000
0000
0001
0000
0000
,
1000
0000
0000
0100
0000
0000
0001
0100
1000
0001
0000
0000
,
0010
0000
0100
0001
0000
0000
0100
0000
0000
1000
0000
0000
,
0010
0000
0000
0100
0000
0000
1000
0100
0001
1000
0000
0000
,
0001
0000
0001
0010
0000
0010
0001
0000
0001
0010
0000
0010
,
0001
0000
0001
0010
0000
0010
0001
0000
0001
1000
0000
1000
,
0010
0000
0010
1000
0000
1000
0010
0000
0010
1000
0000
1000
,
0100
0000
0001
0100
0000
1000
0100
0000
0001
0100
0000
1000
,
0100
0000
0100
0010
0000
0010
0100
0000
0100
0010
0000
0010
,
0001
0000
0100
1000
0000
0100
0001
0000
0100
1000
0000
0100
,
0001
0000
0001
1000
0000
1000
0001
0000
0001
1000
0000
1000
,
0010
0000
0001
0010
0000
1000
0010
0000
0001
0010
0000
1000
,
0100
0000
0001
0100
0000
1000
0100
0000
0001
0100
0000
1000
,
0010
0000
0001
0010
0000
1000
0010
0000
0001
0010
0000
1000
,
0100
0000
0001
0100
0000
1000
0100
0000
0001
0100
0000
0000
,
1000
0010
0100
0001
0010
0100
1000
0010
0100
0001
0010
0100
,
1000
0010
0100
0001
0010
0100
1000
0000
0000
0001
0000
0000
,
0001
0010
0100
1000
0010
0100
0001
0010
0100
1000
0010
0100
,
0001
0010
0100
1000
0010
0100
0001
0000
0000
1000
0000
0000
,
0202
0000
0000
0303
;

//---------------dance-single - ----------------
#NOTES:
     dance-single:
     :
     Easy:
     8:
     0.432131,0.561122,0.046537,0.735287,0.186149,325.000000,320.000000,5.000000,79.000000,0.000000,0.000000,0.432131,0.561122,0.046537,0.735287,0.186149,325.000000,320.000000,5.000000,79.000000,0.000000,0.000000:
0000
0000
0000
0000
,
0000
0000
0000
0000
,
0000
0000
0000
0000
,
0000
0000
0000
0000
,
1000
1000
1000
0100
,
0010
0010
0010
0100
,
1000
1000
1000
0001
,
0100
0000
0010
0100
0000
0010
0100
0000
0000
0001
0000
0000
,
2002
0000
0000
3003
,
0220
0000
0000
0330
,
0100
0001
0100
0001
,
0100
0000
0001
0010
0000
0000
0100
0000
0000
0100
0000
0000
,
0000
0000
1000
0001
0000
0000
0100
0000
0000
0100
0000
0000
,
0001
0010
0100
1000
,
0000
0000
0001
1000
0000
0000
0100
0000
0000
0100
0000
0000
,
1000
0100
0010
0001
,
0000
0000
0100
0010
0000
0000
1000
0000
0000
1000
0000
0000
,
0010
0100
0001
1000
,
0002
0023
0032
0203
,
0302
0203
0302
0023
,
0230
2300
3200
0320
,
0230
0320
0230
2300
,
3020
2030
3020
0230
,
0320
0230
0320
2030
,
3200
2300
3002
1003
,
1001
1001
1001
0000
,
0001
0000
0100
0001
0000
0000
0001
0000
0100
0001
0000
0000
,
0001
0000
0100
0001
0000
0000
1000
0000
0000
0100
0000
0000
,
0000
0000
0100
1000
0000
0000
0100
0000
0000
1000
0000
0000
,
0010
0010
0100
0100
,
0000
0000
0010
0100
0000
0000
0001
0000
0000
0100
0000
0000
,
0010
1000
0100
1000
,
0000
0000
0100
0010
0000
0000
0001
0000
0000
1000
0000
0000
,
0001
0001
0001
0001
,
1000
1000
1000
1000
,
0002
0000
0000
0000
0000
0000
0003
0000
0000
0001
0100
0001
,
0200
0000
0000
0000
0000
0000
0300
0000
0000
0100
0010
0100
,
0020
0000
0000
0000
0000
0000
0030
0000
0000
0010
1000
0010
,
2000
0000
3200
0000
,
2300
0000
0000
0000
0000
0000
3000
0000
0000
1000
0100
1000
,
0200
0300
0100
0000
,
0020
0230
0320
0032
,
0023
0032
0023
0230
,
2300
0000
0000
0000
0000
0000
3000
0000
0000
1000
0001
1000
,
0002
0000
0000
0000
0000
0000
0003
0000
0000
0001
0100
0001
,
0200
0000
0000
0000
0000
0000
0300
0000
0000
0100
0010
0100
,
0020
0000
0130
0000
,
0020
0230
0320
2030
,
3020
2030
3020
0230
,
0302
0023
0032
0203
,
0302
0203
0302
0023
,
0130
0000
0000
0000
,
0000
0000
0000
0000
,
0100
0000
0100
0000
,
0100
0000
0100
0000
,
0100
0000
0100
0000
,
0100
0000
0100
0000
,
0000
1000
0000
0001
,
0000
1000
0000
0001
,
0100
0000
0100
0000
,
0100
0100
0100
0100
,
0100
0000
0001
0000
,
1000
0000
0010
0000
,
1000
0100
0010
0001
,
1000
0000
0001
0000
1000
0000
0001
0000
1000
0000
0001
0000
,
1000
0000
0000
0000
,
0000
0000
0000
0000
,
0100
0000
0000
0000
,
0010
0010
0010
0000
,
1000
0100
1000
0100
,
1000
0000
0100
0010
0000
0000
0001
0000
0000
0001
0000
0000
,
0000
0000
0100
0010
0000
0000
1000
0000
0000
1000
0000
0000
,
0100
0001
0100
1000
,
0000
0000
0001
1000
0000
0000
0001
0000
0000
0100
0000
0000
,
1000
0100
0001
0100
,
0010
0000
1000
0001
0000
0000
0100
0000
0000
0010
0000
0000
,
0001
0010
1000
0001
,
1000
0000
0010
1000
0000
0000
1000
0000
0010
1000
0000
0000
,
1000
0000
0010
1000
0000
0000
0001
0000
0000
0001
0000
0000
,
0100
0000
0001
0100
0000
0000
0100
0000
0000
0100
0000
0000
,
0001
0001
1000
1000
,
0001
0000
0010
0100
0000
0000
1000
0000
0000
1000
0000
0000
,
0100
0100
0010
0010
,
0001
0000
1000
0100
0000
0000
0010
0000
0000
0001
0000
0000
,
0100
0100
0010
0010
,
1000
1000
0100
0100
,
0001
0001
0100
0100
,
1000
1000
0001
0001
,
0200
0302
0203
0320
,
0230
0320
0130
0001
,
0020
2030
3020
0230
,
0320
0230
0310
1000
,
0020
0000
0000
0030
;

//---------------dance-single - ----------------
#NOTES:
     dance-single:
     :
     Beginner:
     4:
     0.187478,0.302143,0.009307,0.158226,0.000000,141.000000,140.000000,1.000000,17.000000,0.000000,0.000000,0.187478,0.302143,0.009307,0.158226,0.000000,141.000000,140.000000,1.000000,17.000000,0.000000,0.000000:
// measure 0
0000
0000
0000
0000
,  // measure 1
0000
0000
0000
0000
,  // measure 2
0000
0000
0000
0000
,  // measure 3
0000
0000
0000
0000
,  // measure 4
1000
1000
1000
0000
,  // measure 5
1000
0000
1000
0000
,  // measure 6
0001
0001
0001
0000
,  // measure 7
0001
0000
0001
0000
,  // measure 8
0200
0000
0000
0000
,  // measure 9
0000
0000
0000
0300
,  // measure 10
0000
0010
0000
0010
,  // measure 11
0000
0010
0000
0000
,  // measure 12
0000
1000
0000
0000
,  // measure 13
0001
0001
0001
0000
,  // measure 14
0000
0001
0000
0000
,  // measure 15
1000
1000
1000
0000
,  // measure 16
0000
1000
0000
0000
,  // measure 17
0001
0001
0001
0000
,  // measure 18
0200
0000
0300
0000
,  // measure 19
0200
0000
0300
0000
,  // measure 20
0200
0000
0300
0000
,  // measure 21
0200
0000
0300
0000
,  // measure 22
0002
0000
0003
0000
,  // measure 23
0002
0000
0003
0000
,  // measure 24
0002
0000
0003
0000
,  // measure 25
0002
0000
0003
0000
,  // measure 26
0000
1000
0000
1000
,  // measure 27
0000
1000
1000
1000
,  // measure 28
0000
0001
0000
0000
,  // measure 29
0001
0001
0001
0000
,  // measure 30
0000
0100
0000
0000
,  // measure 31
0100
0100
0100
0000
,  // measure 32
0000
0010
0000
0000
,  // measure 33
0010
0010
0010
0000
,  // measure 34
1000
1000
1000
0000
,  // measure 35
0001
0000
0000
0000
,  // measure 36
0100
0000
0000
0000
,  // measure 37
0010
0000
0000
0000
,  // measure 38
1000
0000
0000
0000
,  // measure 39
0010
0000
0000
0000
,  // measure 40
0100
0000
0000
0000
,  // measure 41
0020
0000
0030
0000
,  // measure 42
0020
0000
0030
0000
,  // measure 43
0100
0000
0000
0000
,  // measure 44
0001
0000
0000
0000
,  // measure 45
1000
0000
0000
0000
,  // measure 46
0010
0000
0000
0000
,  // measure 47
1000
0000
1000
0000
,  // measure 48
0001
0000
0001
0000
,  // measure 49
1000
0000
1000
0000
,  // measure 50
0001
0000
0001
0000
,  // measure 51
0001
0000
0000
0000
,  // measure 52
0000
0000
0000
0000
,  // measure 53
2002
0000
0000
0000
,  // measure 54
0000
0000
0000
0000
,  // measure 55
0000
0000
0000
0000
,  // measure 56
0000
0000
3003
0000
,  // measure 57
1000
0000
0001
0000
,  // measure 58
0100
0000
0010
0000
,  // measure 59
0200
0000
0300
0000
,  // measure 60
0001
0001
0001
0000
,  // measure 61
0100
0000
0001
0000
,  // measure 62
0100
0000
0001
0000
,  // measure 63
1000
1000
1000
1000
,  // measure 64
1000
0000
0000
0000
,  // measure 65
0010
0000
0000
0000
,  // measure 66
0000
0000
0000
0000
,  // measure 67
0100
0000
0000
0000
,  // measure 68
0001
0001
0001
0000
,  // measure 69
0000
1000
0000
1000
,  // measure 70
0000
1000
0000
0000
,  // measure 71
0000
0100
0000
0000
,  // measure 72
0010
0010
0010
0000
,  // measure 73
0000
0010
0000
0000
,  // measure 74
0100
0100
0100
0000
,  // measure 75
0000
0100
0000
0000
,  // measure 76
0010
0010
0010
0000
,  // measure 77
0000
0001
0000
0001
,  // measure 78
0000
0001
0000
0000
,  // measure 79
0000
0100
0000
0000
,  // measure 80
0010
0010
0010
0000
,  // measure 81
0000
0010
0000
0000
,  // measure 82
0100
0100
0100
0000
,  // measure 83
0000
0100
0000
0000
,  // measure 84
0010
0010
0010
0000
,  // measure 85
1000
1000
1000
0000
,  // measure 86
0001
0001
0001
0000
,  // measure 87
0100
0100
0100
0000
,  // measure 88
0002
0000
0000
0000
,  // measure 89
0000
0003
0000
0000
,  // measure 90
2000
0000
0000
0000
,  // measure 91
0000
0000
3000
0000
,  // measure 92
0020
0000
0000
0030
;

//---------------dance-double - ----------------
#NOTES:
     dance-double:
     :
     Challenge:
     18:
     0.926754,1.597039,0.000000,0.027922,1.661377,697.000000,697.000000,0.000000,3.000000,0.000000,0.000000,0.926754,1.597039,0.000000,0.027922,1.661377,697.000000,697.000000,0.000000,3.000000,0.000000,0.000000:
00000000
00000000
00000000
00000000
,
00000000
00000000
00000000
00000000
,
00000000
00000000
00000000
00000000
,
00000000
00000000
00000000
00000000
,
10000000
01000000
00010000
00001000
,
00010000
00000000
01000000
10000000
00000000
01000000
00010000
00000000
00000000
00001000
00000000
00000000
,
00000100
00000001
00000100
00001000
,
00010000
00000000
01000000
00010000
00000000
00001000
00000100
00000000
00000000
00000001
00000000
00000000
,
00001000
00000100
00000010
00000001
00000010
00000100
00001000
00000000
00000100
00000000
00000010
00000000
00000001
00000010
00000100
00001000
00000100
00000010
00000001
00000000
00000010
00000000
00000100
00000000
,
00001000
00000100
00000010
00000001
00000010
00000100
00001000
00000000
00000100
00000000
00000010
00000000
00000001
00000010
00000100
00001000
00000100
00000010
00000001
00000000
00000010
00000000
00000100
00000000
,
00001000
00000000
00000000
00000000
00000000
00000000
00001000
00000000
00000000
00000000
00000000
00000000
00001000
00000000
00000000
00000000
00000000
00000000
00001000
00000100
00001000
00000100
00000000
00000000
,
00010000
00000000
00000000
00000000
00000000
00000000
00010000
00000000
00000000
00000000
00000000
00000000
00010000
00000000
00000000
00000000
00000000
00000000
00010000
00001000
00010000
00001000
00000000
00000000
,
01000000
00000000
00000000
00000000
00000000
00000000
01000000
00000000
00000000
00000000
00000000
00000000
01000000
00000000
00000000
00000000
00000000
00000000
01000000
00010000
01000000
00010000
00000000
00000000
,
00100000
00000000
00000000
00000000
00000000
00000000
00100000
00000000
00000000
00000000
00000000
00000000
00100000
00000000
00000000
00000000
00000000
00000000
00100000
00001000
00100000
00001000
00000000
00000000
,
00010000
00000000
00000000
00000000
00000000
00000000
00010000
00000000
00000000
00000000
00000000
00000000
00010000
00000000
00000000
00000000
00000000
00000000
00010000
00000100
00000010
00000001
00000000
00000000
,
00000100
00000000
00000000
00000000
00000000
00000000
00000100
00000000
00000000
00000000
00000000
00000000
00000100
00000000
00000000
00000000
00000000
00000000
00000100
00000010
00010000
00001000
00000000
00000000
,
01000000
00000000
00000000
00000000
00000000
00000000
01000000
00000000
00000000
00000000
00000000
00000000
01000000
00000000
00000000
00000000
00000000
00000000
01000000
00100000
10000000
00010000
00000000
00000000
,
20000000
00000000
00000000
30020000
00000000
00000000
10030000
01000000
00010000
00001000
00000000
00000000
,
00001000
00000100
00000001
00000100
00001000
00000100
00000001
00000010
00001000
00000010
00000001
00000010
,
00001000
00010000
00100000
00010000
00001000
00010000
00100000
10000000
00100000
00010000
00100000
10000000
,
01000000
00010000
00001000
00010000
01000000
00010000
00001000
00000100
00000001
00000100
00001000
00000100
,
00000001
00000010
00000001
00000000
00000000
00000000
00001000
00000000
00000000
00000000
00000000
00000000
00000001
00000010
00000001
00000010
00000000
00000000
00000100
00000000
00000000
00000000
00000000
00000000
,
00000001
00000010
00001000
00000010
00000001
00000010
00001000
00010000
01000000
00010000
00001000
00010000
,
01000000
10000000
01000000
00010000
01000000
10000000
01000000
00010000
00001000
00010000
01000000
00010000
,
00001000
00000010
00000001
00000010
00001000
00000010
00000001
00000100
00000010
00000100
00000001
00000100
,
00000001
00000000
00000010
00000000
00001000
00010000
00000000
00100000
,
10000000
00000000
01000000
00010000
00000000
00001000
00010000
00000000
00000100
00010000
00000000
00001000
,
00010000
00000000
01000000
00010000
00000000
00001000
00010000
00000000
00000000
00001000
00000000
00010000
,
01000000
00000000
00010000
00001000
00000000
00000100
00000001
00000000
00000000
00001000
00000000
00000000
,
00000001
00000000
00000000
00000100
00000000
00000000
00000001
00000100
00001000
00010000
00000000
00000000
,
00001000
00000000
00000100
00000001
00000000
00000100
00001000
00000000
00010000
01000000
00000000
00000000
,
10000000
00000000
00000000
01000000
00000000
00000000
00010000
00001000
00000100
00000001
00000000
00000000
,
00000100
00000000
00001000
00010000
00000000
01000000
10000000
00000000
01000000
00010000
00000000
00000000
,
00001000
00000000
00000000
00000100
00000000
00000000
00000001
00000100
00001000
00010000
00000000
00000000
,
01000000
00000000
10000000
00000000
00100000
00000000
00010000
00000000
00001000
00000000
00000100
00000000
,
00000001
00000000
00000000
00001000
00000000
00000001
00000010
00000000
00001000
00010000
00000000
00000000
,
00001000
00000100
00000001
00000100
00000000
00001000
00010000
00000000
00000000
01000000
00000000
00000000
,
10000000
00000000
00000000
00010000
00000000
01000000
00100000
00000000
00010000
00001000
00000000
00000000
,
00010000
00000000
00000100
00000010
00000000
00001000
00000010
00000000
00000000
00000001
00000000
00000000
,
00000100
00000000
00000000
00000010
00000000
00000001
00000010
00000000
00001000
00000100
00000000
00000000
,
00000010
00000000
00000000
00001000
00000000
00010000
00100000
00000000
00000000
10000000
00000000
00000000
,
10000000
01000000
00010000
01000000
10000000
01000000
00010000
00001000
00000010
00001000
00010000
00001000
,
00000010
00000001
00001000
00000001
00000010
00000001
00000100
00000010
00000001
00000010
00000100
00000010
,
00001000
00000000
00000001
00000100
00000000
00001000
00010000
00000000
01000000
10000000
00000000
00000000
,
00010000
00000000
10000000
01000000
00000000
00010000
00001000
00000000
00000000
00000100
00000000
00000000
,
00000001
00000000
00000010
00000100
00000000
00000010
00001000
00000000
00010000
00100000
00000000
00000000
,
10000000
00000000
01000000
00100000
00000000
01000000
00010000
00000000
00000000
00001000
00000000
00000000
,
00010000
00001000
00000100
00001000
00010000
00001000
00000100
00000001
00001000
00000001
00000100
00000001
,
00001000
00000100
00000010
00000100
00001000
00000100
00000010
00001000
00010000
00001000
00000010
00001000
,
00010000
00000100
00000010
00000100
00010000
00000100
00000010
00000001
00001000
00000001
00000010
00000001
,
00001000
00000010
00000100
00000010
00001000
00000010
00000100
00000001
00001000
00000001
00000100
00000001
,
00001000
00000000
00000000
00000000
,
00000000
00000000
00000000
00000000
,
10000000
00000000
00010000
00000000
00001000
00000000
00000001
00000000
00001000
00000000
00010000
00000000
,
10000000
00000000
00010000
00000000
00001000
00000000
00000001
00000000
00001000
00000000
00010000
00000000
,
10000000
00000000
00010000
00000000
00001000
00000000
00000001
00000000
00001000
00000000
00010000
00000000
,
10000000
00000000
00010000
00000000
00001000
00000000
00000001
00000000
00001000
00000000
00010000
00000000
,
10000000
01000000
00100000
00001000
00000000
00000000
00010000
00000100
00000010
00000001
00000000
00000000
,
00000001
00000100
00000010
00010000
00000000
00000000
00001000
01000000
00100000
10000000
00000000
00000000
,
10000000
00000000
10000000
00000000
10000000
00000000
10000000
00000000
10000000
00000000
10000000
00000000
,
10000000
00010000
00001000
00000001
,
00000001
00000100
00001000
00010000
00000000
00000000
00000100
00001000
00010000
01000000
00000000
00000000
,
00001000
00010000
01000000
10000000
00000000
00000000
01000000
00010000
00001000
00000100
00000000
00000000
,
00010000
00001000
00000100
00000001
00000100
00001000
00010000
01000000
10000000
01000000
00010000
00001000
,
00000100
00000000
00000001
00000000
00000010
00000000
00001000
00000000
00010000
00000000
00100000
00000000
,
10000000
00000000
00000000
00000000
,
00000000
00000000
00000000
00000000
,
00000001
00000000
00000000
00000000
,
00001000
00001000
00001000
00000000
,
00000001
00000000
00000000
00000000
00000010
00000100
00000010
00000000
00000000
00000000
00000000
00000000
00000001
00000000
00000000
00000000
00000100
00000010
00000100
00000000
00000000
00000000
00000000
00000000
,
00000001
00000000
00000000
00000000
00000010
00000100
00000010
00000000
00000000
00000000
00000000
00000000
00000001
00000000
00000000
00000000
00000000
00000000
00000100
00000000
00000000
00000000
00000000
00000000
,
00001000
00000000
00010000
01000000
00000000
10000000
00010000
00000000
00000000
10000000
00000000
10000000
,
01000000
00000000
01000000
00010000
00000000
00010000
00001000
00000100
00000001
00001000
00000000
00001000
,
00000001
00000000
00000000
00000000
00000010
00000100
00000010
00000000
00000000
00000000
00000000
00000000
00000001
00000000
00000000
00000000
00000000
00000000
00000100
00000000
00000000
00000000
00000100
00000000
,
00001000
00000000
00001000
00010000
00000000
00010000
01000000
10000000
01000000
10000000
00000000
00000000
,
00010000
00000000
00000000
00000000
10000000
01000000
10000000
00000000
00000000
00000000
10000000
00000000
01000000
00000000
00000000
00000000
01000000
00000000
00010000
00000000
00000000
00000000
00010000
00000000
,
00001000
00000000
00001000
00000100
00000000
00000100
00000001
00001000
00000001
00001000
00000000
00000000
,
00000001
00000000
00000010
00001000
00000000
00010000
00001000
00000000
00000100
00001000
00000000
00010000
,
00001000
00000000
00000010
00001000
00000000
00010000
00001000
00000000
00000100
00001000
00000000
00010000
,
00100000
00000000
10000000
01000000
00000000
00010000
01000000
00000000
10000000
01000000
00000000
00010000
,
00001000
00000000
00000100
00001000
00000000
00010000
00001000
00000100
00000001
00001000
00000000
00000001
,
00000100
00000000
00001000
00000100
00000000
00000001
00000100
00000000
00001000
00000100
00000000
00000001
,
00000100
00000000
00001000
00010000
00000000
01000000
10000000
01000000
00010000
00001000
00000000
00010000
,
01000000
00000000
10000000
01000000
00000000
00010000
01000000
00000000
10000000
01000000
00000000
00010000
,
01000000
00000000
10000000
01000000
00000000
00010000
01000000
10000000
01000000
00010000
00000000
00001000
,
00000100
00000000
00000001
00000100
00000000
00001000
00010000
01000000
00010000
00001000
00000000
00000100
,
00000001
00000000
00000100
00001000
00000000
00010000
01000000
00010000
00001000
00000100
00000000
00000001
,
00000100
00000000
00001000
00010000
00000000
00001000
00000100
00000001
00000100
00001000
00000000
00000001
,
00000100
00000010
00001000
00000001
00000100
00000000
00000010
00000000
00000100
00000000
00000010
00000000
00000100
00000010
00001000
00000001
00000100
00000000
00000010
00000000
00000100
00000000
00000010
00000000
,
00000100
00000010
00001000
00000001
00000100
00000000
00001000
00000000
00010000
00000000
01000000
00000000
10000000
00000000
00010000
00000000
10000000
00000000
00010000
00000000
10000000
00000000
00010000
00000000
,
01000000
00100000
10000000
00010000
01000000
00000000
00100000
00000000
01000000
00000000
00100000
00000000
01000000
00100000
10000000
00010000
01000000
00000000
00100000
00000000
01000000
00000000
00100000
00000000
,
01000000
00100000
10000000
00010000
01000000
00000000
00100000
00000000
01000000
00000000
00100000
00000000
10000000
00000000
01000000
00000000
00010000
00000000
00001000
00000000
00000100
00000000
00000001
00000000
,
00000020
00000000
00000000
00000030
;

//---------------dance-double - ----------------
#NOTES:
     dance-double:
     :
     Hard:
     16:
     0.864262,1.079081,0.000000,0.009307,1.493843,650.000000,650.000000,0.000000,1.000000,0.000000,0.000000,0.864262,1.079081,0.000000,0.009307,1.493843,650.000000,650.000000,0.000000,1.000000,0.000000,0.000000:
00000000
00000000
00000000
00000000
,
00000000
00000000
00000000
00000000
,
00000000
00000000
00000000
00000000
,
00000000
00000000
00000000
00000000
,
00000001
00000100
00001000
00010000
,
00001000
00000000
00000100
00001000
00000000
00010000
00100000
00000000
00000000
10000000
00000000
00000000
,
01000000
00010000
00001000
00000100
,
00001000
00000000
00010000
01000000
00000000
00010000
00001000
00000000
00000000
00000100
00000000
00000000
,
00000001
00000010
00000001
00000010
00000001
00000010
00000001
00000010
00001000
00010000
00100000
10000000
,
00100000
10000000
00100000
10000000
00100000
10000000
00100000
00010000
00001000
00000010
00000001
00001000
,
00000001
00000000
00000010
00000100
00000000
00000000
00000001
00000000
00000010
00001000
00000000
00000000
,
00010000
00000000
00100000
10000000
00000000
00000000
00010000
00000000
00000000
00010000
00000000
00000000
,
10000000
00000000
01000000
00010000
00000000
00000000
00001000
00000000
00000000
00010000
00000000
00000000
,
01000000
00000000
00000000
10000000
00000000
00000000
00010000
01000000
10000000
01000000
00000000
00000000
,
00010000
00000000
00001000
00000100
00000000
00000000
00000001
00000000
00000000
00000010
00000000
00000000
,
00001000
00000000
00000000
00000010
00000000
00000000
00000001
00000100
00001000
00000100
00000000
00000000
,
00000001
00000000
00000010
00001000
00000000
00000000
00010000
00000000
00000000
00100000
00000000
00000000
,
10000000
00000000
00000000
01000000
00000000
00000000
00010000
01000000
10000000
01000000
00000000
00000000
,
00100000
00010000
00100000
00010000
00100000
00010000
01000000
00100000
00010000
00001000
00000100
00000010
,
00000001
00000100
00000001
00000100
00000001
00000100
00000001
00000010
00001000
00010000
00100000
10000000
,
01000000
00100000
01000000
00100000
01000000
00100000
00010000
01000000
00100000
00010000
00001000
00000100
,
00000001
00001000
00000001
00001000
00000001
00001000
00000001
00000100
00001000
00010000
01000000
10000000
,
00100000
10000000
00100000
10000000
00100000
10000000
01000000
00010000
00001000
00000100
00000001
00000010
,
00000100
00001000
00000100
00001000
00000100
00001000
00000010
00000100
00001000
00010000
01000000
10000000
,
00010000
01000000
00010000
01000000
00010000
01000000
00100000
10000000
01000000
00010000
00001000
00000100
,
00000001
00000000
00000000
00001000
00000000
00000000
00010000
10000000
00010000
10000000
00000000
00000000
,
00100000
00000000
10000000
01000000
00000000
00000000
00100000
00000000
10000000
01000000
00000000
00000000
,
00010000
00000000
00001000
00000100
00000000
00000000
00000001
00000000
00000000
00000001
00000000
00000000
,
00001000
00000000
00000010
00000100
00000000
00000000
00001000
00000000
00000000
00001000
00000000
00000000
,
00010000
00000000
00000000
01000000
00000000
00000000
10000000
00100000
00010000
00100000
00000000
00000000
,
10000000
00000000
00010000
01000000
00000000
00000000
00100000
00000000
00000000
00100000
00000000
00000000
,
00010000
00000000
00000000
00001000
00000000
00000000
00000100
00000001
00000100
00000010
00000000
00000000
,
00001000
00000000
00000100
00000010
00000000
00000000
00001000
00000000
00000000
00001000
00000000
00000000
,
00010000
00000000
00000000
00100000
00000000
00000000
10000000
01000000
00010000
01000000
00000000
00000000
,
10000000
00000000
00000000
00010000
00000000
00000000
00100000
10000000
00100000
00010000
00000000
00000000
,
01000000
00000000
00000000
00100000
00000000
00010000
00001000
00000000
00001000
00000010
00000000
00000000
,
00000001
00000100
00000010
00001000
00000000
00001000
00000100
00000000
00000000
00000010
00000000
00000000
,
00001000
00000000
00000000
00010000
00000000
00100000
10000000
00000000
10000000
01000000
00000000
00000000
,
00100000
10000000
00100000
00010000
00000000
01000000
00100000
00000000
00000000
00010000
00000000
00000000
,
00001000
00000000
00000000
00000100
00000000
00000001
00001000
00000000
00001000
00000010
00000000
00000000
,
00000100
00001000
00010000
01000000
00000000
10000000
00010000
00000000
00000000
01000000
00000000
00000000
,
00100000
10000000
01000000
10000000
00100000
10000000
01000000
00100000
00010000
00100000
01000000
00100000
,
00001000
00010000
00001000
00000100
00001000
00010000
00000100
00000010
00000100
00000010
00000001
00000010
,
00000001
00000000
00000000
00000100
00000000
00001000
00010000
00000000
01000000
10000000
00000000
00000000
,
01000000
00000000
00010000
00001000
00000000
00000100
00000001
00000000
00000000
00001000
00000000
00000000
,
00000010
00000000
00000000
00000100
00000000
00001000
00010000
00000000
01000000
10000000
00000000
00000000
,
00100000
00000000
00010000
00001000
00000000
00000010
00000001
00000000
00000000
00001000
00000000
00000000
,
00000001
00000100
00000010
00000100
00000001
00000100
00000010
00001000
00000100
00001000
00000010
00001000
,
00000100
00010000
00001000
00010000
00000100
00010000
00001000
00100000
00010000
00100000
00001000
00100000
,
01000000
10000000
01000000
00100000
01000000
10000000
00010000
00100000
01000000
00100000
00010000
00100000
,
01000000
10000000
00010000
10000000
01000000
10000000
00100000
00010000
00001000
00000100
00000001
00001000
,
00000010
00000000
00000100
00000000
00000010
00000100
00000010
00000000
00000100
00000000
00000010
00000000
,
00000100
00000000
00000010
00000000
00000100
00000000
00000010
00000100
00000010
00000100
00000000
00000000
,
00000001
00000000
00000010
00000000
00001000
00000000
00010000
00000000
00100000
00000000
10000000
00000000
,
10000000
00000000
01000000
00000000
00010000
00000000
00001000
00000000
00000100
00000000
00000001
00000000
,
00000001
00000000
00000010
00000000
00001000
00000000
00010000
00000000
00100000
00000000
10000000
00000000
,
10000000
00000000
01000000
00000000
00010000
00000000
00001000
00000000
00000100
00000000
00000001
00000000
,
00001000
00000010
00000100
00001000
00000000
00000000
00010000
00100000
01000000
00010000
00000000
00000000
,
00010000
01000000
00100000
00010000
00000000
00000000
00001000
00000100
00000010
00001000
00000000
00000000
,
00000001
00000000
00000100
00000000
00001000
00000000
00010000
00000000
01000000
00000000
10000000
00000000
,
00100000
00000000
00000000
00100000
00000000
00000000
00100000
01000000
00100000
01000000
00000000
00000000
,
00010000
01000000
00100000
10000000
00000000
00000000
10000000
01000000
00100000
00010000
00000000
00000000
,
00001000
00000010
00000100
00000001
00000000
00000000
00000001
00000010
00000100
00001000
00000000
00000000
,
00000001
00001000
00010000
10000000
,
00100000
10000000
01000000
00100000
00010000
01000000
00100000
00010000
00001000
00000100
00000001
00000010
,
00000100
00000000
00000000
00000000
,
00000000
00000000
00000000
00000000
,
01000000
00000000
00000000
00000000
,
00100000
00100000
00100000
00000000
,
10000000
00000000
00010000
01000000
00000000
00000000
00100000
00000000
00010000
00001000
00000000
00000000
,
00000100
00000000
00000001
00001000
00000000
00000000
00000010
00000000
00000000
00000010
00000000
00000000
,
00000100
00000000
00001000
00010000
00000000
00000000
01000000
00000000
00000000
01000000
00000000
00000000
,
10000000
00000000
00000000
10000000
00000000
00000000
00100000
00010000
00100000
10000000
00000000
00000000
,
00010000
00000000
01000000
00100000
00000000
00000000
00010000
00000000
00000000
00010000
00000000
00000000
,
00001000
00000000
00000000
00000100
00000000
00000000
00000001
00000010
00001000
00000010
00000000
00000000
,
00000001
00000000
00000100
00000010
00000000
00000000
00000001
00000000
00000000
00000010
00000000
00000000
,
00001000
00000000
00000000
00000100
00000000
00000000
00000010
00001000
00010000
00100000
00000000
00000000
,
10000000
00000000
01000000
00010000
00000000
01000000
00100000
00000000
01000000
10000000
00000000
01000000
,
00100000
00000000
01000000
00010000
00000000
00001000
00000100
00000000
00000001
00001000
00000000
00000000
,
00000001
00000000
00000100
00000010
00000000
00000100
00001000
00000000
00000100
00000001
00000000
00001000
,
00000010
00000000
00000010
00000001
00000000
00000010
00001000
00000001
00000100
00000010
00000000
00000100
,
00000001
00000000
00000010
00000100
00000000
00000010
00001000
00000000
00000010
00000100
00000000
00000010
,
00000001
00000000
00000100
00001000
00000000
00001000
00010000
01000000
10000000
00100000
00000000
00000000
,
10000000
00000000
01000000
00100000
00000000
01000000
00010000
00000000
01000000
00100000
00000000
01000000
,
10000000
00000000
10000000
00100000
00000000
00100000
00010000
00001000
00000010
00000001
00000000
00000001
,
00000010
00000000
00000010
00001000
00000000
00001000
00010000
00100000
10000000
00100000
00000000
00010000
,
00001000
00000000
00001000
00000010
00000000
00000010
00000001
00000010
00001000
00010000
00000000
00100000
,
10000000
00000000
10000000
00100000
00000000
00100000
00010000
00001000
00000010
00000001
00000000
00000000
,
00000001
00000100
00000010
00000100
00000001
00000100
00000001
00000010
00000100
00000010
00000001
00000010
,
00000001
00000100
00001000
00010000
01000000
10000000
00100000
01000000
00100000
10000000
00100000
01000000
,
00010000
00100000
01000000
00100000
00010000
00100000
00010000
01000000
00100000
01000000
00010000
01000000
,
00100000
00010000
00001000
00000100
00000001
00001000
00000010
00000100
00000010
00001000
00000010
00000100
,
00000002
00000000
00000000
00000003
;

//---------------dance-double - ----------------
#NOTES:
     dance-double:
     :
     Medium:
     14:
     0.695398,1.079081,0.000000,0.130304,1.023818,523.000000,523.000000,0.000000,14.000000,0.000000,0.000000,0.695398,1.079081,0.000000,0.130304,1.023818,523.000000,523.000000,0.000000,14.000000,0.000000,0.000000:
00000000
00000000
00000000
00000000
,
00000000
00000000
00000000
00000000
,
00000000
00000000
00000000
00000000
,
00000000
00000000
00000000
00000000
,
10000000
00100000
00010000
00100000
,
10000000
00000000
01000000
00100000
00000000
00001000
00010000
00000000
00000000
00001000
00000000
00000000
,
00000100
00000001
00000100
00001000
,
00010000
00000000
00000010
00000100
00000000
00000001
00001000
00000000
00000000
00000010
00000000
00000000
,
00000100
00000001
00000100
00000001
00000100
00000001
00000100
00000001
00000100
00000001
00000100
00000001
,
00001000
00000010
00001000
00000010
00001000
00000010
00001000
00000010
00001000
00000010
00001000
00000010
,
00001000
00000000
00000001
00000010
00000000
00000000
00000001
00000000
00001000
00000010
00000000
00000000
,
00000100
00000000
00001000
00010000
00000000
00000000
01000000
00000000
00000000
10000000
00000000
00000000
,
00010000
00000000
10000000
00100000
00000000
00000000
10000000
00000000
00000000
00010000
00000000
00000000
,
10000000
00000000
00000000
01000000
00000000
00000000
00010000
00001000
00000100
00000001
00000000
00000000
,
00001000
00000000
00000100
00000010
00000000
00000000
00000100
00000000
00000000
00000100
00000000
00000000
,
00001000
00000000
00000000
00000001
00000000
00000000
00000100
00001000
00000100
00000001
00000000
00000000
,
00000010
00000000
00001000
00010000
00000000
00000000
00100000
00000000
00000000
10000000
00000000
00000000
,
00010000
00000000
00000000
00010000
00000000
00000000
10000000
01000000
00010000
01000000
00000000
00000000
,
10000000
00000000
00100000
01000000
00000000
00000000
10000000
00000000
00100000
01000000
00000000
00000000
,
10000000
00000000
00100000
01000000
00000000
00000000
00010000
00000000
00000000
00010000
00000000
00000000
,
01000000
00000000
00001000
00010000
00000000
00000000
00000010
00000000
00000000
00000010
00000000
00000000
,
00000100
00000000
00000000
00000001
00000000
00000000
00001000
00000010
00000001
00000010
00000000
00000000
,
00001000
00000000
00000001
00000010
00000000
00000000
00000100
00000000
00000000
00000100
00000000
00000000
,
00010000
00000000
00000000
00001000
00000000
00000000
01000000
00100000
10000000
00010000
00000000
00000000
,
10000000
00000000
01000000
00100000
00000000
00000000
00001000
00000000
00000000
00001000
00000000
00000000
,
00010000
00000000
00000000
00000010
00000000
00000000
00000100
00000001
00001000
00000010
00000000
00000000
,
00000100
00000000
00000001
00000010
00000000
00000000
00000100
00000000
00000001
00000010
00000000
00000000
,
00000100
00000000
00000001
00000010
00000000
00000000
00000100
00000000
00000000
00000100
00000000
00000000
,
00001000
00000000
00000010
00000100
00000000
00000000
00001000
00000000
00000000
00001000
00000000
00000000
,
00010000
00000000
00000000
01000000
00000000
00000000
10000000
00100000
00010000
00100000
00000000
00000000
,
10000000
00000000
00010000
01000000
00000000
00000000
00100000
00000000
00000000
00100000
00000000
00000000
,
10000000
00000000
00000000
01000000
00000000
00000000
00100000
00010000
00100000
10000000
00000000
00000000
,
00100000
00000000
00010000
01000000
00000000
00000000
00100000
00000000
00000000
00100000
00000000
00000000
,
00010000
00000000
00000000
00001000
00000000
00000000
00000100
00000001
00000100
00000010
00000000
00000000
,
00001000
00000000
00000000
00000001
00000000
00000000
00000010
00001000
00000010
00000001
00000000
00000000
,
00000200
00000000
00000000
00000000
00000000
00000000
00000000
00000000
00000000
00000310
00010000
00001000
,
00020000
00000000
00000000
00000000
00000000
00000000
00000000
00000000
00000000
00031000
00100000
01000000
,
20000000
00000000
00000000
00000000
00000000
00000000
00000000
00000000
00000000
30100000
01000000
00010000
,
02000000
00000000
03200000
00000000
,
00320000
00000000
00000000
00000000
00000000
00000000
00000000
00000000
00000000
00031000
00000100
00000001
,
00002000
00000000
00003020
00000000
,
00000130
00000001
00000100
00000010
00000100
00000001
00001000
00000100
00000010
00000100
00001000
00000100
,
00010000
00001000
00100000
00001000
00010000
00001000
00100000
01000000
10000000
01000000
00100000
01000000
,
20000000
00000000
00000000
00000000
00000000
00000000
00000000
00000000
00000000
30100000
01000000
00010000
,
00200000
00000000
00000000
00000000
00000000
00000000
00000000
00000000
00000000
01300000
00010000
00001000
,
00000200
00000000
00000000
00000000
00000000
00000000
00000000
00000000
00000000
00000301
00001000
00000100
,
00000020
00000000
00000032
00000000
,
00001003
00000100
00000010
00000100
00001000
00000100
00000010
00000001
00001000
00000001
00000010
00000001
,
00001000
00000100
00010000
00000100
00001000
00000100
00010000
00001000
00100000
00001000
00010000
00001000
,
00100000
01000000
10000000
01000000
00100000
01000000
10000000
00010000
10000000
00100000
10000000
00010000
,
01000000
00100000
10000000
00100000
01000000
00100000
10000000
01000000
00100000
00010000
01000000
00100000
,
10000000
00000000
00000000
00000000
,
00000000
00000000
00000000
00000000
,
00000001
00000000
00000001
00000000
00000001
00000000
00000001
00000000
00000001
00000000
00000001
00000000
,
00000001
00000000
00000001
00000000
00000001
00000000
00000001
00000000
00000001
00000000
00000001
00000000
,
00000001
00000000
00000001
00000000
00000001
00000000
00000001
00000000
00000001
00000000
00000001
00000000
,
00000001
00000000
00000001
00000000
00000001
00000000
00000001
00000000
00000001
00000000
00000001
00000000
,
00000001
00000100
00000010
00001000
00000000
00000000
00000100
00000010
00010000
00001000
00000000
00000000
,
00010000
00001000
01000000
00100000
00000000
00000000
10000000
01000000
00100000
00010000
00000000
00000000
,
10000000
00000000
10000000
00000000
10000000
00000000
10000000
00000000
10000000
00000000
10000000
00000000
,
10000000
00000000
00000000
10000000
00000000
00000000
10000000
00010000
10000000
00010000
00000000
00000000
,
01000000
00100000
01000000
00100000
00000000
00000000
00001000
00010000
00001000
00010000
00000000
00000000
,
00000100
00000010
00000100
00000010
00000000
00000000
00000001
00001000
00000001
00001000
00000000
00000000
,
00000001
00000100
00001000
00010000
,
01000000
00000000
10000000
00000000
01000000
00000000
00010000
00000000
01000000
00000000
10000000
00000000
,
01000000
00000000
00000000
00000000
,
00000000
00000000
00000000
00000000
,
00000100
00000000
00000000
00000000
,
00000010
00000010
00000010
00000000
,
00000001
00000000
00001000
00000100
00000000
00000000
00000001
00000000
00001000
00000100
00000000
00000000
,
00000001
00000000
00001000
00000100
00000000
00000000
00000010
00000000
00000000
00000010
00000000
00000000
,
00001000
00000000
00010000
01000000
00000000
00000000
10000000
00000000
00000000
10000000
00000000
00000000
,
00100000
00000000
00000000
01000000
00000000
00000000
00010000
00100000
10000000
00100000
00000000
00000000
,
00010000
00000000
00100000
01000000
00000000
00000000
10000000
00000000
00000000
10000000
00000000
00000000
,
01000000
00000000
00000000
00010000
00000000
00000000
00001000
00000100
00000001
00001000
00000000
00000000
,
00000010
00000000
00000100
00001000
00000000
00000000
00010000
00000000
00000000
00010000
00000000
00000000
,
01000000
00000000
00000000
10000000
00000000
00000000
01000000
00010000
01000000
10000000
00000000
00000000
,
00100000
00000000
01000000
00010000
00000000
00000000
00100000
00000000
01000000
00010000
00000000
00000000
,
00100000
00000000
01000000
00010000
00000000
00000000
01000000
00000000
00000000
01000000
00000000
00000000
,
00100000
00000000
00010000
00001000
00000000
00000000
00000100
00000000
00000000
00000100
00000000
00000000
,
00000001
00000000
00000000
00001000
00000000
00000000
00000010
00000100
00000001
00001000
00000000
00000000
,
00000001
00000000
00000100
00000010
00000000
00000000
00000001
00000000
00000000
00000001
00000000
00000000
,
00000010
00000000
00000000
00001000
00000000
00000000
00010000
00100000
10000000
00010000
00000000
00000000
,
10000000
00000000
01000000
00100000
00000000
00000000
10000000
00000000
00000000
10000000
00000000
00000000
,
00100000
00000000
00000000
00010000
00000000
00000000
00001000
00000100
00000001
00001000
00000000
00000000
,
00000001
00000000
00000000
00000100
00000000
00000000
00000001
00000100
00000001
00000100
00000000
00000000
,
00001000
00000000
00000000
00010000
00000000
00000000
00001000
00010000
00001000
00010000
00000000
00000000
,
01000000
00000000
00000000
10000000
00000000
00000000
01000000
10000000
01000000
10000000
00000000
00000000
,
00100000
01000000
00100000
01000000
00100000
01000000
00100000
01000000
00100000
01000000
00100000
01000000
,
00100000
01000000
00100000
01000000
00100000
01000000
00001000
00000000
00000000
00010000
00000000
00000000
,
00000100
00000010
00000100
00000010
00000100
00000010
00000100
00000010
00000100
00000010
00000100
00000010
,
00000100
00000010
00000100
00000010
00000100
00000010
00000100
00000010
00000100
00000010
00000100
00000010
,
00000002
00000000
00000000
00000003
;

//---------------dance-double - ----------------
#NOTES:
     dance-double:
     :
     Easy:
     12:
     0.615620,1.079081,0.000000,0.148919,0.809747,463.000000,463.000000,0.000000,16.000000,0.000000,0.000000,0.615620,1.079081,0.000000,0.148919,0.809747,463.000000,463.000000,0.000000,16.000000,0.000000,0.000000:
00000000
00000000
00000000
00000000
,
00000000
00000000
00000000
00000000
,
00000000
00000000
00000000
00000000
,
00000000
00000000
00000000
00000000
,
10000000
01000000
00100000
00010000
,
01000000
00000000
00001000
00010000
00000000
00001000
00010000
00000000
00000000
00000100
00000000
00000000
,
00000010
00000001
00001000
00000100
,
00010000
00000000
00001000
01000000
00000000
00001000
01000000
00000000
00000000
00100000
00000000
00000000
,
20000000
00000000
00000000
00000000
,
00020000
00000000
00000000
30030000
,
10000000
00000000
00010000
01000000
00000000
00000000
00010000
00000000
00100000
01000000
00000000
00000000
,
00010000
00000000
00001000
00000100
00000000
00000000
00000001
00000000
00000000
00000001
00000000
00000000
,
00001000
00000000
00000010
00000100
00000000
00000000
00001000
00000000
00000000
00001000
00000000
00000000
,
00010000
00000000
00000000
01000000
00000000
00000000
10000000
00010000
10000000
00010000
00000000
00000000
,
01000000
00000000
00010000
00100000
00000000
00000000
01000000
00000000
00000000
00010000
00000000
00000000
,
00001000
00000000
00000000
00000100
00000000
00000000
00000001
00001000
00000001
00001000
00000000
00000000
,
00000010
00000000
00000100
00000001
00000000
00000000
00000010
00000000
00000000
00001000
00000000
00000000
,
00010000
00000000
00000000
00100000
00000000
00000000
10000000
00010000
10000000
00010000
00000000
00000000
,
10000000
00000000
01000000
00100000
00000000
00000000
00010000
00000000
01000000
00100000
00000000
00000000
,
10000000
00000000
01000000
00100000
00000000
00000000
00010000
00000000
00000000
00010000
00000000
00000000
,
01000000
00000000
00100000
00010000
00000000
00000000
00001000
00000000
00000000
00000100
00000000
00000000
,
00000001
00000000
00000000
00001000
00000000
00000000
00000010
00000100
00000001
00001000
00000000
00000000
,
00000001
00000000
00000010
00001000
00000000
00000000
00010000
00000000
00000000
00100000
00000000
00000000
,
10000000
00000000
00000000
00010000
00000000
00000000
10000000
01000000
00100000
00010000
00000000
00000000
,
01000000
00000000
00100000
00010000
00000000
00000000
00001000
00000000
00000000
00000100
00000000
00000000
,
00000001
00000000
00000000
00001000
00000000
00000000
00000010
00000100
00000001
00001000
00000000
00000000
,
00000010
00000000
00000100
00000001
00000000
00000000
00000010
00000000
00000100
00001000
00000000
00000000
,
00000010
00000000
00000100
00000001
00000000
00000000
00001000
00000000
00000000
00000010
00000000
00000000
,
00000100
00000000
00001000
00010000
00000000
00000000
01000000
00000000
00000000
10000000
00000000
00000000
,
00100000
00000000
00000000
01000000
00000000
00000000
00010000
10000000
00100000
01000000
00000000
00000000
,
00100000
00000000
00010000
00001000
00000000
00000000
00000100
00000000
00000000
00000001
00000000
00000000
,
00001000
00000000
00000000
00000010
00000000
00000000
00000100
00000001
00001000
00000010
00000000
00000000
,
00000100
00000000
00001000
00010000
00000000
00000000
01000000
00000000
00000000
10000000
00000000
00000000
,
00010000
00000000
00000000
01000000
00000000
00000000
00100000
10000000
01000000
00100000
00000000
00000000
,
00001000
00000000
00000000
00010000
00000000
00000000
00000010
00000100
00000001
00000010
00000000
00000000
,
00000200
00000000
00000000
00000000
00000000
00000000
00000000
00000000
00000000
00000310
00000001
00001000
,
00000020
00000000
00000000
00000000
00000000
00000000
00000000
00000000
00000000
00010030
00001000
01000000
,
00200000
00000000
00000000
00000000
00000000
00000000
00000000
00000000
00000000
01300000
10000000
01000000
,
20000000
00000000
30200000
00000000
,
02300000
00000000
00000000
00000000
00000000
00000000
00000000
00000000
00000000
03010000
00100000
00001000
,
00020000
00000000
00030200
00000000
,
00000310
00000001
00000010
00000001
00000010
00000001
00000100
00000010
00000100
00000010
00000100
00000010
,
00010000
00001000
00010000
00001000
00010000
00001000
00100000
00010000
00100000
00010000
00100000
00010000
,
02000000
00000000
00000000
00000000
00000000
00000000
00000000
00000000
00000000
03100000
10000000
00010000
,
00200000
00000000
00000000
00000000
00000000
00000000
00000000
00000000
00000000
00301000
00010000
00000100
,
00000020
00000000
00000000
00000000
00000000
00000000
00000000
00000000
00000000
00000031
00000100
00000010
,
00020000
00000000
00032000
00000000
,
01003000
00100000
01000000
00100000
01000000
00100000
10000000
00010000
10000000
00010000
10000000
00010000
,
01000000
00001000
01000000
00001000
01000000
00001000
00010000
00001000
00010000
00001000
00010000
00001000
,
00010000
00000010
00010000
00000010
00010000
00000010
00000100
00000001
00000100
00000001
00000100
00000001
,
00001000
00000100
00001000
00000100
00001000
00000100
00000010
00000001
00000010
00000001
00000010
00000001
,
00000010
00000000
00000000
00000000
,
00000000
00000000
00000000
00000000
,
00000001
00000000
00001000
00000000
00000001
00000000
00001000
00000000
00000001
00000000
00001000
00000000
,
00000001
00000000
00001000
00000000
00000001
00000000
00001000
00000000
00000001
00000000
00001000
00000000
,
00000001
00000000
00001000
00000000
00000001
00000000
00001000
00000000
00000001
00000000
00001000
00000000
,
00000001
00000000
00001000
00000000
00000001
00000000
00001000
00000000
00000001
00000000
00001000
00000000
,
00000001
00000000
00001000
00000000
,
00010000
00000000
10000000
00000000
,
10000000
00000000
00010000
00000000
10000000
00000000
00010000
00000000
10000000
00000000
00010000
00000000
,
10000000
10000000
00010000
00010000
,
01000000
00000000
00001000
00000000
,
00010000
00000000
00000100
00000000
,
00000010
00000001
00000010
00000001
,
00001000
00000000
00000100
00000000
00001000
00000000
00000100
00000000
00001000
00000000
00000100
00000000
,
00001000
00000000
00000000
00000000
,
00000000
00000000
00000000
00000000
,
00000100
00000000
00000000
00000000
,
01000000
01000000
01000000
00000000
,
00010000
00000000
01000000
00100000
00000000
00000000
10000000
00000000
01000000
00100000
00000000
00000000
,
00010000
00000000
01000000
00100000
00000000
00000000
10000000
00000000
00000000
10000000
00000000
00000000
,
01000000
00000000
00010000
00001000
00000000
00000000
00000100
00000000
00000000
00000001
00000000
00000000
,
00001000
00000000
00000000
00000010
00000000
00000000
00000100
00000001
00000100
00000001
00000000
00000000
,
00000010
00000000
00000100
00001000
00000000
00000000
00000010
00000000
00000000
00000100
00000000
00000000
,
00001000
00000000
00000000
00010000
00000000
00000000
01000000
10000000
01000000
10000000
00000000
00000000
,
00100000
00000000
01000000
00010000
00000000
00000000
01000000
00000000
00000000
00100000
00000000
00000000
,
00010000
00000000
00000000
00001000
00000000
00000000
00000100
00000001
00000100
00000001
00000000
00000000
,
00001000
00000000
00000010
00000100
00000000
00000000
00000001
00000000
00000010
00000100
00000000
00000000
,
00001000
00000000
00000010
00000100
00000000
00000000
00000001
00000000
00000000
00000001
00000000
00000000
,
00000010
00000000
00000100
00010000
00000000
00000000
00001000
00000000
00000000
00001000
00000000
00000000
,
01000000
00000000
00000000
00100000
00000000
00000000
10000000
00010000
01000000
00100000
00000000
00000000
,
10000000
00000000
01000000
00100000
00000000
00000000
00001000
00000000
00000000
00001000
00000000
00000000
,
00010000
00000000
00000000
00000010
00000000
00000000
00000100
00000001
00001000
00000010
00000000
00000000
,
00000100
00000000
00000010
00010000
00000000
00000000
00001000
00000000
00000000
01000000
00000000
00000000
,
00100000
00000000
00000000
00100000
00000000
00000000
10000000
00010000
10000000
00010000
00000000
00000000
,
01000000
00000000
00000000
01000000
00000000
00000000
00001000
00010000
00001000
00010000
00000000
00000000
,
00000100
00000000
00000000
00000100
00000000
00000000
00001000
00000001
00001000
00000001
00000000
00000000
,
00000100
00000000
00000000
00000010
00000000
00000000
00010000
00001000
01000000
00100000
00000000
00000000
,
01000000
00100000
01000000
00100000
00000000
00000000
00100000
01000000
00100000
01000000
00000000
00000000
,
01000000
00100000
01000000
00100000
00000000
00000000
00001000
00000000
00000000
00010000
00000000
00000000
,
00000010
00000100
00000010
00000100
00000000
00000000
00000100
00000010
00000100
00000010
00000000
00000000
,
00000010
00000100
00000010
00000100
00000000
00000000
00000100
00000010
00000100
00000010
00000100
00000010
,
00002000
00000000
00000000
00003000
;
