#TITLE:Night of Your Life;
#SUBTITLE:;
#ARTIST:David Guetta feat. Jennifer Hudson;
#TITLETRANSLIT:;
#SUBTITLETRANSLIT:;
#ARTISTTRANSLIT:;
#GENRE:Pop;
#CREDIT:;
#BANNER:nightofyourlife-bn.png;
#BACKGROUND:nightofyourlife-bg.png;
#LYRICSPATH:;
#CDTITLE:;
#MUSIC:Night of Your Life.mp3;
#OFFSET:-0.045000;
#SAMPLESTART:51.764999;
#SAMPLELENGTH:12.000000;
#SELECTABLE:YES;
#BPMS:0.000000=128.000000
;
#STOPS:
;
#BGCHANGES:;
#KEYSOUNDS:;
#ATTACKS:;

//---------------dance-single - ----------------
#NOTES:
     dance-single:
     :
     Hard:
     12:
     0.533237,0.542966,0.430030,0.051604,0.434330,434.000000,384.000000,50.000000,6.000000,0.000000,0.000000,0.533237,0.542966,0.430030,0.051604,0.434330,434.000000,384.000000,50.000000,6.000000,0.000000,0.000000:
0000
0000
0000
0000
,
0000
0000
0000
0000
,
0000
0000
0000
0000
,
0000
0000
0000
0000
0000
0000
0000
0000
0000
0000
0000
0000
0001
1000
0001
1000
,
0001
0000
0010
0000
0001
0100
0001
0100
0000
0010
0000
0000
1000
0000
0100
0000
,
1000
0000
0010
0000
1000
0100
1000
0100
0000
0010
0000
0000
0001
0000
0010
0000
,
0100
0000
1000
0000
0100
0010
0100
0010
0000
0001
0000
0000
1000
0000
0010
0000
,
0100
0000
0001
0000
0100
0010
0100
0010
0000
1000
0000
0000
0001
0000
0100
0000
,
0001
0000
0010
0000
0001
1000
0001
1000
0000
0010
0000
0000
1000
0000
0001
0000
,
1000
0000
0100
0000
1000
0010
1000
0010
0000
0100
0000
0000
0001
0000
0010
0000
,
0100
0000
1000
0000
0100
1000
0100
1000
0000
0001
0000
0000
0100
0000
0001
0000
,
1000
0000
0100
0000
0010
0100
0010
0100
0000
1000
0000
0000
0100
0000
1000
0000
,
0100
0000
0010
0000
0001
0000
1000
0010
0000
0100
0000
0010
1000
0000
0100
0000
,
0010
0000
0001
0000
0100
0000
0010
0100
0000
0001
0000
0100
0010
0000
1000
0000
,
0001
0000
0100
0000
0010
0000
1000
0100
0000
0010
0000
0001
1000
0000
0001
0000
,
0010
0000
0100
0000
1000
0000
0010
0100
0000
0001
0000
1000
0001
0000
0100
0000
,
0010
0000
1000
0000
0001
0000
0100
0010
0000
1000
0000
0100
1000
0000
0010
0000
,
0100
0000
0010
0000
1000
0000
0001
0100
0000
0010
0000
0100
0001
0000
1000
0000
,
1001
0000
1000
0200
0000
0000
0310
0001
,
1000
0000
0001
0000
0100
0000
0000
0000
0010
1000
0010
1000
0010
0000
0000
0000
,
1100
0000
1010
0000
0000
0000
0000
0101
,
0000
1001
0000
0011
0000
0011
0000
0000
,
0110
0000
1100
0000
0000
0000
0000
0110
,
0000
1010
0000
1100
0000
1100
0000
0000
,
0010
0000
0100
0000
1000
0000
0010
0100
0000
0100
0001
0000
1000
0000
0000
0000
,
0001
0000
0010
0000
0100
0000
1000
0010
0000
0010
1000
0000
0001
0000
0000
0000
,
0100
0000
0010
0000
1000
0000
0010
0100
0000
0100
0001
0000
1000
0000
0000
0000
,
0010
0000
0100
0000
0001
0000
1000
0000
0100
0010
0100
0010
0100
0000
0000
0000
,
1100
0000
0101
0000
0010
1000
0100
0001
,
0100
1000
0000
1100
0000
0011
0001
1000
,
0001
0010
1000
0010
0100
0010
0001
0011
,
0000
1100
0000
1001
0000
0110
0010
1000
,
0001
0100
1000
0000
0000
1000
0100
0001
,
0010
0100
1000
1001
0000
1000
0001
1000
,
0010
0100
0010
1000
0001
0000
0100
0100
,
0000
0110
0000
1010
1000
0100
0010
0001
,
0000
0000
1000
0001
0000
0100
0000
0001
0000
0000
0100
0001
0000
0010
0000
0100
,
0000
0000
1000
0010
0000
0100
0000
0001
0000
0000
1000
0010
0000
0100
0000
0010
,
0000
0000
0100
0001
0000
0010
0000
0100
0000
0000
0010
0001
0000
1000
0000
0001
,
0000
0000
0010
0100
0000
1000
0000
0100
0000
0000
0100
0010
0000
0001
0000
1000
,
0001
0100
0010
1000
1100
0000
0011
0000
,
1000
0100
0010
0001
0202
0000
0303
0000
,
0000
0001
1000
0001
1001
0000
0100
0010
,
1000
0001
0021
0000
0000
0000
0000
0000
,
0130
0000
0000
0000
0000
0000
0000
1100
,
0000
0011
0000
1001
0000
0110
0000
0000
,
1010
0000
1010
0000
0000
0000
0000
0101
,
0000
0000
1010
0000
0000
0000
0001
0000
1000
0001
1000
0001
1000
0000
0000
0000
,
0101
0000
1010
0000
0000
0001
0100
0010
,
0001
0010
0000
1010
0000
1001
0001
0010
,
0100
0010
1000
0010
0001
1000
0100
0110
,
0000
1100
0000
0011
0000
1001
0001
1000
,
0001
0010
1000
0000
0000
1000
0010
0001
,
1000
1010
0000
0101
0000
0011
0010
0100
,
1000
0001
1000
0010
0100
0000
0100
0010
,
0000
1010
0000
0000
1000
0001
1000
0000
,
0010
0000
0100
0001
0000
1000
0000
0010
0000
0000
0100
0010
0000
1000
0000
0100
,
0000
0000
1000
0010
0000
0100
0000
0001
0000
0000
0010
0100
0000
1000
0000
0001
,
0000
0000
0100
0001
0000
1000
0000
0010
0000
0000
0100
0010
0000
1000
0000
0001
,
0000
0000
0010
0100
0000
0010
0000
0001
0000
0000
1000
0000
0000
0000
2200
0000
,
0000
3300
0000
0000
0000
0000
0000
0000
;

//---------------dance-single - ----------------
#NOTES:
     dance-single:
     :
     Medium:
     8:
     0.347710,0.361978,0.206414,0.051604,0.000000,283.000000,259.000000,24.000000,6.000000,0.000000,0.000000,0.347710,0.361978,0.206414,0.051604,0.000000,283.000000,259.000000,24.000000,6.000000,0.000000,0.000000:
0000
0000
0000
0000
,
0000
0000
0000
0000
,
0000
0000
0000
0000
,
0000
0000
0000
0000
0000
1000
0100
1000
,
0000
1100
0000
0000
0000
0001
0100
0001
,
0000
0101
0000
0000
0000
1000
0100
1000
,
0100
0000
0010
0000
0001
0100
0001
0100
,
0000
0101
0000
0000
0000
0001
0010
0001
,
0000
0011
0000
0000
0000
1000
0010
1000
,
0000
1010
0000
0000
0000
0001
0010
0001
,
0010
0000
0100
0000
1000
0010
1000
0010
,
0000
1010
0000
0000
0000
1000
0001
1000
,
0001
0000
0100
0000
0001
1000
0001
0000
,
1000
0000
0100
0000
0000
0010
0001
0010
,
0001
0000
0010
0000
0100
1000
0100
0000
,
0010
0000
0001
0000
0000
0001
1000
0001
,
1000
0000
0100
0000
1000
0001
1000
0000
,
0001
0000
0100
0000
0000
0010
1000
0010
,
2000
0000
3100
0020
0000
0030
0001
0200
,
0000
0020
0000
0330
0000
0000
0000
0000
,
1001
0000
0110
0000
0000
0010
0100
0010
,
0100
0001
0000
0000
0000
0100
0010
0100
,
0010
0000
1000
0000
0010
0100
0010
0100
,
0000
1001
0000
0000
0000
0001
0100
0001
,
0000
1000
0000
0000
0000
0100
0010
0001
,
0010
0001
0000
0000
0000
0010
0100
1000
,
0100
1000
0100
0010
0001
0000
0001
1000
,
0000
1010
0000
0000
0000
0000
0000
0000
,
1100
0000
0011
0000
0000
1000
0001
1000
,
0001
1000
0000
0000
0000
0010
0100
0010
,
0100
0001
0100
0000
0010
1000
0010
0100
,
0000
1001
0000
0000
0000
0100
0001
0100
,
0000
0010
0000
0000
0000
0010
1000
0100
,
1000
0100
0000
0000
0000
0100
1000
0001
,
1000
0001
0100
0001
0010
0000
0100
1000
,
0000
1010
0000
0000
1000
0100
0010
0001
,
0000
0000
0001
1000
0000
0001
0000
1000
,
0000
0001
0000
0000
0001
0010
0100
1000
,
0000
0001
0000
1000
0000
0001
0000
1000
,
0000
0001
0000
0000
0000
0000
0000
0000
,
0100
0010
0100
0010
0100
0000
1001
0000
,
0100
0010
0100
0010
0100
0000
0000
0000
,
0010
0100
0010
0100
0010
0000
1000
0001
,
1000
0001
2000
0000
0000
0000
0000
0000
,
3001
0000
0000
0000
0000
0000
0000
1000
,
0000
0100
0000
0001
0000
0100
0000
0000
,
1000
0000
0001
0000
0000
0000
0000
0100
,
0000
1000
0000
0100
0000
0001
0000
0000
,
0011
0000
1100
0000
0000
0001
1000
0001
,
1000
0001
0000
0000
0000
0100
0010
0100
,
0010
1000
0010
0000
0100
0001
0100
0010
,
0000
1001
0000
0000
0000
0010
1000
0010
,
0000
0100
0000
0000
0000
0100
0001
0010
,
0001
0010
0000
0000
0000
0010
0001
1000
,
0001
1000
0010
1000
0100
0000
0010
0001
,
0000
0101
0000
0000
0010
0100
0010
0100
,
0010
0000
1000
0001
0000
0100
0000
0001
,
0000
1100
0000
0000
0100
0010
0100
0010
,
0100
1100
0000
0011
,
0000
0100
0000
0001
0000
1100
0000
1020
,
0000
0030
0000
0000
0000
0000
0000
0000
;

//---------------dance-single - ----------------
#NOTES:
     dance-single:
     :
     Easy:
     5:
     0.237131,0.284411,0.137610,0.120408,0.000000,193.000000,177.000000,16.000000,14.000000,0.000000,0.000000,0.237131,0.284411,0.137610,0.120408,0.000000,193.000000,177.000000,16.000000,14.000000,0.000000,0.000000:
0000
0000
0000
0000
,
0000
0000
0000
0000
,
0000
0000
0000
0000
,
0000
0000
0000
0000
0000
0010
0000
0100
,
0000
0001
0000
0000
0000
0100
0000
0010
,
0000
1000
0000
0000
0000
0000
1000
0000
,
0100
0010
0100
1000
,
0001
0000
0000
0000
0000
0100
0000
0001
,
0000
1000
0000
0000
0000
0010
0000
1000
,
0000
0001
0000
0000
0000
0000
0100
0000
,
0001
1000
0001
0100
,
0010
1000
0000
0001
,
1000
0100
0010
0100
,
1000
0001
1001
1000
,
0001
0010
0100
0010
,
0001
1000
1001
1000
,
0001
0100
0010
0100
,
0001
1000
1001
0001
,
0010
0001
1000
0001
,
0200
0000
0000
0300
,
0110
0000
0110
0000
0000
0000
0000
1000
,
0000
0100
0000
0010
0000
0001
0000
0000
,
1001
0000
1001
0000
0000
0000
0000
0001
,
0000
0010
0000
0100
0000
1000
0000
0000
,
1010
0000
1010
0000
0000
0000
0000
1000
,
0000
0001
0000
0100
0000
0010
0000
0000
,
0101
0000
0101
0000
0000
0000
0000
0100
,
0000
0001
0000
1000
0000
0010
0000
0000
,
2000
0000
3200
0000
0300
1000
0000
0100
,
0000
0010
0000
0000
0000
0000
0001
0000
,
0100
0100
0001
0010
,
0011
0000
0000
0000
0000
0001
0000
0200
,
0000
0302
0000
0003
0000
0100
0000
0010
,
0000
1010
0000
0000
0000
0000
1000
0000
,
1000
0000
0001
0000
0001
0000
0000
1000
,
0000
0001
0000
0000
0000
0000
0000
0000
,
0010
1000
0100
1000
,
0010
0000
0100
0100
,
0100
0001
0010
0001
,
0100
0000
0000
0000
,
0001
0001
1000
1000
,
0001
1000
0001
0000
,
1000
1000
0001
0001
,
2000
0002
0000
3003
,
0100
0000
0000
0000
0000
0000
0000
0100
,
0000
0001
0000
1000
0000
0010
0000
0000
,
0010
0000
0010
0000
0000
0000
0000
0010
,
0000
1000
0000
0001
0000
0100
0000
0000
,
0002
0000
0023
0000
0030
0001
0000
0010
,
0000
0100
0000
0000
0000
0000
1000
0000
,
0010
0010
1000
0100
,
1100
0000
0000
0000
0000
1000
0000
0020
,
0000
2030
0000
3000
0000
0010
0000
0100
,
0000
0101
0000
0000
0000
0000
0001
0000
,
0001
0000
1000
0000
1000
0000
0000
0001
,
0000
1000
0000
0000
0010
0000
0010
0000
,
0010
1000
0001
1000
,
0010
0000
0100
0100
,
0001
2000
3000
0002
,
0003
0100
0000
0001
0000
0010
0000
0210
,
0000
0300
0000
0000
0000
0000
0000
0000
;

//---------------dance-single - ----------------
#NOTES:
     dance-single:
     :
     Beginner:
     2:
     0.115494,0.181365,0.017201,0.008601,0.000000,94.000000,92.000000,2.000000,1.000000,0.000000,0.000000,0.115494,0.181365,0.017201,0.008601,0.000000,94.000000,92.000000,2.000000,1.000000,0.000000,0.000000:
// measure 0
0000
0000
0000
0000
,  // measure 1
0000
0000
0000
0000
,  // measure 2
0000
0000
0000
0000
,  // measure 3
0000
0000
0000
0000
,  // measure 4
1000
0000
0000
0100
,  // measure 5
0100
0000
0000
1000
,  // measure 6
1000
0000
0100
0000
,  // measure 7
1000
0000
0000
0000
,  // measure 8
0001
0000
0000
0100
,  // measure 9
0100
0000
0000
0001
,  // measure 10
0001
0000
0100
0000
,  // measure 11
0001
0000
0000
0010
,  // measure 12
0010
0000
0010
0000
,  // measure 13
0100
0000
0000
1000
,  // measure 14
1000
0000
1000
0000
,  // measure 15
0100
0000
0000
0010
,  // measure 16
0010
0000
0010
0000
,  // measure 17
0001
0000
0000
0100
,  // measure 18
0100
0000
0010
0000
,  // measure 19
0100
0000
0000
0001
,  // measure 20
0001
0000
0000
1000
,  // measure 21
0000
0000
0000
0010
,  // measure 22
0010
0000
0100
0000
,  // measure 23
0000
0000
0000
0100
,  // measure 24
0100
0000
0000
0001
,  // measure 25
0000
0000
0000
0001
,  // measure 26
0001
0000
1000
0000
,  // measure 27
0000
0000
0000
0000
,  // measure 28
0010
0010
0000
0100
,  // measure 29
0000
0000
0000
0001
,  // measure 30
0001
0000
0010
0000
,  // measure 31
0000
0000
0000
0000
,  // measure 32
0100
0100
0000
1000
,  // measure 33
0000
0000
0000
1000
,  // measure 34
1000
0000
0001
0000
,  // measure 35
1000
0000
0010
0010
,  // measure 36
0010
0000
0000
0000
,  // measure 37
0000
0000
0100
0100
,  // measure 38
0100
0000
0000
0000
,  // measure 39
0000
0000
0000
0000
,  // measure 40
0001
0001
0001
0001
,  // measure 41
0001
0000
0000
0000
,  // measure 42
1000
1000
1000
1000
,  // measure 43
1000
0000
0000
0000
,  // measure 44
0110
0000
0000
0000
,  // measure 45
0000
0000
0000
0000
,  // measure 46
0010
0010
0000
0000
,  // measure 47
0000
0000
0000
0000
,  // measure 48
1001
0000
0000
1000
,  // measure 49
0000
0000
0000
0010
,  // measure 50
0010
0000
0100
0000
,  // measure 51
0000
0000
0000
0001
,  // measure 52
0001
0000
0000
0010
,  // measure 53
0000
0000
0000
0100
,  // measure 54
0100
0000
1000
0000
,  // measure 55
0000
0000
0010
0010
,  // measure 56
0010
0000
0000
0000
,  // measure 57
0000
0000
0100
0100
,  // measure 58
0100
0000
0000
0000
,  // measure 59
0000
0000
0002
0000
,  // measure 60
0000
0003
0000
0000
;

//---------------dance-double - ----------------
#NOTES:
     dance-double:
     :
     Easy:
     5:
     0.216244,0.258555,0.077405,0.120408,0.000000,176.000000,167.000000,9.000000,14.000000,0.000000,0.000000,0.216244,0.258555,0.077405,0.120408,0.000000,176.000000,167.000000,9.000000,14.000000,0.000000,0.000000:
00000000
00000000
00000000
00000000
,
00000000
00000000
00000000
00000000
,
00000000
00000000
00000000
00000000
,
00000000
00000000
00000000
00000001
,
00000100
00000001
00000000
00001000
,
00000100
00001000
00000000
00000010
,
00010000
00010000
00001000
00001000
,
01000000
00000000
00000000
00100000
,
10000000
00100000
00000000
01000000
,
00010000
01000000
00000000
00010000
,
00100000
00100000
00001000
00001000
,
00010000
00000100
00000000
00001000
,
00000001
00000001
00000100
00000100
,
00000001
00000100
00001000
00010000
,
01000000
01000000
10000000
10000000
,
01000000
10000000
00010000
01000000
,
00010000
00010000
00100000
00100000
,
00010000
00100000
00001000
00010000
,
00000200
00000000
00000000
00002300
00000000
00000000
00003020
00000000
,
00000000
00000030
00000000
00000000
,
00000110
00000000
00000110
00000000
00000000
00000000
00000000
00000100
,
00000000
00010000
00000000
00001000
00000000
01000000
00000000
00000000
,
01100000
00000000
01100000
00000000
00000000
00000000
00000000
01000000
,
00000000
00001000
00000000
00010000
00000000
00000100
00000000
00000000
,
00001001
00000000
00001001
00000000
00000000
00000000
00000000
00000100
,
00000000
00001000
00000000
00010000
00000000
01000000
00000000
00000000
,
10010000
00000000
10010000
00000000
00000000
00000000
00000000
01000000
,
00000000
00010000
00000000
00001000
00000000
00000100
00000000
00000000
,
00000001
00000000
00000001
00000000
00000000
00000010
00000000
00000100
,
00000000
00000010
00000000
00000000
00000000
00000000
00000002
00000000
,
00000103
00001000
00010000
01000000
,
10000000
00000000
00000000
00100000
,
01000000
00000000
00010000
00000000
00000000
01000000
00000000
00100000
,
00000000
01000000
00000000
00000000
00000000
00000000
00100000
00000000
,
00010000
00000000
00001000
00000000
00000010
00000000
00000000
00000001
,
00000000
00001000
00000000
00000000
00000001
00000000
00000100
00000000
,
00000002
00000000
00000000
00000023
00000000
00000000
00000000
00000000
,
00000030
00000000
00000100
00010000
,
00002000
00000000
00000000
00203000
00000000
00000000
00000000
00000000
,
00300000
00000000
00000000
00000000
,
01000000
01000000
10000000
10000000
,
00100000
00010000
00001000
00000000
,
00000010
00000010
00000001
00000001
,
00001000
00000200
00000000
00000000
,
00010300
00000000
00000000
00000000
00000000
00000000
00000000
00001000
,
00000000
00001000
00000000
00100000
00000000
00100000
00000000
00000000
,
01000000
00000000
01000000
00000000
00000000
00000000
00000000
00100000
,
00000000
00100000
00000000
00001000
00000000
00001000
00000000
00000000
,
00010000
00000000
00000010
00000000
00000000
00000100
00000000
00000001
,
00000000
00000100
00000000
00000000
00000000
00000000
00000001
00000000
,
00000010
00001000
00010000
00100000
,
10000000
00000000
00000000
00010000
,
00100000
00000000
00000000
00000000
00000000
00010000
00000000
01000000
,
00000000
00010000
00000000
00000000
00000000
00000000
10000000
00000000
,
01000000
00000000
00010000
00000000
00001000
00000000
00000000
00000100
,
00000000
00000001
00000000
00000000
00001000
00000000
00000010
00000000
,
00000200
00000000
00000000
00000320
00000000
00000000
00000000
00000000
,
00000030
00000000
00010000
00001000
,
02000000
00100000
00000000
03100000
,
00000000
01000000
00000000
00010000
00000000
10000000
00000000
20020000
,
00000000
30030000
00000000
00000000
00000000
00000000
00000000
00000000
;

//---------------dance-double - ----------------
#NOTES:
     dance-double:
     :
     Hard:
     13:
     0.560267,0.594678,0.387027,0.060204,0.460132,456.000000,411.000000,45.000000,7.000000,0.000000,0.000000,0.560267,0.594678,0.387027,0.060204,0.460132,456.000000,411.000000,45.000000,7.000000,0.000000,0.000000:
00000000
00000000
00000000
00000000
,
00000000
00000000
00000000
00000000
,
00000000
00000000
00000000
00000000
,
00000000
00000000
00000000
00000000
00000000
00000000
00000000
00000000
00000000
00000000
00000000
00000000
00000001
00000100
00000001
00000100
,
00000001
00000000
00000010
00000000
00000001
00000100
00000001
00000100
00000000
00000010
00000000
00001000
00000100
00000000
00000010
00000000
,
00001000
00000000
00010000
00000000
00100000
10000000
00100000
10000000
00000000
00010000
00000000
01000000
00100000
00000000
00010000
00000000
,
00001000
00000000
00000100
00000000
00000001
00001000
00000001
00001000
00000000
00000100
00000000
00000010
00001000
00000000
00010000
00000000
,
00100000
00000000
10000000
00000000
01000000
00100000
01000000
00100000
00000000
00010000
00000000
01000000
00100000
00000000
00010000
00000000
,
00001000
00000000
00000100
00000000
00000001
00000010
00000001
00000010
00000000
00000100
00000000
00000010
00000001
00000000
00000100
00000000
,
00001000
00000000
00010000
00000000
01000000
10000000
01000000
10000000
00000000
00100000
00000000
01000000
00100000
00000000
00010000
00000000
,
00001000
00000000
00000100
00000000
00000001
00000100
00000001
00000100
00000000
00000010
00000000
00001000
00000100
00000000
00000010
00000000
,
00000100
00000000
00010000
00000000
00001000
00100000
00001000
00100000
00000000
00010000
00000000
00000000
01000000
00010000
01000000
00010000
,
01000000
00000000
00100000
00000000
10000000
00000000
01000000
00010000
00000000
00001000
00000000
00010000
01000000
00000000
10000000
00000000
,
00100000
00000000
00010000
00000000
00001000
00000000
00000100
00001000
00000000
00010000
00000000
00001000
00000100
00000000
00000001
00000000
,
00000010
00000000
00001000
00000000
00010000
00000000
00100000
10000000
00000000
00100000
00000000
00010000
00001000
00000000
00000100
00000000
,
00001000
00000000
00010000
00000000
00100000
00000000
10000000
00100000
00000000
00010000
00000000
00001000
00010000
00000000
00100000
00000000
,
00010000
00000000
00001000
00000000
00000100
00000000
00000001
00000100
00000000
00001000
00000000
00010000
00001000
00000000
00000100
00000000
,
00000001
00000000
00000010
00000000
00001000
00000000
00010000
00100000
00000000
00010000
00000000
00001000
00000010
00000000
00000001
00000000
,
00000200
00000000
00001300
00020000
00000000
00130000
10000000
10100000
,
00000000
00000000
10010000
00000000
00000000
00000000
00010000
00000000
01000000
00100000
01000000
00100000
01000000
00000000
00010000
00000000
,
10010000
00000000
01010000
00000000
00000000
01000000
00100000
00010000
,
00001000
00000100
00000000
00000000
00000000
00000001
00000010
00001000
,
00010000
00100000
00010000
00001000
00010000
00000100
00010000
00001000
,
00000000
00011000
00000000
00001000
00000000
01000000
00100000
10000000
,
10010000
00000000
00000000
00000000
01100000
00000000
00000000
00100000
10000000
00000000
00010000
00000000
01000000
00000000
00100000
00000000
,
00010000
00000000
00001000
00000000
00000100
00000000
00000001
00001000
00000000
00001000
00000001
00000000
00000100
00000000
00000010
00000000
,
00000001
00000010
00001000
00010000
00200000
00000000
10300000
00010000
,
00000000
00000000
10010000
00000000
00000000
00000000
01000000
00000000
00010000
10000000
00010000
10000000
00010000
00000000
01000000
00000000
,
01100000
00000000
01010000
00000000
00010000
10000000
00100000
00010000
,
00001000
00000010
00000001
00001000
00000000
00001001
00000001
00000100
,
00001000
00010000
00001000
00010000
01000000
10000000
00100000
01000000
,
00000000
01100000
00000000
01010000
00000000
10010000
10000000
01000000
,
00010000
00001000
00000100
00000000
00000000
00000100
00001000
00010000
,
01000000
10000000
00000000
11000000
00000000
00110000
00010000
01000000
,
00100000
00010000
00001000
00000010
00000001
00000000
00001000
00000001
,
00000000
00001001
00000000
00000110
00000100
00000001
00001000
00000010
,
00000100
00000000
00000001
00000010
00000000
00000100
00000000
00000010
00000000
00000000
00000001
00000100
00000000
00001000
00000000
00010000
,
00000000
00000000
01000000
10000000
00000000
00100000
00000000
10000000
00000000
00000000
01000000
00010000
00000000
00001000
00000000
00000100
,
00000000
00000000
00000001
00001000
00000000
00000010
00000000
00001000
00000000
00000000
00000001
00000010
00000000
00001000
00000000
00010000
,
00000000
00000000
00100000
10000000
00000000
00010000
00000000
10000000
00000000
00000000
00100000
00010000
00000000
00001000
00000000
00000010
,
00000001
00001000
00000001
00001000
00001001
00000000
00000110
00000000
,
00000001
00001000
00000001
00001000
00001001
00000000
00000110
00000000
,
00000001
00000100
00001000
00010000
01000000
00000000
10000000
00010000
,
10000000
00010000
20020000
00000000
00000000
00000000
30030000
00000000
,
10010000
00000000
00000000
00000000
00000000
00000000
00000000
11000000
,
00000000
01010000
00000000
00011000
00000000
00001100
00000000
00000000
,
00000101
00000000
00000101
00000000
00000000
00000000
00000000
00000011
,
00000000
00000000
00010100
00000000
00000000
00000000
00011000
00000000
00001000
00010000
00001000
00010000
00001000
00000000
00010000
00000000
,
00010010
00000000
00001010
00000000
00001000
00000001
00000100
00001000
,
00010000
01000000
10000000
00010000
00000000
10010000
10000000
00100000
,
00010000
00001000
00010000
00001000
00000010
00000001
00000100
00000010
,
00000000
00000110
00000000
00001010
00000000
00001001
00000001
00000010
,
00001000
00010000
00100000
00000000
00000000
00100000
00010000
00001000
,
00000010
00000001
00000000
00000011
00000000
00001100
00001000
00000010
,
00000100
00001000
00010000
01000000
10000000
00000000
00010000
10000000
,
00000000
10010000
00000000
01100000
00100000
10000000
00010000
01000000
,
00100000
00000000
01000000
00100000
00000000
00010000
00000000
00001000
00000000
00000000
00000100
00000001
00000000
00001000
00000000
00000010
,
00000000
00000000
00000100
00001000
00000000
00010000
00000000
01000000
00000000
00000000
10000000
00100000
00000000
00010000
00000000
00001000
,
00000000
00000000
00000010
00000001
00000000
00000100
00000000
00000010
00000000
00000000
00000001
00000010
00000000
00001000
00000000
00000001
,
00000000
00000000
00000100
00001000
00000000
00010000
00000000
01000000
00000000
00000000
11000000
00000000
00000000
00000000
20020000
00000000
,
00000000
30030000
00000000
00000000
00000000
00000000
00000000
00000000
;

//---------------dance-double - ----------------
#NOTES:
     dance-double:
     :
     Medium:
     8:
     0.348938,0.387833,0.361225,0.051604,0.000000,284.000000,242.000000,42.000000,6.000000,0.000000,0.000000,0.348938,0.387833,0.361225,0.051604,0.000000,284.000000,242.000000,42.000000,6.000000,0.000000,0.000000:
00000000
00000000
00000000
00000000
,
00000000
00000000
00000000
00000000
,
00000000
00000000
00000000
00000000
,
00000000
00000000
00000000
00000000
00000000
00100000
10000000
00100000
,
00000000
01000000
00000000
00000000
00000000
00010000
00100000
00010000
,
00000000
01000000
00000000
00000000
00000000
00100000
10000000
00100000
,
10000000
00000000
01000000
00000000
00010000
00000000
00001000
00000100
,
00000000
00000001
00000000
00000000
00000000
00000001
00000100
00000001
,
00000000
00001000
00000000
00000000
00000000
00000010
00001000
00000010
,
00000000
00000100
00000000
00000000
00000000
00000001
00000010
00000001
,
00000010
00000000
00001000
00000000
00010000
00000000
00100000
10000000
,
00000000
00010000
00000000
00000000
00000000
10000000
01000000
00100000
,
00010000
00000000
01010000
00000000
01000000
00100000
00010000
00000000
,
00001000
00000000
00000100
00000001
00000000
00000001
00000010
00000100
,
00001000
00000000
00001100
00000000
00000100
00000010
00001000
00000000
,
00010000
00000000
01000000
10000000
00000000
00010000
01000000
00100000
,
10000000
00000000
10100000
00000000
10000000
00100000
00010000
00000000
,
00001000
00000000
00000010
00000001
00000000
00001000
00000001
00001000
,
00000002
00000000
00000013
00002000
00000000
00000000
00013000
00200000
,
00000000
00000000
00300000
00000000
,
10010000
00000000
10010000
00000000
00000000
00000000
00000000
01001000
,
00000000
00011000
00000000
00010100
00000000
00011000
00000000
00000000
,
00000110
00000000
00000110
00000000
00000000
00000000
00000000
00010010
,
00000000
00011000
00000000
00101000
00000000
00011000
00000000
00000000
,
01010000
00000000
01010000
00000000
00000000
00000000
00000000
01001000
,
00000000
00011000
00000000
00010100
00000000
00000110
00000000
00000000
,
00000011
00000000
00000011
00000000
00000000
00000000
00000000
00010100
,
00000000
00011000
00000000
01001000
00000000
01100000
00000000
00000000
,
10010000
00000000
10010000
00000000
00000000
10000000
01000000
10000000
,
00010000
01000000
00000000
00000000
00000000
00100000
00010000
00001000
,
00000010
00000000
00000001
00000000
00001000
00000001
00000000
00001001
,
00000000
00000110
00000000
00000000
00000000
00000001
00000100
00000010
,
00000000
00001000
00000000
00000000
00000000
00000100
00010000
00001000
,
01000000
00100000
00000000
00000000
00000000
10000000
00100000
01000000
,
00010000
00000000
10000000
00100000
01000000
00000000
00100000
10000000
,
00000000
10010000
00000000
00000000
10000000
00010000
10000000
00010000
,
10000000
00000000
01000000
01000000
00000000
00100000
00000000
00001000
,
00000000
00010000
00000000
00000000
00000100
00001000
00000100
00001000
,
00000100
00000000
00000010
00000010
00000000
00000001
00000000
00001000
,
00000000
00000100
00000000
00010000
00000000
00010000
00000000
00001000
,
01000000
00100000
01000000
00000000
00010000
00000000
10000000
00000000
,
00100000
01000000
00100000
00000000
10000000
00000000
00000000
00000000
,
00000000
00010000
01000000
00010000
00100000
00000000
00010000
01000000
,
00001000
00010000
00000200
00000000
00000000
00000000
00000000
00000000
,
00000310
00000000
00000000
00000000
00000000
00000000
00000000
00000001
,
00000000
00000100
00000000
00010000
00000000
01000000
00000000
00000000
,
11000000
00000000
10010000
00000000
00000000
00000000
00000000
00100000
,
00000000
00010000
00000000
00001000
00000000
00000010
00000000
00000000
,
00001001
00000000
00001001
00000000
00000000
00000001
00000010
00000001
,
00001000
00000010
00000000
00000000
00000000
00000100
00001000
00010000
,
01000000
00000000
10000000
00000000
00010000
10000000
00000000
10010000
,
00000000
01100000
00000000
00000000
00000000
10000000
00100000
01000000
,
00000000
00010000
00000000
00000000
00000000
00100000
00001000
00010000
,
00000010
00000100
00000000
00000000
00000000
00000001
00000100
00000010
,
00001000
00000000
00000001
00000100
00000010
00000000
00000100
00000001
,
00000000
00001001
00000000
00000000
00000001
00001000
00000001
00001000
,
00000010
00000000
00010000
00010000
00000000
00001000
00000000
01000000
,
00000000
00100000
00000000
00000000
01000000
00100000
01000000
00100000
,
01000000
10010000
00000000
01001000
,
00000000
00001000
00000000
00010000
00000000
00000100
00000000
00000220
,
00000000
00000330
00000000
00000000
00000000
00000000
00000000
00000000
;
