#TITLE:Newalone;
#SUBTITLE:;
#ARTIST:Masayoshi limori;
#TITLETRANSLIT:;
#SUBTITLETRANSLIT:;
#ARTISTTRANSLIT:;
#GENRE:Dance;
#CREDIT:;
#BANNER:newalone-bn.png;
#BACKGROUND:newalone-bg.png;
#LYRICSPATH:;
#CDTITLE:;
#MUSIC:Newalone.mp3;
#OFFSET:-0.045000;
#SAMPLESTART:37.645020;
#SAMPLELENGTH:12.000000;
#SELECTABLE:YES;
#BPMS:0.000000=110.000000
;
#STOPS:
;
#BGCHANGES:;
#KEYSOUNDS:;
#ATTACKS:;

//---------------dance-single - ----------------
#NOTES:
     dance-single:
     :
     Challenge:
     16:
     0.718318,0.798241,0.608184,0.548222,0.933691,587.000000,516.000000,71.000000,64.000000,0.000000,0.000000,0.718318,0.798241,0.608184,0.548222,0.933691,587.000000,516.000000,71.000000,64.000000,0.000000,0.000000:
0000
0000
0000
0000
,
0000
0000
0000
0000
,
0000
0000
0000
0000
,
0000
0000
0000
0001
0010
0100
1000
0100
0000
0010
0000
0001
,
0000
0000
0000
1000
0100
0010
0001
0010
0100
1000
0000
1001
,
0000
0000
0000
0001
1000
0010
0100
0010
1000
0001
0000
1001
,
0000
0000
0000
0100
0010
1000
0001
1000
0010
0100
0000
0220
,
0000
0330
0000
0010
1000
0001
0100
0001
0000
1000
0000
0010
,
0000
0000
0000
1000
0100
0010
0001
0010
0100
1000
0000
1000
,
0001
0000
0000
0000
0110
0000
1000
0010
0001
0010
1000
0010
0100
0000
0000
0000
,
0000
0000
0000
0000
0110
0000
0001
0010
1000
0010
0001
0010
0100
0000
0000
0000
,
0000
0000
0000
0000
0110
0000
1000
0100
0001
0100
1000
0100
0010
0000
0000
0000
,
0000
0000
0000
0000
0110
0000
0001
0100
1000
0100
0001
0100
0020
0000
0030
0000
,
0100
1000
0100
0010
0100
0001
1000
0010
0100
0010
1000
0010
0100
0000
1001
0000
,
0010
1000
0010
0001
0010
0100
0001
0010
0001
1000
0001
0100
0010
0000
1001
0000
,
1000
0010
1010
1001
0001
0010
0011
1001
,
1000
0010
1010
1001
0020
0000
0130
0000
,
0110
2000
0000
3000
1001
0000
1000
0100
0000
0010
1000
0010
0002
0000
0003
0000
,
0110
0001
1000
0001
0110
0000
1000
0100
0001
0100
1000
0001
0110
0000
0100
0000
,
1001
0020
0000
0030
0110
0000
0001
0100
0000
0010
0001
0010
2000
0000
3000
0000
,
0001
0000
0000
0000
0100
0000
0000
0000
0000
0010
0000
0000
1010
0000
0000
0000
0000
0000
0010
0000
0000
1010
0000
0000
0000
0000
0000
0010
0000
0000
1010
0000
0000
0000
0000
0000
1000
0000
0000
0001
0000
0000
1000
0000
0000
0001
0000
0000
,
1001
0200
0000
0300
0110
0000
0010
1000
0000
0001
0010
1000
1010
0000
0000
0000
,
0010
0000
0001
0000
0010
0000
0001
0000
0010
0000
0001
0000
0010
0000
0000
0000
0000
0000
0001
0000
0000
0100
0000
0000
0010
0000
0000
1000
0000
0000
0000
0000
0000
0100
0000
0000
0002
0000
0000
0000
0000
0000
0000
0000
0000
0003
0000
0000
,
2200
0000
0000
3300
1001
0000
0100
0010
0000
1000
0100
0001
0202
0000
0303
0000
,
1000
0000
0000
1000
0010
1000
0010
0000
0000
0010
0100
0001
1000
0000
0000
0001
0100
0001
0100
0000
0000
0000
0000
0000
,
0001
0100
0010
1000
2002
0000
3003
0000
0001
0010
0000
0000
1000
0010
0000
0000
,
2002
0000
3003
0000
1000
0010
0000
0000
0001
0010
0000
0000
1000
0010
0000
0000
,
0100
0000
0000
0000
0100
0000
0000
0000
0100
0000
0000
0000
0001
0000
0000
0010
0000
0000
0001
0000
0000
0010
0000
0000
1000
0000
0000
0010
0000
0000
1000
0000
0000
0010
0000
0000
0001
0000
0000
0010
0000
0000
0001
0000
0000
0010
0000
0000
,
0002
0000
0000
0000
1003
0010
0001
0010
1000
0010
0001
0010
1000
0001
1000
0001
,
1001
0010
0101
0010
1000
0010
1100
0010
,
0001
0010
0101
0010
1000
0010
1100
0001
,
1000
0001
1010
0100
0001
0100
0011
0100
,
1000
0000
0100
0000
1010
0000
0100
0000
0001
0000
0100
0000
0022
0000
0000
0033
,
0001
0100
1000
0100
0001
0100
1000
0100
,
0001
0010
1000
0010
0001
0010
1000
0010
,
0001
0000
0100
0000
0010
0000
0100
0000
0001
0000
0010
0000
0100
1000
0100
1000
0010
0000
0100
0000
0001
0000
0010
0000
0001
0000
1000
0100
1000
0100
0010
0000
,
0001
0000
0010
0000
0100
0000
1000
0000
0001
0000
1000
0000
0010
1000
0010
1000
0010
0000
0000
0000
0000
0000
0000
0000
0220
0000
0000
0000
0330
0000
0000
0000
,
1000
0000
0100
0000
0001
0000
0100
0000
2200
0000
0000
0000
3300
0000
0000
0200
0020
0000
0000
0000
0000
0000
0330
0000
0022
0000
0000
0000
0033
0000
0000
0000
,
0001
1000
0001
1000
0001
0000
1000
0001
1000
0001
1000
0000
0001
1000
0001
1000
0001
0000
1000
0000
0000
0110
0000
0000
,
0001
0000
0000
0000
0000
0000
0000
0000
0000
0000
0000
0000
0100
0000
0000
0000
0000
0000
0000
0000
0000
0000
0000
0000
1000
0000
0000
0000
0000
0000
0000
0000
0000
0000
0000
0000
0100
0000
0000
0000
0000
0000
0000
0000
0000
0000
0000
0000
0202
0000
0000
0000
0000
0000
0000
0000
0000
0000
0000
0000
0000
0000
0000
0000
0000
0000
0000
0000
0000
0000
0000
0000
0303
0000
0000
0000
0000
0000
0000
0000
0000
0000
0000
0000
0000
0000
0000
0000
0000
0000
0000
0000
0000
0000
0000
0000
0001
0000
0000
0000
0000
0000
0010
0000
0000
0000
0000
0000
0001
0000
0000
0000
0000
0000
0010
0000
0000
0000
0000
0000
0001
0000
0000
0000
0000
0000
0000
0000
0100
0000
0000
0000
0000
0000
0000
0000
0010
0000
0000
0000
0000
0000
0000
0000
2000
0000
0000
0000
0000
0000
0000
0000
0000
0000
0000
0000
0000
0000
0000
0000
0000
0000
0000
0000
0000
0000
0000
0000
3000
0000
0000
0000
0000
0000
0000
0000
0000
0000
0000
0000
0000
0000
0000
0000
0000
0000
0000
0000
0000
0000
0000
0000
,
1000
0000
0000
0000
0100
0000
0000
0000
0000
0010
0000
0000
0011
0000
0000
0000
0000
0000
0010
0000
0000
0011
0000
0000
0000
0000
0000
0010
0000
0000
0011
0000
0000
0000
0000
0000
1000
0000
0000
0001
0000
0000
1000
0000
0000
0001
0000
0000
,
1000
0000
0000
0100
0000
0000
0001
0000
0000
0100
0000
0000
2200
0000
0000
0000
0000
0000
0000
0000
0000
3300
0000
0000
0002
0000
0020
0000
0000
0000
0000
0000
0000
0033
0000
0000
2200
0000
0000
0000
0000
0000
0000
0000
0000
3300
0000
0000
,
0010
0000
0100
0000
0010
0000
0100
0000
0010
0000
0000
0000
0100
0000
0010
0000
0100
0000
0010
0000
0100
0000
0000
0000
0010
0000
0100
0000
0010
0000
0100
0000
0010
0000
0000
0000
2000
0000
0000
0000
0000
0000
0002
0000
0000
3003
0000
0000
,
1000
0001
1000
0001
0000
0000
0202
0000
0000
0303
0000
0000
0010
0000
0010
0000
0010
0000
2200
0000
0000
3300
0000
0000
,
1010
0000
0110
0000
0101
0000
1001
0000
0001
0010
0001
0010
0022
0000
0033
0000
,
0001
0100
1000
0100
0001
0000
0000
0000
2020
0000
0000
3030
0202
0000
0000
0303
,
0001
0000
0010
0000
0001
0000
0010
0000
0001
0000
0000
0000
0010
0000
0001
0000
0010
0000
0001
0000
0010
0000
0000
0000
0001
0000
0010
0000
0001
0000
0010
0000
0001
0000
0000
0000
0201
0000
0000
0000
0000
0000
0020
0000
0000
0330
0000
0000
,
1000
0000
0100
0000
0001
0000
0100
0000
2200
0000
0000
0000
3300
0000
0000
0000
0010
0000
0100
0000
0010
0100
0010
0100
0010
0000
0000
0000
0000
0000
0000
0000
,
1000
0000
0000
0000
0001
0000
0000
0000
0000
0100
0000
0000
0110
0000
0000
0000
0000
0000
0100
0000
0000
0101
0000
0000
0000
0000
0000
0100
0000
0000
0110
0000
0000
0000
0000
0000
0001
0000
0000
1000
0000
0000
0001
0000
0000
1000
0000
0000
,
0001
0000
0000
0010
0000
0000
1000
0000
0000
0010
0000
0000
0022
0000
0000
0000
0000
0000
0000
0000
0000
0033
0000
0000
0002
0000
2000
0000
0000
0000
0000
0000
0000
3003
0000
0000
2020
0000
0000
0000
0000
0000
0000
0000
0000
3030
0000
0000
,
1000
0000
0100
0000
1000
0000
0100
0000
1000
0000
0000
0000
0100
0000
1000
0000
0100
0000
1000
0000
0100
0000
0000
0000
1000
0000
0100
0000
1000
0000
0100
0000
1000
0000
0000
0000
0002
0000
0000
0000
0000
0000
0020
0000
0000
0033
0000
0000
,
0001
0000
1000
0000
0001
0000
1000
0000
0000
0000
0000
0000
2002
0000
0000
0000
0000
0000
0000
0000
0000
3003
0000
0000
0100
0000
0000
0000
0100
0000
0000
0000
0100
0000
0000
0000
0011
0000
0000
0000
0000
0000
0000
0000
0000
0000
0000
0000
,
1001
0000
0000
0000
0000
0000
0000
0000
0000
0000
0000
0000
0000
0000
0000
0000
0000
0000
0001
0010
0100
1000
0100
0010
,
0001
1000
0010
0100
0000
0000
0000
0000
0000
0000
0000
0000
;

//---------------dance-single - ----------------
#NOTES:
     dance-single:
     :
     Hard:
     13:
     0.575144,0.752628,0.599618,0.368337,0.471128,470.000000,400.000000,70.000000,43.000000,0.000000,0.000000,0.575144,0.752628,0.599618,0.368337,0.471128,470.000000,400.000000,70.000000,43.000000,0.000000,0.000000:
0000
0000
0000
0000
,
0000
0000
0000
0000
,
0000
0000
0000
0000
,
0000
0000
0000
1000
0010
1000
0010
1000
0000
0001
0000
0001
,
0000
0000
0000
0001
0100
0001
0100
0001
0100
0001
0000
1000
,
0000
0000
0000
0010
1000
0010
1000
0010
1000
0010
0000
0100
,
0000
0000
0000
0100
0001
0100
0001
0100
0001
0100
0000
0010
,
0000
0000
0000
1000
0001
1000
0001
1000
0000
0010
0000
0010
,
0000
0000
0000
0100
0010
0100
0010
0100
0010
1000
0000
0001
,
1000
0000
0100
0010
0001
0010
0100
0000
,
0000
0000
1000
0010
0001
0010
1000
0000
,
0000
0000
0001
0100
0010
0001
0010
0000
,
0000
0000
1000
0010
0100
1000
0100
0000
,
0011
0101
1001
0101
0011
0110
1100
0110
,
1100
1010
1001
1010
1100
0110
0011
0110
,
1000
0001
1000
0001
0100
0010
1000
0001
,
1000
0001
1000
0001
0100
0010
1000
0001
1001
0000
0000
0000
0210
0000
0000
0000
,
0302
0020
0033
0000
0011
0000
0001
0100
0000
0010
1000
0000
0002
0000
0000
0000
,
1003
0000
0001
0000
1000
0000
0010
0100
0010
0001
0000
0010
1000
0000
0001
0000
,
0020
0200
0330
0000
1100
0000
1000
0010
0000
0100
0001
0000
0010
0000
0000
0000
,
0200
0000
0000
0000
1300
0000
0010
0001
0000
0010
0100
0000
0001
0000
0010
0000
,
0002
2000
3003
0000
1001
0000
0010
0100
0000
0001
1000
0000
1010
0000
0000
0000
,
0100
0000
0000
0000
0001
0000
0000
0000
0100
0000
0000
0000
0001
0000
0000
0000
0000
0000
0010
0000
0000
0100
0000
0000
0010
0000
0000
1000
0000
0000
0000
0000
0000
0010
0000
0000
0002
0000
0000
0000
0000
0000
0000
0000
0000
0000
0000
0000
,
0203
0000
0000
0000
0310
0000
0100
0001
0000
1000
0010
0000
0210
0000
0000
0000
,
0301
0000
0011
0000
1000
0000
1010
0000
0100
0001
1000
0010
1001
0000
0000
0000
,
0001
0010
1000
0010
0001
0100
0000
0010
1000
0010
0000
0100
0001
0000
0000
0000
,
1001
0000
0000
0000
0001
0100
0000
0010
1000
0010
0000
0100
0001
0000
0000
0000
,
0210
0000
0000
0000
0301
0010
1000
0010
0001
0100
1000
0100
0001
0010
1000
0010
,
0002
0000
0000
0000
1003
0000
1000
0000
1010
0000
0101
0000
0001
1000
0001
1000
,
1001
1000
0100
0001
0100
1000
0100
0001
,
0110
0001
0010
1000
0010
0001
0010
1000
,
0110
1000
0100
0001
0100
1000
0100
0001
,
0110
0001
0010
1000
0010
0001
0020
0000
,
0031
0001
0100
0100
1000
1000
0010
0010
,
0001
0100
1000
0010
0001
0100
1000
0010
,
0001
0000
0101
0000
0000
0010
1000
0000
0100
0000
1100
0000
0000
0010
0001
0000
,
0100
0000
0110
0000
0000
1000
0001
0000
0120
0000
0000
0000
1030
0000
0000
0000
,
1000
0100
0001
0100
2000
0000
3000
0000
0022
0000
0033
0000
2200
0000
3300
0000
,
0110
1000
0011
0001
1010
1000
0011
0100
,
1000
0010
0001
0010
2000
0000
3000
0000
0001
0000
0010
0000
0011
0000
0000
0000
,
0200
0000
0000
0000
1300
0000
0010
0100
0000
0010
0001
0000
0010
0000
1000
0000
,
0001
0100
1000
0100
0002
0000
0003
0000
0022
0000
0033
0000
1001
0000
0000
0000
,
0110
0001
1010
1000
0011
0001
1010
0100
,
0001
0000
0000
1000
0000
0000
0001
0000
0000
0000
0000
0000
0220
0000
0000
0000
0000
0000
0330
0000
0000
0000
0000
0000
0100
0000
0000
0000
0010
0000
0000
0000
0100
0000
0000
0000
1001
0000
0000
0000
0000
0000
0000
0000
0000
0000
0000
0000
,
0011
0000
1100
0000
1010
0000
0101
0000
0001
0010
0100
1000
1001
0000
0000
0000
,
0001
0010
1000
0010
0002
0000
0003
0000
0202
0000
0303
0000
2200
0000
3300
0000
,
0110
0001
1100
1000
0101
0001
1100
0010
,
0100
0010
0100
1000
0200
0000
0000
0000
0301
1000
0010
0100
1001
0000
0000
0000
,
2000
0000
0000
0000
3001
0000
0010
0100
0000
0010
1000
0000
0010
0001
0010
0001
,
0100
0010
0001
0010
2000
0000
3000
0000
2200
0000
3300
0000
0202
0000
0303
0000
,
0010
0000
0000
1000
0001
1000
0001
0000
0000
0001
1000
0001
1000
0000
0000
1000
0001
1000
0001
0000
0000
0100
0000
0000
,
0001
0000
0000
1000
0000
0000
0001
0000
0000
0000
0000
0000
0220
0000
0000
0000
0000
0000
0330
0000
0000
0000
0000
0000
0010
0000
0000
0000
0010
0000
0000
0000
0010
0000
0000
0000
1001
0000
0000
0000
0000
0000
0000
0000
0000
0000
0000
0000
,
1100
0000
0000
0020
,
0000
0030
0000
0000
;

//---------------dance-single - ----------------
#NOTES:
     dance-single:
     :
     Medium:
     8:
     0.397706,0.410524,0.376903,0.265545,0.115641,325.000000,281.000000,44.000000,31.000000,0.000000,0.000000,0.397706,0.410524,0.376903,0.265545,0.115641,325.000000,281.000000,44.000000,31.000000,0.000000,0.000000:
0000
0000
0000
0000
,
0000
0000
0000
0000
,
0000
0000
0000
0000
,
0000
0000
0000
1000
0001
1000
0001
0000
0000
0010
0000
0000
,
0000
0000
0000
0001
1000
0001
1000
0001
1000
0010
0000
0000
,
0000
0000
0000
1000
0001
1000
0001
1000
0001
0100
0000
0000
,
0000
0000
0000
0001
1000
0001
1000
0001
1000
0010
0000
0000
,
0000
0000
0000
1000
0010
1000
0010
0000
0000
0100
0000
0000
,
0000
0000
0000
0001
0010
0001
0010
0001
0010
0100
0000
0000
,
1000
1010
0000
0101
,
0000
1001
0000
0011
,
0000
1100
0000
0110
,
0000
0011
0000
1200
,
0310
0001
1000
0010
0100
0001
0010
0100
,
1000
0001
0100
0010
0100
0001
1000
0010
,
0100
0100
0010
0010
1000
1000
0001
0001
,
0010
0010
0100
0100
1100
0000
0020
0000
,
0032
0000
1003
0010
0100
0010
1000
0000
,
0002
0000
0013
0100
1000
0000
1001
0010
,
0200
0000
0310
0100
0001
0100
0010
0000
,
0200
0000
0000
0000
0310
0000
0000
0010
0000
0000
0010
0000
2000
0000
0000
0000
,
3002
0000
1003
0100
0010
0100
1000
0000
,
0002
0013
0011
1100
,
0020
0000
1030
0001
0100
0001
1000
0000
,
1010
0101
0011
1100
,
0001
0010
0001
0000
0101
0000
1100
0000
,
1000
1100
0101
1100
,
0001
0101
1100
0101
,
1001
0000
0010
0010
0010
0010
0010
0000
,
0100
0001
0100
0001
1000
0010
1000
0010
,
1000
0100
1000
0100
0010
0001
0010
0001
,
0100
0001
0100
0001
0010
0100
0010
0100
,
1000
0001
1000
0001
0100
0001
0200
0000
,
0301
0010
0011
0000
1000
0010
1010
0000
,
0001
0100
0101
0000
1000
0100
1100
0000
,
0001
1000
0010
0100
0001
1000
0010
0100
,
0001
1000
0010
0100
0020
0000
2030
0000
,
3001
0100
0101
0000
1010
0000
1100
0000
,
0020
0000
1000
0000
0031
0000
1001
1000
,
0001
0100
0010
0000
2000
0000
3001
0000
,
0200
0000
0000
0000
0301
0000
0000
0001
0000
0000
0001
0000
1000
0000
0100
0000
,
0010
0100
2200
3300
0220
0330
0011
0000
,
0200
0000
0001
0000
1300
0000
1001
0001
,
1000
0020
0130
1001
,
0010
0010
0010
0010
0010
0010
0110
0000
,
2000
3200
0302
0203
,
2300
0000
0010
0000
3001
0000
1001
1000
,
0001
0100
0010
0000
1000
0100
0010
0000
,
0002
0000
0000
0000
0013
0000
0000
0010
0000
0000
0010
0000
0100
0000
1000
0000
,
0100
0010
0100
0000
1100
0000
0011
0000
,
0002
0000
0100
0000
1003
0000
1001
0001
,
2000
3010
0200
0301
,
1001
0000
0000
0000
0000
0000
0000
0000
0000
0100
0010
0100
,
0010
0100
0010
0100
0000
0000
0000
0000
0000
0000
0000
0000
;

//---------------dance-single - ----------------
#NOTES:
     dance-single:
     :
     Easy:
     5:
     0.256979,0.364910,0.291243,0.265545,0.000000,210.000000,176.000000,34.000000,31.000000,0.000000,0.000000,0.256979,0.364910,0.291243,0.265545,0.000000,210.000000,176.000000,34.000000,31.000000,0.000000,0.000000:
0000
0000
0000
0000
,
0000
0000
0000
0000
,
0000
0000
0000
0000
,
0000
2000
0000
3001
,
0000
0002
0000
1003
,
0000
0020
0000
1030
,
0000
0200
0000
0301
,
0000
0020
0000
0031
,
0000
0200
0000
1300
,
1000
1010
0000
0110
,
0000
0101
0000
0011
,
0000
0110
0000
1100
,
0000
1001
0000
0110
,
0100
0010
1000
0001
,
0001
1000
0010
0100
,
0010
0100
0010
0100
,
0001
1000
1001
0010
,
0200
1300
0010
0010
,
0200
0301
1000
0010
,
2000
3100
0010
0001
,
0200
0310
0000
1001
,
0102
1003
0010
0100
,
0002
0013
0100
0100
,
2000
3001
0100
0010
,
0100
0100
0100
0100
,
0002
0013
0011
1100
,
0010
1100
0011
1100
,
0010
0101
1010
0101
,
0001
1000
1000
2000
,
3001
0100
0001
0010
,
0001
0100
0001
1000
,
1000
0100
1000
0010
,
1000
0100
1000
0002
,
0103
0100
0010
0010
,
1000
1000
0001
0001
,
0010
0010
0100
0100
,
1000
1000
1001
0010
,
0002
2003
3020
0130
,
0110
0110
0110
1000
,
0002
0103
0002
0013
,
0002
1003
0000
0010
,
2000
3100
1000
0001
,
1001
1001
1001
0100
,
0020
1030
0020
0130
,
0100
0100
0100
0110
,
0020
1030
0001
0100
,
0110
0110
0110
0001
,
2000
3100
0010
0001
,
0020
0130
0000
1000
,
0001
0100
0010
1000
,
1001
1001
1001
0001
,
2000
3100
0002
0013
,
1001
0000
0000
0200
,
0000
0300
0000
0000
;

//---------------dance-single - ----------------
#NOTES:
     dance-single:
     :
     Beginner:
     3:
     0.150516,0.182455,0.051396,0.051396,0.000000,123.000000,117.000000,6.000000,6.000000,0.000000,0.000000,0.150516,0.182455,0.051396,0.051396,0.000000,123.000000,117.000000,6.000000,6.000000,0.000000,0.000000:
0000
0000
0000
0000
,
0000
0000
0000
0000
,
0000
0000
0000
0000
,
0000
0010
0000
0010
,
0000
0010
0000
0010
,
0000
0100
0000
0100
,
0000
0100
0000
0100
,
0000
1000
0000
1000
,
0000
1000
0000
1000
,
1000
0000
1001
0000
,
0000
0000
0110
0000
,
0000
0000
1001
0000
,
0000
0000
1000
1000
,
1000
0000
0010
0000
,
0000
0000
0100
0000
,
0001
0000
1000
0000
,
0001
0000
1001
0000
,
0020
0030
0000
0000
,
0100
0100
0000
0001
,
0002
0003
0000
1000
,
1000
0000
0000
0100
,
0200
0300
0000
0000
,
1000
1000
0000
0001
,
0001
0001
0000
0000
,
0010
0010
0010
0000
,
0100
0100
0100
0100
,
0000
1000
1000
1000
,
0000
0001
0001
0001
,
0000
0010
0010
0010
,
0000
0001
0000
0001
,
0000
0100
0000
0100
,
0000
0010
0000
0010
,
0000
1000
0000
0000
,
1000
1000
1000
0000
,
0001
0001
0001
0000
,
1000
1000
1000
0000
,
0001
0001
0001
0000
,
0100
0100
0000
0000
,
0010
0010
0010
0010
,
0010
0000
1000
1000
,
1000
0000
0000
0001
,
0001
0002
0003
0000
,
0100
0100
0100
0100
,
0100
0000
0010
0000
,
1000
1000
1000
0000
,
1001
0000
0000
0000
,
0001
0001
0001
0001
,
0001
0000
0010
0010
,
0010
0000
0000
0100
,
0100
0000
1000
0000
,
1000
1000
1000
1000
,
1000
0000
0010
0010
,
0010
0000
0000
0220
,
0000
0330
0000
0000
;

//---------------dance-double - ----------------
#NOTES:
     dance-double:
     :
     Easy:
     6:
     0.244742,0.319297,0.154187,0.299809,0.000000,200.000000,182.000000,18.000000,35.000000,0.000000,0.000000,0.244742,0.319297,0.154187,0.299809,0.000000,200.000000,182.000000,18.000000,35.000000,0.000000,0.000000:
00000000
00000000
00000000
00000000
,
00000000
00000000
00000000
00000000
,
00000000
00000000
00000000
00000000
,
00000000
00000020
00000000
00000130
,
00000000
00020000
00000000
00031000
,
00000000
02000000
00000000
03100000
,
00000000
20000000
00000000
30010000
,
00000000
00200000
00000000
00301000
,
00000000
00020000
00000000
00030100
,
00001000
00000010
00000100
00000001
,
00000000
00000010
00001000
00010000
,
00000000
00100000
01000000
00010000
,
00000000
10000000
01000000
00010000
,
00001000
00000100
00000001
00000010
,
00001000
00010000
00100000
10000000
,
01000000
00010000
00001000
00000100
,
00000001
00001000
00001001
00000020
,
00020030
00031000
00100000
01000000
,
10000000
00100000
00010000
00001000
,
00000020
00000031
00000100
00000010
,
00020000
00031000
00000000
01001000
,
02000000
03100000
10000000
00010000
,
02000000
03100000
00010000
00001000
,
00000020
00000031
00001000
00000001
,
00000100
00001000
00010000
01000000
,
10000000
00010000
01000000
01000000
,
00010000
00100000
00001000
00001000
,
00010000
00000100
00001000
00001000
,
00000010
00000000
00000100
00000000
00000100
00000000
00000100
00000010
,
00001000
00001001
00000000
00000101
,
00000000
00010010
00000000
00011000
,
00000000
01001000
00000000
01100000
,
00000000
10010000
00000000
01020000
,
10030000
01000000
00010000
00001000
,
00000010
00000001
00000010
00000001
,
00000100
00001000
00010000
01000000
,
10000000
00010000
20010000
30100000
,
10000000
01000000
00200000
00000000
01300000
00000000
10000000
00000000
,
02000000
03020000
00032000
00003200
,
00000301
00001000
00000001
00000000
00000100
00000000
00000100
00000000
,
00002000
00013000
00000000
00000010
,
00000100
00000001
00000100
00000000
00000001
00000000
00001001
00000000
,
00000002
00000203
00002300
00023000
,
01030000
10000000
00010000
10010000
,
00100000
00000000
00100000
00000000
00100000
00010000
00100000
00000000
,
00001000
00010000
00000100
00000000
00001100
00000000
00000011
00000000
,
00000002
00000023
00002030
00023000
,
00130000
10000000
00100000
00000000
10000000
00010000
10000000
00000000
,
00200000
01300000
00000000
01100000
,
10000000
00010000
10000000
00000000
00100000
00000000
01000000
00000000
,
00200000
00320000
00032000
00003020
,
00000031
00001000
00000101
00001010
,
00000100
00000000
00000000
00020000
,
00000000
00030000
00000000
00000000
;

//---------------dance-double - ----------------
#NOTES:
     dance-double:
     :
     Medium:
     8:
     0.337744,0.410524,0.137056,0.411167,0.051396,276.000000,260.000000,16.000000,48.000000,0.000000,0.000000,0.337744,0.410524,0.137056,0.411167,0.051396,276.000000,260.000000,16.000000,48.000000,0.000000,0.000000:
00000000
00000000
00000000
00000000
,
00000000
00000000
00000000
00000000
,
00000000
00000000
00000000
00000000
,
00000000
00000000
00000000
01000000
00010000
01000000
00010000
00000000
00000000
00100000
00000000
00000000
,
00000000
00000000
00000000
00001000
00010000
00001000
00010000
00000000
00000000
00000100
00000000
00000000
,
00000000
00000000
00000000
00001000
00000010
00001000
00000010
00000000
00000000
00000100
00000000
00000000
,
00000000
00000000
00000000
00000001
00001000
00000001
00001000
00000000
00000000
00000010
00000000
00000000
,
00000000
00000000
00000000
00010000
00001000
00010000
00001000
00000000
00000000
01000000
00000000
00000000
,
00000000
00000000
00000000
00100000
01000000
00100000
01000000
00000000
00000000
00010000
00000000
00000000
,
20000000
00000000
31000000
00100000
01000000
10000000
01000000
00000000
,
00200000
00000000
00301000
00010000
00001000
00100000
00001000
00000000
,
00020000
00000000
00030100
00000010
00000100
00001000
00000100
00000000
,
00002000
00000000
00003001
00000100
00000001
00001000
00000001
00000000
,
00000010
00000000
00001000
00000000
00010000
00100000
10000000
00000000
,
01000000
00000000
00010000
00000000
00001000
00000100
00000001
00000000
,
00000100
00000010
00000100
00000010
00010000
00001000
00010000
00001000
,
01000000
00100000
01000000
00100000
01100000
00000000
20000000
00000000
,
30020000
00000000
01030000
00100000
00010000
00000000
00002000
00000000
,
00003200
00000000
00000302
00000000
00001003
00000010
00001000
00000000
,
00000002
00000000
00000023
00000000
00001030
00010000
00100000
00000000
,
20000000
00000000
30010000
00000000
00000000
00000000
00010000
10000000
,
00020000
00000000
00230000
00000000
01300000
00010000
00001000
00000000
,
00000200
00000000
00000301
00000000
00001000
00000010
00001000
00000000
,
00000002
00000000
00000203
00000000
00001300
00010000
01000000
00000000
,
11000000
01010000
10010000
01100000
,
10000000
00100000
00020000
00000000
00032000
00000000
00003020
00000000
,
00000031
00000200
00002300
00023000
,
01030000
20000000
30200000
00320000
,
00031000
00000000
00000010
00000001
00000010
00000001
00000010
00000001
,
00001000
00000010
00000100
00000000
00001000
00010000
01000000
00000000
,
10000000
00010000
10000000
00000000
00100000
00010000
00001000
00000000
,
00000010
00000001
00000100
00000000
00000010
00000100
00000010
00000000
,
00000100
00001000
00010000
00000000
01000000
10000000
00020000
00000000
,
10030000
01000000
10000000
01000000
00100000
00001000
00100000
00001000
,
00010000
00001000
00010000
00001000
00010000
00000100
00010000
00000100
,
00001000
00000010
00001000
00000010
00000100
00000001
00000100
00000001
,
00000100
00000010
00000100
00000010
00000110
00000000
00002000
00000000
,
00003001
00000100
00001000
00000000
00020000
00000000
01030000
00000000
,
10000000
11000000
11000000
00100000
,
00010000
01000000
00100000
00000000
00020000
00000000
00031000
00000000
,
00000020
00000000
00000031
00000000
00000000
00000000
00001000
00000001
,
00001000
00000010
00000100
00000000
00000002
00000000
00002003
00000000
,
00003010
00000000
00001010
00000000
00001010
00000000
00000001
00000100
,
00002000
00013000
02000000
13000000
,
10000000
00010000
10000000
00010000
20000000
00000000
30000000
00000000
,
00020000
02030000
03200000
00320000
,
00031000
00000000
00011000
00000000
00011000
00000000
00010000
00000010
,
00000100
00000001
00000100
00000000
00000002
00000000
00002003
00000000
,
00003020
00000000
00000030
00000000
00000000
00000000
00000100
00001000
,
00010000
01000000
20000000
00000000
30020000
00000000
20030000
00000000
,
30100000
00000000
01100000
00000000
01100000
00000000
01000000
00100000
,
00010000
00001000
00000010
00000001
,
00001001
00000000
00000000
00022000
,
00000000
00033000
00000000
00000000
;

//---------------dance-double - ----------------
#NOTES:
     dance-double:
     :
     Hard:
     13:
     0.495603,0.524559,0.179885,0.205583,0.488260,405.000000,384.000000,21.000000,24.000000,0.000000,0.000000,0.495603,0.524559,0.179885,0.205583,0.488260,405.000000,384.000000,21.000000,24.000000,0.000000,0.000000:
00000000
00000000
00000000
00000000
,
00000000
00000000
00000000
00000000
,
00000000
00000000
00000000
00000000
,
00000000
00000000
00000000
10000000
00100000
10000000
00100000
10000000
00000000
00010000
00000000
00010000
,
00000000
00000000
00000000
01000000
00001000
01000000
00001000
01000000
00001000
01000000
00000000
00000000
,
00000000
00000000
00000000
00001000
00010000
00001000
00010000
00001000
00010000
00001000
00000000
00010000
,
00000000
00000000
00000000
00010000
00000100
00010000
00000100
00010000
00000100
00010000
00000000
00000100
,
00000000
00000000
00000000
00001000
00000001
00001000
00000001
00001000
00000000
00000010
00000000
00000010
,
00000000
00000000
00000000
00000100
00000010
00000100
00000010
00000100
00000010
00000100
00000000
00000010
,
00000100
00000000
00001000
00010000
01000000
10000000
01000000
00000000
,
00000000
00000000
10000000
00100000
00010000
00001000
00000010
00000000
,
00000000
00000000
00000001
00000100
00000010
00000100
00001000
00000000
,
00000000
00000000
00010000
01000000
10000000
01000000
00100000
00000000
,
01000000
00010000
01000000
00100000
00010000
00001000
00000010
00000100
,
00001000
00010000
01000000
10000000
00100000
01000000
00100000
00010000
,
00001000
00000010
00001000
00000010
00000001
00000100
00000001
00000100
,
00001000
00010000
00100000
00010000
00011000
00000000
00000200
00000000
,
00000301
00001000
00000000
00000000
00001001
00000000
00000001
00000100
00000000
00000100
00000010
00000000
00000200
00000000
00000000
00000000
,
00001300
00000000
00010000
00000000
01000000
00000000
10000000
00010000
10000000
00100000
00000000
00000000
10100000
00000000
00000000
00000000
,
00100000
01000000
00000000
00000000
01100000
00000000
00100000
00010000
00000000
00010000
00001000
00000000
00000020
00000000
00000000
00000000
,
00000032
00000000
00000000
00000000
00001003
00000000
00000100
00000010
00000000
00000100
00001000
00000000
00000001
00000000
00000100
00000000
,
00000001
00001000
00000000
00000000
00001001
00000000
00000010
00000100
00000000
00000100
00001000
00000000
00020000
00000000
00000000
00000000
,
01030000
00000000
00000000
00000000
10000000
00000000
00000000
00000000
01000000
00000000
00000000
00000000
10000000
00000000
00000000
00000000
00000000
00000000
00010000
00000000
00000000
00000000
00000000
00000000
10000000
00000000
00000000
00100000
00000000
00000000
00000000
00000000
00000000
00100000
00000000
00000000
20000000
00000000
00000000
00000000
00000000
00000000
00000000
00000000
00000000
00000000
00000000
00000000
,
32000000
00000000
00000000
00000000
03010000
00000000
01000000
00100000
00000000
01000000
00100000
00000000
00020000
00000000
00000000
00000000
,
00031000
00000010
00000001
00000000
00001000
00000001
00000011
00000000
,
00000001
00001000
00000001
00001000
00000110
00000000
00000000
00000000
00000010
00000100
00000000
00001000
00010000
01000000
00000000
00000000
,
20000000
00000000
00000000
00000000
31000000
00010000
00000000
00001000
00000100
00000001
00000000
00000010
00000100
00001000
00000000
00000000
,
00000020
00000000
00000000
00000000
00000130
00001000
00000000
00010000
01000000
10000000
00000000
00010000
00100000
01000000
00000000
00000000
,
20000000
00000000
30010000
01000000
00010000
01000000
00100000
00010000
,
00001000
00000010
00001000
00000000
00000010
00000001
00000010
00000000
,
00000001
00000100
00000001
00000000
00000100
00001000
00000100
00000000
,
00001000
00010000
00001000
00000000
00010000
01000000
00010000
00000000
,
01000000
10000000
01000000
00000000
10000000
00010000
20010000
00000000
,
30100000
00010000
00001000
00010000
00100000
01000000
10000000
01000000
,
00100000
00010000
00001000
00000010
00000001
00000100
00001000
00000100
,
00000001
00000100
00001000
00010000
01000000
00010000
00001000
00000010
,
00000001
00000010
00001000
00010000
00011000
00000000
00002000
00000000
,
01003000
00100000
01000000
00100000
10010000
00000000
00000000
00000000
01010000
00000000
00000000
00000000
00101000
00000000
00000000
00000000
,
00001000
00000000
00010000
00000000
00001000
00000000
00010000
00000000
00000100
00000000
00010000
00000000
00000100
00000000
00000010
00000000
00000100
00000000
00000010
00000000
00000000
00001001
00000000
00000000
,
00000001
00000100
00001000
00000100
00000001
00000000
00000000
00000000
00001000
00000000
00000100
00000000
00010100
00000000
00000000
00000000
,
00002000
00000000
00000000
00000000
00103000
00000000
00010000
01000000
00000000
01000000
00100000
00000000
10000000
00000000
00010000
00000000
,
10000000
01000000
00010000
01000000
10000000
00000000
00000000
00000000
00110000
00000000
00000000
00000000
11000000
00000000
00000000
00000000
,
00010000
00000000
00100000
00000000
00010000
00000000
00100000
00000000
01000000
00000000
00100000
00000000
01000000
00000000
10000000
00000000
01000000
00000000
10000000
00000000
00000000
00110000
00000000
00000000
,
02000000
00000000
00000000
03200000
00000000
00000000
00310000
00001000
00000010
00000001
00000000
00000000
,
00001000
00000000
00000010
00000000
00001000
00000000
00000010
00000000
00001000
00000010
00001000
00000010
00002000
00000000
00000000
00000000
,
00003001
00000010
00001000
00000010
00000002
00000000
00000000
00000000
00002003
00000000
00000000
00000000
00023000
00000000
00000000
00000000
,
10030000
00000000
01000000
00000000
10000000
00000000
01000000
00000000
00100000
00000000
01000000
00000000
00100000
00000000
00010000
00000000
00100000
00000000
00010000
00000000
00000000
10010000
00000000
00000000
,
10000000
00100000
00010000
00100000
10000000
00000000
00000000
00000000
00010000
00000000
00100000
00000000
01000000
00000000
00000000
00000000
,
00020000
00000000
00000000
00000000
00031000
00000000
00000100
00000001
00000000
00000100
00000010
00000000
00001000
00000001
00001000
00000001
,
00001000
00000010
00000100
00000010
00002000
00000000
00000000
00000000
00003020
00000000
00000000
00000000
00000230
00000000
00000000
00000000
,
00000301
00000000
00000010
00000000
00000001
00000000
00000010
00000000
00000100
00000000
00000010
00000000
00000100
00000000
00010000
00000000
00000100
00000000
00010000
00000000
00000000
00011000
00000000
00000000
,
00100000
00000000
00000000
00010000
00000000
00000000
00100000
00000000
00000000
00000000
00000000
00000000
10010000
00000000
00000000
00000000
00000000
00000000
00000000
00000000
00000000
00000000
00000000
00000000
10000000
00000000
00000000
00000000
01000000
00000000
00000000
00000000
00010000
00000000
00000000
00000000
01000000
00000000
00000000
00000000
00000000
00000000
00000000
00000000
00000000
00000000
00000000
00000000
,
10010000
00000000
00000000
00000000
00000000
00000000
00000000
00000000
00000000
00010000
00001000
00010000
,
00001000
00010000
00001000
00010000
00000000
00000000
00000000
00000000
00000000
00000000
00000000
00000000
;

//---------------dance-double - ----------------
#NOTES:
     dance-double:
     :
     Challenge:
     16:
     0.712199,0.843855,0.513958,0.351205,0.967955,582.000000,522.000000,60.000000,41.000000,0.000000,0.000000,0.712199,0.843855,0.513958,0.351205,0.967955,582.000000,522.000000,60.000000,41.000000,0.000000,0.000000:
// measure 0
00000000
00000000
00000000
00000000
,  // measure 1
00000000
00000000
00000000
00000000
,  // measure 2
00000000
00000000
00000000
00000000
,  // measure 3
00000000
00000000
00000000
00000001
00000010
00000001
00000010
00001000
00000000
00010000
00000000
00100000
,  // measure 4
00000000
00000000
00000000
10000000
00010000
10000000
00010000
01000000
00100000
10000000
00000000
00010000
,  // measure 5
00000000
00000000
00000000
10000000
00100000
10000000
00100000
00010000
00001000
00000010
00000000
00000001
,  // measure 6
00000000
00000000
00000000
00001000
00000001
00001000
00000001
00000100
00000010
00001000
00000000
00000001
,  // measure 7
00000000
00000000
00000000
00000001
00000100
00000001
00000100
00001000
00000000
00010000
00000000
01000000
,  // measure 8
00000000
00000000
00000000
10000000
00010000
10000000
00010000
01000000
00100000
01000000
00000000
00010000
,  // measure 9
10000000
00000000
00000000
00000000
01010000
00000000
00100000
00010000
00001000
00000010
00000001
00000010
00000001
00000000
00000000
00000000
,  // measure 10
00000000
00000000
00000000
00000000
00001001
00000000
00000100
00000010
00001000
00010000
00100000
00010000
00100000
00000000
00000000
00000000
,  // measure 11
00000000
00000000
00000000
00000000
10010000
00000000
01000000
00010000
00001000
00000100
00000001
00000100
00000001
00000000
00000000
00000000
,  // measure 12
00000000
00000000
00000000
00000000
00000110
00000000
00000010
00000100
00001000
00010000
01000000
00010000
02000000
00000000
00000000
00000000
,  // measure 13
13000000
00100000
01000000
00100000
00010000
00001000
00000100
00001000
00010000
00000100
00000010
00000100
00001000
00000000
00001001
00000000
,  // measure 14
00000001
00000100
00000010
00000100
00001000
00010000
01000000
00010000
00001000
00100000
01000000
00100000
00010000
00000000
10010000
00000000
,  // measure 15
10000000
11000000
01010000
00011000
00001000
00010100
00001010
00000101
,  // measure 16
00000001
00001000
00000010
00000100
00000001
00001000
00000010
00000100
00000120
00000000
00000000
00000000
00002030
00000000
00000000
00000000
,  // measure 17
00003002
00002000
00000000
00003003
00001001
00000000
00000001
00000100
00000000
00000100
00001000
00010000
02000000
00000000
00000000
00000000
,  // measure 18
13000000
00010000
01000000
00100000
10000000
00000000
01000000
00100000
10000000
00100000
00000000
00100000
01000000
00000000
10010000
00000000
,  // measure 19
20000000
02000000
00000000
33000000
10010000
00000000
10000000
00100000
00000000
00100000
00010000
00001000
00000020
00000000
00000000
00000000
,  // measure 20
00000031
00000000
00000000
00000000
00001000
00000000
00000000
00000000
00000000
00000010
00000000
00000000
00000110
00000000
00000000
00000000
00000000
00000000
00000010
00000000
00000000
00000110
00000000
00000000
00000000
00000000
00000000
00000010
00000000
00000000
00000110
00000000
00000000
00000000
00000000
00000000
00000001
00000000
00000000
00000100
00000000
00000000
00001000
00000000
00000000
00000100
00000000
00000000
,  // measure 21
00000002
00000020
00000000
00000033
00000011
00000000
00000001
00000100
00000000
00000100
00001000
00010000
02000000
00000000
00000000
00000000
,  // measure 22
13000000
00000000
00010000
00000000
10000000
00000000
00010000
00000000
10000000
00000000
00010000
00000000
20000000
00000000
00000000
00000000
00000000
00000000
30100000
00000000
00000000
00010000
00000000
00000000
00100000
00000000
00000000
10000000
00000000
00000000
00000000
00000000
00000000
10000000
00000000
00000000
00020000
00000000
00000000
00000000
00000000
00000000
00000000
00000000
00000000
00000000
00000000
00000000
,  // measure 23
02030000
00000000
00000000
00000000
03100000
00000000
00010000
00001000
00000000
00001000
00000010
00000001
00000100
00000000
00000000
00000000
,  // measure 24
00000001
00000000
00000000
00001000
00000100
00000010
00000001
00000000
00000000
00000001
00000100
00000010
00010000
00000000
00000000
00010000
00001000
01000000
00100000
00000000
00000000
00000000
00000000
00000000
,  // measure 25
10000000
01000000
00010000
01000000
10000000
00100000
00000000
01000000
00010000
01000000
00000000
00100000
00010000
00001000
00000000
00000000
,  // measure 26
00000020
00000000
00000000
00000000
00000031
00000100
00000000
00000010
00001000
00000010
00000000
00000100
00001000
00010000
00000000
00000000
,  // measure 27
01000000
00000000
00000000
00000000
01000000
00000000
00000000
00000000
01000000
00000000
00000000
00000000
10000000
00000000
00000000
00100000
00000000
00000000
00010000
00000000
00000000
00100000
00000000
00000000
10000000
00000000
00000000
01000000
00000000
00000000
00010000
00000000
00000000
00001000
00000000
00000000
00000100
00000000
00000000
00000001
00000000
00000000
00000100
00000000
00000000
00001000
00000000
00000000
,  // measure 28
00000200
00000000
00000000
00000000
00000310
00000000
00001010
00000000
00010010
00000000
00011000
00000000
00100000
01000000
10000000
01000000
,  // measure 29
00100000
01000000
10100000
01000000
00100000
01000000
00110000
01000000
,  // measure 30
00100000
00010000
00011000
00001000
00010000
00001000
00011000
00001000
,  // measure 31
00000100
00000010
00001100
00000010
00000100
00000010
00000101
00000010
,  // measure 32
00001000
00010000
01100000
10000000
01000000
00010000
00012000
00000000
,  // measure 33
00003100
00000001
00000011
00001010
00001000
00010000
00110000
10100000
,  // measure 34
10000000
01000000
11000000
01010000
00010000
00001000
00001100
00000101
,  // measure 35
00000001
00000000
00001000
00000000
00000001
00000000
00000010
00000000
00000100
00000000
00010000
00000000
00001000
00010000
00001000
00010000
00001000
00000000
00100000
00000000
01000000
00000000
00100000
00000000
00010000
00000000
10000000
01000000
10000000
01000000
10000000
00000000
,  // measure 36
01000000
00000000
10000000
00000000
00010000
00000000
00100000
00000000
00010000
00000000
01000000
00000000
00001000
00010000
00001000
00010000
00001000
00000000
00000000
00000000
00000000
00000000
00000000
00000000
00022000
00000000
00000000
00000000
00033000
00000000
00000000
00000000
,  // measure 37
00010000
00000000
00001000
00000000
00000010
00000000
00000001
00000000
00000020
00000000
00000000
00000000
00000000
00000000
00000030
00000002
00002000
00000000
00000000
00000000
00000000
00000000
00003003
00000000
00020020
00000000
00000000
00000000
00000000
00000000
00030030
00000000
,  // measure 38
00001000
00100000
00001000
00100000
00001000
00000000
00010000
00000100
00010000
00000100
00010000
00000000
00001000
00100000
00001000
00100000
00001000
00100000
00001000
00000000
00000000
01010000
00000000
00000000
,  // measure 39
00100000
00000000
00000000
00000000
00000000
00000000
00000000
00000000
00000000
00000000
00000000
00000000
10000000
00000000
00000000
00000000
00000000
00000000
00000000
00000000
00000000
00000000
00000000
00000000
00100000
00000000
00000000
00000000
00000000
00000000
00000000
00000000
00000000
00000000
00000000
00000000
01000000
00000000
00000000
00000000
00000000
00000000
00000000
00000000
00000000
00000000
00000000
00000000
00200000
00000000
00000000
00000000
00000000
00000000
00000000
00000000
00000000
00000000
00000000
00000000
00000000
00000000
00000000
00000000
00000000
00000000
00000000
00000000
00000000
00000000
00000000
00000000
00000000
00000000
00000000
00000000
00000000
00000000
00000000
00000000
00000000
00000000
00000000
00000000
00000000
00000000
00000000
00000000
00000000
00000000
00000000
00000000
00000000
00000000
00000000
00000000
10300000
00000000
00000000
00000000
00000000
00000000
00010000
00000000
00000000
00000000
00000000
00000000
10000000
00000000
00000000
00000000
00000000
00000000
00010000
00000000
00000000
00000000
00000000
00000000
10000000
00000000
00000000
00000000
00000000
00000000
00000000
00000000
01000000
00000000
00000000
00000000
00000000
00000000
00000000
00000000
00100000
00000000
00000000
00000000
00000000
00000000
00000000
00000000
00020000
00000000
00000000
00000000
00000000
00000000
00000000
00000000
00000000
00000000
00000000
00000000
00000000
00000000
00000000
00000000
00000000
00000000
00000000
00000000
00000000
00000000
00000000
00000000
00000000
00000000
00000000
00000000
00000000
00000000
00000000
00000000
00000000
00000000
00000000
00000000
00030000
00000000
00000000
00000000
00000000
00000000
00000000
00000000
00000000
00000000
00000000
00000000
,  // measure 40
01000000
00000000
00000000
00000000
00100000
00000000
00000000
00000000
00000000
10000000
00000000
00000000
10010000
00000000
00000000
00000000
00000000
00000000
10000000
00000000
00000000
10010000
00000000
00000000
00000000
00000000
00000000
10000000
00000000
00000000
10010000
00000000
00000000
00000000
00000000
00000000
10000000
00000000
00000000
00100000
00000000
00000000
00010000
00000000
00000000
00001000
00000000
00000000
,  // measure 41
00000010
00000000
00000000
00000001
00000000
00000000
00000100
00000000
00000000
00000001
00000000
00000000
00000020
00000000
00000000
00000000
00000000
00000000
00000030
00000000
00000000
00000000
00000200
00000000
00002000
00000000
00000000
00000000
00000000
00000000
00000000
00000000
00000000
00003300
00000000
00000000
00000022
00000000
00000000
00000000
00000000
00000000
00000000
00000000
00000000
00000033
00000000
00000000
,  // measure 42
00000001
00000100
00000001
00000100
00000001
00000000
00001000
00000010
00001000
00000010
00001000
00000000
00000001
00000100
00000001
00000100
00000001
00000100
00000001
00000000
00000000
00000110
00000000
00000000
,  // measure 43
00010000
00001000
00010000
00001000
00000000
00000000
01100000
00000000
00000000
00000000
00000000
00000000
00100000
00000000
00100000
00000000
00100000
00000000
10010000
00000000
00000000
00000000
00000000
00000000
,  // measure 44
10000000
00000000
00010000
00000000
00001000
00000000
00000001
00000000
00000100
00000010
00000100
00000010
00000210
00000000
00000000
00000000
,  // measure 45
00000301
00000000
00000000
00000100
00000000
00000000
00001000
00000000
00000000
00000100
00000000
00000000
00000010
00000000
00000000
00000000
00000000
00000000
00000000
00000000
00000000
00000000
00020000
00000000
00002000
00000000
00000000
00000000
00000000
00000000
00000000
00000000
00000000
00033000
00000000
00000000
02200000
00000000
00000000
00000000
00000000
00000000
03300000
00000000
00000000
00000000
00000000
00000000
,  // measure 46
10000000
01000000
10000000
01000000
10000000
00000000
00010000
00100000
00010000
00100000
00010000
00000000
10000000
01000000
10000000
01000000
10000000
01000000
10000000
00000000
00000000
01010000
00000000
00000000
,  // measure 47
00100000
00000000
00010000
00000000
00001000
00000000
00000100
00000000
00000001
00000000
00000000
00000000
00000000
00000000
00000000
00000000
00001000
00000000
00000010
00000000
00001000
00000010
00001000
00000010
00001000
00000000
00000000
00000000
00000000
00000000
00000000
00000000
,  // measure 48
00000001
00000000
00000000
00000000
00000100
00000000
00000000
00000000
00000000
00000010
00000000
00000000
00001010
00000000
00000000
00000000
00000000
00000000
00000010
00000000
00000000
00001010
00000000
00000000
00000000
00000000
00000000
00000010
00000000
00000000
00001010
00000000
00000000
00000000
00000000
00000000
00000100
00000000
00000000
00001000
00000000
00000000
00010000
00000000
00000000
01000000
00000000
00000000
,  // measure 49
10000000
00000000
00000000
00000000
00000000
00000000
00000000
00000000
00000000
00000000
00000000
00000000
00100000
00000000
00000000
00000000
00000000
00000000
00000000
00000000
00000000
00000000
00000000
00000000
00010000
00000000
00000000
00000000
00000000
00000000
00000000
00000000
00000000
00000000
00000000
00000000
00100000
00000000
00000000
00000000
00000000
00000000
00000000
00000000
00000000
00000000
00000000
00000000
01000000
00000000
00000000
00000000
00000000
00000000
00000000
00000000
00000000
00000000
00000000
00000000
00000000
00000000
00000000
00000000
00000000
00000000
00000000
00000000
00000000
00000000
00000000
00000000
00000000
00000000
00000000
00000000
00000000
00000000
00000000
00000000
00000000
00000000
00000000
00000000
00000000
00000000
00000000
00000000
00000000
00000000
00000000
00000000
00000000
00000000
00000000
00000000
00020000
00000000
00000000
00000000
00000000
00000000
00200000
00000000
00000000
00000000
00000000
00000000
00000000
00000000
00000000
00000000
00000000
00000000
00000000
00000000
00000000
00000000
00000000
00000000
00330000
00000000
00000000
00000000
00000000
00000000
00000000
00000000
00000000
00000000
00000000
00000000
00000000
00000000
00000000
00000000
00000000
00000000
00000000
00000000
00000000
00000000
00000000
00000000
00022000
00000000
00000000
00000000
00000000
00000000
00000000
00000000
00000000
00000000
00000000
00000000
00000000
00000000
00000000
00000000
00000000
00000000
00000000
00000000
00000000
00000000
00000000
00000000
00003000
00000000
00000000
00000000
00000000
00000000
00000000
00000000
00030000
00000000
00000000
00000000
00000000
00000000
00000000
00000000
00000000
00000000
00000000
00000000
00000000
00000000
00000000
00000000
,  // measure 50
00010000
00000010
00010000
00000010
00010000
00000000
00001000
01000000
00001000
01000000
00001000
00000000
00010000
00000010
00010000
00000010
00010000
00000010
00010000
00000000
00000000
00000110
00000000
00000000
,  // measure 51
00001000
00000001
00000100
00000010
00000000
00000000
00001100
00000000
00000000
00000000
00000000
00000000
00000010
00000000
00000010
00000000
00000010
00000000
00011000
00000000
00000000
00000000
00000000
00000000
,  // measure 52
00010100
00000000
00000000
00000000
00000000
00000000
00000000
00000000
00000000
00001000
00001000
00001000
,  // measure 53
00010000
00010000
00010000
00010000
00000000
00000000
00000000
00000000
00000000
00000000
00000000
00000000
;
