#TITLE:March "Pomp And Circumstance" No.1 In D Major, Op.39-1;
#SUBTITLE:;
#ARTIST:Mazerati;
#TITLETRANSLIT:;
#SUBTITLETRANSLIT:;
#ARTISTTRANSLIT:;
#GENRE:Hardcore;
#CREDIT:;
#BANNER:;
#BACKGROUND:;
#LYRICSPATH:;
#CDTITLE:;
#MUSIC:March "Pomp And Circumstance" No.1 In D Major, Op.39-1.mp3;
#OFFSET:-0.394956;
#SAMPLESTART:10.099611;
#SAMPLELENGTH:11.999990;
#SELECTABLE:YES;
#BPMS:0.000000=196.960007
;
#STOPS:
;
#BGCHANGES:;
#KEYSOUNDS:;
#ATTACKS:;

//---------------dance-single - ----------------
#NOTES:
     dance-single:
     :
     Hard:
     14:
     0.761628,0.790852,0.362738,0.202458,0.037961,632.000000,589.000000,43.000000,24.000000,0.000000,0.000000,0.761628,0.790852,0.362738,0.202458,0.037961,632.000000,589.000000,43.000000,24.000000,0.000000,0.000000:
0000
0000
0000
0000
,
0000
0000
0000
0000
,
0000
0000
0000
0000
,
0000
0000
0000
0000
,
0000
0000
0000
0000
0000
0000
1000
0100
,
0001
0000
0001
0100
1000
0000
0001
0100
,
0101
0000
1010
0000
1100
0000
1000
0100
,
1100
1010
0101
1001
,
0001
0100
0010
0100
0001
0100
0010
0000
,
1000
0100
0010
0100
1000
0100
0010
0000
,
0001
1000
0100
0001
0100
1000
0001
0000
,
1000
0001
0100
1000
0100
0001
1000
0000
,
0010
0100
0001
0100
0010
0100
0001
0000
,
0100
0010
1000
0010
0100
0010
1000
0000
,
1001
0000
1000
0100
0010
0010
0001
0000
,
0100
0100
0010
0000
1000
1000
0001
0000
,
0100
1000
0100
0001
0100
0010
0100
0000
,
0010
0001
0010
0000
0010
1000
0010
0000
,
1001
0000
0100
0010
0100
0000
1000
0001
,
1001
0000
0001
0010
0001
0000
0100
0001
,
0100
0010
0001
0010
1000
0010
1000
0000
,
0100
0010
1000
0000
0010
0000
0001
0100
,
0010
1000
0010
0001
0010
1000
0010
0001
,
0010
1000
0100
0001
0100
1000
0100
0100
,
1000
0010
0100
0001
0100
0010
1000
0000
,
0001
0010
0100
0000
1001
0000
1000
0100
,
0010
0000
1000
0010
1000
0010
0001
0000
,
0100
0010
0100
0010
0001
0010
1000
0000
,
0001
0100
0010
1000
0100
0001
0100
0000
,
1000
0010
0100
0000
1001
0000
0001
0010
,
0110
0000
0010
0001
0011
0000
0100
1000
,
0001
0100
1000
0100
0001
0100
1000
0000
,
0001
0010
0001
0010
0001
0010
0001
0010
,
0100
0001
0100
1000
0100
0001
0100
1000
,
0010
1000
0010
1000
0010
1000
0010
1000
,
0100
0010
0100
0010
0100
0010
0100
0010
,
0001
0100
0001
0100
0001
0100
0001
0100
,
0001
0010
1000
0010
0001
0010
1000
0010
,
0001
1000
0001
1000
0001
1000
0001
1000
,
0100
0010
0100
0010
0100
0010
0100
0010
,
0001
0010
0001
0010
0001
0010
0001
0010
,
0011
0000
1100
0000
1000
0100
0110
0000
,
0100
0001
0100
1000
0100
0001
0100
1000
,
0010
0001
0010
1000
0010
0001
0010
1000
,
0100
0010
0100
0010
0100
0010
0100
0010
,
1000
0010
1000
0010
0001
1000
0010
0000
,
0101
0001
1000
0000
1010
1000
0100
0000
,
0010
0000
0001
0000
0011
0000
0000
0000
1000
0000
0001
0000
0010
0000
0001
1000
,
0001
0100
0010
0100
1000
0100
0001
0000
,
1000
0100
0001
0100
1000
0100
0001
0000
,
1000
0020
0000
0130
0010
0100
0010
0100
,
0001
0020
0000
0130
0010
0100
0010
0100
,
1000
0010
0100
0010
0001
0010
1000
0000
,
0001
0100
1000
0100
0001
0100
1000
0000
,
0001
0200
0000
0310
1000
0010
1000
0010
,
1000
0200
0000
0310
0001
0010
0001
0010
,
0001
0100
0010
0001
0010
1000
0001
0000
,
1000
0100
0010
0000
1001
0000
0100
0010
,
1000
0002
0000
0103
0010
1000
0001
1000
,
0010
0200
0000
0301
1000
0001
0010
0100
,
1000
0100
0010
1000
0010
0001
0100
0000
,
0010
0001
0010
0000
1001
0000
0100
1000
,
0100
0020
0000
1030
0010
1000
0010
0001
,
0100
0020
0000
0031
0010
0001
0010
1000
,
0100
0010
0100
0000
0010
0000
0001
0000
0100
0001
0100
0000
0001
0000
0010
0000
,
0011
0101
2020
3030
,
1000
0200
0000
0301
0100
0001
0100
1000
,
0001
0200
0000
1300
0100
1000
0100
0001
,
1000
0010
1000
0000
0010
0000
0100
0000
0001
0010
0001
0000
0100
0000
0010
0000
,
0110
1010
2200
3300
,
0001
0020
0000
1030
0010
1000
0010
0001
,
1000
0020
0000
0031
0010
0001
0010
1000
,
0001
0100
0001
0000
0100
0000
0010
0000
1000
0010
1000
0000
0010
0000
0100
0000
,
0110
0202
0303
1010
,
0100
2000
0000
3010
0001
0010
1000
0001
,
0100
2000
0000
3100
0001
1000
0001
1000
,
0010
0100
0010
0000
1000
0000
0001
0000
0100
0010
0100
0000
0001
0000
1000
0000
,
1010
0202
0303
0011
,
1100
1000
0000
0010
0100
0010
0100
0100
,
0001
0001
1000
1000
0001
0001
1000
1000
,
1001
0000
0110
0000
,
0001
0100
1000
0100
0001
1000
0001
1000
,
1001
0000
0110
0000
,
1000
0010
0001
0010
1000
0000
1001
0000
,
1000
0100
1000
0100
0010
0001
0010
0001
,
0100
0010
0100
0010
1000
0001
1000
0001
,
0001
0100
0001
0100
0010
1000
0010
1000
,
0001
0100
0010
1000
0010
0100
0001
1000
,
0100
0010
0100
0010
0001
0010
0001
0010
,
0100
1000
0100
1000
0001
1000
0001
1000
,
1001
0000
0000
0010
0000
0000
0000
0000
,
1001
0000
0000
0100
0000
0000
0000
0000
,
0220
0000
0000
0000
,
0000
0000
0000
0330
;

//---------------dance-double - ----------------
#NOTES:
     dance-double:
     :
     Challenge:
     17:
     0.895395,1.095383,0.295252,0.168715,0.388045,743.000000,708.000000,35.000000,20.000000,0.000000,0.000000,0.895395,1.095383,0.295252,0.168715,0.388045,743.000000,708.000000,35.000000,20.000000,0.000000,0.000000:
// measure 0
00000000
00000000
00000000
00000000
,  // measure 1
00000000
00000000
00000000
00000000
,  // measure 2
00000000
00000000
00000000
00000000
,  // measure 3
00000000
00000000
00000000
00000000
,  // measure 4
00000000
00000000
00000000
00000000
00000000
00000000
00000001
00000010
,  // measure 5
00001000
00000000
00010000
00100000
10000000
00000000
00100000
00010000
,  // measure 6
00001000
00000000
00000011
00000000
00011000
00000000
00010000
00100000
,  // measure 7
10000000
00110000
00011000
00001010
,  // measure 8
00000001
00000100
00001000
00000100
00000001
00000010
00001000
00000010
,  // measure 9
00000001
00000100
00001000
00010000
00100000
10000000
00010000
10000000
,  // measure 10
00100000
00010000
00100000
00000000
10000000
01000000
00010000
00000000
,  // measure 11
00001000
00000010
00001000
00000000
00000010
00000001
00000100
00000000
,  // measure 12
00001000
00010000
01000000
00010000
00001000
00000010
00000001
00000010
,  // measure 13
00001000
00010000
01000000
10000000
00100000
00010000
00001000
00000000
,  // measure 14
00000010
00000001
00000100
00000100
00000010
00001000
00010010
00000000
,  // measure 15
00010000
00000100
00011000
00000000
00001000
00100000
01010000
00000000
,  // measure 16
00010000
01000000
10000000
01000000
00010000
00100000
10000000
00100000
,  // measure 17
00010000
00001000
00000010
00000000
00000100
00000010
00001000
00000010
,  // measure 18
00000100
00000000
00000001
00000010
00001000
00000000
00000001
00000100
,  // measure 19
00001000
00000000
00010000
01000000
10000000
01000000
00010000
10000000
,  // measure 20
00100000
00010000
00001000
00000000
00000010
00000001
00000100
00001000
,  // measure 21
00000100
00000001
00000010
00000000
00001000
00010000
01000000
00000000
,  // measure 22
10000000
00100000
10000000
00000000
00010000
01000000
00010000
00000000
00100000
00001000
00100000
00000000
00001000
00010000
00001000
00000000
,  // measure 23
00010000
00000010
00010000
00000000
00000010
00000100
00000010
00000000
00001000
00000100
00001000
00000000
00000001
00001000
00000001
00000000
,  // measure 24
00000100
00001000
00010000
00001000
00000100
00000001
00001000
00000000
,  // measure 25
00000010
00000100
00001000
00000000
00010000
00100000
10000000
01000000
,  // measure 26
01100000
00000000
01000000
00010000
00001000
00000000
00000010
00000001
,  // measure 27
00000100
00000000
00001000
00010000
00100000
00010000
00001000
00000000
,  // measure 28
00000100
00001000
00010000
00000000
01000000
10000000
00100000
00000000
,  // measure 29
00010000
00001000
00000100
00000001
00001000
00000010
00000100
00000000
,  // measure 30
00011000
00100000
00011000
00000010
,  // measure 31
00000001
00000000
00000100
00000000
00001000
00000000
00010000
00000000
00100000
00000000
10000000
00000000
00010000
10000000
00010000
00000000
,  // measure 32
10000000
01000000
10000000
01000000
00100000
00010000
00100000
00010000
10000000
01000000
10000000
01000000
00100000
00010000
00100000
00010000
,  // measure 33
10000000
01000000
00100000
00000000
00001000
00000000
00010000
00000000
00000010
00000100
00000001
00000000
00001000
00000000
00000010
00000000
,  // measure 34
00000100
00000001
00000100
00000001
00001000
00000010
00001000
00000010
00000100
00000001
00000100
00000001
00001000
00000010
00001000
00000010
,  // measure 35
00001000
00000001
00000100
00000000
00000010
00000000
00010000
00000000
00001000
00100000
01000000
00000000
10000000
00000000
00010000
00000000
,  // measure 36
10000000
00100000
10000000
00100000
01000000
00010000
01000000
00010000
10000000
00100000
10000000
00100000
01000000
00010000
01000000
00010000
,  // measure 37
00100000
00010000
00100000
00000000
00001000
00000000
00010000
00000000
00000010
00000100
00000010
00000000
00001000
00000000
00000001
00000000
,  // measure 38
00000100
00000010
00001000
00000000
00000010
00000000
00000100
00000000
00000001
00000010
00000001
00000000
00000100
00000000
00001000
00000000
,  // measure 39
00010000
00001000
00100000
00000000
00001000
00000000
00010000
00000000
00000010
00000100
00000001
00000000
00001000
00000000
00000010
00000000
,  // measure 40
00001000
00000010
00001000
00000010
00000100
00000001
00000100
00000001
00001000
00000010
00001000
00000010
00000100
00000001
00000100
00000001
,  // measure 41
00000100
00000010
00010000
00000000
00001000
00000000
01000000
00000000
00100000
00000000
10000000
00000000
00010000
00100000
01000000
00000000
,  // measure 42
00100000
00010000
00100000
00010000
10000000
01000000
10000000
01000000
00100000
00010000
00100000
00010000
10000000
01000000
10000000
01000000
,  // measure 43
00100000
00001000
00010000
00000000
00000010
00000000
00000100
00000000
00000001
00001000
00000010
00000000
00000100
00000000
00000001
00000000
,  // measure 44
00001000
00000100
00001000
00000100
00000010
00000001
00000010
00000001
00001000
00000100
00001000
00000100
00000010
00000001
00000010
00000001
,  // measure 45
00000100
00000001
00001000
00000000
00000010
00000000
00000100
00000000
00001000
00000000
00010000
00000000
00001000
00100000
01000000
00000000
,  // measure 46
11000000
00000000
00100000
01000000
01010000
00000000
00100000
00001000
,  // measure 47
00011000
00000000
00000010
00000000
00001000
00000000
00000000
00000010
00000100
00000000
00000001
00000000
00001001
00000000
00000100
00000001
,  // measure 48
00001000
00000010
00000001
00000010
00001000
00000100
00000001
00000100
,  // measure 49
00001000
00000010
00000100
00001000
00010000
00100000
10000000
00000000
,  // measure 50
10000000
12000000
00000000
03010000
00001000
00010000
00001000
00010000
,  // measure 51
00000100
00002100
00000000
00003010
00000001
00000010
00000001
00000010
,  // measure 52
00001000
00000100
00000001
00000100
00001000
00000010
00000001
00000010
,  // measure 53
00001000
00000001
00000100
00000010
00001000
00000010
00000100
00000000
,  // measure 54
00000001
00000021
00000000
00001030
00010000
00001000
00010000
00001000
,  // measure 55
00100000
00210000
00000000
01300000
10000000
01000000
10000000
01000000
,  // measure 56
10000000
00100000
00010000
00100000
10000000
01000000
00010000
01000000
,  // measure 57
10000000
00100000
01000000
00100000
00010000
00001000
00010000
00100000
,  // measure 58
01000000
02100000
00000000
03010000
00100000
00010000
00100000
00010000
,  // measure 59
00100000
00102000
00000000
00013000
00000010
00010000
00000010
00010000
,  // measure 60
00000100
00000010
00000001
00001000
00000001
00000100
00001000
00000000
,  // measure 61
00000100
00001000
00010000
00000000
00100000
00010000
00001000
00000100
,  // measure 62
00000001
00002001
00000000
00003001
00000010
00001000
00000010
00000001
,  // measure 63
00000100
00002100
00000000
00013000
00100000
10000000
00100000
00010000
,  // measure 64
00001000
01000000
00001000
00000000
00100000
00000000
01000000
00000000
10000000
00100000
10000000
00000000
00100000
00000000
01000000
00000000
,  // measure 65
00001000
00010000
00001000
00000100
00000001
00000000
00001000
00000010
,  // measure 66
00000100
00000210
00000000
00001300
00010000
00100000
00010000
00001000
,  // measure 67
00010000
00021000
00000000
00031000
00000100
00000001
00000100
00001000
,  // measure 68
00010000
00000010
00010000
00000000
00000010
00000000
00000100
00000000
00000001
00000010
00000001
00000000
00000010
00000000
00000100
00000000
,  // measure 69
00001000
00000010
00010000
00000010
00001000
00000000
00000100
00010000
,  // measure 70
00001000
00201000
00000000
00310000
00001000
01000000
00001000
00010000
,  // measure 71
00000010
00010020
00000000
00001030
00000010
00000001
00000010
00001000
,  // measure 72
00000010
00000100
00000010
00000000
00001000
00000000
00000001
00000000
00000100
00000010
00000100
00000000
00000001
00000000
00001000
00000000
,  // measure 73
00000010
00000100
00001000
00000000
00010000
01000000
10000000
00000000
,  // measure 74
00100000
10200000
00000000
10300000
01000000
00010000
01000000
10000000
,  // measure 75
00010000
00210000
00000000
00301000
01000000
00100000
01000000
00001000
,  // measure 76
00010000
00000010
00010000
00000000
00000100
00000000
00001000
00000000
00000010
00000100
00000010
00000000
00000100
00000000
00000001
00000000
,  // measure 77
00000100
00001000
00010000
00000000
00100000
10000000
00010000
01000000
,  // measure 78
00100000
10000000
00000000
10000000
00010000
01000000
00000000
01000000
,  // measure 79
00100000
00100000
10000000
10000000
01000000
01000000
00010000
00010000
,  // measure 80
00002000
00003010
00000002
00000103
,  // measure 81
00000001
00000100
00001000
00010000
01000000
10000000
01000000
00010000
,  // measure 82
00002000
00103000
02000000
13000000
,  // measure 83
00100000
00010000
00001000
00010000
00100000
00000000
00011000
00000000
,  // measure 84
00010000
00000010
00010000
00000010
00000100
00000001
00000100
00000001
,  // measure 85
00000010
00001000
00000010
00001000
00010000
01000000
00010000
01000000
,  // measure 86
10000000
00100000
10000000
00100000
00010000
00001000
00010000
00001000
,  // measure 87
00001010
00000011
00000101
00001100
,  // measure 88
00010000
01000000
10000000
00100000
00010000
00001000
00000100
00000001
,  // measure 89
00000100
00001000
00000010
00000100
00001000
00010000
00100000
10000000
,  // measure 90
01000000
00100000
00001000
00000000
00000000
00000000
00010000
00000010
00000100
00000000
00000000
00000000
00000000
00000000
00000000
00000000
,  // measure 91
00000001
00000010
00000100
00000010
00000001
00001000
00000100
00010000
00000100
00010000
00001000
00100000
01000000
10000000
01000000
00000000
,  // measure 92
02200000
00000000
00000000
03300000
;

//---------------dance-single - ----------------
#NOTES:
     dance-single:
     :
     Medium:
     11:
     0.471197,0.547692,0.219330,0.489274,0.000000,391.000000,365.000000,26.000000,58.000000,0.000000,0.000000,0.471197,0.547692,0.219330,0.489274,0.000000,391.000000,365.000000,26.000000,58.000000,0.000000,0.000000:
0000
0000
0000
0000
,
0000
0000
0000
0000
,
0000
0000
0000
0000
,
0000
0000
0000
0000
,
0000
0000
0000
0000
0000
0000
0010
0100
,
0010
0000
0100
0001
0100
0000
0001
0010
,
0001
0000
1000
0000
1000
0000
1000
0010
,
1000
0001
0001
0001
,
1001
0100
0010
0100
,
2000
3020
0230
0300
,
1001
0010
0100
0010
,
0011
0001
0100
0010
,
1100
1000
0001
1000
,
0020
0230
0302
0003
,
0001
0000
0010
0100
0010
0100
1000
0000
,
0010
0100
1000
0000
0010
0100
1000
0000
,
1010
0100
0010
0100
,
0002
0023
0030
2000
,
3020
0030
0000
0000
,
2002
0000
3003
0000
,
0011
0100
0010
0001
,
2000
3200
0300
0002
,
0103
0100
1000
1000
,
0010
0000
0010
0000
0100
0001
1000
0010
,
0200
0310
1000
0001
,
0020
2030
3010
0002
,
0203
0310
0001
0010
,
2000
0100
0001
3100
,
1001
0010
0100
0010
,
0002
0023
0030
0200
,
2300
3000
1001
0000
,
0101
1010
1100
0011
,
1000
0100
0010
0000
0001
0000
1000
0000
,
0001
0010
0100
0010
0001
1000
0001
0000
,
1000
0001
1000
0001
,
0100
0001
0100
0001
,
0100
0010
1000
0000
0001
0000
1000
0000
,
0010
0100
0001
0100
0010
1000
0010
0000
,
0100
0001
0100
0001
,
0100
0001
0100
0001
,
1000
0100
0010
0000
0001
0000
0010
0000
,
0100
0010
0001
0010
0100
0000
1000
0000
,
0010
1000
0001
0000
0100
0000
0000
0000
,
0100
0001
1000
0000
0010
0000
0000
0000
,
1000
0100
1000
0100
,
0010
0001
0100
0001
,
1001
0000
0110
0000
,
0001
0001
0001
0000
1000
1000
1000
0000
,
0101
1000
0010
1000
,
0100
0010
0001
0000
,
1000
0100
0000
0100
1000
0000
1000
0000
,
0001
0100
0000
0100
0001
0000
0001
0000
,
0011
0100
1000
0100
,
1000
0010
0100
0000
,
0001
0010
0000
0010
0001
0000
0001
0000
,
1000
0010
0000
0010
1000
0000
1000
0000
,
1010
0100
0001
0010
,
0002
0203
0300
0020
,
1030
0100
0000
0010
0001
0000
1000
0000
,
0001
0010
0000
0100
1000
0000
0001
0000
,
0101
0010
1000
0100
,
0020
0230
0300
2000
,
3010
0100
0000
0001
1000
0000
0010
0000
,
1000
0001
0000
0100
0010
0000
0100
0000
,
0001
0010
0001
0000
0010
0000
0100
0000
,
2000
3200
0320
0030
,
0001
0100
0000
0010
0100
0000
0001
0000
,
1000
0100
0000
0010
0100
1000
0010
0000
,
0010
0100
0010
0000
0100
0000
0001
0000
,
0020
0230
2300
3000
,
0001
1000
0000
0100
1000
0001
1000
0000
,
1000
0001
0000
0100
0001
1000
0001
0000
,
1000
0010
0100
0000
0001
0000
1000
0000
,
2000
3020
0030
0200
,
0301
1000
0000
0100
0010
0001
1000
0000
,
1000
0001
0000
0010
0100
1000
0001
0000
,
0001
0100
0001
0000
1000
0100
1000
0000
,
0002
2003
3000
0020
,
0130
0000
0000
0110
0000
0010
0000
1000
,
0001
0100
0001
0010
0001
0100
0001
0010
,
0200
0300
0200
0300
,
1000
0001
0100
0001
,
0020
0030
0020
0030
,
0001
0010
0100
1000
0001
0000
1001
0000
,
0200
0000
0302
0000
,
0023
0000
0230
0000
,
2300
0000
3020
0000
,
0130
0010
0110
0101
,
2000
0000
3002
0000
,
0023
0000
0000
0000
0130
1000
0010
0100
,
0010
0000
0000
1100
0000
0000
0000
0000
,
0010
0000
0000
0101
0000
0000
0000
0000
,
2002
0000
0000
3003
;

//---------------dance-single - ----------------
#NOTES:
     dance-single:
     :
     Easy:
     6:
     0.292841,0.508571,0.109665,0.202458,0.000000,243.000000,230.000000,13.000000,24.000000,0.000000,0.000000,0.292841,0.508571,0.109665,0.202458,0.000000,243.000000,230.000000,13.000000,24.000000,0.000000,0.000000:
0000
0000
0000
0000
,
0000
0000
0000
0000
,
0000
0000
0000
0000
,
0000
0000
0000
0000
,
0000
0000
0000
0000
,
0000
0000
0000
0010
,
0100
0100
0001
0010
,
0100
1000
0010
0100
,
0002
0000
0000
0000
,
0013
0100
1000
0000
,
1001
0000
0000
0000
,
0110
0000
0000
0000
,
0200
0000
0000
0000
,
0310
0001
1000
0000
,
0010
1000
1000
0100
,
0001
0100
1000
0100
,
0020
0000
0000
0030
,
0001
0100
0000
0010
,
1000
0000
0000
0000
,
1100
0000
0000
0000
,
0110
0000
0000
0000
,
1000
0100
0000
0010
,
0001
0100
0001
0010
,
0001
0100
0010
1000
,
0200
0000
0000
0000
,
0310
0100
0000
1000
,
0001
0000
0000
0000
,
0101
0000
0000
0000
,
0110
0000
0000
0000
,
0010
1000
0000
0001
,
0100
0000
0101
0000
,
0011
0011
1001
1001
,
1000
0100
1000
0100
,
1000
0010
0100
0000
,
0100
0001
0100
0001
,
0010
0001
0010
0001
,
0010
0100
0010
0100
,
1000
0001
0010
0000
,
0100
1000
0100
1000
,
0100
1000
0100
0000
,
0010
0001
0010
0001
,
1000
0001
0000
0001
,
0010
0100
0010
0100
,
1000
0100
1000
0100
,
1000
0010
1000
0010
,
0100
0001
0000
0001
,
0010
0000
0011
0000
,
0001
1000
0010
0000
,
0200
0000
0000
0000
,
1300
0010
0100
0000
,
0002
0000
1003
0000
,
2000
0000
3001
0000
,
0200
0000
0000
0000
,
0310
1000
0001
0000
,
0200
0000
0310
0000
,
0020
0000
0130
0000
,
2000
0000
0000
0000
,
3001
0010
0000
0100
,
0020
0000
0031
0000
,
2000
0000
3100
0000
,
0020
0000
0000
0000
,
0031
0100
0000
0100
,
0020
0000
1030
0000
,
0002
0000
0103
0000
,
0100
0001
0100
0001
,
0010
0100
1000
0000
,
2000
0000
3010
0000
,
0200
0000
0301
0000
,
0001
0010
0001
0010
,
0100
0010
0001
0000
,
0200
0000
0301
0000
,
2000
0000
3010
0000
,
0100
0010
0100
0010
,
1000
0010
0000
0010
,
0200
0000
0301
0000
,
0020
0000
0130
0000
,
1000
0001
1000
0001
,
0010
0100
0000
0100
,
1000
0000
0001
0000
,
0100
0100
0100
0100
,
0010
0000
0010
0000
,
0010
1000
0001
0100
,
0100
0000
0100
0000
,
0100
0001
1000
1000
,
0010
0000
0100
0000
,
0001
0000
0010
0000
,
0100
0000
1000
0000
,
0001
0001
1000
1000
,
0010
0100
0001
1000
,
0100
0010
0001
0100
,
0001
0000
0000
0001
0000
0000
0000
0000
,
1000
0000
0000
1000
0000
0000
0000
0000
,
2002
0000
0000
3003
;

//---------------dance-single - ----------------
#NOTES:
     dance-single:
     :
     Beginner:
     3:
     0.185587,0.274584,0.050615,0.143408,0.000000,154.000000,148.000000,6.000000,17.000000,0.000000,0.000000,0.185587,0.274584,0.050615,0.143408,0.000000,154.000000,148.000000,6.000000,17.000000,0.000000,0.000000:
0000
0000
0000
0000
,
0000
0000
0000
0000
,
0000
0000
0000
0000
,
0000
0000
0000
0000
,
0000
0000
0000
0010
,
0000
1000
0000
0100
,
0000
0010
0010
0000
,
0001
0001
0001
0001
,
0001
0000
0000
0000
,
0100
0100
0100
0000
,
0010
0000
0000
0000
,
0100
0000
0000
0000
,
0010
0000
0000
0000
,
1000
1000
1000
0000
,
0001
0000
0000
0000
,
0100
0000
0100
0000
,
0100
0000
0000
0000
,
0001
0001
0000
0001
,
0001
0000
0000
0000
,
1000
0000
0000
0000
,
0010
0000
0000
0000
,
0010
0010
0000
0100
,
0200
0000
0000
0000
,
0300
0000
1000
0000
,
1000
0000
0000
0000
,
0010
0010
0000
0100
,
0100
0000
0000
0000
,
1001
0000
0000
0000
,
0110
0000
0000
0000
,
0001
0001
0000
0100
,
0100
0000
0100
0000
,
0100
0100
0100
0100
,
0100
0000
0000
0000
,
0010
0010
0010
0000
,
1000
0000
0000
0000
,
0100
0000
0000
0000
,
0010
0000
0000
0000
,
0001
0001
0001
0000
,
0100
0000
0000
0000
,
0000
0000
0000
0000
,
0010
0000
0000
0000
,
1000
1000
0000
0001
,
0001
0000
0000
0000
,
0100
0000
0000
0000
,
0001
0000
0000
0000
,
0010
0010
0000
0100
,
0100
0000
1000
0000
,
0001
0000
1000
0000
,
1001
0000
0000
0000
,
0100
0100
0100
0000
,
0002
0000
0003
0000
,
2000
0000
3000
0000
,
0001
0000
0000
0000
,
0100
0100
0100
0000
,
0020
0000
0030
0000
,
2000
0000
3000
0000
,
0100
0000
0000
0000
,
0010
0010
0000
0001
,
0002
0000
0003
0000
,
0200
0000
0300
0000
,
0001
0000
0000
0000
,
0010
0010
0000
0100
,
0200
0000
0300
0000
,
2000
0000
3000
0000
,
0010
0000
0000
0000
,
1000
1000
1000
0000
,
0200
0000
0300
0000
,
0020
0000
0030
0000
,
0001
0000
0000
0000
,
0100
0100
0100
0000
,
0020
0000
0030
0000
,
0200
0000
0300
0000
,
0001
0000
0000
0000
,
1000
1000
0000
0010
,
0020
0000
0030
0000
,
2000
0000
3000
0000
,
0001
0000
0000
0000
,
0100
0100
0000
0001
,
0001
0000
1000
0000
,
0010
0010
0010
0010
,
0010
0000
0100
0000
,
0010
0000
0000
0000
,
1000
0000
0100
0000
,
1000
0000
0000
0000
,
0001
0000
0010
0000
,
0001
0000
0010
0000
,
0100
0000
1000
0000
,
0100
0100
0100
0100
,
0100
0000
0000
0000
,
0010
0000
0000
0000
,
1001
0000
0000
0000
,
0110
0000
0000
0000
,
2002
0000
0000
0000
,
3003
0000
0000
0000
;

//---------------dance-double - ----------------
#NOTES:
     dance-double:
     :
     Hard:
     14:
     0.709809,0.751310,0.404916,0.126536,0.042179,589.000000,541.000000,48.000000,15.000000,0.000000,0.000000,0.709809,0.751310,0.404916,0.126536,0.042179,589.000000,541.000000,48.000000,15.000000,0.000000,0.000000:
00000000
00000000
00000000
00000000
,
00000000
00000000
00000000
00000000
,
00000000
00000000
00000000
00000000
,
00000000
00000000
00000000
00000000
,
00000000
00000000
00000000
00000000
00000000
00000000
10000000
01000000
,
00010000
00000000
00001000
00000100
00000001
00000000
00000100
00001000
,
00010000
00000000
00110000
00000000
10100000
00000000
00100000
00010000
,
00001000
00001010
00000011
00001001
,
00000110
00000001
00001000
00000001
,
00000100
00001000
00010000
00001000
00000100
00000000
00011000
00000000
,
00100000
10000000
00100000
00000000
00010000
00001000
00000100
00000000
,
00000001
00000100
00000001
00000000
00000100
00001000
00010000
00000000
,
10100000
01000000
00010000
01000000
,
00100000
00010000
00001000
00010000
00100000
00000000
10000000
01000000
,
00010000
00000000
00001000
00000010
00000001
00000010
00001000
00000000
,
00010000
00100000
10000000
00000000
00100000
00010000
00001000
00000000
,
00000011
00000100
00001000
00010000
,
00001000
00000100
00000001
00000000
00000100
00001000
00010000
00100000
,
10000000
00000000
01000000
00010000
01000000
00000000
00010000
00001000
,
00000010
00000000
00000001
00000100
00000001
00000000
00000100
00001000
,
00010000
00100000
10000000
00000000
00100000
00010000
00100000
00000000
,
10000000
01000000
00010000
00000000
00011000
00000000
00001000
00000100
,
00000001
00000010
00001000
00000010
00000001
00000010
00001000
00000010
,
00000001
00000010
00001000
00000010
00000001
00000100
00000010
00010000
,
00011000
00100000
01000000
10000000
,
01000000
00010000
00001000
00000000
00010000
00000100
00010000
00001000
,
00000010
00000000
00000001
00000100
00001000
00000000
00000001
00000010
,
00000011
00000000
00000010
00001000
00010000
00000000
00001000
00100000
,
00101000
00010000
01000000
00001000
,
00010000
00000010
00000100
00000000
00011000
00000000
00001000
01000000
,
01100000
10000000
01010000
00001000
,
00011000
00010010
00001100
00011000
,
00001000
00100000
00001000
00000000
00100000
00000000
01000000
00000000
10000000
00100000
10000000
00000000
01000000
00000000
00010000
00000000
,
00001000
00000100
00001000
00000100
00000001
00000100
00000001
00000100
,
00000001
00000010
00000001
00000000
00001000
00000000
00000010
00000000
00001000
00000100
00001000
00000000
00000001
00000000
00000010
00000000
,
00000001
00001001
00000100
00000110
,
00001000
00000010
00001000
00000000
00000010
00000000
00000100
00000000
00000001
00000010
00000001
00000000
00000010
00000000
00001000
00000000
,
00010000
00100000
00010000
00100000
10000000
00100000
10000000
00100000
,
10000000
01000000
10000000
00000000
00010000
00000000
00100000
00000000
00010000
01000000
00010000
00000000
10000000
00000000
00100000
00000000
,
00010000
00001000
00000010
00000001
,
00000100
00000010
00000100
00000010
00000100
00000010
00000100
00000010
,
00000001
00000010
00001000
00000000
00010000
01000000
10000000
00000000
,
10000000
01000000
00010000
01000000
10000000
01000000
00010000
00001000
,
00000100
00000001
00000100
00001000
00000100
00000001
00000100
00000000
,
00000001
00000010
00000001
00000010
00000001
00000010
00000001
00000010
,
00001000
00010000
00100000
00000000
00010000
00100000
10000000
00000000
,
10010000
00000000
01100000
00000000
,
10000000
01000000
00010000
00000000
00001000
00000100
00000001
00000001
,
00001000
00000010
00000100
00000000
00000010
00000100
00000001
00000000
,
00000100
00001000
00010000
01000000
10000000
00000000
00100000
01000000
,
00100000
20000000
00000000
31000000
00010000
01000000
00010000
01000000
,
00010000
00002000
00000000
00003100
00000001
00000100
00000001
00000100
,
00000001
00000010
00000100
00000000
00010000
00001000
00100000
00000000
,
00001000
00010000
00000010
00000100
00000001
00000000
00001000
00000010
,
00000100
00002000
00000000
00013000
01000000
00010000
01000000
00010000
,
01000000
20000000
00000000
30100000
00010000
00100000
00010000
00100000
,
00010000
00001000
00000010
00000000
00000001
00001000
00000010
00000000
,
00000100
00000101
00000010
00011000
,
00001000
00200000
00000000
01300000
10000000
00100000
00010000
00001000
,
00000100
00002000
00000000
00013000
00000010
00000100
00001000
00010000
,
00000100
00000000
00010000
00000000
00001000
01000000
00100000
00000000
,
10000000
11000000
00000000
01010000
,
01000000
00200000
00000000
00310000
00001000
00000100
00000001
00000010
,
00001000
00020000
00000000
00031000
01000000
00100000
00010000
00001000
,
00000100
00000001
00000100
00000000
00000001
00000010
00000001
00000000
,
00000101
00001100
00011000
00100000
,
01000000
20000000
00000000
30100000
00010000
00100000
00010000
00100000
,
00010000
00002000
00000000
00003010
00000001
00000010
00000001
00000010
,
00000001
00000000
00000100
00000000
00000010
00010000
00001000
00000000
,
00011000
00110000
10100000
01000000
,
00010000
00002000
00000000
00003010
00000001
00000010
00000001
00000010
,
00000001
00000200
00000000
00001300
00010000
00001000
00010000
00001000
,
00010000
00000000
00100000
00000000
10000000
01000000
10000000
00000000
,
11000000
01010000
00000000
00001100
,
00000100
00000001
00000000
00000001
00000010
00001000
00010000
01000000
,
00010000
00002000
00000000
00013000
01000000
10000000
00100000
00010000
,
00001000
00000100
00001000
00000100
00000001
00000100
00000001
00000100
,
00000001
00000011
00000000
00001000
,
00011000
00010000
00000000
00001000
00011000
00000000
00100000
01000000
,
10000000
10000000
00100000
00100000
00010000
00010000
00001000
00001000
,
00011000
00000000
00000110
00000000
,
00000001
00000100
00001000
00010000
01000000
10000000
00100000
01000000
,
01100000
00000000
00011000
00000000
,
00000100
00000001
00001000
00000001
00000100
00000000
00001001
00000000
,
00000001
00000100
00000001
00000100
00001000
00010000
00001000
00010000
,
01000000
10000000
01000000
10000000
00100000
00010000
00100000
00010000
,
00001000
00000010
00001000
00000010
00000001
00001000
00000001
00001000
,
00000010
00000010
00000100
00000100
00001000
00001000
00010000
00010000
,
01000000
10000000
00100000
00010000
00001000
00000100
00000001
00000010
,
00001000
00010000
01000000
10000000
00100000
00010000
00001000
00010000
,
00011000
00000000
00000000
00000110
00000000
00000000
00000000
00000000
,
00000001
00000100
00000001
00000000
00000000
00000000
00001000
00000100
00001000
00000000
00000000
00000000
00000010
00000000
00000100
00000000
,
00002002
00000000
00000000
00000000
,
00000000
00000000
00000000
00003003
;

//---------------dance-double - ----------------
#NOTES:
     dance-double:
     :
     Medium:
     11:
     0.463967,0.672224,0.278380,0.404916,0.000000,385.000000,352.000000,33.000000,48.000000,0.000000,0.000000,0.463967,0.672224,0.278380,0.404916,0.000000,385.000000,352.000000,33.000000,48.000000,0.000000,0.000000:
00000000
00000000
00000000
00000000
,
00000000
00000000
00000000
00000000
,
00000000
00000000
00000000
00000000
,
00000000
00000000
00000000
00000000
,
00000000
00000000
00000000
00000000
00000000
00000000
01000000
00100000
,
10000000
00000000
00100000
01000000
00001000
00000000
00010000
00000010
,
00000100
00000000
00001000
00000000
00010000
00000000
00000010
00000100
,
00000001
00000101
00001100
00011000
,
02020000
00000000
00000000
03030000
,
20000000
30200000
02300000
13000000
,
02000000
03010000
00001000
00000010
,
00000002
00000103
00001000
00010000
,
00020020
00000000
00000000
00030030
,
00000200
00002300
00023000
01030000
,
10000000
00000000
00100000
01000000
00100000
01000000
00100000
00000000
,
10000000
01000000
10000000
00000000
00010000
01000000
00010000
00000000
,
02020000
00000000
00000000
03030000
,
00200000
00320000
00031000
00000020
,
00002030
00013000
00000100
00000010
,
00000002
00000103
00000010
00010000
,
00020020
00000000
00000000
00030030
,
00000200
00002300
00013000
02000000
,
13000000
00100000
10000000
00100000
10000000
00100000
10000000
00100000
,
10000000
00100000
10000000
00100000
10000000
01000000
00010000
00001000
,
00000200
00000000
00000000
00000300
,
00001001
00001010
00000000
00001100
,
00010100
00010000
00001000
01000000
,
01100000
10000000
00100000
01000000
,
01001000
00001000
00100000
01000000
,
11000000
10010000
00000000
00110000
,
00101000
00000000
00011000
00000000
,
00010100
00001100
00000110
00000011
,
00000001
00000100
00000001
00000100
00000001
00000100
00000001
00000100
,
00001000
00010000
01000000
00000000
10000000
00000000
01000000
00000000
,
10000000
01000000
10000000
01000000
10000000
01000000
10000000
01000000
,
00010000
00001000
00010000
00001000
00010000
00001000
00010000
00001000
,
00000010
00000001
00000010
00000001
00000010
00000001
00000010
00000001
,
00000100
00000010
00001000
00000000
00000010
00000000
00000000
00000000
,
00010000
00001000
00010000
00001000
00010000
00001000
00010000
00001000
,
00100000
01000000
00001000
00000000
00010000
00000010
00000100
00000000
,
00000010
00010000
00000010
00010000
00000010
00010000
00000010
00010000
,
00001000
00100000
01000000
00000000
00000000
00000000
10000000
00100000
,
01000000
00001000
01000000
00001000
01000000
00001000
01000000
00001000
,
00010000
00000100
00010000
00000100
00010000
00000100
00010000
00000100
,
00000010
00000001
00000010
00000001
00000010
00000001
00000010
00000001
,
00000010
00001000
00010000
00000000
00000000
00000000
00100000
10000000
,
01000000
00000000
01100000
00000000
,
00100000
00001000
00010000
00000000
00000010
00000100
00000001
00000000
,
00002002
00000000
00000000
00003003
,
00000010
00000100
00002000
00000000
,
00013000
00100000
00000000
00000000
10000000
00000000
00010000
00000000
,
10000000
01000000
00000000
00000000
00010000
00000000
00001000
00000000
,
00000020
00000000
00000000
00000030
,
00000001
00000100
00000010
00000000
,
00000100
00001000
00000000
00000000
00010000
00000000
01000000
00000000
,
10000000
00100000
00000000
00000000
00010000
00000000
00001000
00000000
,
00020000
00000000
00000000
00030000
,
00001000
00100000
00000000
01000000
,
10000000
01000000
00000000
00000000
00010000
00000000
00001000
00000000
,
00010000
00000010
00000000
00000000
00000100
00000000
00000001
00000000
,
00002002
00000000
00000000
00003003
,
00000010
00000100
00000000
00001000
,
00010000
01000000
00000000
00000000
10000000
00000000
00010000
00000000
,
10000000
01000000
00000000
00000000
00010000
00000000
00001000
00000000
,
00010000
00010000
00000010
00000010
,
00000100
00000001
00001000
00000000
00000010
00000000
00000100
00000000
,
00000010
00010000
00000000
00000000
00001000
00000000
00000010
00000000
,
00000001
00000100
00000000
00000000
00001000
00000000
00010000
00000000
,
00001000
00001000
01000000
01000000
,
00100000
10000000
00010000
00000000
01000000
00000000
00000000
00000000
,
00010000
00100000
00000000
00000000
00001000
00000000
00010000
00000000
,
00100000
10000000
00000000
00000000
01000000
00000000
00010000
00000000
,
00001000
00001000
00010000
00010000
,
00000010
00000100
00000001
00000000
00000000
00000000
00000100
00000000
,
00000010
00001000
00000000
00000000
00000100
00000000
00000010
00000000
,
00000001
00000100
00000000
00000000
00001000
00000000
00010000
00000000
,
00022000
00000000
00000000
00033000
,
00100000
01000000
00000000
01000000
,
00100000
00000000
10010000
00000000
,
20000000
00000000
30020000
00000000
,
01030000
00000000
01000000
00000000
,
01000000
00100000
00001000
00010000
00000010
00000100
00000001
00000000
,
00000100
00000000
00000100
00000000
,
00000100
00000010
00010000
00000010
00010000
00000000
00011000
00000000
,
00200000
00000000
02300000
00000000
,
23000000
00000000
30200000
00000000
,
02300000
00000000
03002000
00000000
,
00013000
00010000
00010000
00010000
,
00000020
00000000
00000230
00000000
,
00000302
00000000
00002000
00003003
,
00001001
00000000
00000000
00010100
00000000
00000000
00000000
00000000
,
00011000
00000000
00000000
01001000
00000000
00000000
00000000
00000000
,
20200000
00000000
00000000
00000000
,
00000000
00000000
00000000
30300000
;

//---------------dance-double - ----------------
#NOTES:
     dance-double:
     :
     Easy:
     5:
     0.250663,0.395426,0.143408,0.295252,0.000000,208.000000,191.000000,17.000000,35.000000,0.000000,0.000000,0.250663,0.395426,0.143408,0.295252,0.000000,208.000000,191.000000,17.000000,35.000000,0.000000,0.000000:
00000000
00000000
00000000
00000000
,
00000000
00000000
00000000
00000000
,
00000000
00000000
00000000
00000000
,
00000000
00000000
00000000
00000000
,
00000000
00000000
00000000
01000000
,
01000000
00010000
00010000
00100000
,
00001000
00010000
00000010
00000100
,
00000001
00000001
00000001
00000001
,
00001001
00000000
00000000
00000000
,
00000010
00010000
00001000
00000000
,
02000000
00000000
03000000
00000000
,
00200000
00000000
00300000
00000000
,
10010000
00000000
00000000
00000000
,
10000000
01000000
00100000
00000000
,
00002000
00010000
00013000
00000010
,
00010000
00000010
00010000
00000010
,
00000110
00000000
00000000
00000000
,
00000001
00000100
00000000
00001000
,
00000100
00000000
00000000
00000000
,
00001001
00000000
00000000
00000000
,
00010010
00000000
00000000
00000000
,
00010000
00001000
00000000
00001000
,
00100000
00100000
00100000
00100000
,
00100000
00100000
01000000
10000000
,
00100000
00000000
00000000
00000000
,
00010000
00001000
00000000
00000010
,
00000001
00000000
00000000
00000000
,
00001001
00000000
00000000
00000000
,
00000110
00000000
00000000
00000000
,
00000001
00000100
00000000
00001000
,
00010000
00000000
01000000
00000000
,
10000000
00010000
10000000
00010000
,
10010000
00000000
00000000
00000000
,
01000000
00100000
00010000
00000000
,
00002000
00000000
00003000
00000000
,
00000200
00000000
00000300
00000000
,
00000001
00000010
00000001
00000010
,
00000001
00000100
00001000
00000000
,
00020000
00000000
00000000
00000000
,
00000000
00000000
00030000
00000000
,
02000000
00000000
03000000
00000000
,
10000000
00100000
00000000
00010000
,
00002000
00000000
00003000
00000000
,
00000020
00000000
00000030
00000000
,
00000001
00000100
00000001
00000100
,
00000001
00000100
00000000
00001000
,
00010000
00000000
00100000
00000000
,
10000000
00010000
00010000
10000000
,
10010000
00000000
00000000
00000000
,
00100000
01000000
00010000
00000000
,
00200000
00000000
00300000
00000000
,
00002000
00000000
00003000
00000000
,
00011000
00000000
00000000
00000000
,
00010000
00000010
00000100
00000000
,
00000020
00000000
00000030
00000000
,
00000200
00000000
00000300
00000000
,
00000101
00000000
00000000
00000000
,
00000010
00001000
00000000
00001000
,
00000020
00000000
00000030
00000000
,
00020000
00000000
00030000
00000000
,
00011000
00000000
00000000
00000000
,
00100000
01000000
00000000
01000000
,
00200000
00000000
00300000
00000000
,
00020000
00000000
00030000
00000000
,
10000000
01000000
10000000
01000000
,
10000000
00100000
00010000
00000000
,
00002000
00000000
00003000
00000000
,
00000020
00000000
00000030
00000000
,
00000010
00000100
00000010
00000100
,
00000001
00000100
00001000
00000000
,
00020000
00000000
00030000
00000000
,
02000000
00000000
03000000
00000000
,
00100000
01000000
00100000
01000000
,
00100000
10000000
00000000
01000000
,
00020000
00000000
00030000
00000000
,
00002000
00000000
00003000
00000000
,
00000010
00000001
00000010
00000001
,
00001000
00000001
00000000
00000001
,
00000100
00000000
00001000
00000000
,
00010000
00000000
01000000
00000000
,
10010000
00000000
01100000
00000000
,
01000000
00010000
01000000
00010000
,
01010000
00000000
00110000
00000000
,
00001000
00010000
00001000
00001000
,
00020000
00000000
00030020
00000000
,
00000230
00000000
00000302
00000000
,
00000023
00000000
00000230
00000000
,
00010300
00010000
00010000
00010000
,
00002000
00000000
00203000
00000000
,
02300000
00000000
23000000
00000000
,
30100000
00000000
00000000
01000000
00000000
00000000
00000000
00000000
,
00001000
00000000
00000000
00010000
00000000
00000000
00000000
00000000
,
00022000
00000000
00000000
00000000
,
00000000
00000000
00000000
00033000
;

//---------------dance-single - ----------------
#NOTES:
     dance-single:
     :
     Challenge:
     17:
     0.927933,1.265364,0.379609,0.134972,0.392263,770.000000,725.000000,45.000000,16.000000,0.000000,0.000000,0.927933,1.265364,0.379609,0.134972,0.392263,770.000000,725.000000,45.000000,16.000000,0.000000,0.000000:
0000
0000
0000
0000
,
0000
0000
0000
0000
,
0000
0000
0000
0000
,
0000
0000
0000
0000
,
0000
0000
0000
0000
0000
0000
0010
0010
,
0010
0000
1000
1000
1000
0000
0010
0100
,
0101
0000
1100
0000
0101
0000
0010
0100
,
1100
0101
1100
1001
,
1000
0100
1000
0100
0010
0100
0001
0100
,
1000
0010
0001
0010
1000
0100
0001
0100
,
1000
0010
0001
0000
1000
0100
0001
0000
,
0001
0010
1000
0000
0001
0100
1000
0000
,
0001
0010
0001
0010
0100
0010
1000
0010
,
0001
0100
1000
0100
0001
0010
1000
0010
,
0001
0000
0100
0100
0010
1000
1100
0000
,
1000
0100
0101
0000
0001
0100
1100
0000
,
0010
0100
0010
0001
0010
0001
0010
0100
,
0010
1000
0100
0001
0100
1000
0010
0100
,
1000
0100
0001
0100
1000
0100
0001
0000
,
0001
0100
1000
0100
0001
1000
0001
0000
,
0100
0010
0100
1000
0100
1000
0100
0010
,
0100
0001
1000
0000
1000
0001
0100
0000
,
0001
0010
0001
0010
0001
0100
0001
0100
0001
1000
0001
1000
0001
1000
0001
0000
,
1000
0001
1000
0001
1000
0010
1000
0010
1000
0100
1000
0100
1000
0010
0100
0010
,
0100
0001
1000
0010
0100
0010
1000
0001
,
0010
0100
0010
1000
0010
0001
0100
0010
,
0100
1000
0100
0000
0001
0010
1000
0000
,
0010
0001
0100
0000
0010
0001
0010
1000
,
0100
0001
0100
1000
0010
0100
1000
0000
,
0100
0001
0100
0010
0001
0010
1000
0001
,
1001
0100
0010
0000
1001
0010
0100
0000
,
0010
0001
0010
0100
0010
1000
0010
0100
,
0010
1000
0010
1000
0010
0000
0100
0000
0010
1000
0010
1000
0010
0000
1000
0000
,
0001
0100
1000
0100
0001
0100
1000
0100
,
0001
0010
0001
0010
0001
0000
0100
0000
0001
0010
0001
0010
0001
0000
1000
0000
,
0100
1000
0100
1000
0100
0000
0010
0000
0100
1000
0100
1000
0100
0000
0010
0000
,
0001
1000
0100
1000
0001
0000
1000
0000
0001
1000
0100
1000
0001
0000
1000
0000
,
0001
0100
1000
0100
0001
0100
1000
0100
,
0010
1000
0001
1000
0010
0000
0100
0000
0010
1000
0001
1000
0010
0000
0100
0000
,
0001
0010
0100
0010
0001
0000
1000
0000
0001
0010
0100
0010
0001
0000
1000
0000
,
0010
1000
0100
1000
0010
0000
1000
0000
0100
0010
0001
0010
0100
0000
1000
0000
,
0001
0010
1000
0000
1000
0010
0001
0000
,
1000
0010
0100
0001
1000
0000
1000
0000
0001
0010
0100
1000
0001
0000
0001
0000
,
0100
0001
1000
0010
0100
0000
0100
0000
0010
1000
0001
0100
0010
0000
0010
0000
,
1000
0100
1000
0000
0010
0100
0010
0000
0100
0001
0100
0000
0001
0010
0001
0000
,
1000
0100
0001
0000
0001
0100
1000
0000
,
0101
0000
0100
0010
1100
0000
0010
0100
,
0001
0000
0010
0000
1100
0000
0000
0000
1000
0000
0100
0000
0011
0000
1000
0001
,
0100
0010
0001
0010
0001
0010
1000
0010
,
1000
0100
0001
0100
1000
0000
1000
0010
,
0100
0120
0000
0031
0010
1000
0010
1000
,
0100
0120
0000
1030
0010
1000
0010
0001
,
0100
0010
0001
0010
0001
0010
1000
0010
,
1000
0100
0001
0100
1000
0000
0001
0100
,
0010
0021
0000
1030
0010
0001
0010
1000
,
0010
0210
0000
0301
0100
1000
0100
0001
,
1000
0100
0001
0100
1000
0100
0001
0100
,
1000
0010
0001
0000
0001
0010
1000
0001
,
1000
1002
0000
0013
1000
0010
1000
0010
,
0001
2001
0000
3100
1000
0100
1000
0100
,
0001
0010
1000
0010
0001
0010
1000
0010
,
0001
0100
1000
0000
1000
0100
0001
1000
,
0001
0021
0000
0031
0100
0010
0001
0010
,
1000
2001
0000
3100
0010
1000
0010
0001
,
1000
0100
0010
0100
1000
0000
0001
0000
1000
0100
0010
0001
0100
0000
0010
0000
,
1000
0000
0100
0000
0010
0000
0001
0000
0100
0001
1000
0001
0100
0000
0010
0000
,
0100
0201
0000
0310
0100
1000
0100
0001
,
0010
0210
0000
0301
0100
1000
0010
0100
,
0001
0010
0100
0010
0001
0000
1000
0000
0001
0010
0100
1000
0010
0000
0100
0000
,
0001
0000
0010
0000
0100
0000
1000
0000
0010
1000
0001
1000
0010
0000
0100
0000
,
0001
2001
0000
3100
0010
1000
0010
0001
,
0100
0120
0000
0031
0010
1000
0001
0100
,
0010
1000
0010
1000
0010
0000
0100
0000
0001
0010
0001
0010
0001
0000
1000
0000
,
0010
1000
0001
1000
0010
0000
0000
0000
1001
0000
0000
0000
0100
0001
1000
0001
,
0100
0120
0000
1030
0100
0001
0100
1000
,
0001
0201
0000
1300
0100
0001
1000
0001
,
1000
0001
1000
0001
0100
0001
0100
0001
0100
0010
0100
0010
1000
0010
1000
0010
,
1000
0010
0100
0000
0100
0001
0010
0100
,
1001
0000
0100
0110
0000
0100
0101
0000
,
0010
0010
0100
0100
1000
1000
0001
0001
,
0101
0000
0010
1000
1100
0000
0010
1000
,
0001
0100
1000
0100
0001
0010
1000
0010
,
0011
0000
0010
0100
1100
0000
0010
0100
,
0001
0010
1000
0010
0001
0000
1001
0001
,
1000
0100
0010
0001
0100
0010
1000
0001
,
0001
0010
0100
1000
0010
0100
0001
1000
,
1000
0010
0100
0001
0010
0001
1000
0100
,
1100
0001
0101
1000
1100
0001
0101
1000
,
1100
0100
0010
0001
0100
0010
1000
0001
,
0010
1000
0010
0001
0100
1000
0100
0001
,
0010
0001
0100
0000
0000
0000
0100
0010
1000
0000
0000
0000
0000
0000
0000
0000
,
0010
1000
0010
0100
0001
0010
0001
1000
0100
0010
0100
1000
0010
0100
0001
0000
,
2002
0000
0000
0000
,
0000
0000
0000
3003
;
