#TITLE:Mambo Caribbean 5;
#SUBTITLE:;
#ARTIST:Mutsuhiko Izumi;
#TITLETRANSLIT:;
#SUBTITLETRANSLIT:;
#ARTISTTRANSLIT:;
#GENRE:Mambo;
#CREDIT:;
#BANNER:mambocaribbean5-bn.png;
#BACKGROUND:mambocaribbean5-bg.png;
#LYRICSPATH:;
#CDTITLE:;
#MUSIC:Mambo Caribbean 5.mp3;
#OFFSET:-0.050000;
#SAMPLESTART:8.160026;
#SAMPLELENGTH:12.000000;
#SELECTABLE:YES;
#BPMS:0.000000=120.000000
;
#STOPS:
;
#BGCHANGES:;
#KEYSOUNDS:;
#ATTACKS:;

//---------------dance-single - ----------------
#NOTES:
     dance-single:
     :
     Challenge:
     15:
     0.749344,0.708516,0.909083,0.072727,1.209080,577.000000,477.000000,100.000000,8.000000,0.000000,0.000000,0.749344,0.708516,0.909083,0.072727,1.209080,577.000000,477.000000,100.000000,8.000000,0.000000,0.000000:
0000
0000
0000
0000
,
0000
0000
0000
0000
,
0000
0000
0000
0000
,
0100
0010
0100
0010
0000
0010
0100
0010
0100
0000
0000
0000
1001
0000
0000
0000
,
0000
0001
0010
0001
0010
0001
0000
0011
0000
1001
0000
1000
0100
0000
1100
0000
,
0000
1000
0010
1000
0010
1000
0000
1010
0000
0110
0000
0101
0000
0001
1000
0001
,
0000
1000
0010
1000
0010
1000
0000
1010
0000
1001
0000
0001
0100
0000
0101
0000
,
0000
0001
0100
0001
0100
0000
0010
1000
0000
1001
0000
0010
0100
0000
0000
0000
,
0000
0100
0001
0100
0010
0100
0000
0110
0000
1010
0000
1000
0001
0000
1001
0000
,
0000
0010
0100
0010
1000
0010
0000
0110
0000
0101
0000
1001
0000
0001
1000
0010
,
0000
0010
0100
0010
0001
0010
0000
1010
0000
1001
0000
0001
0100
0000
0110
0000
,
0000
0100
0010
0100
0010
0000
0010
1000
0000
1001
0000
0010
0100
0001
1000
0010
,
1000
0000
0000
1100
0000
1010
0000
0000
1001
0000
0000
0101
0000
0011
0000
0000
,
1001
0000
0000
1100
0000
1010
0000
0000
0110
0000
0000
0101
0000
0001
1000
0010
,
0100
0100
0000
0100
0000
0100
0000
0100
0000
0100
0000
0100
0000
0100
0100
0010
,
0000
0100
0100
0010
0000
0010
0010
1000
0000
1000
1000
0010
0000
0010
0100
0001
,
0011
0000
0000
0101
0000
1001
0000
0000
1010
0000
0000
1100
0000
1001
0000
0000
,
0011
0000
0000
0101
0000
1001
0000
0000
0110
0000
0000
1001
0000
0001
0010
0100
,
2000
0000
3002
0023
,
0031
0100
0001
0000
1000
0100
0000
0001
0100
0000
0000
0000
1100
0000
0000
0000
,
1000
0000
0010
1000
0000
0010
0100
0000
0010
0001
0000
0010
0100
0000
0010
1000
,
0001
0000
0100
0000
1000
0100
0010
0100
0001
0100
0010
0100
1000
0000
0000
0000
,
0100
0000
0001
0010
0000
0010
0100
0000
2000
0000
0002
0000
0000
3003
0000
0001
,
0000
0010
0100
0000
1000
0000
1010
0000
1000
0100
0010
0001
1000
0100
0010
0001
,
0010
0000
0100
0000
0010
0001
0010
0100
0000
0010
0000
0001
0100
0010
1000
0000
,
0100
0000
0010
0000
0100
0001
0000
0100
0000
0010
0000
0100
1000
0000
0000
0000
,
1000
0010
0100
0001
0000
0001
0010
0100
1000
0000
1001
0000
0110
0000
0000
0000
,
0100
0010
0100
0010
0000
1001
0000
0010
0100
0000
0000
0000
1001
0000
0000
0000
,
0001
0100
0001
0100
0000
1000
0100
1000
0100
0001
0100
0001
0000
1000
0010
1000
,
0010
0001
0010
0001
0000
0010
1000
0010
1000
0000
0001
0000
1000
0000
0001
0000
,
1000
0100
1000
0100
0000
0001
0100
0001
0100
1000
0100
1000
0000
0001
0010
0001
,
0010
1000
0010
1000
0000
0010
0001
0010
0001
0000
0000
0000
1001
0000
0000
0000
,
0000
0001
0100
0010
1000
0010
0000
0110
0000
0101
0000
0001
1000
0000
1001
0000
,
0000
1000
0010
0100
0001
0100
0000
0101
0000
0110
0000
1010
0000
1000
0001
0100
,
0000
0001
1000
0010
0100
0010
0000
0110
0000
1010
0000
1000
0001
0000
1001
0000
,
0000
1000
0001
1000
0001
0000
0001
0100
0000
0110
0000
1000
0001
0000
0000
0000
,
0000
1000
0100
0001
0100
1000
0000
1100
0000
0011
0000
0001
1000
0000
1001
0000
,
0000
1000
0100
0001
0100
1000
0000
1001
0000
0110
0000
1001
0000
1000
0100
0010
,
0000
0001
0100
1000
0100
0001
0000
0101
0000
1010
0000
1000
0001
0000
1001
0000
,
0000
0001
0100
0001
0100
0000
0100
0010
0000
1010
0000
1000
0001
0100
0010
1000
,
0001
0000
0000
0011
0000
0110
0000
0000
1001
0000
0000
1100
0000
0110
0000
0000
,
1001
0000
0000
0011
0000
0110
0000
0000
1001
0000
0000
1100
0000
1000
0010
0100
,
0010
0010
0000
0010
0000
0010
0000
0010
0000
0010
0000
0010
0000
0010
0010
0100
,
0000
0010
0010
0100
0000
0001
0001
0010
0000
0010
0010
0001
0000
0001
1000
0010
,
0100
0000
0000
0101
0000
1001
0000
0000
1010
0000
0000
1100
0000
1001
0000
0000
,
0011
0000
0000
0101
0000
1001
0000
0000
0110
0000
0000
1010
0000
1000
0001
1000
,
0002
0000
2003
3200
,
1300
0100
1000
0000
0001
0100
0000
1000
0100
0000
0000
0000
0101
0000
0000
0000
,
1001
0000
0001
0010
0000
1001
0000
0100
0010
0000
1000
0010
0000
1001
0000
0000
,
0110
0000
1000
0010
0000
0110
0000
0100
0001
0000
0010
0100
0000
0000
0000
0000
,
1001
0000
0001
0010
0000
1001
0000
0100
0010
0000
1000
0010
0000
1001
0000
0000
,
0001
1000
0001
1000
0000
1000
0001
1000
0001
0000
0000
0000
0110
0000
0000
0000
,
1000
0001
1000
0001
0000
0001
1000
0001
1000
0000
0000
0000
0110
0000
0000
0000
,
1000
0100
0001
0100
0000
0100
1000
0100
0001
0000
0000
0000
0100
0000
0000
0000
;

//---------------dance-single - ----------------
#NOTES:
     dance-single:
     :
     Beginner:
     2:
     0.124674,0.171021,0.018182,0.027272,0.000000,96.000000,94.000000,2.000000,3.000000,0.000000,0.000000,0.124674,0.171021,0.018182,0.027272,0.000000,96.000000,94.000000,2.000000,3.000000,0.000000,0.000000:
0000
0000
0000
0000
,
0000
0000
0000
0000
,
0000
0000
0000
0000
,
0010
0010
0010
0000
,
0000
1000
0000
1000
,
0000
0001
0000
0001
,
0000
1000
0000
0000
,
0010
0010
0010
0000
,
0000
0100
0000
0100
,
0000
0010
0000
0010
,
0000
0100
0000
0000
,
0001
0001
0001
0000
,
1001
0000
0010
0000
,
0010
0000
0010
0000
,
0100
0000
0000
0000
,
0000
0000
0000
0000
,
1001
0000
0100
0000
,
0100
0000
0100
0000
,
0100
0000
1000
1000
,
1000
0000
0000
0000
,
0001
0000
0001
0000
,
0001
0000
0100
0000
,
0010
0000
0010
0000
,
1000
0000
0000
0000
,
1000
0000
1000
0000
,
1000
0000
0000
0000
,
0100
0000
0100
0000
,
0010
0000
0000
0000
,
0001
0000
0100
0000
,
0010
0000
1000
1000
,
1000
0000
0100
0000
,
0010
0000
0001
0001
,
0001
0000
1000
0000
,
1000
0000
0001
0000
,
0001
0000
1000
0000
,
1000
0000
0000
0000
,
0000
0010
0000
0010
,
0000
0100
0000
0100
,
0000
0010
0000
0010
,
0000
0000
0000
0000
,
1000
0000
0100
0000
,
1000
0000
0100
0000
,
0010
0000
0000
0000
,
0000
0000
0000
0000
,
0001
0000
0100
0000
,
0001
0000
0100
0000
,
0010
0000
0010
0010
,
0010
0000
0000
0000
,
1000
0000
0010
0000
,
1000
0000
0001
0000
,
0001
0000
0010
0000
,
0002
0003
0001
0000
,
2000
3000
1000
0000
,
0002
0003
0001
0001
;

//---------------dance-single - ----------------
#NOTES:
     dance-single:
     :
     Hard:
     12:
     0.481814,0.537495,0.072727,0.063636,0.681812,371.000000,363.000000,8.000000,7.000000,0.000000,0.000000,0.481814,0.537495,0.072727,0.063636,0.681812,371.000000,363.000000,8.000000,7.000000,0.000000,0.000000:
0000
0000
0000
0000
,
0000
0000
0000
0000
,
0000
0000
0000
0000
,
1000
0010
0000
0001
0010
0000
1001
0000
,
0000
1000
0100
0000
1000
0000
0000
0100
0000
0010
0000
0001
1000
0000
1000
0000
,
0000
0001
0100
0000
0001
0000
0000
0010
0000
0100
0000
1000
0000
1000
0001
0000
,
0000
1000
0010
0000
1000
0000
0000
0010
0000
0100
0000
0001
1000
0000
1000
0000
,
0000
0000
0001
0000
0100
0000
0100
0010
0000
0100
0000
0100
0001
0000
0000
0000
,
0000
0001
0010
0000
0001
0000
0000
0010
0000
0100
0000
1000
0001
0000
0001
0000
,
0000
1000
0010
0000
1000
0000
0000
0100
0000
0010
0000
0001
0000
1000
0001
0000
,
0000
0001
0100
0000
0001
0000
0000
0100
0000
0010
0000
1000
0001
0000
0001
0000
,
0000
0000
1000
0000
0010
0000
0010
0100
0000
0010
0000
0010
0100
0000
0001
0000
,
1000
0000
0000
0100
0000
1000
0000
0000
0001
0000
0000
0100
0000
0001
0000
0000
,
1000
0000
0000
0100
0000
1000
0000
0000
0010
0000
0000
0100
0000
0010
0100
0000
,
0001
1000
0000
1000
0000
1000
0000
1000
0000
1000
0000
1000
0000
1000
0001
1000
,
0000
0001
1000
0001
0000
0010
0100
0010
0000
0100
0010
0100
0000
1000
0001
0000
,
1000
0000
0000
0010
0000
1000
0000
0000
0001
0000
0000
0010
0000
0001
0000
0000
,
1000
0000
0000
0010
0000
1000
0000
0000
0001
0000
0000
0100
0000
0000
0010
0000
,
2000
0000
3002
0203
,
0310
0100
0010
0000
0100
0010
0000
0100
0010
0000
0000
0000
1001
0000
0000
0000
,
1000
0000
0000
0001
0000
0000
0100
0000
0001
0000
0000
1000
0000
0000
0100
0000
,
1000
0010
0100
0001
0010
0100
1000
0000
,
0001
0000
0000
0010
0000
0000
0001
0000
1000
0000
2000
0000
0000
0000
3000
0000
,
0001
0010
0001
1000
0100
0010
0100
1000
,
0010
0000
0100
0000
0010
1000
0000
0010
0000
0100
0000
0100
0001
0000
1000
0000
,
0001
0000
0010
0000
0001
0000
1000
0000
0000
0001
0000
1000
0000
0000
0000
0000
,
0010
0100
0001
0000
0100
0010
1000
0000
,
0001
1000
0001
1000
0000
0001
0000
1000
0001
0000
0000
0000
1001
0000
0000
0000
,
0100
0001
0000
0001
1000
0001
0000
1000
,
0010
1000
0000
1000
0001
0100
0100
0100
,
0010
1000
0000
1000
0001
1000
0000
0001
,
0100
0001
0000
0001
1000
0000
1001
0000
,
1000
0000
0100
0000
0010
0000
0000
0100
0000
0010
0000
0001
0010
0000
0100
0000
,
1000
0000
0010
0000
0001
0000
0000
0010
0000
1000
0000
0001
0000
0010
0100
0000
,
1000
0000
0010
0000
0100
0000
0000
0010
0000
0100
0000
0001
0010
0000
0100
0000
,
0000
0000
1000
0000
0010
0000
0010
0100
0000
0010
0000
0010
0100
0000
0000
0000
,
0001
0000
0010
0000
0100
0000
0000
0010
0000
0100
0000
1000
0100
0000
0010
0000
,
0001
0000
0100
0000
1000
0000
0000
0100
0000
0001
0000
1000
0000
0100
0010
0000
,
0001
0000
0100
0000
0010
0000
0000
0100
0000
0010
0000
1000
0100
0000
0010
0000
,
0000
0000
0001
0000
0100
0000
0100
0010
0000
0100
0000
0100
0010
0000
0000
0000
,
1000
0000
0000
0001
0000
0010
0000
0000
0001
0000
0000
1000
0000
0010
0000
0000
,
1000
0000
0000
0001
0000
0010
0000
0000
0001
0000
0000
1000
0000
0000
0010
0000
,
0100
0001
0000
0001
0000
0001
0000
0001
0000
0001
0000
0001
0000
0001
1000
0001
,
0000
1000
0001
1000
0000
0010
0100
0010
0000
0100
0010
0100
0000
0001
1000
0000
,
0001
0000
0000
1000
0000
0010
0000
0000
1000
0000
0000
0001
0000
0010
0000
0000
,
0001
0000
0000
1000
0000
0010
0000
0000
1000
0000
0000
0001
0000
0000
0100
0000
,
0020
0000
2030
3002
,
0103
0010
0100
0000
0010
0100
0000
0010
0100
0000
0000
0000
1001
0000
0000
0000
,
0001
0000
0100
0010
0000
0100
0000
0010
1000
0000
0010
0100
0000
0001
0000
0000
,
1000
0000
0010
0100
0000
0010
0000
0100
0001
0000
0010
0001
0000
0000
0000
0000
,
0001
0000
0010
0100
0000
0010
0000
0100
1000
0000
0100
0010
0000
0001
0000
0000
,
1000
0010
0000
0001
0010
0000
1001
0000
,
0001
0100
0000
1000
0100
0000
1001
0000
,
1000
0010
0000
0001
0100
0000
1001
0000
;

//---------------dance-single - ----------------
#NOTES:
     dance-single:
     :
     Medium:
     7:
     0.323374,0.415337,0.190907,0.209089,0.063636,249.000000,228.000000,21.000000,23.000000,0.000000,0.000000,0.323374,0.415337,0.190907,0.209089,0.063636,249.000000,228.000000,21.000000,23.000000,0.000000,0.000000:
0000
0000
0000
0000
,
0000
0000
0000
0000
,
0000
0000
0000
0000
,
1000
0001
0000
0001
1000
0000
1001
0000
,
0001
0010
0100
0000
1000
0000
1000
0000
,
1000
0100
0010
0000
0001
0000
0001
0000
,
0001
0010
0100
0000
1000
0000
1000
0000
,
1000
0001
1000
0000
0001
0000
0001
0000
,
1000
0001
0010
0000
0100
0000
0100
0000
,
0010
0001
1000
0000
0100
0000
0100
0000
,
1000
0001
0010
0000
0100
0000
0100
0000
,
1000
0001
1000
0000
0001
0000
0001
0000
,
2000
0000
3200
0000
,
0302
0000
0023
0000
,
1030
0001
0000
1000
0000
0001
0000
1000
0000
0001
0000
1000
0000
0001
1000
0000
,
0000
0110
0000
1001
0000
0110
0000
0100
,
0002
0000
0023
0000
,
2030
0000
3200
0000
,
0302
0000
1003
0001
,
1001
0100
0100
1001
,
1000
0100
0001
0100
,
1000
0010
0100
0001
0100
0010
1000
0000
,
0001
0010
0100
1000
0001
0001
0000
0000
,
0100
0010
1000
0000
2002
0000
3003
0000
,
0001
0100
1000
0100
,
0001
0010
0100
0000
1000
0001
1000
0000
,
1000
0010
0100
0001
0010
0100
1000
0000
,
0001
1000
0001
0000
1000
0000
1001
0000
,
1000
0100
0000
0010
0001
0000
1001
0000
,
0001
0010
0000
0100
1000
0100
1000
0100
,
1000
0001
0000
0100
0010
0000
0110
0000
,
0001
1000
0000
0010
0100
0000
1001
0000
,
1100
0000
0000
0000
0020
0000
0000
0030
,
0101
0000
0000
0000
0020
0000
0000
0030
,
1001
0000
0000
0000
0020
0000
0000
0030
,
1000
0001
1000
0000
0001
0000
0001
0000
,
1000
0100
0010
0000
0001
0000
1000
0000
,
0001
0010
0100
0000
1000
0000
0001
0000
,
1000
0100
0010
0000
0001
0000
1000
0000
,
0001
1000
0001
0000
1000
0000
1000
0000
,
0002
0000
0203
0000
,
2300
0000
3020
0000
,
0031
1000
0000
0001
0000
1000
0000
0001
0000
1000
0000
0001
0000
1000
0001
0000
,
0000
0101
0000
1010
0000
1001
0000
0001
,
2000
0000
3200
0000
,
0302
0000
0023
0000
,
2030
0000
3001
1000
,
0001
1000
0010
0000
0100
0000
0110
0000
,
1000
0000
0100
0000
0010
0001
1000
0000
,
0001
0000
0010
0000
0100
1000
0001
0000
,
1000
0000
0100
0000
0010
0001
1000
0000
,
0001
0100
0000
0010
1000
0000
1001
0000
,
1000
0100
0000
0010
0001
0000
1001
0000
,
0001
0100
0000
1000
0100
0000
1001
0000
;

//---------------dance-single - ----------------
#NOTES:
     dance-single:
     :
     Easy:
     5:
     0.229868,0.293179,0.136362,0.236361,0.000000,177.000000,162.000000,15.000000,26.000000,0.000000,0.000000,0.229868,0.293179,0.136362,0.236361,0.000000,177.000000,162.000000,15.000000,26.000000,0.000000,0.000000:
0000
0000
0000
0000
,
0000
0000
0000
0000
,
0000
0000
0000
0000
,
0200
0000
0310
0110
,
1000
0100
0010
0010
,
0001
0100
0010
0010
,
1000
0001
0010
0010
,
0002
2000
3003
1001
,
0001
0010
0100
0100
,
1000
0010
0100
0100
,
0001
1000
0100
0100
,
2000
0002
3003
1001
,
0001
0000
0010
0000
,
1000
0000
0100
0000
,
0002
0000
0000
0000
0000
0000
0000
1003
,
0000
0001
0000
1000
0000
0001
0000
1000
,
0001
0000
0010
0000
,
1000
0000
0100
0000
,
0002
0000
0023
0230
,
1300
0001
1000
1001
,
0001
0010
0001
0100
,
0001
0010
0001
1000
,
1000
0100
0010
0000
,
0001
0001
1000
0000
,
1000
0010
1000
0100
,
1000
0010
1000
0001
,
0100
0010
1000
0001
,
0200
0000
0310
0110
,
2000
0000
3002
0000
,
0023
0000
0130
1000
,
0002
0000
2003
0000
,
3020
0000
0130
1001
,
0002
1003
1001
0000
,
2000
3001
1001
0000
,
0002
1003
1001
0000
,
2000
0000
3001
1001
,
0001
0010
0100
0100
,
1000
0010
0100
0100
,
0001
1000
0100
0100
,
2000
0000
3001
1001
,
1000
0000
0100
0000
,
0001
0000
0010
0000
,
2000
0000
0000
0000
0000
0000
0000
3001
,
0000
1000
0000
0001
0000
1000
0000
0001
,
1000
0000
0100
0000
,
0001
0000
0010
0000
,
2000
0000
3001
1000
,
0010
0010
0010
0110
,
0100
0001
2000
3000
,
0010
1000
0002
0003
,
1000
0100
0020
0030
,
0001
0001
1000
1001
,
1000
1000
0001
1001
,
0100
0100
0010
0011
;

//---------------dance-double - ----------------
#NOTES:
     dance-double:
     :
     Easy:
     5:
     0.222076,0.293179,0.054545,0.218180,0.000000,171.000000,165.000000,6.000000,24.000000,0.000000,0.000000,0.222076,0.293179,0.054545,0.218180,0.000000,171.000000,165.000000,6.000000,24.000000,0.000000,0.000000:
00000000
00000000
00000000
00000000
,
00000000
00000000
00000000
00000000
,
00000000
00000000
00000000
00000000
,
01000000
01000000
01000000
00000000
,
00001000
00010000
00000100
00000000
,
00010000
00001000
01000000
00000000
,
00001000
00010000
00000100
00000000
,
00000010
00000001
00001000
00000100
,
00010000
00001000
00100000
00000000
,
00001000
00010000
00000010
00000000
,
00010000
00001000
00100000
00000000
,
00100000
00010000
10000000
01000000
,
20000000
00000000
32000000
00000000
,
03020000
00000000
00032000
00000000
,
00003020
00000000
00000000
00000000
00000000
00000000
00000000
00000031
,
00000000
00001000
00000000
00000001
00000000
00001000
00000000
00000000
,
00000002
00000000
00000203
00000000
,
00002300
00000000
00023000
00000000
,
02030000
00000000
10000000
13000000
,
00010000
10000000
10010000
00100000
,
10000000
01000000
10000000
00100000
,
00010000
00001000
00000010
00000001
,
00001000
00001000
00000010
00000000
,
00000100
00000100
00000001
00001000
,
00000001
00000100
00000001
00000010
,
00001000
00010000
00100000
10000000
,
00010000
00010000
10000000
00000000
,
00100000
01000000
01100000
10000000
,
00010000
00010000
00100000
00100000
,
00001000
00001000
00010000
00000100
,
00001000
00001000
00000010
00000010
,
00000100
00000100
00000001
00001000
,
00000002
00000103
00001000
00000000
,
00020000
01030000
10000000
00000000
,
20000000
30200000
01300000
00000000
,
00010000
01000000
00100000
01000000
,
00001000
00010000
00000100
00000000
,
00010000
00001000
01000000
00000000
,
00001000
00010000
00000100
00000000
,
00001000
00000010
00000100
00000001
,
00000002
00000000
00000023
00000000
,
00002030
00000000
00023000
00000000
,
00230000
00000000
00000000
00000000
00000000
00000000
00000000
10300000
,
00000000
00010000
00000000
10000000
00000000
00010000
00000000
00000000
,
20000000
00000000
32000000
00000000
,
03020000
00000000
00032000
00000000
,
00003020
00000000
00000001
00000031
,
00001000
00000001
00001001
00000100
,
00000001
00000010
00001000
00010000
,
00100000
10000000
00100000
10000000
,
01000000
00010000
00001000
00000100
,
00000001
00001000
00001001
00000010
,
00010000
00001000
00011000
00100000
,
00010000
10000000
10010000
01000000
;

//---------------dance-double - ----------------
#NOTES:
     dance-double:
     :
     Medium:
     7:
     0.323374,0.366474,0.190907,0.209089,0.013636,249.000000,228.000000,21.000000,23.000000,0.000000,0.000000,0.323374,0.366474,0.190907,0.209089,0.013636,249.000000,228.000000,21.000000,23.000000,0.000000,0.000000:
00000000
00000000
00000000
00000000
,
00000000
00000000
00000000
00000000
,
00000000
00000000
00000000
00000000
,
00000001
00000100
00000010
00000000
00001000
00000000
00010010
00000000
,
00010000
00001000
01000000
00000000
00100000
00000000
01000000
00000000
,
00001000
00010000
00000100
00000000
00000010
00000000
00000100
00000000
,
00010000
00001000
01000000
00000000
00100000
00000000
01000000
00000000
,
00001000
00010000
00001000
00000000
00010000
00000000
00011000
00000000
,
00001000
00010000
00000010
00000000
00000100
00000000
00000010
00000000
,
00010000
00001000
00100000
00000000
01000000
00000000
00100000
00000000
,
00001000
00010000
00000010
00000000
00000100
00000000
00000010
00000000
,
00010000
00001000
00010000
00000000
00001000
00000000
00011000
00000000
,
00000200
00000300
00002000
00003000
,
00000020
00000000
00000030
00000000
00000200
00000000
00000300
00001000
,
00020000
00000000
00000000
00000000
00000000
00000000
00030000
01000000
,
00000000
11000000
00000000
10100000
00000000
01010000
00000000
01000000
,
00200000
00300000
02000000
03000000
,
00002000
00000000
00003000
00000000
00020000
00000000
00030100
00001000
,
00000020
00000000
00000100
00000130
,
00000001
00001000
00000010
00000000
00000100
00000000
00000110
00000000
,
00000001
00000000
00000100
00000000
00001000
00000000
00010000
01000000
,
10000000
00000000
00100000
01000000
00010000
01000000
00100000
00000000
,
00010000
00000000
00001000
00000010
00000001
00000000
00000000
00000000
,
00001000
00000100
00000010
00000000
00001000
00010000
00100000
10000000
,
01000000
00000000
00010000
00000000
00001000
00000100
00000001
00000000
,
00000100
00000000
00000010
00000000
00001000
00000010
00000100
00000000
,
00001000
00000000
00010000
01000000
10000000
01000000
00100000
00000000
,
01000000
10000000
01000000
00000000
10000000
00000000
10010000
00000000
,
10000000
01000000
00000000
00010000
00001000
00000100
00000001
00000100
,
00001000
00010000
00000000
01000000
00010000
00001000
00000010
00000001
,
00000001
00000100
00000000
00001000
00010000
01000000
10000000
01000000
,
00010000
00001000
00000000
00000010
00000001
00000000
00001001
00000000
,
00000002
00000000
00000000
00001000
00000003
00000000
00000000
00000000
00010010
00000000
00000000
00000000
00000000
00000000
00000000
00000000
,
00020000
00000000
00000000
00001000
00030000
00000000
00000000
00000000
01001000
00000000
00000000
00000000
00000000
00000000
00000000
00000000
,
02000000
00000000
00000000
00100000
03000000
00000000
00000000
00000000
10010000
00000000
00000000
00000000
00000000
00000000
00000000
00000000
,
00100000
00010000
00100000
00000000
00010000
00000000
10010000
00000000
,
01000000
00001000
00010000
00000000
00000100
00000000
00010000
00000000
,
00001000
00100000
00010000
00000000
00100000
00000000
00001000
00000000
,
00010000
00000100
00001000
00000000
00000100
00000000
00010000
00000000
,
00001000
00010000
00001000
00000000
00010000
00000000
00011000
00000000
,
02000000
03000000
00020000
00030000
,
00200000
00000000
00300000
00000000
02000000
00000000
03000000
00010000
,
00002000
00000000
00000000
00000000
00000000
00000000
00003000
00000010
,
00000000
00000011
00000000
00000101
00000000
00001010
00000000
00000010
,
00000200
00000300
00000020
00000030
,
00020000
00000000
00030000
00000000
00002000
00000000
00103000
00010000
,
02000000
00000000
00100000
03100000
,
10000000
00010000
01000000
00000000
00100000
00000000
01100000
00000000
,
10000000
00000000
01000000
00000000
00010000
00001000
00000100
00000000
,
00000001
00000000
00000100
00000000
00001000
00010000
01000000
00000000
,
10000000
00000000
01000000
00000000
00010000
00001000
00000100
00000000
,
00000001
00001000
00000001
00000000
00000100
00000000
00001010
00000000
,
00000100
00010000
00000100
00000000
00010000
00000000
00011000
00000000
,
00100000
00010000
01000000
00000000
00100000
00000000
11000000
00000000
;

//---------------dance-double - ----------------
#NOTES:
     dance-double:
     :
     Hard:
     12:
     0.496099,0.561927,0.127272,0.063636,0.590904,382.000000,368.000000,14.000000,7.000000,0.000000,0.000000,0.496099,0.561927,0.127272,0.063636,0.590904,382.000000,368.000000,14.000000,7.000000,0.000000,0.000000:
00000000
00000000
00000000
00000000
,
00000000
00000000
00000000
00000000
,
00000000
00000000
00000000
00000000
,
00100000
01000000
00100000
01000000
00000000
01000000
00100000
01000000
00100000
00000000
00000000
00000000
10010000
00000000
00000000
00000000
,
00010000
01000000
00100000
00000000
00010000
00001000
00000010
00000000
,
00000001
00000010
00000100
00000000
00001000
00000010
00000100
00000000
,
00001000
00010000
01000000
00000000
10000000
00100000
00010000
00001000
,
00000000
00000010
00000001
00000010
00000001
00000000
00001000
00000001
00000000
00001000
00000000
00000001
00001000
00000000
00000000
00000000
,
00000001
00000100
00000010
00000000
00000100
00001000
00010000
00000000
,
01000000
10000000
00100000
00000000
01000000
00100000
00010000
00001000
,
00000010
00000001
00000100
00000000
00000010
00000100
00001000
00010000
,
00000000
01000000
10000000
01000000
10000000
00000000
00010000
10000000
00000000
00010000
00000000
10000000
00010000
00000000
10000000
00000000
,
01000000
00000000
00000000
00010000
00000000
00010000
00000000
00000000
00001000
00000000
00000000
00000100
00000000
00000100
00000000
00000000
,
00000001
00000000
00000000
00001000
00000000
00001000
00000000
00000000
00000010
00000000
00000000
00010000
00000000
00000000
00001000
00010000
,
00001000
00010000
00000000
00001000
00000000
00010000
00000000
00001000
00000000
00010000
00000000
00001000
00000000
00010000
00001000
00010000
,
00000000
00001000
00100000
00001000
00000000
00100000
01000000
00100000
00000000
01000000
10000000
01000000
00000000
10000000
00010000
10000000
,
00010000
00000000
00000000
01000000
00000000
01000000
00000000
00000000
00100000
00000000
00000000
00010000
00000000
00010000
00000000
00000000
,
00001000
00000000
00000000
00000010
00000000
00000010
00000000
00000000
00000001
00000000
00000000
00001000
00000010
00000000
00000100
00000000
,
00002000
00000000
00023000
02030000
,
13000000
00010000
10000000
00000000
00010000
10000000
00000000
00010000
10000000
00000000
00000000
00000000
10010000
00000000
00000000
00000000
,
10000000
00000000
00000000
01000000
00000000
00000000
00010000
00000000
01000000
00000000
00000000
00010000
00000000
00000000
00001000
00000000
,
00010000
00001000
00000010
00000001
00000100
00001000
00000100
00000000
,
00000001
00000010
00001000
00010000
00100000
00200000
00000000
00300000
,
10000000
00010000
01000000
00100000
00010000
00001000
00000010
00000001
,
00001000
00000010
00000100
00001000
00010000
01000000
10000000
00100000
,
01000000
00000000
00100000
00000000
00010000
00000000
00001000
00000010
00000000
00000001
00000000
00001000
00000000
00000000
00000000
00000000
,
00000001
00000100
00001000
00010000
01000000
01000000
00010000
00000000
,
00001000
00010000
00001000
00010000
00000000
00001000
00000000
00010000
00001000
00000000
00000000
00000000
00011000
00000000
00000000
00000000
,
00001000
00000010
00000000
00000001
00000100
00001000
00010000
01000000
,
10000000
00100000
00000000
00010000
00001000
00001000
00000010
00000010
,
00000001
00001000
00000000
00000010
00000100
00001000
00010000
01000000
,
10000000
00010000
00000000
01000000
00100000
00000000
10010000
00000000
,
11000000
00000000
00000000
00100000
00000000
00000000
00000000
00000000
00011000
00000000
00000000
00000000
00000000
00000000
00000000
00000000
,
00000101
00000000
00000000
00000010
00000000
00000000
00000000
00000000
00011000
00000000
00000000
00000000
00000000
00000000
00000000
00000000
,
11000000
00000000
00000000
00100000
00000000
00000000
00000000
00000000
00011000
00000000
00000000
00000000
00000000
00000000
00000000
00000000
,
00000000
00000001
00001000
00000001
00001000
00000000
00000001
00001000
00000000
00000001
00000000
00001000
00000001
00000000
00000000
00000000
,
00000001
00000100
00000010
00000000
00000100
00001000
00010000
00000000
,
01000000
10000000
00100000
00000000
01000000
00100000
10000000
00000000
,
00100000
00010000
00001000
00000000
00000010
00000001
00001000
00000001
,
00000000
00000100
00000010
00000100
00000010
00000000
00001000
00000001
00000000
00001000
00000000
00000001
00001000
00000000
00000001
00000000
,
00000010
00000000
00000000
00001000
00000000
00001000
00000000
00000000
00010000
00000000
00000000
00100000
00000000
00100000
00000000
00000000
,
10000000
00000000
00000000
00010000
00000000
00010000
00000000
00000000
01000000
00000000
00000000
00001000
00000000
00000000
00010000
00001000
,
00010000
00001000
00000000
00010000
00000000
00001000
00000000
00010000
00000000
00001000
00000000
00010000
00000000
00001000
00010000
00001000
,
00000000
00010000
00000100
00010000
00000000
00000100
00000010
00000100
00000000
00000010
00000001
00000010
00000000
00000001
00001000
00000001
,
00001000
00000000
00000000
00000010
00000000
00000010
00000000
00000000
00000100
00000000
00000000
00001000
00000000
00001000
00000000
00000000
,
00010000
00000000
00000000
01000000
00000000
01000000
00000000
00000000
10000000
00000000
00000000
00010000
01000000
00000000
00100000
00000000
,
00020000
00000000
00032000
00003020
,
00000031
00001000
00000001
00000000
00001000
00000001
00000000
00001000
00000001
00000000
00000000
00000000
00001001
00000000
00000000
00000000
,
00000001
00000000
00000100
00000010
00000000
00000010
00000000
00000100
00001000
00000000
00010000
01000000
00000000
10000000
00000000
00000000
,
10000000
00000000
00100000
01000000
00000000
01000000
00000000
00100000
00010000
00000000
00001000
00000010
00000000
00000000
00000000
00000000
,
00000001
00000000
00000100
00000010
00000000
00000010
00000000
00000100
00001000
00000000
00010000
01000000
00000000
10000000
00000000
00000000
,
10000000
00010000
10000000
00010000
00000000
00010000
10000000
00010000
10000000
00000000
00000000
00000000
10010000
00000000
00000000
00000000
,
00001000
00010000
00001000
00010000
00000000
00010000
00001000
00010000
00001000
00000000
00000000
00000000
00011000
00000000
00000000
00000000
,
00001000
00000001
00001000
00000001
00000000
00000001
00001000
00000001
00001000
00000000
00000000
00000000
00001001
00000000
00000000
00000000
;

//---------------dance-double - ----------------
#NOTES:
     dance-double:
     :
     Challenge:
     15:
     0.694799,0.635222,0.518177,0.072727,1.209080,535.000000,478.000000,57.000000,8.000000,0.000000,0.000000,0.694799,0.635222,0.518177,0.072727,1.209080,535.000000,478.000000,57.000000,8.000000,0.000000,0.000000:
// measure 0
00000000
00000000
00000000
00000000
,  // measure 1
00000000
00000000
00000000
00000000
,  // measure 2
00000000
00000000
00000000
00000000
,  // measure 3
00000010
00000100
00000010
00000100
00000000
00000001
00001000
00000001
00001000
00000000
00000000
00000000
00001001
00000000
00000000
00000000
,  // measure 4
00000000
00000001
00000010
00000001
00000010
00000001
00000000
00000010
00000000
00001000
00000000
00010000
00100000
00000000
10000000
00000000
,  // measure 5
00000000
10000000
00100000
10000000
00100000
10000000
00000000
00010000
00000000
01000000
00000000
00100000
00000000
00100000
10000000
00100000
,  // measure 6
00000000
10000000
00100000
10000000
00100000
10000000
00000000
00100000
00000000
00010000
00000000
00001000
00000010
00000000
00000001
00000000
,  // measure 7
00000000
00000001
00001000
00000001
00001000
00000000
00000100
00010000
00000000
00011000
00000000
01000000
00010000
00000000
00000000
00000000
,  // measure 8
00000000
01000000
00010000
01000000
00100000
01000000
00000000
00100000
00000000
00010000
00000000
00001000
00000010
00000000
00000001
00000000
,  // measure 9
00000000
00000001
00000100
00000001
00001000
00000001
00000000
00000100
00000000
00000010
00000000
00001000
00000000
00001000
00000001
00001000
,  // measure 10
00000000
00000010
00000100
00000010
00001000
00000010
00000000
00000100
00000000
00001000
00000000
00010000
01000000
00000000
10000000
00000000
,  // measure 11
00000000
10000000
00010000
10000000
00010000
00000000
01000000
00001000
00000000
00011000
00000000
00000100
00001000
00000010
00000100
00000001
,  // measure 12
00001000
00000000
00000000
00001001
00000000
00010100
00000000
00000000
00011000
00000000
00000000
01001000
00000000
10010000
00000000
00000000
,  // measure 13
01100000
00000000
00000000
01010000
00000000
10100000
00000000
00000000
10000000
00000000
00000000
10010000
00000000
00010000
10000000
00100000
,  // measure 14
00010000
00001000
00000000
00001000
00000000
00001000
00000000
00001000
00000000
00001000
00000000
00001000
00000000
00001000
00000010
00000001
,  // measure 15
00000000
00000001
00000010
00001000
00000000
00001000
00010000
00100000
00000000
00100000
10000000
00010000
00000000
00010000
01000000
00100000
,  // measure 16
10000000
00000000
00000000
10010000
00000000
00101000
00000000
00000000
00011000
00000000
00000000
00010010
00000000
00001001
00000000
00000000
,  // measure 17
00000110
00000000
00000000
00000101
00000000
00001010
00000000
00000000
00000100
00000000
00000000
00001001
00000000
00000001
00000100
00001000
,  // measure 18
00020000
00000000
02030000
23000000
,  // measure 19
30010000
01000000
00010000
00000000
10000000
01000000
00000000
00010000
01000000
00000000
00000000
00000000
10010000
00000000
00000000
00000000
,  // measure 20
10000000
00000000
10000000
00100000
00000000
00100000
00010000
00000000
00010000
00001000
00000000
00001000
00000010
00000000
00000001
00001000
,  // measure 21
00000001
00000000
00000100
00000010
00010000
00001000
00010000
00001000
01000000
00100000
10000000
00000000
00010000
00000000
00000000
00000000
,  // measure 22
00100000
00000000
01000000
00100000
00000000
00100000
00001000
00000000
00010000
00000000
00022000
00000000
00000000
00000000
00033000
00010000
,  // measure 23
00000010
00000100
00000001
00000000
00001000
00000000
00001001
00000000
00000001
00000100
00000010
00001000
00000001
00000100
00000010
00001000
,  // measure 24
00000001
00000000
00000100
00000000
00001000
00010000
01000000
10000000
00000000
00010000
00000000
10000000
01000000
00010000
00001000
00000000
,  // measure 25
00000010
00000000
00000001
00000000
00001000
00000010
00000000
00000100
00000000
00001000
00000000
00010000
01000000
00000000
00000000
00000000
,  // measure 26
10000000
00100000
10000000
00010000
00000000
00010000
01000000
00010000
10000000
00000000
00010000
00000000
10010000
00000000
00000000
00000000
,  // measure 27
00100000
00001000
00100000
00001000
00000000
00011000
00000000
00010000
00000010
00000000
00000000
00000000
00001010
00000000
00000000
00000000
,  // measure 28
00000001
00000100
00000001
00000100
00000000
00001000
00010000
00001000
00010000
01000000
00010000
01000000
00000000
10000000
00100000
10000000
,  // measure 29
00100000
00010000
00100000
00010000
00000000
00001000
00010000
00001000
00010000
00000000
00000010
00000000
00000100
00000000
00000001
00000000
,  // measure 30
00000001
00000100
00000001
00000100
00000000
00001000
00010000
00001000
00010000
01000000
00010000
01000000
00000000
00100000
00010000
00100000
,  // measure 31
00010000
00001000
00000010
00001000
00000000
00000010
00000001
00000010
00000001
00000000
00000000
00000000
00001001
00000000
00000000
00000000
,  // measure 32
00000000
00000001
00000100
00000010
00001000
00000100
00000000
00010000
00000000
00010000
00000000
00001000
01000000
00000000
01010000
00000000
,  // measure 33
00000000
00010000
01000000
00100000
10000000
00010000
00000000
01000000
00000000
01000000
00000000
00010000
00000000
10000000
00010000
10000000
,  // measure 34
00000000
00100000
01000000
00010000
10000000
00010000
00000000
01000000
00000000
01000000
00000000
00001000
00010000
00000000
00000100
00000000
,  // measure 35
00000000
00001000
00000001
00001000
00000001
00000000
00000001
00001000
00000000
00000001
00000000
00001000
00000001
00000000
00000000
00000000
,  // measure 36
00000000
00000001
00000100
00001000
00010000
01000000
00000000
10000000
00000000
00010000
00000000
10000000
00010000
00000000
10010000
00000000
,  // measure 37
00000000
10000000
01000000
00010000
00001000
00000100
00000000
00000001
00000000
00000010
00000000
00000001
00000000
00000100
00000001
00000100
,  // measure 38
00000000
00000001
00000100
00001000
00010000
01000000
00000000
10000000
00000000
00010000
00000000
10000000
00010000
00000000
10000000
00000000
,  // measure 39
00000000
00100000
01000000
00100000
01000000
00000000
00010000
10000000
00000000
00010000
00000000
10000000
00010000
00100000
01000000
10000000
,  // measure 40
00010000
00000000
00000000
10010000
00000000
00101000
00000000
00000000
00011000
00000000
00000000
00010010
00000000
00001001
00000000
00000000
,  // measure 41
00000110
00000000
00000000
00001010
00000000
00000101
00000000
00000000
00000001
00000000
00000000
00001001
00000000
00001000
00000001
00000010
,  // measure 42
00001000
00010000
00000000
00010000
00000000
00010000
00000000
00010000
00000000
00010000
00000000
00010000
00000000
00010000
00100000
10000000
,  // measure 43
00000000
10000000
00100000
00010000
00000000
00010000
00001000
00000010
00000000
00000010
00000001
00001000
00000000
00001000
00000010
00000100
,  // measure 44
00000001
00000000
00000000
00001001
00000000
00010100
00000000
00000000
00011000
00000000
00000000
01001000
00000000
10010000
00000000
00000000
,  // measure 45
01100000
00000000
00000000
10100000
00000000
01010000
00000000
00000000
00100000
00000000
00000000
10010000
00000000
10000000
01000000
00010000
,  // measure 46
00002000
00000000
00003200
00000302
,  // measure 47
00001003
00000100
00001000
00000000
00000001
00000100
00000000
00001000
00000100
00000000
00000000
00000000
00001001
00000000
00000000
00000000
,  // measure 48
00000110
00000000
00000001
00000100
00000000
00001000
00000000
00010000
01000000
00000000
10000000
00010000
00000000
10010000
00000000
00000000
,  // measure 49
01100000
00000000
10000000
01000000
00000000
00010000
00000000
00001000
00000100
00000000
00000001
00001000
00000000
00000000
00000000
00000000
,  // measure 50
00000110
00000000
00000001
00000100
00000000
00001000
00000000
00010000
01000000
00000000
10000000
00010000
00000000
10010000
00000000
00000000
,  // measure 51
10000000
00010000
10000000
00010000
00000000
00010000
10000000
00010000
10000000
00000000
00000000
00000000
10010000
00000000
00000000
00000000
,  // measure 52
00001000
00010000
00001000
00010000
00000000
00010000
00001000
00010000
00001000
00000000
00000000
00000000
00011000
00000000
00000000
00000000
,  // measure 53
00001000
00000001
00001000
00000001
00000000
00000001
00001000
00000001
00001000
00000000
00000000
00000000
00001001
00000000
00000000
00000000
;
