#TITLE:Like This;
#SUBTITLE:;
#ARTIST:X-Ecutioners feat. Anikke Coleman;
#TITLETRANSLIT:;
#SUBTITLETRANSLIT:;
#ARTISTTRANSLIT:;
#GENRE:Hip Hop;
#CREDIT:;
#BANNER:likethis-bn.png;
#BACKGROUND:likethis-bg.png;
#LYRICSPATH:;
#CDTITLE:;
#MUSIC:Like This.mp3;
#OFFSET:-0.056000;
#SAMPLESTART:48.324001;
#SAMPLELENGTH:12.000000;
#SELECTABLE:YES;
#BPMS:0.000000=139.009995
;
#STOPS:
;
#BGCHANGES:;
#KEYSOUNDS:;
#ATTACKS:;

//---------------dance-single - ----------------
#NOTES:
     dance-single:
     :
     Hard:
     12:
     0.548142,0.561070,0.353937,0.104572,0.136748,477.000000,433.000000,44.000000,13.000000,0.000000,0.000000,0.548142,0.561070,0.353937,0.104572,0.136748,477.000000,433.000000,44.000000,13.000000,0.000000,0.000000:
// measure 0
0000
0000
0000
0000
,  // measure 1
0000
0000
0000
0000
,  // measure 2
0000
0000
0000
0000
,  // measure 3
0000
0000
0000
0000
0000
0000
1000
0100
,  // measure 4
1000
1000
0000
1100
0000
0000
0000
0000
,  // measure 5
0001
0100
0001
0001
0100
0000
0010
1000
,  // measure 6
0100
1000
0100
0100
1000
0100
1000
1000
,  // measure 7
0100
0010
0001
0100
0001
0000
0001
0100
,  // measure 8
0001
0001
0100
0001
0000
1000
0100
1000
,  // measure 9
0000
0001
0100
0000
0101
0000
0000
0010
,  // measure 10
1000
0010
1000
0000
0100
1000
0001
0101
,  // measure 11
0000
0000
0110
0000
0010
0000
1000
0000
0100
0000
0010
0001
0010
0000
0001
1000
,  // measure 12
0100
0000
0100
0000
0000
0000
0100
0000
0100
0000
0010
0001
1000
0000
0010
0000
,  // measure 13
0100
0000
0100
0000
0000
0000
0100
0000
0100
0000
0010
1000
0001
0000
0010
0000
,  // measure 14
0100
0000
0100
0000
0000
0000
0100
0000
0100
0000
0010
0001
0010
0000
0001
0000
,  // measure 15
1000
0000
0010
1000
0010
0000
1000
0000
0001
0000
0001
0000
1000
0000
0010
0000
,  // measure 16
0100
0000
0100
0000
0000
0000
0100
0000
0100
0000
0001
0010
0100
1000
0100
1000
,  // measure 17
0100
0000
0100
0000
0000
0000
0100
0000
0100
0000
0000
0000
0000
0000
0010
0001
,  // measure 18
0100
0000
0000
0000
0100
0000
0000
0000
0010
1000
0100
0000
0000
0000
0100
0000
,  // measure 19
0100
0000
0100
0000
0100
0100
0100
0010
,  // measure 20
0001
1000
1020
0000
0100
0130
0000
0100
,  // measure 21
0001
0000
0021
0000
0100
0130
0000
1000
,  // measure 22
0010
0100
0001
0001
0010
0100
1000
0001
,  // measure 23
1001
0000
0110
0000
1001
1000
0001
0100
,  // measure 24
0120
0000
0000
1030
0000
1000
0010
0100
,  // measure 25
0101
0000
1100
0000
0010
0010
0000
0000
,  // measure 26
0100
0001
0010
0100
0000
1100
0000
1000
,  // measure 27
0010
0100
0101
0000
0110
0010
1000
0000
,  // measure 28
0001
0100
0001
0000
0000
0000
1000
0100
1000
0000
0000
0000
0001
0100
0001
0000
,  // measure 29
1000
0101
1100
0000
,  // measure 30
1000
0100
1000
0000
0000
0000
0001
0100
0001
0000
0000
0000
1000
0100
1000
0000
,  // measure 31
0001
1100
0101
0000
,  // measure 32
0001
0100
0001
0000
0000
0000
1000
0100
1000
0000
0000
0000
0001
0100
0001
0000
,  // measure 33
1000
0000
0000
0000
0101
0000
0000
0000
1100
0000
0000
0000
0000
0000
0010
0100
,  // measure 34
0001
0000
0010
0100
1000
0000
0010
0100
0001
0000
1000
0000
0000
0000
0100
0000
,  // measure 35
1000
0000
0100
0000
1100
0000
1000
0010
,  // measure 36
1000
1000
0010
1000
0000
0001
0010
0001
,  // measure 37
0000
1000
0010
0000
1010
0000
0000
0001
,  // measure 38
0100
0010
1000
0000
1010
1000
0010
0100
,  // measure 39
0000
0000
0001
0000
0100
0000
0010
0000
0100
0000
0001
1000
0001
0100
0010
0000
,  // measure 40
0200
0000
0001
0000
0001
0000
0301
1000
0000
0000
0010
0000
0100
0000
0000
0000
,  // measure 41
0020
0000
1000
0000
1000
0000
1030
0001
0000
0001
1000
0000
0001
0000
0001
0000
,  // measure 42
2000
0000
0100
0000
0100
0000
3100
0010
0000
0000
0001
0000
1000
0000
0000
0000
,  // measure 43
0002
0000
0010
0000
0010
0000
0013
0100
0000
0100
1000
0010
0100
0001
0100
0000
,  // measure 44
0001
0100
0201
0000
0010
0310
0000
0010
,  // measure 45
1000
0000
1200
0000
0010
0310
0000
0001
,  // measure 46
0100
0010
1000
1000
0100
0010
0001
1000
,  // measure 47
1001
0000
0110
0000
1001
0001
1000
0010
,  // measure 48
0210
0000
0000
0301
0000
0001
0100
0010
,  // measure 49
1010
0000
0011
0000
0100
0100
0000
0000
,  // measure 50
0010
1000
0100
0010
0000
0011
0000
0001
,  // measure 51
0100
0000
0010
0000
1010
0000
0000
0000
0100
0000
0001
0000
0000
0000
0001
1000
,  // measure 52
0001
0010
0001
0010
0001
0010
0001
0010
,  // measure 53
0001
0010
0001
0010
0001
0010
0001
0010
,  // measure 54
1000
0010
1000
0010
1000
0010
1000
0010
,  // measure 55
1000
0010
1000
0010
1000
0010
0001
1000
,  // measure 56
0100
0010
0100
1100
0000
0010
0001
0011
,  // measure 57
0000
0101
0000
1010
0000
2001
0000
3010
,  // measure 58
0100
0001
1000
0100
0010
0100
1000
0010
,  // measure 59
0100
0001
0000
1001
0000
0000
0001
0100
,  // measure 60
0120
0000
0000
1030
0000
1000
0100
0010
,  // measure 61
0011
0000
0101
0000
0010
0010
0000
0000
,  // measure 62
1000
0001
0100
0010
0000
0110
0000
0010
,  // measure 63
0100
0001
1000
0000
0001
0010
0000
0000
,  // measure 64
0001
0100
0001
0001
1000
0100
1000
1000
,  // measure 65
0001
0100
0001
0001
1000
0100
1000
1000
,  // measure 66
0001
0010
0001
0001
1000
0010
1000
1000
,  // measure 67
0001
0010
0001
0001
1000
0010
1000
1000
,  // measure 68
0020
0100
0100
0100
0000
0000
0000
0000
,  // measure 69
0000
0000
0000
0030
;

//---------------dance-single - ----------------
#NOTES:
     dance-single:
     :
     Medium:
     8:
     0.347042,0.385007,0.144792,0.120660,0.000000,302.000000,284.000000,18.000000,15.000000,0.000000,0.000000,0.347042,0.385007,0.144792,0.120660,0.000000,302.000000,284.000000,18.000000,15.000000,0.000000,0.000000:
0000
0000
0000
0000
,
0000
0000
0000
0000
,
0000
0000
0000
0000
,
0000
0000
0000
0000
0000
0000
0001
0010
,
0001
0010
0000
1100
0000
0000
0000
0000
,
0001
0010
0001
0000
1100
0000
0001
0000
,
0010
0001
0010
0000
0100
0000
0010
0001
,
0010
0000
0100
0000
0010
0000
0001
0100
,
0010
1000
0010
1000
0000
0010
1000
0010
,
0000
1000
0010
0000
1010
0000
0000
1000
,
0100
0010
0001
0000
0011
0000
1000
0100
,
0000
0010
0001
0000
0011
0000
0000
0000
,
0001
0100
0000
0100
0010
0000
0000
0000
,
1000
0010
0000
0010
0100
0000
0000
0000
,
0001
1000
0000
1000
0010
0000
0000
0000
,
0000
1000
0001
1000
,
0010
1000
0000
1000
0100
0000
0000
0000
,
0010
0001
0000
0001
0100
0000
0000
0000
,
0010
0000
0010
0000
0010
0100
0000
0000
,
0010
0000
0010
0000
0010
0100
0001
0000
,
1000
0000
0100
0000
1000
0100
0000
0000
,
0001
0000
0010
0000
0001
0010
0000
0000
,
1000
0000
0100
1000
0000
0000
0001
0000
,
0010
0000
0001
0000
0010
0001
0000
0000
,
0201
0000
0000
0310
0000
0000
0010
0000
,
1000
0000
0001
0000
1000
0100
0000
0000
,
1000
0010
1000
0010
0000
0100
0000
0001
,
0010
0001
0010
0000
0100
1000
0000
0000
,
0001
1000
0000
1000
0001
0000
0001
1000
,
0000
1000
0001
0000
1000
0000
0000
0000
,
1000
0001
0000
0001
1000
0000
1000
0001
,
0000
0001
1000
0000
0001
0000
0000
0000
,
0001
1000
0000
1000
0001
0000
0001
1000
,
0000
1000
0001
0000
1000
0000
0000
0000
,
0010
0000
0100
0000
0010
0100
0000
0100
,
0000
0000
0001
0000
1000
0000
0010
0100
,
0010
0000
1000
0001
0000
0001
1000
0000
,
0000
1000
0001
0000
1001
0000
0000
0000
,
0100
0010
0100
0000
0001
0100
0001
0100
,
0000
0010
1000
0000
1010
0000
0001
0000
,
2000
0000
3000
1001
0000
0000
0020
0000
,
0230
0000
0300
0101
0000
0000
0002
0000
,
0023
0000
0030
0110
0000
0000
0200
0000
,
2300
0000
3000
1001
0000
0000
1000
0000
,
0001
0100
0001
0000
0100
0100
0000
0010
,
1000
0000
0010
0000
0100
0100
0000
0010
,
1000
0100
0010
0001
,
0100
0000
0010
0000
0100
0100
0010
0000
,
1020
0000
0000
0130
0000
0000
0001
0000
,
1000
0000
0010
0000
0100
0100
0000
0000
,
0001
1000
0001
1000
0000
0100
0000
0010
,
0001
0000
1000
0000
0001
1000
0000
0000
,
0010
0010
0010
0010
,
0010
0010
1010
0011
,
0100
0100
0100
0100
,
0100
0100
0101
1100
,
0010
1000
0010
1000
0000
1000
0001
1000
,
0000
0001
0000
0001
0000
0200
0000
0310
,
0100
0000
0001
0000
0100
0000
0010
0100
,
0010
0100
0000
0001
0000
0000
1000
0000
,
1002
0000
0000
0013
0000
0001
1000
0000
,
0010
0000
0100
0000
0010
0010
0000
0000
,
1000
0100
0010
0001
0000
1000
0000
0001
,
0100
0010
1000
0000
,
0002
0010
1000
0013
,
2000
0010
0001
3010
,
0002
0100
1000
0103
,
2000
0100
0001
3100
,
1000
0001
1000
0001
0000
0000
0000
0000
;

//---------------dance-single - ----------------
#NOTES:
     dance-single:
     :
     Easy:
     6:
     0.268900,0.336642,0.120660,0.096528,0.000000,234.000000,219.000000,15.000000,12.000000,0.000000,0.000000,0.268900,0.336642,0.120660,0.096528,0.000000,234.000000,219.000000,15.000000,12.000000,0.000000,0.000000:
0000
0000
0000
0000
,
0000
0000
0000
0000
,
0000
0000
0000
0000
,
0000
0000
0000
0010
,
0100
0000
0000
0001
0000
0000
0000
0000
,
0010
0010
0011
0000
,
0001
1000
0010
0010
,
1000
0001
0100
0010
,
1000
0100
0000
0100
,
0000
0010
0100
0000
,
1000
0000
0001
0000
0100
0000
0000
0010
,
0000
0100
0001
1000
,
0001
0000
0000
0011
0000
0000
0000
0000
,
1000
0000
0000
1010
0000
0000
0000
0000
,
0001
0100
0000
0100
0001
0000
0000
0000
,
1000
0010
0100
0001
,
1000
0000
0000
1010
0000
0000
0000
0000
,
0001
0000
0000
0011
0000
0000
0000
0000
,
0001
0000
1000
0000
0001
1000
0000
0001
,
1000
0000
0001
0000
1000
0001
1000
0000
,
0010
0010
0110
0000
,
0100
0100
0110
0000
,
0010
1000
0001
0010
,
0001
0001
0101
0000
,
0120
0000
0000
0130
0000
0000
0010
0000
,
1000
0100
1100
0000
,
0010
0000
0001
0000
0000
0100
0000
0000
,
0001
0010
0100
0000
,
1000
0100
0000
1000
0100
0000
1000
0100
,
0000
0010
0010
0000
,
0001
0100
0000
0001
0100
0000
0001
0100
,
0000
0010
0010
0000
,
1000
0001
0000
1000
0001
0000
1000
0001
,
0000
0010
0010
0000
,
0001
0100
0010
1000
,
0001
1000
0001
0100
,
0010
1000
0000
1000
,
0000
1000
0010
0000
,
0100
0001
1000
0100
,
0010
0001
1000
0001
,
2000
0000
0000
3001
0000
0000
0001
0000
,
0002
0000
0000
0013
0000
0000
0010
0000
,
0020
0000
0000
0130
0000
0000
0100
0000
,
0200
0000
0000
1300
0000
0000
1000
0000
,
0001
0001
0011
0000
,
1000
1000
1010
0000
,
0001
1000
0010
0100
,
0010
0010
0110
0000
,
1002
0000
0000
1003
0000
0000
0010
0000
,
1000
0100
0100
0000
,
0010
0000
0001
0000
0000
0100
0000
0000
,
0001
0010
0100
0000
,
0010
0010
0010
0010
,
0010
0010
0010
0010
,
0001
0001
0001
0001
,
0001
0001
0001
0001
,
0100
0000
0010
0000
0000
0100
0000
0010
,
0000
0100
0000
0001
0000
1000
0000
0000
,
0001
0000
0001
0000
1000
0000
0000
1000
,
0000
1000
0000
0010
0000
0000
0000
0000
,
0201
0000
0000
0301
0000
0000
0001
0000
,
0100
0010
0010
0000
,
1000
0100
0010
0001
,
0100
0010
1000
0000
,
0002
0010
0013
0100
,
2000
0010
3010
0100
,
0002
0100
0103
0010
,
2000
0100
3100
0010
,
0002
0000
0000
1000
0000
0000
0000
0000
,
0000
0000
0000
0003
;

//---------------dance-single - ----------------
#NOTES:
     dance-single:
     :
     Beginner:
     3:
     0.129853,0.196375,0.000000,0.088484,0.000000,113.000000,113.000000,0.000000,11.000000,0.000000,0.000000,0.129853,0.196375,0.000000,0.088484,0.000000,113.000000,113.000000,0.000000,11.000000,0.000000,0.000000:
0000
0000
0000
0000
,
0000
0000
0000
0000
,
0000
0000
0000
0000
,
0000
0000
0000
0010
,
0010
0000
0000
0000
,
0001
0001
0001
0000
,
1000
1000
1000
0000
,
0010
0010
0010
0000
,
0100
0000
0000
0100
,
0000
0010
0010
0000
,
1000
0000
0001
0000
,
1000
0000
0000
0000
,
0001
0000
0001
0000
,
0010
0000
0010
0000
,
0100
0000
0100
0000
,
1000
0000
0000
0000
,
1000
0000
1000
0000
,
0010
0000
0010
0000
,
0100
0000
0100
0000
,
0001
0000
0001
0000
,
1000
1000
1000
0000
,
0001
0001
0001
0000
,
0010
0000
0000
0000
,
0010
0010
0010
0000
,
0001
0000
0000
1000
,
0000
0010
0000
0000
,
0100
0000
0000
0000
,
0100
0100
0100
0000
,
0001
0000
0001
0000
,
0000
0001
0001
0000
,
1000
0000
1000
0000
,
0000
1000
1000
0000
,
0001
0000
0001
0000
,
0000
0001
0001
0000
,
0100
0000
0010
0000
,
0000
0000
0100
0000
,
0010
0000
0000
1000
,
0000
0001
0001
0000
,
0100
0000
0010
0000
,
0000
0000
1000
0000
,
0002
0000
0003
0000
,
2000
0000
3000
0000
,
0002
0000
0003
0000
,
2000
0000
3000
0000
,
0010
0010
0010
0000
,
0100
0100
0100
0000
,
0001
0000
1000
0000
,
0001
0001
0001
0000
,
0100
0000
0000
0010
,
0000
1000
0000
0000
,
0001
0000
0000
0000
,
0010
0010
0010
0000
,
0002
0000
0000
0000
,
0000
0000
0003
0000
,
2000
0000
0000
0000
,
0000
0000
3000
0000
,
0010
0000
0000
0100
,
0000
0000
0000
0001
,
0001
0000
0000
0000
,
1000
0000
0000
0000
,
0010
0000
0000
1000
,
0000
0001
0000
0000
,
0100
0000
0000
0000
,
0001
0001
0001
0000
,
2000
0000
3000
0000
,
0200
0000
0300
0000
,
0020
0000
0030
0000
,
0002
0000
0003
0000
,
0200
0000
0000
0000
,
0000
0000
0000
0300
;

//---------------dance-double - ----------------
#NOTES:
     dance-double:
     :
     Easy:
     6:
     0.260856,0.336642,0.056308,0.064352,0.000000,227.000000,220.000000,7.000000,8.000000,0.000000,0.000000,0.260856,0.336642,0.056308,0.064352,0.000000,227.000000,220.000000,7.000000,8.000000,0.000000,0.000000:
00000000
00000000
00000000
00000000
,
00000000
00000000
00000000
00000000
,
00000000
00000000
00000000
00000000
,
00000000
00000000
00000000
00000100
,
00000001
00000000
00000000
00001001
00000000
00000000
00000000
00000000
,
00000001
00000100
00001000
00010000
,
00001000
00100000
01000000
10000000
,
01000000
00010000
00001000
00010000
,
00000010
00000000
00000100
00000000
00000000
00001001
00000000
00000000
,
00000000
00000010
00000010
00000000
,
00000100
00001000
00010000
00100000
,
10000000
00010000
10010000
01100000
,
10000000
01000000
00000000
01000000
10000000
00000000
00000000
00000000
,
00010000
00100000
00000000
00100000
00010000
00000000
00000000
00000000
,
00100000
00001000
00000000
00001000
00010000
00000000
00000000
00000000
,
00000000
00000000
00000100
00001000
00000100
00000000
00000000
00000000
,
00001000
00000010
00000000
00000010
00000100
00000000
00000000
00000000
,
00000001
00001000
00000000
00001000
00000010
00000000
00000000
00000000
,
00010000
00000000
00001000
00000000
00010000
00001000
00000000
00010000
,
00001000
00000000
00010000
00000000
00001000
00100000
01000000
00000000
,
10000000
00000000
10000000
00000000
10000000
00010000
00000000
00000000
,
00100000
00000000
00100000
00000000
00100000
00001000
00000000
00000000
,
00010000
00000000
00010000
00000010
00000000
00000000
00000100
00000000
,
00000001
00000000
00001000
00000000
00000001
00001000
00000000
00000000
,
00000020
00000000
00000000
00000130
00000000
00000000
00000001
00000000
,
00000010
00001000
00010000
00000000
,
01000000
00000000
10000000
00000000
00000000
00100000
00000000
00000000
,
01000000
00001000
00010000
00000000
,
00001000
00000000
00000000
00010000
00000000
00000000
00000000
00000010
,
00000000
00010000
00001000
00000000
,
00010000
00000000
00000000
00001000
00000000
00000000
00000000
01000000
,
00000000
00001000
00010000
00000000
,
00000010
00000000
00000000
00000100
00000000
00000000
00000000
00000001
,
00000000
00000100
00000010
00000000
,
00010000
00001000
01000000
00100000
,
10000000
00010000
00010000
10000000
,
01000000
00010000
00001000
00010000
,
00000010
00000100
00000001
00000000
,
00000001
00000100
00001000
00010000
,
00001000
00100000
01000000
00000000
,
20000000
00000000
00000000
30010000
00000000
00000000
00000000
00000000
,
02000000
00000000
00000000
00001000
03000000
00000000
00000000
00000000
,
00002000
00000000
00000000
00013000
00000000
00000000
00000000
00000000
,
00020000
00000000
00000000
00030010
00000000
00000000
00000000
00000000
,
00000100
00000001
00001000
00000000
,
00000010
00010000
00001000
00000000
,
01000000
00100000
10000000
00010000
,
01000000
00010000
10010000
10000000
,
00020000
00000000
00000000
00130000
00000000
00000000
01000000
00000000
,
00010000
00001000
00000010
00000000
,
00000001
00001000
00000010
00001000
,
00000001
00000100
00001000
00000000
,
00010000
01000000
00010000
01000000
,
00010000
01000000
00010000
00001000
,
00010000
00000010
00010000
00000010
,
00010000
00000010
00010000
00001000
,
01000000
00000000
00100000
00000000
00000000
10000000
00000000
00010000
,
00000000
01000000
00000000
00100000
00000000
01100000
00000000
00000000
,
10000000
00000000
00100000
00000000
01000000
00000000
00000000
00001000
,
00000000
00010000
00000000
00000010
00000000
00000000
00001000
00000000
,
00000200
00000000
00000000
00000310
00000000
00000000
00000100
00000000
,
00010000
00001000
00100000
00000000
,
01000000
00000000
10000000
00000000
00000000
10010000
00000000
00000000
,
00100000
00001000
00010000
00000000
,
00001000
00000010
00001000
00000010
,
00000001
00000100
00001000
00010000
,
01000000
10000000
01000000
10000000
,
00100000
00010000
00001000
00000010
,
00000002
00000000
00000000
00000000
,
00000000
00000000
00000000
00000003
;

//---------------dance-double - ----------------
#NOTES:
     dance-double:
     :
     Medium:
     9:
     0.382665,0.398380,0.217188,0.160880,0.000000,333.000000,306.000000,27.000000,20.000000,0.000000,0.000000,0.382665,0.398380,0.217188,0.160880,0.000000,333.000000,306.000000,27.000000,20.000000,0.000000,0.000000:
00000000
00000000
00000000
00000000
,
00000000
00000000
00000000
00000000
,
00000000
00000000
00000000
00000000
,
00000000
00000000
00000000
00000000
00000000
00000000
10000000
00100000
,
01000000
00010000
00000000
00101000
00000000
00000000
00000000
00000000
,
00001000
00000000
00010000
00000000
00010100
00000000
00000100
00000010
,
00000001
00000000
00000001
00000000
00000001
00001000
00000100
00000000
,
00000010
00000100
00000010
00000100
00010000
00000000
00001000
01000000
,
00100000
00000000
00100000
10000000
00000000
10000000
00010000
00000000
,
00000000
00000000
01001000
00000000
00101000
00000000
00000000
00010000
,
00000010
00010000
00000100
00000000
00000010
00000001
00000010
00000001
,
00000000
00000001
00001000
00000000
00001001
00000000
00000010
00000000
,
00000100
00001000
00000000
00010000
01000000
00000000
00000000
00000000
,
10000000
00100000
00000000
00010000
00001000
00000000
00000000
00000000
,
00000010
00000001
00000000
00000001
00001000
00000000
00000001
00000100
,
00001000
00000000
00010000
01000000
10000000
00000000
00010000
00000000
,
01000000
00100000
00000000
00010000
00001000
00000000
00000000
00000000
,
00000010
00000001
00000000
00000100
00001000
00000000
00000000
00000000
,
00010000
00000000
01000000
00000000
10000000
00100000
00000000
00010000
,
00001000
00000000
00011000
00000000
00010000
00000010
00000100
00000000
,
00000001
00000000
00000010
00000000
00000001
00000010
00000000
00001000
,
00010000
00000000
00100000
00000000
10000000
00100000
00000000
10000000
,
01000000
00000000
00010000
00001000
00000000
00000010
00000001
00000010
,
00000001
00000000
00001000
00000000
00001001
00000000
00000010
00010000
,
00002000
00000000
00000000
00103000
00000000
01000000
10000000
01000000
,
00100000
00000000
00001000
00000000
00010000
00000100
00000000
00000000
,
00000010
00000001
00000010
00000100
00000000
00010000
00000000
00001000
,
01000000
00000000
01100000
00000000
00100000
10000000
00000000
00000000
,
10000000
01000000
00000000
00010000
00001000
00000000
00000000
00000010
,
00000001
00001001
00000110
00000000
,
00000001
00000100
00000000
00001000
00010000
00000000
00000000
00100000
,
10000000
10010000
01100000
00000000
,
01000000
00100000
00000000
00010000
00001000
00000000
00000000
00000010
,
00000001
00001001
00000110
00000000
,
00000001
00000000
00000010
00000000
00001000
00010000
00000000
01000000
,
10000000
00000000
10010000
00000000
01100000
00000000
10000000
01000000
,
00100000
00010000
00100000
00010000
00000000
01000000
00001000
00000000
,
00000000
00000000
00010100
00000000
00010010
00000000
00000000
00001000
,
00100000
00001000
01000000
00000000
00001000
00010000
00000100
00000010
,
00000000
00000001
00001000
00000000
00001001
00000000
00000010
00000000
,
00000200
00000000
00000000
00001300
00000000
00000000
00010000
00000000
,
02000000
00000000
00000000
13000000
00000000
00000000
00100000
00000000
,
00020000
00000000
00000000
00031000
00000000
00000000
00000010
00000000
,
00002000
00000000
00000000
00013000
00000000
01000000
10000000
01000000
,
10000000
00000000
00100000
00000000
10000000
00100000
00000000
00010000
,
00001000
00000000
00000010
00000000
00000001
00000010
00000000
00000001
,
00000010
00000000
00001000
00010000
00000000
00100000
10000000
00100000
,
10000000
00000000
00010000
00000000
10010000
00000000
01000000
00001000
,
00020000
00000000
00000000
00030100
00000000
00000010
00000001
00000010
,
00000100
00000000
00010000
00000000
00001000
00100000
00000000
00000000
,
01000000
10000000
01000000
00100000
00000000
00001000
00000000
00010000
,
00000010
00000000
00000110
00000000
00000100
00000001
00000000
00000000
,
00000002
00000023
00002030
00023000
,
00230000
20300000
30010000
10010000
,
20000000
30200000
00320000
00032000
,
00003020
00000032
00001003
00001001
,
00000001
00000100
00000001
00001000
00000000
00000001
00000100
00001000
,
00000000
00010000
00000000
01000000
00000000
10010000
00000000
10000000
,
00100000
00000000
01000000
00010000
01000000
00010000
00000000
00100000
,
00000000
00001000
00000000
00011000
00000000
00000000
00001000
00010000
,
00000020
00000000
00000000
00000130
00000000
00000010
00000100
00000010
,
00010000
00000000
00011000
00000000
00001000
00100000
00000000
00000000
,
01000000
10000000
01000000
00100000
00000000
00011000
00000000
00001000
,
00010000
00000000
00000010
00000000
00000100
00000001
00000000
00000000
,
00000100
00000000
00000100
00000000
00001000
00010000
01000000
00000000
,
10000000
00010000
10000000
00000000
00010000
00000000
10000000
00000000
,
01000000
00000000
01000000
00000000
00010000
00001000
00000100
00000000
,
00000001
00001000
00000001
00000000
00001000
00000000
00000001
00000000
,
00001000
00000010
00001000
00000020
00000000
00000000
00000000
00000000
,
00000000
00000000
00000000
00000000
,
00000000
00000000
00000000
00000030
;

//---------------dance-double - ----------------
#NOTES:
     dance-double:
     :
     Hard:
     12:
     0.515966,0.589124,0.273497,0.056308,0.108594,449.000000,415.000000,34.000000,7.000000,0.000000,0.000000,0.515966,0.589124,0.273497,0.056308,0.108594,449.000000,415.000000,34.000000,7.000000,0.000000,0.000000:
00000000
00000000
00000000
00000000
,
00000000
00000000
00000000
00000000
,
00000000
00000000
00000000
00000000
,
00000000
00000000
00000000
00000000
00000000
00000000
00000001
00000010
,
00000100
00001000
00000000
00000110
00000000
00000000
00000000
00000000
,
00000100
00001000
00010000
01000000
10000000
00000000
00100000
01000000
,
00100000
00010000
00001000
00000010
00000001
00001000
00000001
00001000
,
00000001
00000100
00001000
00010000
01000000
00000000
10000000
00010000
,
10000000
00100000
00010000
00001000
00000000
00000010
00000001
00000010
,
00000000
00000001
00000100
00000000
00000101
00000000
00000000
00000010
,
00000100
00001000
00010000
00000000
01000000
10000000
01000000
10000000
,
00000000
00000000
00100000
00000000
00010000
00000000
00001000
00000000
00000010
00000000
00000001
00001000
00000001
00000000
00001000
00000010
,
00001000
00000100
00000000
00000010
00001000
00010000
01000000
10000000
,
00100000
00000000
10000000
00000000
00000000
00000000
10000000
00000000
00010000
00000000
01000000
00100000
01000000
00000000
00100000
00000000
,
00010000
00000000
00001000
00000000
00000000
00000000
00000100
00000000
00000001
00000000
00001000
00000010
00001000
00000000
00000001
00000000
,
00000001
00000100
00001000
00010000
00100000
10000000
00010000
00000000
,
10000000
00000000
00010000
00000000
00000000
00000000
00010000
00000000
10000000
00000000
00100000
01000000
00100000
01000000
00100000
00000000
,
00010000
00001000
00000000
00000010
00000001
00000000
00000000
00000000
,
00000101
00000000
00001010
00000000
00000001
00000100
00000000
00001000
,
00010000
00000000
01000000
00000000
01000000
10000000
00010000
00100000
,
01000000
00100000
00110000
00000000
10000000
10000000
00000000
01000000
,
00010000
00000000
00011000
00000000
00001000
00000010
00000000
00000001
,
00001000
00000001
00000100
00001000
00010000
01000000
10000000
00010000
,
10010000
00000000
01100000
00000000
00100000
00100000
10000000
00010000
,
10020000
00000000
00000000
01030000
00000000
00100000
00010000
00001000
,
00000010
00000000
00001001
00000000
00000001
00000100
00000000
00000000
,
00000001
00000010
00000001
00000010
00000000
00001001
00000000
00000001
,
00000100
00001000
00010000
00000000
01000000
10000000
00000000
00000000
,
00100000
10000000
00100000
00000000
00000000
00000000
01000000
00001000
01000000
00000000
00000000
00000000
00000000
00000000
00001000
00010000
,
00001000
00010100
00010010
00000000
,
00000010
00000100
00000010
00000000
00000000
00000000
00000100
00000001
00000100
00000000
00000000
00000000
00000000
00000000
00000010
00010000
,
00000010
00010010
00011000
00000000
,
00001000
00010000
00001000
00000000
00000000
00000000
00001000
01000000
00001000
00000000
00000000
00000000
01000000
00100000
01000000
00000000
,
00000000
00000000
00000000
00000000
10100000
00000000
00000000
00000000
01010000
00000000
00000000
00000000
00000000
00000000
10000000
00010000
,
10000000
00000000
01000000
00010000
00001000
00000010
00000000
00000001
,
00001000
00000000
00001001
00000000
00000110
00000000
00000001
00000100
,
00000001
00001000
00000001
00000010
00000000
00001000
00010000
00100000
,
00000000
10000000
00010000
00000000
10010000
00000000
00000000
01000000
,
00100000
01000000
00010000
00000000
00100000
01000000
00010000
00001000
,
00000000
00000000
00000010
00000000
00000001
00000000
00000010
00000000
00000001
00000000
00001000
00000000
00000010
00000000
00000000
00000100
,
00000020
00000000
00010000
00000000
00010000
00000000
00010030
00001000
00000000
00000000
00001000
00000000
01000000
00000000
00000000
00000000
,
02000000
00000000
00100000
00000000
00100000
00000000
03100000
10000000
00000000
00000000
10000000
00000000
00010000
00000000
00000000
01000000
,
00002000
00000000
00010000
00000000
00010000
00000000
00013000
00000100
00000000
00000000
00000010
00000000
00000001
00001000
00000001
00000000
,
00000100
00000000
00001000
00000000
00010000
00000000
00001000
00000010
00000000
00000000
00000001
00001000
00000001
00001000
00000001
00000000
,
00000010
00000100
00001100
00000000
00000001
00000001
00000000
00000010
,
00001000
00000000
00011000
00000000
00010000
01000000
00000000
10000000
,
00010000
10000000
00100000
00010000
00001000
00000010
00000001
00001000
,
00001001
00000000
00000110
00000000
00000100
00000100
00000001
00001000
,
00002001
00000000
00000000
00003010
00000000
00000100
00001000
00010000
,
01000000
00000000
10010000
00000000
10000000
00100000
00000000
00000000
,
10000000
01000000
10000000
01000000
00000000
10010000
00000000
10000000
,
00100000
00000000
00010000
00000000
00001000
00000000
00000000
00000000
00000010
00000000
00000001
00000000
00000000
00000000
00000000
00000001
,
00000010
00001000
00000010
00001000
00000010
00001000
00000010
00001000
,
00000010
00001000
00000010
00001000
00000010
00001000
00000010
00001000
,
00010000
00100000
00010000
00100000
00010000
00100000
00010000
00100000
,
00010000
00100000
00010000
00100000
00010000
00100000
00010000
00100000
,
10000000
01000000
00010000
00001000
00000000
00010000
00000100
00000010
,
00000000
00000011
00000000
00001100
00000000
00010100
00000000
00010000
,
00001000
00001000
01000000
00100000
10000000
00010000
01000000
00100000
,
00010000
00001000
00000000
00001010
00000000
00000000
00000001
00001000
,
00002001
00000000
00000000
00003010
00000000
00000100
00001000
00010000
,
01000000
00000000
10000000
00000000
00010000
10000000
00000000
00000000
,
00100000
00010000
00001000
00000010
00000000
00000011
00000000
00000001
,
00001000
00000001
00000100
00000000
00001000
00010000
00000000
01000000
,
10000000
00010000
10000000
10000000
00010000
00100000
00010000
00010000
,
01000000
00000000
00100000
00000000
00010000
00000000
00001000
00000000
00000010
00000000
00000001
00000000
00001000
00000000
00000000
00000001
,
00001000
00000100
00001000
00001000
00000001
00000010
00000001
00000001
,
00000100
00001000
00010000
01000000
10000000
00000000
10010000
00000000
,
02000000
00100000
00100000
00100000
00000000
00000000
00000000
00000000
,
00000000
00000000
00000000
03000000
;
