#TITLE:Lift Us High;
#SUBTITLE:;
#ARTIST:BEMANI Sound Team “Sota Fujimori”;
#TITLETRANSLIT:;
#SUBTITLETRANSLIT:;
#ARTISTTRANSLIT:;
#GENRE:Trance;
#CREDIT:;
#BANNER:liftushigh-bn.png;
#BACKGROUND:liftushigh-bg.png;
#LYRICSPATH:;
#CDTITLE:;
#MUSIC:Lift Us High.mp3;
#OFFSET:-0.040000;
#SAMPLESTART:47.989990;
#SAMPLELENGTH:12.000000;
#SELECTABLE:YES;
#BPMS:0.000000=150.000000
;
#STOPS:
;
#BGCHANGES:;
#KEYSOUNDS:;
#ATTACKS:;

//---------------dance-single - ----------------
#NOTES:
     dance-single:
     :
     Challenge:
     15:
     0.767526,0.844308,0.257424,0.190992,0.900983,647.000000,616.000000,31.000000,23.000000,0.000000,0.000000,0.767526,0.844308,0.257424,0.190992,0.900983,647.000000,616.000000,31.000000,23.000000,0.000000,0.000000:
0000
0000
0000
0000
,
0000
0000
0000
0000
,
0000
0000
0000
0000
,
0000
0000
0000
0000
,
1000
0010
1000
0010
1000
0000
0001
0000
1000
0010
0000
0010
1000
0000
0001
0000
,
0010
0001
0010
0001
0010
0000
0100
0000
0010
0001
0000
0001
0010
0000
0001
0000
,
0100
0001
0000
0001
0010
0000
0100
0000
0010
0100
0000
0100
1000
0000
0010
0100
,
0001
1000
0001
1000
0001
0000
0100
0010
1000
0001
1000
0001
1000
0000
0010
0100
,
0001
0100
0001
0100
0001
0000
1000
0000
0001
0100
0000
0100
0001
0000
1000
0000
,
0010
1000
0010
1000
0010
0000
0100
0000
0010
1000
0000
1000
0010
0000
1000
0000
,
0010
1000
0000
1000
0100
0000
0010
0000
0100
0010
0000
0010
0001
0000
0100
0010
,
1000
0001
1000
0001
1000
0000
0010
0100
0001
1000
0001
1000
0001
0000
0000
0000
,
0020
0000
0000
0100
0000
0000
1000
0000
0000
0100
0000
0000
0031
0000
1000
0000
,
0200
0000
0000
0001
0000
0000
0010
0000
0000
0000
1300
0000
0001
0000
1000
0000
,
0001
0010
0001
1000
1001
0000
1000
0010
,
1000
0000
0001
0000
1001
0000
0000
0000
0100
0010
0100
0000
0110
0000
0000
0000
,
0002
0000
0000
0010
0000
0000
0100
0000
0000
0010
0000
0000
0103
0000
0010
0000
,
2000
0000
0000
0010
0000
0000
0100
0000
0000
0010
0000
0000
3100
0000
0001
0000
,
1000
0100
1000
0001
1001
0000
0001
0100
,
0001
0000
1000
0000
1001
0000
0100
0010
0100
0010
0100
0000
1001
0000
0000
0000
,
0001
1000
0010
0001
1000
0100
0001
1000
,
0000
0000
1001
0001
0100
0010
1000
0000
,
0010
0100
0010
0001
0011
0000
0010
0100
,
0010
1000
0001
0100
0010
1000
1001
0000
,
2000
3002
0103
1000
0001
0010
1000
0001
,
0000
0000
1001
1000
0100
0010
0001
0000
,
0100
0010
0100
1000
1100
0000
0100
0010
,
0100
0001
1000
0010
0100
0001
1001
0000
,
0001
0000
0010
0000
0001
0010
0100
0010
0001
0100
0010
1000
0001
1000
0001
0000
,
1000
0001
1000
0010
1000
0000
0010
0000
0100
0001
0100
0010
1000
0000
0000
0000
,
0001
0010
0001
0010
0100
1000
0100
1000
0000
0010
0000
0010
1000
0000
0001
0000
,
1000
0010
1000
0010
0100
0001
0100
0001
0000
0010
0000
0010
0001
0000
1000
0000
,
0001
0100
0000
0100
0001
0010
0001
0010
0000
0001
1000
0000
1000
0010
1000
0010
,
0000
1000
0001
0000
0001
0010
0001
0010
0001
0100
0010
1000
0001
1000
0000
0001
,
1000
0100
1000
0100
0010
0001
0010
0001
0000
0100
0000
0100
0001
0000
1000
0000
,
0001
0010
0001
0010
0100
1000
0100
1000
0000
0010
0000
0010
1000
0000
0001
0000
,
1000
0000
0010
0000
1000
0010
1000
0010
0000
1000
0001
0000
0001
0010
0001
0010
,
0000
0001
1000
0000
1000
0010
1000
0010
1000
0010
0100
0001
0010
0100
0000
0010
,
0200
0000
0000
0000
1300
0100
1000
0100
0000
0010
0000
0010
0001
0100
0001
0100
,
0001
0010
0001
0010
0100
1000
0100
1000
0000
0001
0000
0001
0100
0000
0010
0000
,
1000
0001
1000
0001
0100
0010
0100
0010
0000
1000
0000
1000
0001
0000
0100
0000
,
0010
1000
0010
1000
0001
0100
0001
0100
0000
0010
0000
0010
0100
0001
1000
0000
,
1000
0000
0100
0000
0010
0001
0010
0001
0000
0001
1000
0000
0010
1000
0010
1000
,
0010
0110
0000
0101
0000
1001
0000
1010
,
1000
0100
0010
0100
1000
0100
0010
0000
0000
0000
0100
0000
2000
0000
0002
0000
,
0000
0000
0000
3003
,
1000
0000
0010
1000
0000
1000
0100
0000
0010
0000
0001
0100
0000
0100
0010
0000
,
0100
0000
0001
0010
0000
0010
0001
0000
1000
0000
0010
1000
0000
1000
0010
0000
,
1000
0100
1000
0100
0000
0100
0010
0000
0001
0010
0001
0010
0000
0010
0100
0000
,
1000
0001
1000
0001
0000
0001
0010
0000
0001
1000
0001
1000
0001
0000
1000
0000
,
0001
0000
0100
0010
0000
0010
1000
0000
0100
0000
0010
0001
0000
0001
1000
0000
,
0010
0000
0100
0001
0000
0001
1000
0000
0010
0000
1000
0010
0000
0010
0100
0000
,
0010
1000
0010
1000
0000
1000
0001
0000
0100
0001
0100
0001
0000
0001
0010
0000
,
0100
1000
0100
1000
0000
1000
0001
0000
0100
0000
0000
0010
0000
0010
1000
0001
,
1000
0100
0010
0000
0001
0000
0001
0000
0100
0001
0100
0001
0010
0000
0000
0000
,
0010
0001
1000
0000
0000
0000
2002
0000
0000
0000
0000
0000
3003
0000
0001
0000
,
0100
0010
1000
0000
0000
0000
1001
0000
0000
0000
0010
0100
0010
0100
0020
0000
,
0000
0000
0000
2030
0000
0000
3100
0020
,
0000
0000
0031
0000
0100
0000
0201
0000
0000
0000
0310
0000
1000
0010
1000
0010
,
1000
0000
0001
0000
0100
0000
0220
0000
0000
0000
0000
0000
0330
0000
0100
0001
,
0100
0000
0001
0000
0000
0000
0011
0000
0000
0000
0100
0000
1000
0010
1000
0010
,
2000
0000
3001
0020
0000
0030
0001
0101
,
0000
0000
1010
0000
0000
0000
1001
0000
0000
0000
1000
0001
1000
0000
0000
0000
,
0010
0100
0010
0000
0100
0000
0000
0001
0000
0000
0010
0000
0100
0000
1000
0000
,
0010
0000
0000
1000
0000
0000
0001
0000
0000
0100
0000
0000
0010
0000
0001
0000
,
0010
0000
0000
0000
1000
0000
0001
1000
0000
0000
0001
0000
1000
0100
0010
0001
,
0100
0000
0000
1010
0000
0000
0100
0000
0000
0011
0000
0000
0100
0010
1000
0000
,
0002
0000
0000
0000
0103
0000
0000
0010
0000
0000
1000
0000
0100
0000
0010
0000
,
0001
0000
0000
0100
0000
0000
0010
0000
0000
0001
0000
0000
0010
0000
0000
0000
,
2000
0000
0000
0000
3001
0000
0100
0001
0000
0000
1000
0000
0001
0010
0100
1000
,
0001
0000
0000
1100
0000
0000
1000
0000
0000
0101
0000
0000
0001
1000
0001
0000
,
1000
0100
0000
0100
0010
0000
0010
0001
0000
0001
1000
0010
0100
0010
0100
0000
,
0110
0000
0000
0110
0000
0000
0220
0000
0000
0000
0330
0000
0000
0000
0000
0000
;

//---------------dance-single - ----------------
#NOTES:
     dance-single:
     :
     Hard:
     11:
     0.486377,0.542770,0.215904,0.307248,0.261576,410.000000,384.000000,26.000000,37.000000,0.000000,0.000000,0.486377,0.542770,0.215904,0.307248,0.261576,410.000000,384.000000,26.000000,37.000000,0.000000,0.000000:
0000
0000
0000
0000
,
0000
0000
0000
0000
,
0000
0000
0000
0000
,
0000
0000
0000
0000
,
1000
0000
1100
0000
0010
0001
0010
0002
,
0000
0000
0000
0000
0003
0000
0001
0000
0100
0000
0000
0010
0000
0000
2000
0000
,
0002
0000
3003
0000
0001
0010
0100
1000
,
0000
1010
0000
0010
0100
0000
0101
0000
,
0001
0000
0011
0000
0100
1000
0000
2000
,
0000
0000
0000
0000
3000
0000
1000
0000
0010
0000
0000
0100
0000
0000
0002
0000
,
2000
0000
3003
0000
1000
0100
0010
0001
,
0000
0011
0000
0010
0100
0000
1100
0000
,
0001
0000
0000
1000
0000
0000
0001
0000
0000
1000
0000
0000
0001
0000
0010
0000
,
0100
0000
0000
1000
0000
0000
0100
0000
0000
0000
1000
0000
0100
0000
0010
0000
,
0001
0100
0001
1000
1001
0000
0001
0100
,
0001
1000
1001
0000
0010
0010
0000
0000
,
1000
0000
0000
0100
0000
0000
1000
0000
0000
0100
0000
0000
0010
0000
0001
0000
,
0100
0000
0000
0001
0000
0000
0100
0000
0000
0001
0000
0000
1000
0000
0010
0000
,
0100
0001
0100
0010
0110
0000
0100
0001
,
0100
0010
0100
0001
1000
0001
2002
0000
,
3003
0001
0100
1000
0100
0001
0010
0200
,
0000
0300
0100
1000
0100
1000
0100
0000
,
1000
0010
0100
0001
1000
0000
0001
0100
,
0010
1000
0010
0100
0001
0010
0011
0000
,
1000
1000
0010
0001
0010
1000
0100
0020
,
0000
0030
0010
0001
0010
0001
0010
0000
,
0001
0100
0010
1000
0001
0000
1000
0010
,
0100
0001
0100
0010
1000
0100
2200
0000
,
0000
0000
0000
3300
,
0010
0001
0000
0001
0100
0010
1000
0000
,
0001
0000
0000
0001
0010
0000
0000
0010
0001
0000
0000
0001
1000
0000
0000
1000
,
0010
0000
0000
0010
0100
0000
0000
0100
0010
0000
0000
0010
1000
0000
0000
1000
,
0001
0000
0100
0010
0000
1000
0100
0010
,
0000
0011
0000
1200
0000
0000
0010
0310
,
1000
0000
0000
1000
0010
0000
0000
0010
1000
0000
0000
1000
0001
0000
0000
0001
,
0010
0000
0000
0010
0100
0000
0000
0100
0010
0000
0000
0010
0001
0000
0000
0001
,
0100
0010
1000
0100
0000
0010
0001
0200
,
0000
0000
0000
0000
0000
0000
0000
0000
0300
0000
0001
0000
0010
0100
0000
0100
,
2000
0000
0000
0000
3100
0000
0000
0100
1000
0000
0000
1000
0001
0000
0000
0001
,
0100
0000
0000
0100
0010
0000
0000
0010
0100
0000
0000
0100
0001
0000
0000
0001
,
1000
0000
0010
0100
0000
0001
0010
0100
,
0000
1100
0000
0021
0000
0000
0100
0130
,
0001
0000
0000
0001
0100
0000
0000
0100
0001
0000
0000
0001
1000
0000
0010
0000
,
0100
0100
0000
0110
0000
1001
0000
0100
,
0010
1000
0010
0100
0000
0001
0010
0200
,
0000
0000
0000
1300
,
1000
0000
0000
0010
0000
0000
0100
0000
0001
0000
0000
0010
0000
0000
0001
0000
,
0100
0000
0000
0010
0000
0000
1000
0000
0100
0000
0000
1000
0000
0000
0100
0000
,
1000
0000
0000
0010
0000
0000
0100
0000
0001
0000
0000
0010
0000
0000
0001
0000
,
0100
0000
0000
0010
0000
0000
1000
0000
0010
0000
0000
0100
0000
0000
0001
0000
,
0010
0000
0000
0010
0000
0000
0001
0000
0100
0000
0000
0100
0000
0000
0010
0000
,
1000
0000
0000
1000
0000
0000
0001
0000
0010
0000
0000
0010
0000
0000
0001
0000
,
0100
0000
0000
0100
0000
0000
0001
0000
0010
0000
0000
0010
0000
0000
0100
0000
,
1000
0000
0000
0000
0000
0000
0000
0000
1001
0000
0000
0001
0000
0000
1000
0000
,
0020
0000
0000
0130
,
0100
0001
0000
2002
0000
0000
3003
0010
,
1000
0100
0000
0110
0000
0100
1000
0002
,
0000
0000
0000
0023
0000
0000
0130
2000
,
0000
3010
0100
0002
0000
0003
0010
0100
,
1000
0001
0010
0002
0000
0000
0003
0100
,
0001
0010
0000
0011
0000
0010
0100
2000
,
0000
3010
0100
0002
0000
0013
0100
1000
,
0000
1010
0000
2002
0000
0000
3003
0000
,
0000
0000
0000
0000
0100
0000
0000
0001
0000
0000
0100
0000
0001
0000
0000
0000
,
1000
0000
0000
0010
0000
0000
1000
0000
0000
0010
0000
0000
0100
0000
0001
0000
,
0200
0000
0310
0200
0000
0301
1000
0001
,
1000
0000
0000
0100
0000
0000
1000
0000
0000
0100
0000
0000
0010
0000
0001
0000
,
0011
0000
0000
0000
0001
0000
0000
0100
0000
0000
0001
0000
0100
0000
0000
0000
,
0010
0000
0000
1000
0000
0000
0010
0000
0000
1000
0000
0000
0010
0000
0100
0000
,
0020
0000
0130
0020
0000
0130
0001
1000
,
0001
0000
0000
0001
0000
0000
1000
0000
0000
1000
0000
0000
0001
0000
1000
0000
,
0020
0000
0130
0020
0000
1030
0001
1000
,
0001
0000
0000
1000
0000
0000
2002
0000
0000
0000
3003
0000
0000
0000
0000
0000
;

//---------------dance-single - ----------------
#NOTES:
     dance-single:
     :
     Medium:
     7:
     0.366562,0.422154,0.240816,0.423504,0.024912,309.000000,280.000000,29.000000,51.000000,0.000000,0.000000,0.366562,0.422154,0.240816,0.423504,0.024912,309.000000,280.000000,29.000000,51.000000,0.000000,0.000000:
0000
0000
0000
0000
,
0000
0000
0000
0000
,
0000
0000
0000
0000
,
0000
0000
0000
0000
,
0000
0000
0100
0000
1000
0010
0000
0200
,
0000
0000
0000
0301
0020
0000
0030
0100
,
0020
0000
0030
0000
0001
1000
0001
0010
,
0000
0110
0000
0100
1000
0000
1100
0000
,
0000
0000
1000
0000
0001
0100
0000
0020
,
0000
0000
0000
1030
0200
0000
0300
0010
,
0200
0000
0300
0000
1000
0010
1000
0001
,
0000
0101
0000
0001
1000
0000
1001
0000
,
2000
0000
0000
0000
3000
1000
0100
0010
,
0002
0000
0000
0000
0003
0001
1000
0010
,
0100
0100
1010
0100
,
0100
0000
0011
0000
0001
1000
0000
0000
,
0002
0000
0000
0000
0003
0001
0010
0100
,
2000
0000
0000
0000
3000
1000
0001
0100
,
0010
0010
1100
0010
,
0010
0000
0101
0000
0001
1000
0000
0000
,
0000
0001
0010
0001
0100
0000
0010
0100
,
0000
0000
1000
0001
1000
0000
0001
0000
,
0100
0000
0010
0100
0010
0000
0100
0010
,
0100
0001
1000
0001
,
0000
0000
0010
0100
1000
0000
0100
0010
,
0000
0000
0001
1000
0001
0000
1000
0000
,
0010
0000
0100
0010
0100
0000
0010
0100
,
0010
1000
0001
1001
,
0000
0000
0000
0000
,
0000
0000
0000
0101
,
0001
1000
0000
2020
0000
3030
0000
1000
,
0010
0000
0010
0200
0000
0300
0001
0000
,
0010
0000
0001
0010
0000
0010
0100
1000
,
0000
0010
0000
2000
0000
3000
0001
0001
,
0000
0100
0000
0202
0000
0303
0000
0001
,
0010
0100
0000
0100
0000
1000
0000
1000
,
0010
0000
0010
0100
0000
0100
0001
0020
,
0000
0000
0030
0000
,
0001
1000
0000
0202
0000
0303
0000
0001
,
0100
0001
0100
0020
0000
0030
1000
0000
,
0100
0000
1000
0100
0000
0100
0010
0001
,
0000
0100
0000
0002
0000
0003
1000
1000
,
0000
0010
0000
1010
0000
0010
1000
0010
,
1000
2000
0000
3200
0000
0320
0000
0030
,
0001
0000
0100
0010
0000
0010
1000
0200
,
0000
0000
0300
0000
,
1000
0001
1000
0100
,
0001
1000
0001
0100
,
1000
0001
0010
0001
,
0001
0000
1000
0000
0010
0000
1000
0010
,
1000
0100
0011
0001
,
0100
0010
1010
1000
,
1002
0103
2001
3010
,
0110
0000
0000
0000
0000
0000
0000
0000
0010
0000
0000
0010
0000
0000
0010
0000
,
0000
0000
0000
1100
,
1000
0010
0000
0202
0000
0303
0000
0001
,
0010
0001
0000
2200
0000
3300
2000
0020
,
0000
3030
0000
0220
0000
0330
0200
0002
,
0300
0013
0100
2000
0000
3001
1000
0001
,
0100
0010
0000
0202
0000
0303
0000
0010
,
1000
0010
0000
1010
0000
1000
0001
2000
,
0000
3000
0001
0020
0000
0030
0001
0100
,
0000
1010
0000
1001
0000
1000
0001
0000
,
0000
0000
0200
0000
0300
0001
1000
0001
,
0020
0000
0030
0200
0000
0300
1000
0010
,
2000
0000
3000
0000
0000
1001
0000
0000
,
0100
0000
0000
0100
0000
0000
0010
0000
0000
0010
0000
0000
0100
0000
0000
0000
,
1001
0000
0002
0000
0000
0000
0013
0001
,
0200
0000
0000
0320
0000
0000
1030
0001
,
2000
0000
0000
3010
0000
0000
0100
0001
,
1000
0000
0000
1000
0000
0000
0001
0000
0000
0001
0000
0000
1000
0000
0000
0000
,
0001
0000
0000
0100
0010
0000
1000
0001
,
0100
0000
0000
0100
0000
0000
0200
0000
0000
0000
0300
0000
0000
0000
0000
0000
;

//---------------dance-single - ----------------
#NOTES:
     dance-single:
     :
     Easy:
     5:
     0.215904,0.270451,0.008304,0.282336,0.000000,182.000000,181.000000,1.000000,34.000000,0.000000,0.000000,0.215904,0.270451,0.008304,0.282336,0.000000,182.000000,181.000000,1.000000,34.000000,0.000000,0.000000:
0000
0000
0000
0000
,
0000
0000
0000
0000
,
0000
0000
0000
0000
,
0000
0000
0000
0000
,
0000
1000
0010
1000
,
0010
0000
0100
0010
,
0100
0000
0001
1000
,
0001
1000
0001
0000
,
0000
0010
0001
0010
,
0001
0000
0100
0010
,
0100
0000
0010
1000
,
0010
1000
0010
0000
,
2000
0000
0000
3001
,
0002
0000
0000
0103
,
0010
1000
0010
0010
,
0100
0010
0100
0000
,
0002
0000
0000
1003
,
2000
0000
0000
3001
,
0100
0001
0100
0100
,
0010
0100
0010
0000
,
0000
1000
0100
0010
,
0000
0001
1000
0001
,
0010
0001
0010
0001
,
1000
0001
1000
0000
,
0000
0001
0010
0100
,
0000
1000
0001
1000
,
0010
1000
0010
1000
,
0001
1000
0001
0000
,
0000
0000
0000
0000
,
0000
0000
0000
0100
,
0010
1000
0010
0000
,
0100
0001
0100
0000
,
0002
0000
0023
0000
,
0130
1000
0100
1000
,
0001
0010
0001
0000
,
1000
0100
1000
0100
,
0010
0000
0001
1000
,
0001
0000
0000
0000
,
2002
3003
0000
0000
,
0010
0100
0010
0000
,
2000
0000
3002
0000
,
1003
0100
1000
0100
,
0010
0001
0010
0000
,
0002
0000
0003
0000
,
1000
0010
1000
0010
,
0000
0000
0000
0000
,
0100
0100
0001
0001
,
0010
0010
0100
0100
,
1000
1000
0010
0010
,
0100
0100
0001
0001
,
1000
0010
1000
0010
,
0100
0001
0010
0001
,
0010
0100
1000
0010
,
0200
0000
0020
0000
,
0330
0000
0000
0000
,
2000
0000
0000
0020
0000
3030
0000
0000
,
0200
0000
0000
0002
0000
0303
0000
0002
,
0000
0003
0000
0020
0000
0030
0000
0200
,
0000
0300
0000
2000
0000
3000
0000
0000
,
0002
0000
0000
0020
0000
0033
0000
0000
,
2000
0000
0000
0020
0000
3030
0000
2000
,
0000
3000
0000
0020
0000
0030
0000
0200
,
0000
0000
0300
0002
0000
0003
0000
0000
,
0000
0001
0000
0010
,
0100
0000
1000
0001
,
1000
0000
0001
0000
,
0200
0000
0000
0310
,
0020
0030
0000
0000
,
1000
0001
1000
0000
,
0002
0000
0023
0000
,
0130
0000
0000
1000
,
0100
0000
0010
0000
,
0002
0000
0000
1003
0000
0000
0000
0000
;

//---------------dance-single - ----------------
#NOTES:
     dance-single:
     :
     Beginner:
     2:
     0.109138,0.150510,0.016608,0.058128,0.000000,92.000000,90.000000,2.000000,7.000000,0.000000,0.000000,0.109138,0.150510,0.016608,0.058128,0.000000,92.000000,90.000000,2.000000,7.000000,0.000000,0.000000:
0000
0000
0000
0000
,
0000
0000
0000
0000
,
0000
0000
0000
0000
,
0000
0000
0000
0000
,
0000
1000
0000
0000
,
0000
0000
0001
0000
,
0000
0000
0100
0000
,
0000
0000
0010
0000
,
0000
0100
0000
0000
,
0000
0000
0001
0000
,
0000
0000
1000
0000
,
0000
0000
0010
0000
,
0010
0000
0000
0100
,
0100
0000
0000
0001
,
0001
0000
0000
1000
,
0000
0000
0001
0000
,
0100
0000
0000
0010
,
0010
0000
0000
1000
,
1000
0000
0000
0001
,
0001
0000
0000
0000
,
0000
1000
0000
0000
,
0000
1000
0000
0000
,
0001
0000
0001
0000
,
0001
0000
0001
0000
,
0000
0100
0000
0000
,
0000
0100
0000
0000
,
0010
0000
0010
0000
,
0010
0000
0010
0000
,
0000
0000
0000
0000
,
0000
0000
0000
0000
,
1000
0000
0000
0000
,
0010
0000
0000
0000
,
0100
0000
0000
0000
,
0001
0000
0000
0100
,
0100
0000
0000
0000
,
0010
0000
0000
0000
,
1000
0000
0001
0001
,
0000
0000
0000
0000
,
0001
0001
0000
0000
,
0010
0000
0000
0000
,
0100
0000
0000
0000
,
1000
0000
0000
0010
,
0010
0000
0000
0000
,
0110
0000
0000
0000
,
1000
0000
0001
0000
,
0000
0000
0000
0000
,
2000
0000
3000
0000
,
0002
0000
0003
0000
,
0020
0000
0030
0000
,
0100
0000
0010
0000
,
0002
0000
0003
0000
,
2000
0000
3000
0000
,
0020
0000
0030
0000
,
0100
0000
0010
0000
,
0110
0000
0000
0000
,
0001
0000
0000
0000
,
0010
0000
0000
0001
,
0000
0010
0000
0001
,
0000
0010
0000
0000
,
0100
0000
0000
0000
,
1000
0000
0000
0100
,
0000
1000
0000
0100
,
0000
0000
0000
0000
,
0000
1000
0000
0000
,
0010
0000
0000
0000
,
0100
0100
0000
0000
,
0001
0000
0000
1000
,
1000
1000
0000
0000
,
0001
0000
0000
0000
,
0010
0000
0000
0000
,
0100
0000
0000
0010
,
0010
0000
0000
0000
,
0002
0000
0003
0000
;

//---------------dance-double - ----------------
#NOTES:
     dance-double:
     :
     Easy:
     5:
     0.186247,0.240401,0.008304,0.166080,0.000000,157.000000,156.000000,1.000000,20.000000,0.000000,0.000000,0.186247,0.240401,0.008304,0.166080,0.000000,157.000000,156.000000,1.000000,20.000000,0.000000,0.000000:
00000000
00000000
00000000
00000000
,
00000000
00000000
00000000
00000000
,
00000000
00000000
00000000
00000000
,
00000000
00000000
00000000
00000000
,
00000000
00010000
00100000
00010000
,
00000000
00000000
01000000
00001000
,
00010000
00000000
00001000
00010000
,
00000100
00000000
00000010
00000000
,
00000000
00000001
00000100
00000001
,
00000000
00000000
00001000
00000100
,
00010000
00000000
00001000
01000000
,
00010000
00000000
00100000
00000000
,
02000000
00000000
00000000
13000000
,
00020000
00000000
00000000
00130000
,
00001000
00001000
00001000
00000000
,
00010000
00010000
00010000
00000000
,
00000200
00000000
00000000
00001300
,
00000020
00000000
00000000
00000130
,
00000001
00000001
00000001
00000000
,
00001000
00001000
00001000
00000000
,
00000000
00000010
00010000
00000010
,
00000000
00010000
00001000
00010000
,
00001000
00001000
00001000
00000000
,
00100000
00100000
00100000
00000000
,
00000000
01000000
10000000
01000000
,
00000000
10000000
00010000
10000000
,
00010000
00010000
00010000
00000000
,
00100000
00100000
00100000
00000000
,
00002000
00000000
00000000
00000000
,
00023000
00000000
00000000
00030100
,
00001000
00000010
00000000
00000000
,
00000100
00000001
00000000
00000000
,
00000001
00001000
00000000
00000000
,
00000100
00010000
00000000
00001000
,
00100000
00010000
00000000
00000000
,
01000000
00100000
00000000
00000000
,
10000000
00010000
00000000
00100000
,
00000000
00000000
00000000
00000000
,
00002000
00013000
00000100
00000000
,
00001000
00000010
00000000
00000000
,
00000100
00000001
00000000
00000000
,
00000001
00001000
00000000
00000100
,
00010000
00001000
00000000
00000000
,
02000000
00000000
00000000
03000000
00000000
00000000
00000000
00000000
,
00100000
10000000
00010000
00200000
,
00000000
00000000
00000000
00310000
,
01000000
00000000
00001000
00000000
,
00010000
00000000
00000100
00000000
,
00001000
00000000
00000010
00000000
,
00000100
00000000
00000001
00000000
,
00000010
00000000
00000100
00000000
,
00010000
00000000
00001000
00000000
,
00100000
00000000
01000000
00000000
,
10000000
00000000
00010000
00000000
,
10010000
00000000
00000000
00000000
,
02000000
00000000
03000000
00000000
,
00020000
00130000
00000000
00000000
,
00002000
00000000
00023000
00000000
,
00030020
00000000
00000230
00000000
,
00000301
00001000
00000000
00000000
,
00000100
00000010
00000100
00000000
,
00020000
00000000
00000000
00000000
00002000
00000000
00000000
00033000
,
00000000
00000000
00000000
00100000
,
01000000
10000000
00000000
00000000
,
00010000
00100000
00010000
00000000
,
01000000
00000000
00001000
00000000
,
00020000
00000000
00030000
00000010
,
00000200
00000301
00000000
00000000
,
00001000
00000010
00001000
00000000
,
00000100
00000000
00010000
00000000
,
00001000
00001000
00100000
00100000
,
01000000
00000000
00000000
10000000
,
00020000
00000000
00000000
00030000
00000000
00000000
00000000
00000000
;

//---------------dance-double - ----------------
#NOTES:
     dance-double:
     :
     Medium:
     7:
     0.357072,0.361847,0.041520,0.390288,0.020760,301.000000,296.000000,5.000000,47.000000,0.000000,0.000000,0.357072,0.361847,0.041520,0.390288,0.020760,301.000000,296.000000,5.000000,47.000000,0.000000,0.000000:
00000000
00000000
00000000
00000000
,
00000000
00000000
00000000
00000000
,
00000000
00000000
00000000
00000000
,
00000000
00000000
00000000
00000000
,
00000000
00000000
10000000
00000000
00100000
01000000
00000000
00100000
,
00000000
00000000
00000000
00010000
00002000
00000000
00003000
00000010
,
00000002
00000000
00000003
00000000
00000001
00000100
00000001
00001000
,
00000000
00001001
00000000
00000010
00000100
00000000
00000110
00000000
,
00000000
00000000
00000001
00000000
00000100
00000010
00000000
00000200
,
00000000
00000300
00000000
00001000
00020000
00000000
00030000
01000000
,
20000000
00000000
30000000
00000000
00100000
01000000
00100000
10000000
,
00000000
00010000
00000000
10000000
00100000
00000000
01010000
00000000
,
20000000
00000000
30000000
20000000
00000000
30000000
01000000
00010000
,
00002000
00000000
00003000
00002000
00000000
00003000
00000100
00000001
,
00000100
00000000
00000010
00000000
00001000
00000000
00000100
00000001
,
00000100
00000000
00000010
00000000
00001000
00000001
00000000
00000000
,
00000002
00000000
00000003
00000002
00000000
00000003
00000100
00001000
,
00020000
00000000
00030000
00020000
00000000
00030000
01000000
10000000
,
01000000
00000000
10000000
00000000
00100000
00000000
01000000
10000000
,
01000000
00000000
10000000
00000000
00100000
01000000
00000000
00000000
,
00000000
00000000
00010000
10000000
00010000
01000000
00010000
10000000
,
00000000
10000000
10000000
10000000
,
01000000
00010000
00001000
00000000
00000100
00000000
00000001
00000100
,
00000001
00000000
00001000
00000000
00000001
00000100
00000001
00000000
,
00000000
00000000
00000001
00000010
00000001
00001000
00000001
00000010
,
00000000
00000001
00000001
00000001
,
00000100
00001000
00010000
00000000
01000000
00000000
10000000
00010000
,
10000000
00100000
00100000
00100000
,
00000000
00000000
00000000
00000000
,
00100000
01000000
00000000
00100000
01000000
00000000
00100000
00000000
,
10000000
00100000
00000000
00020000
00000000
00030000
00000000
00001000
,
00000010
00000000
00000010
00000001
00000000
00000000
00001001
00000000
,
00000010
00000000
00000001
00001000
00000000
00000001
00000010
00000001
,
00000000
00000010
00000000
00002000
00000000
00003000
00010000
00100000
,
00000000
10000000
00000000
00020000
00000000
00030000
00000000
01000000
,
00100000
00010000
00000000
00001000
00000000
00000010
00000000
00000001
,
00001000
00000000
00000010
00000100
00000000
00000010
00000100
00000020
,
00000000
00000000
00000000
00000030
00000000
00000000
00001000
00000000
,
00000002
00000103
00000000
00002000
00000000
00003000
00000000
00010000
,
01000000
00000000
01000000
10000000
00000000
00000000
10010000
00000000
,
01000000
00000000
10000000
00010000
00000000
10000000
00100000
10000000
,
00000000
00100000
00000000
00020000
00000000
00030000
00001000
00000010
,
00000000
00000001
00000000
00002000
00000000
00003000
00000010
00000100
,
00000010
00000100
00000000
00001000
00000000
00010000
00000000
01000000
,
10000000
00000000
01000000
00100000
00000000
01000000
00100000
02000000
,
00000000
00000000
00000000
03000000
00000000
00000000
00000000
00000000
,
00100000
00010000
00001000
00000010
,
00000001
00001000
00000001
00000000
00001000
00000001
00001000
00000000
,
00000001
00000100
00001000
00010000
,
01000000
10000000
01000000
00000000
10000000
00100000
10000000
00000000
,
00100000
00010000
00001000
00000010
,
00000001
00001000
00000010
00000000
00000100
00000010
00001000
00000000
,
00000001
00000100
00001000
00010000
,
01000000
00100000
01000000
00000000
10000000
00010000
10000000
00100000
,
02000000
00000000
00000000
03100000
,
10000000
00020000
00000000
00230000
00000000
00300000
00000000
01000000
,
00010000
00002000
00000000
00003200
00000000
00000300
00000001
00002000
,
00000000
00003000
00000010
00000200
00000000
00000300
00001000
00020000
,
00000000
00130000
10000000
00200000
00000000
00300000
10000000
00010000
,
01000000
00100000
00000000
00020000
00000000
00030000
00001000
00000010
,
00000001
00002000
00000000
00003020
00000000
00000130
00001000
00020000
,
00000000
00030000
01000000
20000000
00000000
30000000
00100000
02000000
,
00000000
03200000
00000000
00320000
00000000
00031000
00000010
00000000
,
00000001
00000000
00001000
00000000
00000001
00000000
00000000
00000001
00000000
00000000
00000001
00000000
00000000
00000000
00000000
00000000
,
00000100
00000000
00000000
00000100
00000000
00000000
00000100
00000000
00000000
00000000
00000000
00000000
00000010
00000000
00010000
00000000
,
00002000
00000000
00000000
02003000
00000000
00000000
03100000
10000000
,
00200000
00000000
00000000
00000000
00300000
00000000
10000000
01000000
,
00200000
00000000
00000000
00000000
01300000
00000000
00000000
01000000
00000000
00000000
01000000
00000000
00000000
00000000
00000000
00000000
,
00100000
00000000
00000000
00100000
00000000
00000000
00100000
00000000
00000000
00000000
00000000
00000000
00001000
00000000
00010000
00000000
,
00000200
00000000
00000000
00000320
00000000
00000000
00000031
00001000
,
00000002
00000000
00000000
00000000
00000003
00000000
00000100
00001000
,
00010000
00000000
01000000
00000000
00000000
00000000
10000000
00010000
,
10000000
00000000
00000000
10000000
00000000
00000000
20000000
00000000
00000000
00000000
30000000
00000000
00000000
00000000
00000000
00000000
;

//---------------dance-double - ----------------
#NOTES:
     dance-double:
     :
     Hard:
     11:
     0.486377,0.542770,0.307248,0.340464,0.215904,410.000000,373.000000,37.000000,41.000000,0.000000,0.000000,0.486377,0.542770,0.307248,0.340464,0.215904,410.000000,373.000000,37.000000,41.000000,0.000000,0.000000:
00000000
00000000
00000000
00000000
,
00000000
00000000
00000000
00000000
,
00000000
00000000
00000000
00000000
,
00000000
00000000
00000000
00000000
,
00000000
00000000
10100000
00000000
10000000
00100000
00010000
00002000
,
00000000
00000000
00000000
00000000
00003000
00000000
00000010
00000000
00000001
00000000
00000000
00000100
00000000
00000000
00000001
00000000
,
00002000
00000000
00003000
00000000
00000001
00000100
00001000
00010000
,
00000000
01010000
00000000
00010000
00001000
00000000
00000101
00000000
,
00000000
00000000
00000011
00000000
00000001
00000010
00001000
00020000
,
00000000
00000000
00030000
00000000
00000000
00000000
00100000
00000000
10000000
00000000
00000000
00010000
00000000
00000000
10000000
00000000
,
02000000
00000000
03000000
00000000
10000000
00100000
00010000
00001000
,
00000000
00001010
00000000
00001000
00010000
00000000
10100000
00000000
,
10000000
00000000
00000000
01000000
00000000
00000000
10000000
00000000
00000000
01000000
00000000
00000000
00010000
00000000
00001000
00000000
,
00000100
00000000
00000000
00000001
00000000
00000000
00000100
00000000
00000000
00000000
00000001
00000000
00001000
00000000
00000001
00000000
,
00000100
00000010
00001000
00000010
00000110
00000000
00000010
00000100
,
00000001
00000100
00000120
00000000
00001000
00001030
00001001
00000000
,
00000001
00000000
00000000
00000100
00000000
00000000
00000001
00000000
00000000
00000100
00000000
00000000
00001000
00000000
00010000
00000000
,
01000000
00000000
00000000
10000000
00000000
00000000
01000000
00000000
00000000
10000000
00000000
00000000
00100000
00000000
01000000
00000000
,
00010000
00100000
01000000
00100000
00110000
00000000
10000000
01000000
,
00100000
01000000
10000000
00010000
00100000
00010000
01010000
00000000
,
00000000
00100000
00010000
00001000
00000010
00000001
00000010
00000002
,
00000000
00000003
00000001
00000100
00000010
00001000
00001001
00000000
,
00000010
00000100
00000010
00001000
00001010
00000000
00000100
00000001
,
00000100
00000010
00010000
00001000
00010000
00000100
00000020
00000000
,
00000032
00000203
00001300
00010000
01000000
10000000
01000000
20000000
,
00000000
30000000
00100000
01000000
00010000
10000000
10010000
00000000
,
10000000
01000000
10000000
00100000
10100000
00000000
00010000
01000000
,
00010000
00100000
00001000
00010000
00001000
01000000
00200000
00000000
,
00300000
00000000
00000000
00000000
,
00010000
00001000
00000000
00000010
00000001
00000000
00000011
00000000
,
00000100
00000020
00000000
00002030
00000000
00003000
00000000
00000001
,
00000100
00000000
00001000
00020000
00000000
00030000
00011000
00000000
,
00101000
00000000
00000000
00000000
00100000
00000000
01000000
00000000
00000000
00000000
10000000
00000000
00010000
00000000
10000000
00100000
,
00000000
00000000
00100000
10000000
00000000
00000000
20000000
00000000
00000000
00000000
30000000
00000000
01000000
00000000
00100000
00000000
,
00000000
01000000
00010000
00002000
00000000
00003000
00000000
00000100
,
00000001
00000100
00000000
00001001
00000000
00010100
00000000
00001000
,
00010000
00100000
10000000
00010000
00000000
01000000
00100000
02200000
,
00000000
00000000
00000000
03300000
00000000
00000000
00000000
00000000
,
01100000
02000000
00000000
03020000
00000000
00030000
00000000
10000000
,
01000000
00010000
00001000
00010000
00000000
00000000
00011000
00000000
,
00010100
00000000
00000000
00000000
00000100
00000000
00000010
00000000
00000000
00000000
00000001
00000000
00001000
00000000
00000001
00000100
,
00000000
00000000
00000100
00000001
00000000
00000000
00000002
00000000
00000000
00000000
00000003
00000000
00000010
00000000
00000100
00000000
,
00000000
00000010
00001000
00020000
00000000
00130000
10000000
00100000
,
10000000
10000000
00000000
10010000
00000000
00101000
00000000
00010000
,
00001000
00000100
00000001
00001000
00000000
00000010
00000100
00000220
,
00000000
00000000
00000000
00000000
00000000
00000000
00000000
00000000
00000000
00000000
00000330
00000000
00000001
00001000
00000001
00000000
,
00000100
00000000
00000000
00000100
00000000
00000000
00001000
00000000
00000100
00000000
00000000
00001000
00000000
00000000
00010000
00000000
,
01000000
00000000
00000000
01000000
00000000
00000000
10000000
00000000
01000000
00000000
00000000
10000000
00000000
00000000
00010000
00000000
,
00100000
00000000
00000000
00010000
00000000
00000000
01000000
00000000
00100000
00000000
00000000
00010000
00000000
00000000
00001000
00000000
,
00000010
00000000
00000000
00000001
00000000
00000000
00001000
00000000
00000001
00000000
00000000
00000010
00000000
00000000
00001000
00000000
,
00010000
00000000
00000000
00100000
00000000
00000000
10000000
00000000
00100000
00000000
00000000
01000000
00000000
00000000
00100000
00000000
,
00010000
00000000
00000000
00001000
00000000
00000000
00000100
00000000
00000001
00000000
00000000
00000010
00000000
00000000
00000001
00000000
,
00000100
00000000
00000000
00001000
00000000
00000000
00010000
00000000
01000000
00000000
00000000
01000000
00000000
00000000
10000000
00000000
,
00100000
00000000
00000000
00100000
00000000
00000000
00010000
00000000
00001000
00000000
00000000
00010000
00000000
00000000
00001000
00010000
,
00000000
00000000
00000000
00000000
,
00000010
00000100
00000010
00000000
00000000
00000000
00000220
00000000
00000000
00000000
00000000
00000000
00000330
00000000
00000001
00000000
,
00000010
00001000
00000000
00022000
00000000
00033000
00100000
20000000
,
00000000
30000000
01000000
00200000
00000000
00300000
01000000
00020000
,
00000000
00000000
00031000
00000000
00000100
00000000
00000001
00000000
00000000
00000000
00000000
00000000
00001000
00000000
00000001
00001000
,
00000001
00000100
00000000
00020020
00000000
00030030
00000000
00001000
,
00010000
00000000
00100000
00000000
00000000
00000000
10100000
00000000
00000000
00000000
10000000
00000000
00010000
10000000
00020000
00000000
,
00000000
00030000
01000000
00200000
00000000
00300000
00010000
00001000
,
00000000
00000000
00001010
00000000
00000000
00000000
00000011
00000000
00000000
00000000
00000001
00001000
00000001
00000000
00000000
00000000
,
00000000
00000000
00000000
00000000
00000100
00000000
00000000
00001000
00000000
00000000
00000100
00000000
00001000
00000000
00010000
00000000
,
01000000
00000000
00000000
10000000
00000000
00000000
01000000
00000000
00000000
00100000
00000000
00000000
01000000
00000000
10000000
00000000
,
00020000
00000000
00000000
00000000
00130000
00000000
00010000
01000000
00000000
00000000
00001000
00000000
00010000
00000100
00010000
00000000
,
00000010
00000000
00000000
00000100
00000000
00000000
00000010
00000000
00000000
00000100
00000000
00000000
00000010
00000100
00000010
00000000
,
00000220
00000000
00000330
00000000
00000100
00000000
00000000
00001000
00000000
00000000
00000100
00000000
00001000
00000000
00010000
00000000
,
01000000
00000000
00000000
10000000
00000000
00000000
01000000
00000000
00000000
00100000
00000000
00000000
01000000
00000000
10000000
00000000
,
00020000
00000000
00000000
00000000
10030000
00000000
00100000
01000000
00000000
00000000
00100000
00000000
10000000
00010000
10000000
00000000
,
00100000
00000000
00000000
01000000
00000000
00000000
00100000
00000000
00000000
01000000
00000000
00000000
00100000
00000000
00010000
00000000
,
00001000
00000000
00000000
00000010
00000000
00000000
00000001
00000000
00000000
00000000
00000001
00000000
00001000
00000000
00000001
00000000
,
00001001
00000000
00000000
00000110
00000000
00000000
00002002
00000000
00000000
00000000
00003003
00000000
00000000
00000000
00000000
00000000
;

//---------------dance-double - ----------------
#NOTES:
     dance-double:
     :
     Challenge:
     15:
     0.778203,0.904616,0.390288,0.182688,0.838703,656.000000,609.000000,47.000000,22.000000,0.000000,0.000000,0.778203,0.904616,0.390288,0.182688,0.838703,656.000000,609.000000,47.000000,22.000000,0.000000,0.000000:
// measure 0
00000000
00000000
00000000
00000000
,  // measure 1
00000000
00000000
00000000
00000000
,  // measure 2
00000000
00000000
00000000
00000000
,  // measure 3
00000000
00000000
00000000
00000000
,  // measure 4
00000001
00000010
00000001
00000010
00000001
00000000
00001000
00000000
00000001
00000010
00000001
00000010
00000001
00000000
00001000
00000000
,  // measure 5
00000001
00000100
00000000
00001000
00000000
00010000
01000000
00000000
10000000
00000000
01000000
00100000
00010000
00000000
10000000
00000000
,  // measure 6
01000000
00100000
00000000
01000000
10000000
00000000
00010000
00000000
01000000
00100000
00000000
01000000
00010000
00000000
10000000
00000000
,  // measure 7
00010000
10000000
00010000
10000000
00010000
00000000
01000000
00100000
10000000
00010000
00000000
00000000
10010000
00000000
00000000
00000000
,  // measure 8
10000000
01000000
10000000
01000000
10000000
00000000
00010000
00000000
10000000
01000000
10000000
01000000
10000000
00000000
00010000
00000000
,  // measure 9
10000000
01000000
00000000
00010000
00000000
00001000
00000100
00000000
00000001
00000000
00001000
00000010
00000000
00000010
00000100
00000000
,  // measure 10
00000001
00000010
00000000
00000100
00000010
00000000
00000001
00000000
00001000
00000010
00000000
00000100
00000010
00000000
00001000
00000000
,  // measure 11
00000001
00001000
00000001
00001000
00000001
00000000
00000100
00000010
00001000
00000001
00000000
00000000
00001001
00000000
00000000
00000000
,  // measure 12
00000001
00000000
00000000
00000100
00000000
00000000
00000001
00000000
00000000
00000100
00000000
00000000
00001000
00000000
00010000
00000000
,  // measure 13
00001000
00000000
00000000
00010000
00000000
00000000
00100000
00000000
00000000
00000000
10000000
00000000
01000000
00000000
00100000
00000000
,  // measure 14
01000000
00010000
00001000
00000100
00000001
00000000
00000100
00001000
,  // measure 15
00010000
00100000
10000000
00000000
00100000
10000000
10100000
00000000
,  // measure 16
10000000
00000000
00000000
01000000
00000000
00000000
10000000
00000000
00000000
01000000
00000000
00000000
00010000
00000000
00001000
00000000
,  // measure 17
00010000
00000000
00000000
00001000
00000000
00000000
00000010
00000000
00000000
00000001
00000000
00000000
00000010
00000000
00001000
00000000
,  // measure 18
00010000
01000000
10000000
01000000
00010000
00000000
00010000
00001000
,  // measure 19
00000010
00000000
00000001
00000000
00000010
00000000
00000001
00001000
00000001
00001000
00000001
00000000
00001001
00000000
00000000
00000000
,  // measure 20
00000001
00000100
00000100
00000010
00000100
00001000
00010000
02000000
,  // measure 21
00000000
13000000
00100000
00010000
00100000
00010000
00001000
00000000
,  // measure 22
00000010
00000001
00000010
00000001
00000011
00000000
00000001
00000010
,  // measure 23
00001000
00010000
00100000
00010000
00001000
01000000
01100000
00000000
,  // measure 24
20000000
31000000
01000000
00100000
01000000
00010000
00001000
00000200
,  // measure 25
00000000
00000301
00000010
00001000
00000010
00001000
00010000
00000000
,  // measure 26
01000000
10000000
01000000
10000000
11000000
00000000
10000000
01000000
,  // measure 27
00010000
00001000
00000100
00001000
00010000
00000010
00000110
00000000
,  // measure 28
00000001
00000010
00000001
00000100
00000001
00000100
00000010
00001000
00000100
00010000
00000100
00010000
00001000
00100000
00010000
00000000
,  // measure 29
01000000
00100000
01000000
10000000
01000000
00000000
10010000
00000000
00100000
00010000
00100000
01000000
00100000
00000000
00000000
00000000
,  // measure 30
00010000
00100000
00010000
00100000
01000000
10000000
01000000
10000000
00000000
00010000
00000000
00010000
10000000
00000000
00010000
00000000
,  // measure 31
10000000
00100000
10000000
00100000
01000000
00010000
01000000
00010000
00000000
00100000
00000000
00100000
00001000
00000000
00010000
00000000
,  // measure 32
00001000
00000000
00000010
00000000
00000001
00001000
00000001
00000100
00000001
00000000
00001000
00000010
00001000
00000001
00001000
00000000
,  // measure 33
00000001
00000010
00000001
00001000
00000001
00000010
00000000
00000010
00000100
00001000
00000100
00000010
00000001
00001000
00000010
00000100
,  // measure 34
00000001
00001000
00000001
00001000
00000010
00000100
00000010
00000100
00000000
00000010
00000000
00000010
00001000
00000000
00000001
00000000
,  // measure 35
00001000
00000100
00001000
00000100
00000010
00000001
00000010
00000001
00000000
00000100
00000000
00000100
00000010
00000000
00001000
00000000
,  // measure 36
00010000
00000000
00100000
00000000
10000000
00100000
10000000
00010000
10000000
00000000
00010000
01000000
00010000
10000000
00010000
00000000
,  // measure 37
10000000
00100000
10000000
00010000
10000000
01000000
00000000
01000000
00100000
00010000
01000000
00100000
01000000
00001000
00010000
00000100
,  // measure 38
00002000
00000000
00000000
00000000
00003001
00000010
00000001
00000010
00000000
00000100
00000000
00000100
00001000
00000000
00001000
00000000
,  // measure 39
00000001
00001000
00000001
00001000
00000010
00000100
00000010
00000100
00000000
00000010
00000000
00000010
00010000
00000000
00001000
00000000
,  // measure 40
00010000
00000000
01000000
00000000
10000000
00010000
10000000
00010000
00000000
01000000
00000000
00100000
01000000
00000000
00010000
10000000
,  // measure 41
00100000
01000000
00100000
01000000
00010000
10000000
00010000
10000000
00000000
01000000
00100000
00000000
00010000
10000000
00010000
00000000
,  // measure 42
10000000
01000000
10000000
01000000
00100000
00001000
00100000
00001000
00010000
00000000
00000100
00000000
00001000
00000000
00000010
00000000
,  // measure 43
00001010
00000101
00000000
00001001
00000000
00010100
00000000
00011000
,  // measure 44
00001000
00100000
00010000
00100000
00001000
00100000
00010000
00000000
00000000
00000000
00010000
00000000
01000000
00000000
20200000
00000000
,  // measure 45
00000000
00000000
00000000
00000000
00000000
00300000
30010000
00000000
,  // measure 46
10000000
00000000
01000000
10000000
00000000
10000000
00100000
00000000
00010000
00000000
00001000
00000010
00000000
00000010
00000001
00000000
,  // measure 47
00000100
00000000
00000010
00000100
00000000
00000001
00000100
00000000
00000010
00000000
00000100
00001000
00000000
00010000
01000000
00000000
,  // measure 48
10000000
00000000
00010000
00100000
00000000
00010000
01000000
00000000
00100000
00000000
00010000
00001000
00000000
00000010
00000001
00000000
,  // measure 49
00000100
00000000
00000001
00001000
00000000
00000001
00000100
00000000
00001000
00000000
00010000
01000000
00000000
10000000
00010000
10000000
,  // measure 50
00010000
00000000
01000000
00100000
00000000
00100000
10000000
00000000
01000000
00000000
00010000
00001000
00000000
00001000
00000010
00000000
,  // measure 51
00000001
00000000
00000100
00000010
00000000
00000100
00001000
00000000
00010000
00000000
00100000
01000000
00000000
00100000
10000000
00000000
,  // measure 52
01000000
00000000
00010000
00001000
00000000
00010000
00100000
00000000
00010000
00000000
00001000
00000010
00000000
00000001
00000010
00000000
,  // measure 53
00000001
00000100
00000001
00000100
00000000
00000010
00001000
00000000
00001001
00000000
00000000
00001001
00000000
00000001
00001000
00000001
,  // measure 54
00000100
00000010
00010000
00000010
00000100
00000000
00011000
00000000
00100000
00010000
01000000
00010000
00200000
00000000
00000000
00000000
,  // measure 55
01300000
10000000
00010000
00000000
00000000
00000000
00202000
00000000
00000000
00000000
00303000
00000000
00000000
00000000
00001000
00010000
,  // measure 56
00000100
00000000
00001100
00000000
00000000
00000000
00001010
00000000
00000000
00000000
00000001
00000100
00000001
00000100
00000002
00000000
,  // measure 57
00000000
00000000
00000013
00002000
00000000
00000000
00013000
00200000
,  // measure 58
00000000
00000000
10300000
00000000
01000000
00000000
01020000
00000000
00000000
00000000
00030000
00000000
00001000
00000010
00001000
00000010
,  // measure 59
00000001
00000000
00000100
00000000
00000010
00000000
00012000
00000000
00000000
00000000
00000000
00000000
00000000
00000000
00103000
00010000
,  // measure 60
01000000
00000000
01010000
00000000
00000000
00000000
10100000
00000000
00000000
00000000
00010000
00000000
01000000
00100000
01000000
00100000
,  // measure 61
00020000
00000000
00031000
00000020
00000000
00000030
00000001
00001001
,  // measure 62
00000000
00000000
00010100
00000000
00000000
00000000
00012000
00000000
00000000
00000000
00103000
00010000
00100000
00000000
00000000
00000000
,  // measure 63
00010000
01000000
00010000
00000000
10000000
00000000
00100000
01000000
00000000
01000000
00100000
00000000
10000000
00000000
00010000
00000000
,  // measure 64
01010000
00000000
00000000
00101000
00000000
00000000
00010100
00000000
00000000
00001010
00000000
00000000
00000100
00000001
00000100
00000000
,  // measure 65
00001002
00000000
00000000
00000000
00000103
00000000
00001000
00010000
00000000
00000000
01000000
00000000
10000000
00010000
10000000
00000000
,  // measure 66
01010000
00000000
00000000
10100000
00000000
00000000
01010000
00000000
00000000
10100000
00000000
00000000
10000000
01000000
00010000
00000000
,  // measure 67
00002000
00000000
00000000
00000000
00003010
00000000
00000001
00001000
00000000
00001000
00000001
00000000
00000100
00000000
00000010
00000000
,  // measure 68
00001010
00000000
00000000
00010100
00000000
00000000
00101000
00000000
00000000
01010000
00000000
00000000
00100000
10000000
00100000
00000000
,  // measure 69
02010000
00000000
00000000
00000000
03100000
00000000
00010000
00001000
00000000
00000000
00000010
00000000
00000001
00001000
00000001
00000000
,  // measure 70
00000101
00000000
00000000
00001010
00000000
00000000
00000101
00000000
00000000
00001010
00000000
00000000
00000001
00001000
00000001
00000000
,  // measure 71
00000200
00000000
00000000
00000000
00001300
00000000
00010000
01000000
00000000
00000000
10000000
00000000
00100000
01000000
00100000
00000000
,  // measure 72
01100000
00000000
00000000
01000000
00000000
00000000
00200000
00000000
00000000
00000000
00300000
00000000
00000000
00000000
00000000
00000000
;
