#TITLE:Layle;
#SUBTITLE:;
#ARTIST:Omar Souleyman;
#TITLETRANSLIT:;
#SUBTITLETRANSLIT:;
#ARTISTTRANSLIT:;
#GENRE:Pop;
#CREDIT:;
#BANNER:layle-bn.png;
#BACKGROUND:layle-bg.png;
#LYRICSPATH:;
#CDTITLE:;
#MUSIC:Layle.mp3;
#OFFSET:-0.040000;
#SAMPLESTART:60.040001;
#SAMPLELENGTH:12.000000;
#SELECTABLE:YES;
#BPMS:0.000000=140.000000
;
#STOPS:
;
#BGCHANGES:;
#KEYSOUNDS:;
#ATTACKS:;

//---------------dance-single - ----------------
#NOTES:
     dance-single:
     :
     Challenge:
     16:
     0.923900,0.968670,0.170942,0.000000,1.215586,681.000000,663.000000,18.000000,0.000000,0.000000,0.000000,0.923900,0.968670,0.170942,0.000000,1.215586,681.000000,663.000000,18.000000,0.000000,0.000000,0.000000:
0000
0000
0000
0000
,
0000
0000
0000
0000
,
0000
0000
0000
0000
,
0001
0000
0000
0100
0000
0000
0010
0000
0000
1000
0000
0000
0100
0000
0000
0010
0000
0000
0001
0000
0000
1000
0000
0000
0001
0000
1000
0000
0001
0000
0000
0000
0000
0000
0000
0000
0001
0000
0000
1000
0000
0000
0001
0000
0000
0000
0000
0000
,
1000
0100
0010
0001
0100
0010
1000
0001
1000
0001
0000
0001
1000
0001
1000
0000
,
0001
0100
0001
0000
0100
0000
0010
0000
0100
0000
0001
0100
0001
0000
0000
0000
,
0000
0001
0100
0000
0100
0010
1000
0000
,
1000
0100
1000
0000
0010
0000
0100
0000
0010
0000
1000
0100
1000
0000
0000
0000
,
0000
0000
1000
0000
0100
0000
0000
0000
0100
0000
0000
0010
0000
0000
0001
0000
,
1001
0000
0001
0100
0001
0000
1000
0100
1000
0000
0001
0100
0001
1000
0100
1000
,
0001
0000
0000
0000
0000
0000
1000
0000
0000
0100
0000
0000
1000
0000
0001
0000
1000
0000
0001
0000
0000
0000
0000
0000
1000
0000
0000
0001
0000
0000
1000
0000
0000
0001
0000
0000
0100
0000
0000
0001
0000
0000
1000
0000
0000
0000
0000
0000
,
0001
0010
0001
0000
1000
0010
1000
0001
0010
0000
0001
1000
0100
1000
0001
0100
,
0001
0000
0000
0000
0000
0000
0100
0000
0000
0010
0000
0000
1000
0000
0001
0000
1000
0000
0001
0000
0000
0000
0000
0000
0100
0000
0000
0010
0000
0000
1000
0000
0000
0001
0000
0000
1000
0000
0000
0001
0000
0000
0100
0000
0000
0010
0000
0000
,
1000
0100
1000
0000
0010
0000
0100
0000
0010
0000
1000
0100
1000
0000
0000
0000
,
0000
1000
0010
0000
0010
0100
0001
0000
,
0001
0000
0100
0000
0010
0000
0100
0000
0001
0000
0100
0010
0100
0000
0000
0000
,
0000
0000
0001
0000
0100
0000
0000
0000
0100
0000
0000
0010
0000
0000
1000
0000
,
1001
0000
0001
0000
1000
0000
0001
0000
1000
0000
0001
0000
1000
0000
0001
0000
1000
0000
0001
0000
0000
0100
0000
0000
,
0100
0000
0010
1000
0100
0000
0010
0000
0010
0000
0100
0010
0001
0000
0100
0000
,
0100
0000
0010
1000
0100
0000
0010
0000
0010
0000
0100
0010
0001
0000
0100
0010
,
1000
0000
0001
0100
0001
0000
1001
0000
0010
0000
1000
0100
1000
0000
1001
0000
,
0110
0000
0001
0100
0010
0000
1010
0000
1000
0000
0100
0010
0001
0000
0001
0100
,
0010
0000
0000
0000
0000
0000
0010
0000
0000
1000
0000
0000
0100
0000
0000
0000
0000
0000
0100
0000
0010
0000
0100
0000
0010
0000
0000
0000
0000
0000
0010
0000
0000
0001
0000
0000
1000
0000
0000
0000
0000
0000
1000
0000
0000
0010
0000
0000
,
0100
0000
0000
0000
0000
0000
0100
0000
0000
0010
0000
0000
0001
0000
0000
0000
0000
0000
0001
0000
0000
0010
0000
0000
1000
0000
0000
0000
0000
0000
1000
0000
0001
0000
1000
0000
0001
0000
0000
0000
0000
0000
0001
0000
0000
0100
0000
0000
,
1000
0000
1000
0100
0001
0000
1000
0010
0001
0000
0001
0010
1000
0000
0001
0100
,
0010
0000
0001
0010
1000
0000
0100
0010
1000
0000
0010
0001
0100
0000
0010
0001
,
0010
0100
0010
1000
0010
0000
0000
0000
0100
0010
0100
0001
0100
0000
0000
0000
,
1000
0000
0000
0010
0000
0000
0100
0000
0000
0000
0000
0000
0001
0000
0010
0000
0001
0000
0010
0000
0000
0000
0000
0000
0001
0000
0000
0010
0000
0000
0100
0000
0000
0000
0000
0000
1000
0000
0010
0000
1000
0000
0010
0000
0000
0000
0000
0000
,
0010
0000
0000
0100
0000
0000
0001
0000
0000
0000
0000
0000
0010
0000
0100
0000
0010
0000
0100
0000
0000
0000
0000
0000
1000
0000
0000
0001
0000
0000
0100
0000
0000
0010
0000
0000
1000
0000
0001
0000
0100
0000
0010
0000
0000
0000
0000
0000
,
1000
0000
0000
0010
0000
0000
1000
0000
0000
0100
0000
0000
1000
0000
0010
0000
0100
0000
0001
0000
0000
0000
0000
0000
0001
0000
0000
0010
0000
0000
0001
0000
0000
0100
0000
0000
0001
0000
0010
0000
0100
0000
1000
0000
0000
0000
0000
0000
,
0010
0000
0000
0100
0000
0000
0010
0000
0000
1000
0000
0000
0010
0000
0100
0000
0001
0000
1000
0000
0000
0000
0000
0000
0100
0000
0000
0010
0000
0000
0100
0000
0000
1000
0000
0000
0100
0000
1000
0000
0001
0000
0010
0000
0000
0000
0000
0000
,
0010
0000
0000
0001
0000
0000
1000
0000
0000
0000
0000
0000
1000
0000
0010
0000
0100
0000
0010
0000
0000
0000
0000
0000
1000
0000
0000
0100
0000
0000
0010
0000
0000
0000
0000
0000
0001
0000
0000
0100
0000
0000
0001
0000
0000
1000
0000
0000
,
0001
0000
0000
0010
0000
0000
0001
0000
0000
0100
0000
0000
0001
0000
0010
0000
0100
0000
1000
0000
0000
0000
0000
0000
1000
0000
0000
0010
0000
0000
1000
0000
0100
0000
0010
0000
0001
0000
0000
0100
0000
0000
0001
0000
0000
0010
0000
0000
,
0001
0000
0000
1000
0000
0000
0100
0000
0000
0000
0000
0000
0010
0000
0100
0000
1000
0000
0001
0000
0000
0000
0000
0000
0100
0000
0000
0010
0000
0000
0100
0000
0000
0001
0000
0000
0010
0000
0100
0000
1000
0000
0001
0000
0000
0000
0000
0000
,
0100
0000
0001
0000
1000
0000
0010
0000
0000
0000
0000
0000
0100
0000
0000
0001
0000
0000
0010
0000
0000
0000
0000
0000
0100
0000
0000
1000
0000
0000
0100
0000
0000
1000
0000
0000
0100
0000
0000
0000
0000
0000
1000
0000
0000
0000
0000
0000
,
1100
0000
0000
0000
0000
0000
0010
0000
0000
0001
0000
0000
0100
0000
0000
0000
0000
0000
0100
0000
0000
0010
0000
0000
1000
0000
0000
0000
0000
0000
1000
0000
0000
0100
0000
0000
0010
0000
0001
0000
0100
0000
0010
0000
1000
0000
0001
0000
,
0100
0000
0000
0000
0000
0000
0100
0000
0000
0010
0000
0000
0100
0000
0000
0000
0000
0000
0100
0000
0010
0000
0100
0000
0010
0000
0000
1000
0000
0000
0001
0000
0000
0000
0000
0000
1001
0000
0000
0000
0000
0000
0000
0000
0000
0000
0000
0000
,
0001
0000
0000
1000
0000
0000
0100
0000
0000
0000
0000
0000
0100
0000
1000
0000
0001
0000
0100
0000
0000
0000
0000
0000
0100
0000
0001
0000
1000
0000
0100
0000
0000
0000
0000
0000
0100
0000
1000
0000
0001
0000
0100
0000
0010
0000
0100
0000
,
0010
0000
0010
1000
0001
0010
0001
1000
0100
0010
0100
1000
0010
0100
0001
0000
,
0001
0010
0001
0100
0001
0000
0001
0010
0001
0000
0001
0100
0001
0000
0000
0000
,
0000
0001
0100
0000
0100
0010
1000
0000
,
1000
0100
1000
0010
1000
0000
1000
0100
1000
0000
1000
0010
1000
0000
0000
0000
,
0000
0000
1000
0000
0100
0000
0000
0000
0100
0000
0000
0010
0000
0000
0001
0000
,
1001
0000
0000
0000
0000
0000
1000
0000
0000
0100
0000
0000
1000
0000
0000
0000
0000
0000
0001
0000
0000
0100
0000
0000
0001
0000
0000
0000
0000
0000
1000
0000
0000
0100
0000
0000
1000
0000
0000
0000
0000
0000
0010
0000
0100
0000
0001
0000
,
1000
0000
0000
0000
0000
0000
1000
0000
0001
0000
0100
0000
0010
0000
0000
0000
0000
0000
0010
0000
0000
0100
0000
0000
0010
0000
0000
1000
0000
0000
0001
0000
0000
0100
0000
0000
0010
0000
0000
0100
0000
0000
0001
0000
0000
0000
0000
0000
,
1000
0000
0001
0010
0001
0000
1000
0010
1000
0000
0001
0010
0001
0000
0100
0010
,
1000
0000
0000
0000
0000
0000
0100
0000
0000
0010
0000
0000
0001
0000
1000
0000
0001
0000
1000
0000
0000
0000
0000
0000
0010
0000
0000
0100
0000
0000
0010
0000
0000
1000
0000
0000
0010
0000
0000
0100
0000
0000
0001
0000
0000
1000
0000
0000
,
0010
0100
0010
1000
0010
0000
0010
0100
0010
0000
0010
1000
0010
0000
0000
0000
,
0000
0010
1000
0000
1000
0001
0100
0000
,
0100
0001
0100
0010
0100
0000
0100
0001
0100
0000
0100
0010
0100
0000
0000
0000
,
0000
0000
0100
0000
0010
0000
0000
0000
0010
0000
0000
1000
0000
0000
0001
0000
,
1001
0000
0001
0100
1000
0000
1000
0100
0001
0000
1000
0100
0001
0000
0001
0100
,
1000
0000
0000
0010
0000
0000
0100
0000
0000
0001
0000
0000
0010
0000
0100
0000
0010
0000
0100
0000
0000
0000
0000
0000
1001
0000
0000
0000
0000
0000
0010
0000
0000
0000
0000
0000
0101
0000
0000
0000
0000
0000
1000
0000
0000
0000
0000
0000
,
0010
0000
0000
1000
0000
0000
0100
0000
0000
0010
0000
0000
0100
0000
0000
1000
0000
0000
0010
0000
0000
0100
0000
0000
0001
0000
0000
0000
0000
0000
0010
0000
0001
0000
0010
0000
0001
0000
0000
0100
0000
0000
0010
0000
0000
1000
0000
0000
,
0100
0000
0000
0000
0000
0000
0100
0000
0000
1000
0000
0000
0010
0000
1000
0000
0010
0000
1000
0000
0000
0000
0000
0000
0010
0000
0000
0100
0000
0000
0001
0000
0000
1000
0000
0000
0001
0000
0000
0100
0000
0000
0010
0000
0000
0000
0000
0000
,
1001
0000
0000
0000
0000
0000
0100
0000
0000
0010
0000
0000
1000
0000
0000
0000
0000
0000
0010
0000
0000
0100
0000
0000
0001
0000
0000
0000
0000
0000
0100
0000
0000
0010
0000
0000
1000
0000
0000
0000
0000
0000
0001
0000
0010
0000
0100
0000
,
1000
0000
0000
0000
0000
0000
1000
0000
0000
0100
0000
0000
0010
0000
0001
0000
0010
0000
0001
0000
0000
0000
0000
0000
0010
0000
0000
0001
0000
0000
0100
0000
0000
0010
0000
0000
1000
0000
0000
0100
0000
0000
1000
0000
0000
0010
0000
0000
,
0100
0001
0010
0100
1000
0010
0100
0001
0010
0100
1000
0010
0100
0001
0010
0100
,
1000
0000
0001
1000
0001
0000
0100
0010
1000
0001
1000
0000
0000
0000
0000
0000
,
0101
0000
0000
1001
0000
0000
1100
0000
0000
1001
0000
0001
0100
0010
1000
0000
,
1001
0000
0000
0000
;

//---------------dance-single - ----------------
#NOTES:
     dance-single:
     :
     Hard:
     13:
     0.594226,0.626787,0.094968,0.028490,0.389367,438.000000,428.000000,10.000000,3.000000,0.000000,0.000000,0.594226,0.626787,0.094968,0.028490,0.389367,438.000000,428.000000,10.000000,3.000000,0.000000,0.000000:
0000
0000
0000
0000
,
0000
0000
0000
0000
,
0000
0000
0000
0000
,
0001
0010
0001
0010
0001
0000
1000
0000
0100
0000
0000
0000
0010
0100
1000
0000
,
1000
0000
0010
0000
0100
0000
0001
0000
0010
0000
0100
0010
0001
0000
0000
0000
,
1000
0010
1000
0000
0010
0000
1000
0000
0010
0000
1000
0010
1000
0000
0000
0000
,
0000
1000
0010
0000
0100
0001
0100
0000
,
0001
0100
0001
0000
0100
0000
0001
0000
0100
0000
0001
0100
0001
0000
0000
0000
,
0000
0000
0001
0000
0100
0000
0000
0000
0010
0000
0000
0010
0000
0000
1000
0000
,
0100
0000
0010
0001
0000
0000
0010
0100
0000
0000
0010
0001
0000
0000
0001
0100
,
0000
0000
0100
0000
0010
0000
0000
0010
1000
0000
0001
0000
1000
0000
0000
0000
,
0001
0000
0100
0000
0010
0000
0001
0000
0010
0000
1000
0000
0100
0000
1000
0010
,
0100
0000
0001
0100
0001
0000
0000
0000
0001
0000
1000
0000
0010
0000
0010
0000
,
1000
0100
1000
0000
0100
0000
1000
0000
0100
0000
1000
0100
1000
0000
0000
0000
,
0000
1000
0100
0000
0010
0001
0010
0000
,
0001
0000
0010
0000
0001
0000
0010
0000
0001
0000
0010
0001
0010
0000
0000
0000
,
0000
0000
0001
0000
0010
0000
0000
0000
0100
0000
0000
0100
0000
0000
1000
0000
,
0010
0100
0010
0100
0010
0100
0010
0100
0020
0000
0000
0000
,
0100
0100
0100
0100
,
0100
0100
0100
0130
,
0110
1000
0001
0000
0110
0001
1000
0000
,
1010
0000
0100
0000
0001
0000
0000
0000
0011
0000
0100
0000
1000
0000
0000
0010
,
0100
0000
0010
0000
1000
0000
0000
0100
0010
0000
0001
0000
0010
0000
0000
0100
,
1000
0000
0100
0000
0010
0000
0000
0001
0100
0000
0001
0000
0010
0000
0000
0001
,
0100
0000
0010
0000
1000
0000
0000
1000
0100
0000
0010
0000
0001
0000
0000
0100
,
0010
0000
0000
0100
0001
0000
0000
0001
1000
0000
0000
0100
1000
0000
0000
0000
,
0001
0010
0001
0010
0001
0000
0000
0000
1000
0100
1000
0100
1000
0000
0000
0000
,
0001
0100
0010
0000
1000
0000
0100
0000
1000
0000
0001
0000
0100
0000
0010
0000
,
1000
0100
0010
0000
0001
0000
0100
0000
0001
0000
0010
0000
0001
0000
1000
0000
,
0010
0010
0100
0001
0010
0010
0100
1000
,
0000
0010
1000
0000
0000
0000
0001
0000
0000
0100
0001
0000
0000
0000
1000
0000
,
0001
0010
0000
0100
1000
0010
0000
0010
,
0100
0001
0100
1000
0100
0010
0100
0001
,
0010
0100
0010
1000
0010
0100
0010
0001
,
1000
0100
0000
0010
0001
0100
0010
0000
,
1001
0000
1000
0001
0000
0000
0001
1000
0000
0000
1000
0001
0000
0000
0001
1000
,
0001
0000
0000
0100
0010
0000
0000
0000
0100
0000
0100
0000
0100
0000
0000
0000
,
0010
0000
1000
0000
0010
0000
0100
0000
0010
0000
0001
0000
0010
0000
1000
0001
,
1000
0000
0001
1000
0001
0000
0000
0000
0010
0000
0010
0000
0010
0000
0000
0000
,
0010
0000
0001
0010
0001
0000
0010
0000
0001
0000
0010
0001
0010
0000
0000
0000
,
0000
0010
0001
0000
1000
0100
1000
0000
,
0100
1000
0100
0000
1000
0000
0100
0000
1000
0000
0100
1000
0100
0000
0000
0000
,
0000
0000
1000
0000
0100
0000
0000
0000
0010
0000
0000
0010
0000
0000
0001
0000
,
0100
0000
0001
0010
0000
0000
0001
0100
0000
0000
0001
0010
0000
0000
0100
0000
,
1000
0000
0010
0100
0010
0000
0000
0000
0100
0000
0001
0000
0100
0000
0000
0000
,
0001
0000
0010
0000
1000
0000
0010
0000
0001
0000
1000
0000
0100
0000
0010
0100
,
0010
0000
0100
1000
0200
0000
0000
0000
1300
0000
0001
0000
1000
0000
0000
0000
,
0010
1000
0010
0000
1000
0000
0010
0000
1000
0000
0010
1000
0010
0000
0000
0000
,
0000
0010
1000
0000
0001
0100
0001
0000
,
0100
0001
0100
0000
0001
0000
0100
0000
0001
0000
0100
0001
0100
0000
0000
0000
,
0000
0000
0001
0000
0100
0000
0000
0000
0010
0000
0000
0010
0000
0000
1000
0000
,
0001
0000
1000
0010
0000
0000
1000
0100
0000
0000
1000
0010
0000
0000
0100
0000
,
0001
1000
0010
0000
1001
0010
1001
0010
,
0100
0001
0100
0000
0010
0000
1000
0000
0010
0000
1000
0100
1000
0000
0001
0100
,
0001
0000
0010
0100
0020
0000
0000
0000
0130
0000
1000
0000
0100
0000
0010
0000
,
0001
0000
0100
0001
0100
0000
0010
1000
0010
0000
0100
0001
0100
0000
0010
0000
,
1000
0001
0100
0000
0100
0010
0100
0000
,
0001
0010
0001
0000
0100
0000
0010
0000
1000
0000
0100
0000
0010
0000
0001
1000
,
0001
0100
0010
0000
0010
1000
0000
0000
,
1000
0000
0000
1100
0000
0000
0001
0000
0000
0101
0000
0100
0001
0000
1000
0000
,
1010
0000
0000
0000
;

//---------------dance-single - ----------------
#NOTES:
     dance-single:
     :
     Medium:
     8:
     0.398864,0.427354,0.104464,0.189935,0.000000,294.000000,283.000000,11.000000,20.000000,0.000000,0.000000,0.398864,0.427354,0.104464,0.189935,0.000000,294.000000,283.000000,11.000000,20.000000,0.000000,0.000000:
// measure 0
0000
0000
0000
0000
,  // measure 1
0000
0000
0000
0000
,  // measure 2
0000
0000
0000
0000
,  // measure 3
1000
0100
0010
0001
1000
0000
0001
0000
,  // measure 4
0001
0010
0100
1000
0001
0000
1000
0000
,  // measure 5
0001
0010
0001
0000
0010
0001
0010
0000
,  // measure 6
0000
0001
0100
0000
0010
1000
0010
0000
,  // measure 7
1000
0100
1000
0000
0100
1000
0100
0000
,  // measure 8
0000
1000
0010
0000
0200
0000
0000
0000
,  // measure 9
0301
0100
0001
0000
0001
0100
0001
0000
,  // measure 10
1000
0000
1100
0000
0001
0100
0001
0000
,  // measure 11
1000
0010
0100
0000
0001
0100
0001
0000
,  // measure 12
1000
0100
0010
0000
0001
1000
0001
0000
,  // measure 13
1000
0100
1000
0000
0100
1000
0100
0000
,  // measure 14
0000
1000
0010
0000
0100
0001
0100
0000
,  // measure 15
0001
0010
0001
0000
0010
0001
0010
0000
,  // measure 16
0000
0001
0100
0000
0020
0000
0000
0000
,  // measure 17
1030
1000
2000
0000
,  // measure 18
0000
0000
0000
0000
,  // measure 19
0000
0000
0000
0000
,  // measure 20
3001
0100
0010
0000
0000
0010
1000
0000
,  // measure 21
1000
0100
0010
0000
0000
0010
0001
0000
,  // measure 22
0100
0000
0110
0000
0010
1000
0001
0000
,  // measure 23
0100
0001
1000
0000
0010
1000
0001
0000
,  // measure 24
0100
0001
1000
0000
0010
1000
0100
0000
,  // measure 25
0010
0001
0100
0000
0010
0001
0100
0000
,  // measure 26
0010
0001
1000
0000
0010
0001
1000
0000
,  // measure 27
0001
0000
0101
0000
0010
1000
0100
1000
,  // measure 28
0010
0000
1100
0000
0010
0100
0001
0100
,  // measure 29
0020
0000
2030
0000
3001
0100
0010
1000
,  // measure 30
0001
1100
1000
0101
,  // measure 31
1000
0010
0000
0100
0001
0000
1000
0000
,  // measure 32
0001
0010
0100
0010
0001
0000
1000
0100
,  // measure 33
0010
0000
0100
0000
1000
0001
0100
0001
,  // measure 34
1000
0020
0000
0130
0001
0000
1000
0000
,  // measure 35
0000
0002
0000
2003
0000
3002
0000
1003
,  // measure 36
0100
0010
0001
0000
0001
1000
0001
0000
,  // measure 37
2000
3200
0320
0032
,  // measure 38
0103
0001
0010
0000
0100
1000
0010
0000
,  // measure 39
0100
0001
0100
0000
0001
0100
0001
0000
,  // measure 40
0000
0010
1000
0000
0100
0010
0100
0000
,  // measure 41
0010
0001
0010
0000
0001
0010
0001
0000
,  // measure 42
0000
0100
0010
0000
2000
0000
0000
0000
,  // measure 43
3000
0101
0000
1000
0000
1100
0000
0001
,  // measure 44
0010
0000
0100
0000
0010
0001
0010
0000
,  // measure 45
0001
0100
0010
1000
0010
0100
0001
0000
,  // measure 46
1000
0000
0110
0000
0001
1000
0001
0000
,  // measure 47
1000
0100
1000
0000
0100
1000
0100
0000
,  // measure 48
0000
1000
0001
0000
0100
0010
0100
0000
,  // measure 49
0001
0100
0001
0000
0100
0001
0100
0000
,  // measure 50
0000
0001
1000
0000
0200
0000
0000
0000
,  // measure 51
0310
0000
0000
0000
,  // measure 52
0000
0000
0000
0000
0001
1000
0001
1000
,  // measure 53
0001
0100
0010
0000
0010
1000
0100
0000
,  // measure 54
0100
0010
0001
0000
0001
1000
0001
0000
,  // measure 55
0000
1100
0000
0001
0000
0101
0000
1000
,  // measure 56
0010
0100
0010
0000
0100
0001
0100
0000
,  // measure 57
0002
0023
0230
2300
,  // measure 58
3010
0100
0001
0000
0010
0100
0000
0000
,  // measure 59
2000
0000
0000
0000
3000
0000
0010
0100
,  // measure 60
0001
0000
0000
0000
;

//---------------dance-single - ----------------
#NOTES:
     dance-single:
     :
     Easy:
     6:
     0.293043,0.313393,0.037987,0.246916,0.000000,216.000000,212.000000,4.000000,26.000000,0.000000,0.000000,0.293043,0.313393,0.037987,0.246916,0.000000,216.000000,212.000000,4.000000,26.000000,0.000000,0.000000:
0000
0000
0000
0000
,
0000
0000
0000
0000
,
0000
0000
0000
0000
,
1000
0100
1100
0010
,
0001
0001
0001
1000
,
0002
0100
0010
0103
,
0000
0100
0010
0000
0010
1000
0000
0000
,
2000
0100
0010
3100
,
0000
0100
0010
0000
0002
0000
0000
0000
,
0103
0001
0100
0010
,
1000
0001
0100
0100
,
0010
1000
0010
0100
,
0002
2003
3100
0010
,
0002
1000
0100
1003
,
0000
0001
1000
0000
1000
0100
0000
0000
,
2000
0001
0100
3001
,
0000
0001
1000
0000
0200
0000
0000
0000
,
0320
0000
0000
0000
,
0000
0000
0000
0000
,
0000
0000
0000
0030
,
0000
0001
0100
0000
0000
0010
1000
0000
,
0000
1000
0100
0000
0000
0010
0001
0000
,
0100
1000
0100
0001
,
1000
0010
0001
0010
,
1000
0100
0010
0001
,
0011
0001
0100
0010
,
2000
3002
0203
0320
,
1030
0100
0000
0000
0100
0000
1000
0000
,
0001
0100
0000
0000
0100
0000
0001
0000
,
1000
0010
0100
0001
,
0001
0010
0100
1000
,
0010
1000
0000
1000
0010
0000
0100
0000
,
0010
0100
0001
1000
,
0001
0010
0000
0010
0100
0000
1000
0000
,
0020
1030
0200
0301
,
0000
1000
0000
0100
0000
1000
0000
0100
,
0010
0001
1000
1000
,
0001
0010
0100
1000
,
0010
0100
0001
0001
,
0200
0010
1000
0310
,
0000
0010
1000
0000
0001
0010
0000
0000
,
0020
0100
0001
0130
,
0000
0010
0001
0000
2000
0000
0000
0000
,
3002
0103
0002
0103
,
0010
1000
0100
0100
,
2000
3010
2000
3010
,
0100
0001
1000
0001
,
0200
0001
1000
0301
,
0000
1000
0001
0000
0001
0010
0000
0000
,
0020
0001
1000
0031
,
0000
0001
0100
0000
0020
0000
0030
0000
,
1010
0000
0000
0000
,
0000
0000
0000
0000
1000
0001
1000
0001
,
1000
0100
0010
0001
,
0100
0100
0010
1000
,
1001
0100
0010
0100
,
0010
1000
0001
0001
,
0100
0001
0010
0100
,
1000
0000
1000
0000
0001
1000
0000
0000
,
0020
0000
0000
0000
0000
0000
1030
0100
,
0001
0000
0000
0000
;

//---------------dance-single - ----------------
#NOTES:
     dance-single:
     :
     Beginner:
     3:
     0.142451,0.199432,0.028490,0.018994,0.000000,105.000000,102.000000,3.000000,2.000000,0.000000,0.000000,0.142451,0.199432,0.028490,0.018994,0.000000,105.000000,102.000000,3.000000,2.000000,0.000000,0.000000:
0000
0000
0000
0000
,
0000
0000
0000
0000
,
0000
0000
0000
0000
,
0010
0000
0010
0000
,
0001
0000
0100
0000
,
0010
0000
0000
0000
,
0000
0010
0010
0000
,
0100
0000
0000
0000
,
0000
0100
0100
0000
,
0001
0001
0000
0000
,
1000
0000
0100
0000
,
1000
0000
0000
0000
,
0001
0000
0100
0000
,
0001
0000
0000
0000
,
0000
0001
0001
0000
,
1000
0000
0000
0000
,
0000
1000
1000
0000
,
2002
0000
0000
0000
,
0000
0000
0000
0000
,
0000
0000
3003
0000
,
0000
0100
0000
0100
,
0000
0100
0000
0100
,
0100
0000
0001
0000
,
1000
0000
0010
0000
,
1000
0000
0100
0000
,
0010
0000
0100
0000
,
0010
0000
0010
0000
,
0001
0000
0000
0000
,
0100
0000
0001
0000
,
0010
0000
0000
0000
,
0100
0000
1000
0000
,
0001
0000
0010
0000
,
0001
0000
1000
0000
,
1000
0000
0100
0000
,
1000
0000
0001
0000
,
0100
0100
0100
0100
,
0100
0000
0010
0000
,
1000
1000
1000
1000
,
1000
0000
0001
0000
,
0100
0000
0000
0000
,
0000
0100
0100
0000
,
0010
0000
0000
0000
,
0000
0010
0010
0000
,
1000
0000
0001
0000
,
1000
0000
0001
0000
,
0100
0100
0100
0000
,
0010
0000
1000
0000
,
0001
0000
0000
0000
,
0000
0001
0001
0000
,
1000
0000
0000
0000
,
0000
1000
1000
0000
,
1001
0000
0000
0000
,
0000
0000
0010
0010
,
0010
0000
0001
0000
,
1000
0000
0100
0000
,
0010
0010
0010
0000
,
0001
0000
1000
0000
,
1000
0000
0010
0000
,
0100
0000
0001
0000
,
0000
0000
0000
0000
,
0110
0000
0000
0000
;

//---------------dance-double - ----------------
#NOTES:
     dance-double:
     :
     Easy:
     6:
     0.299826,0.370374,0.018994,0.151948,0.000000,221.000000,219.000000,2.000000,16.000000,0.000000,0.000000,0.299826,0.370374,0.018994,0.151948,0.000000,221.000000,219.000000,2.000000,16.000000,0.000000,0.000000:
00000000
00000000
00000000
00000000
,
00000000
00000000
00000000
00000000
,
00000000
00000000
00000000
00000000
,
00100000
10000000
00010000
01000000
,
00001000
00010000
00000100
00001000
,
00000020
00000000
00000230
00000000
,
00000300
00000001
00000100
00000000
00000001
00000100
00000000
00000000
,
00001000
00010000
01000000
10000000
,
00000000
00100000
01000000
00000000
00200000
00000000
00000000
00000000
,
10300000
00010000
01000000
00010000
,
10000000
01000000
00100000
00110000
,
00010000
00000000
01000000
00000000
00001000
00010000
00000100
00000000
,
00001000
00000000
00000010
00000000
00000100
00000001
00001000
00000000
,
00000020
00000000
00000230
00000000
,
00000300
00000001
00000100
00000000
00000001
00000100
00000000
00000000
,
00001000
00010000
01000000
10000000
,
00000000
00100000
01000000
00000000
00200000
00000000
00000000
00300000
,
10010000
00000000
00000000
00000000
,
00000000
00000000
00000000
00000000
,
00000000
00000000
00000000
00000000
,
10000000
00100000
01000000
00000000
00010000
00100000
00001000
00000000
,
00010000
00000100
00001000
00000000
00000010
00000100
00000001
00000000
,
00000010
00000100
00001000
00000010
,
00000100
00000001
00001000
00000000
00000010
00001000
00000001
00000000
,
00000100
00001000
00010000
01000000
,
10000000
00010000
01000000
00000000
00010000
10000000
01000000
00000000
,
20000000
30010000
00020000
10030000
,
00100000
01000000
00000000
00100000
01000000
00000000
00100000
00000000
,
10000000
01000000
00010000
00001000
,
00000010
00000001
00000100
00000001
,
00000010
00000100
00000100
00001000
,
00000010
00000100
00000000
00000100
00000001
00000000
00000010
00000000
,
00001000
00010000
00100000
10000000
,
00010000
01000000
00000000
01000000
00010000
00000000
10000000
00000000
,
00100000
10000000
00000000
10000000
00100000
00000000
01000000
00000000
,
00000000
00010000
00000000
10000000
00000000
00010000
00000000
10000000
,
01000000
00010000
00001000
00000100
,
00000001
00000001
00001000
00000010
,
00010000
00001000
00100000
01000000
,
20000000
00000000
32000000
00000000
,
03000000
10000000
01000000
00000000
10000000
01000000
00000000
00000000
,
00010000
00001000
00000100
00000001
,
00000000
00001000
00000001
00000000
00002000
00000000
00000000
00000000
,
00003001
00000100
00000001
00000010
,
00000001
00000100
00001000
00010000
,
01000000
10000000
01000000
10000000
,
00100000
00100000
02000000
03100000
,
20000000
00000000
32000000
00000000
,
03000000
10000000
01000000
00000000
10000000
01000000
00000000
00000000
,
00010000
00001000
00000100
00000001
,
00000000
00001000
00000010
00000000
00000200
00000000
00000000
00000000
,
00000300
00000000
00000000
00000000
,
00000000
00000000
00000000
00000000
00000010
00000100
00000010
00000100
,
00000010
00001000
00000001
00000100
,
00000010
00010000
00001000
00000000
00010000
00001000
01000000
00000000
,
00100000
00100000
10000000
10000000
,
00010000
00000000
01000000
00000000
00010000
00100000
00010000
00000000
,
10000000
01000000
00010000
00001000
,
00000100
00000000
00000001
00000000
00001000
00000010
00000100
00000000
,
00000020
00000000
00000000
00000000
00000000
00000000
00010030
00001000
,
00010000
00000000
00000000
00000000
;

//---------------dance-double - ----------------
#NOTES:
     dance-double:
     :
     Medium:
     8:
     0.382584,0.398864,0.066477,0.075974,0.000000,282.000000,275.000000,7.000000,8.000000,0.000000,0.000000,0.382584,0.398864,0.066477,0.075974,0.000000,282.000000,275.000000,7.000000,8.000000,0.000000,0.000000:
00000000
00000000
00000000
00000000
,
00000000
00000000
00000000
00000000
,
00000000
00000000
00000000
00000000
,
10000000
00010000
01000000
00010000
10000000
00000000
01000000
00000000
,
00010000
00001000
00000100
00000000
00000001
00000000
00001000
00000000
,
00000010
00000100
00000010
00000000
00000100
00000010
00000100
00000000
,
00000000
00000001
00000100
00000000
00001000
00010000
01000000
00000000
,
10000000
00100000
10000000
00000000
00100000
10000000
00100000
00000000
,
00000000
10000000
01000000
00000000
00200000
00000000
00000000
00000000
,
00300000
00010000
00000000
01000000
00000000
00010000
00000000
01000000
,
00100000
00000000
00010000
00000000
00001000
00000100
00000001
00000000
,
00001000
00000000
00000010
00000000
00000100
00000001
00000010
00000000
,
00000100
00000000
00010000
00000000
00001000
00100000
00010000
00000000
,
01000000
00100000
01000000
00000000
00100000
01000000
00100000
00000000
,
00000000
10000000
01000000
00000000
00010000
00001000
00000100
00000000
,
00000001
00000010
00000001
00000000
00000010
00000001
00000010
00000000
,
00000000
00000001
00001000
00000000
00000020
00000000
00000000
00000030
,
00000202
00000000
00000000
00000000
,
00000000
00000000
00000000
00000000
,
00000000
00000000
00000000
00000303
,
00000001
00001000
00000100
00000000
00001000
00000100
00010000
00000000
,
00001000
01000000
00010000
00000000
01000000
00100000
10000000
00000000
,
00100000
01000000
00100000
00000000
01000000
00010000
01000000
00000000
,
00010000
00100000
01000000
10000000
,
00100000
00010000
00001000
00000000
00010000
00001000
00000010
00000000
,
00000001
00001000
00000101
00001000
,
00000001
00001000
00000001
00000000
00001000
00000001
00001000
00000000
,
00000010
00010000
00000000
00010000
00001000
00000000
00100000
00000000
,
01000000
10000000
00000000
10000000
00100000
00000000
01000000
00000000
,
00010000
00100000
00010000
00000000
10000000
00100000
10000000
00000000
,
01000000
00010000
00001000
00000100
,
00000001
00001000
00000000
00000010
00000100
00000000
00000001
00000000
,
00001000
00000100
00000010
00000001
00001000
00000000
00000001
00000000
,
00000100
00001000
00000000
00010000
01000000
00000000
10000000
00000000
,
00010000
01000000
00000000
00100000
10000000
00000000
10010000
00000000
,
00000000
10000000
00000000
01000000
00000000
10000000
00000000
01000000
,
00010000
00001000
00000100
00000000
00000001
00001000
00000001
00000000
,
00001000
00000010
00001000
00000000
00000001
00000100
00000001
00000000
,
00001000
00000010
00000101
00000010
,
00010000
00001000
00010000
00000000
00001000
00010000
00001000
00000000
,
00000000
00100000
01000000
00000000
01000000
10000000
00100000
00000000
,
00010000
00001000
00000010
00000000
00001000
00000010
00000001
00000000
,
00000000
00000100
00000010
00000000
00000200
00000000
00000000
00000000
,
00000300
00000001
00000000
00001000
00000000
00000101
00000000
00001000
,
00000001
00001000
00000001
00000000
00000100
00001000
00010000
00000000
,
01000000
10000000
01000000
00000000
10000000
01000000
10000000
00000000
,
00100000
01000000
00010000
00000000
00010000
01000000
00001000
00000000
,
00001000
00010000
00001000
00000000
00010000
00001000
00010000
00000000
,
00000000
00000010
00000100
00000000
00000100
00000001
00000010
00000000
,
00001000
00010000
00100000
00000000
00010000
00100000
10000000
00000000
,
00000000
00010000
10000000
00000000
00200000
00000000
00000000
00000000
,
01300000
00000000
00000000
00000000
,
00000000
00000000
00000000
00000000
01000000
00001000
01000000
00001000
,
00010000
00000100
00001000
00000000
00000010
00000100
00000001
00000000
,
00000010
00000100
00010000
00000000
00001000
00010000
00001000
00100000
,
01000000
10000000
00100000
00000000
01000000
00010000
10000000
00000000
,
00100000
01000000
00100000
00000000
01000000
00001000
01000000
00100000
,
00001000
00010000
00001000
00000000
00010000
00001000
00010000
00000000
,
00000010
00000010
00000100
00000100
,
00000220
00000000
00000000
00000330
,
00011000
00000000
00000000
00000000
;

//---------------dance-double - ----------------
#NOTES:
     dance-double:
     :
     Hard:
     13:
     0.605080,0.655277,0.123458,0.047484,0.417858,446.000000,433.000000,13.000000,5.000000,0.000000,0.000000,0.605080,0.655277,0.123458,0.047484,0.417858,446.000000,433.000000,13.000000,5.000000,0.000000,0.000000:
00000000
00000000
00000000
00000000
,
00000000
00000000
00000000
00000000
,
00000000
00000000
00000000
00000000
,
00000001
00000100
00000001
00000100
00000001
00000000
00001000
00000000
00000100
00000000
00000000
00000000
00001000
00000100
00001000
00000000
,
00000010
00000100
00001000
00010000
01000000
00000000
10000000
00010000
,
10000000
01000000
10000000
00000000
01000000
00000000
10000000
00000000
01000000
00000000
10000000
01000000
10000000
00000000
00000000
00000000
,
00000000
01000000
00010000
00000000
00001000
00000100
00000001
00000000
,
00000001
00000100
00000001
00000000
00000100
00000000
00000001
00000000
00000100
00000000
00000001
00000100
00000001
00000000
00000000
00000000
,
00000000
00000000
00000100
00000000
00001000
00000000
00000000
00000000
00010000
00000000
00000000
01000000
00000000
00000000
10000000
00000000
,
00100000
00000000
01000000
00010000
00000000
00000000
00010000
10000000
00000000
00000000
10000000
01000000
00000000
00000000
01000000
00000000
,
00010000
00001000
00000100
00000000
00000001
00001000
00001001
00000000
,
00001000
00000100
00001000
00000000
00000001
00000010
00000001
00000010
00000001
00000000
00001000
00000100
00000000
00000000
00000100
00010000
,
00000000
00010000
00001000
00000000
01000000
00100000
10000000
00100000
,
10000000
01000000
10000000
00000000
01000000
00000000
10000000
00000000
01000000
00000000
10000000
01000000
10000000
00000000
00000000
00000000
,
00000000
01000000
00010000
00000000
00001000
00000100
00000001
00000000
,
00000001
00000100
00000001
00000000
00000100
00000000
00000001
00000000
00000100
00000000
00000001
00000100
00000001
00000000
00000000
00000000
,
00000000
00000000
00000100
00000000
00001000
00000000
00000000
00000000
00010000
00000000
00000000
01000000
00000000
00000000
10000000
00000000
,
00100000
01000000
00100000
01000000
00100000
01000000
00200000
00000000
00000000
00000000
00000000
00000000
,
00000000
00000000
00000000
00000000
,
00000000
00000000
00000000
00000000
,
10300000
00010000
11000000
00000000
00010000
10000000
01010000
00000000
,
00100000
00001000
00011000
00000000
00000010
00010000
00011000
00000000
,
00000100
00000000
00001000
00000100
00001000
00000000
00000010
00000100
00000010
00000000
00000100
00000001
00000100
00000000
00000001
00000000
,
00001000
00000000
00000010
00000100
00000001
00000000
00000010
00000000
00001000
00000000
00010000
00000000
00100000
00000000
10000000
00010000
,
10000000
00000000
00100000
01000000
00100000
00000000
10000000
00000000
01000000
00000000
00010000
00000000
00001000
00000000
00000100
00000000
,
00000001
00000000
00001000
00000100
00001000
00000000
00000001
00000000
00001000
00000000
00000001
00000100
00000001
00000000
00001000
00000000
,
00000010
00000100
00000010
00000100
00000010
00000000
00000000
00000000
00010000
00001000
00010000
00001000
00010000
00000000
00000000
00000000
,
00001000
00000000
00101000
00000000
00000000
00000000
00100000
01000000
10000000
00000000
00100000
00000000
01000000
00000000
00010000
00000000
,
10000000
00000000
11000000
00000000
00000000
00000000
00100000
00001000
00010000
00000000
00000100
00000000
00001000
00000000
00000010
00000000
,
00000100
00000001
00001000
00000000
00000010
00000000
00000100
00000000
00000001
00001000
00000100
00000000
00001000
00000000
00000010
00000000
,
00000100
00000001
00000100
00000000
00000010
00000000
00010000
00000000
00001000
00010000
00001000
00000000
01000000
00000000
00100000
00000000
,
10000000
00010000
02000000
00000000
00000000
00000000
03100000
00000000
10000000
00000000
01000000
00000000
10000000
00000000
00100000
00000000
,
01000000
00010000
10000000
00000000
00010000
00000000
01000000
00000000
00100000
00000000
10000000
00000000
01000000
00000000
00010000
00000000
,
00001000
00000100
00000000
00000001
00000010
00000100
00001000
00000010
,
00000100
00001000
00000000
00010000
01000000
10000000
00100000
00000000
,
00000000
00000000
01000000
00010000
01000000
00000000
00100000
10000000
00100000
00000000
01000000
00010000
01000000
00000000
00100000
00000000
,
00010000
00001000
00000020
00000000
00000031
00001000
00001001
00000000
,
00000001
00000100
00000001
00000000
00001000
00000010
00001000
00000000
00000001
00000100
00000001
00000000
00001000
00000000
00000100
00000000
,
00000010
00001000
00020000
00000000
00130000
10000000
10100000
00000000
,
10000000
01000000
10000000
01000000
10000000
00000000
00100000
00000000
10000000
00000000
01000000
10000000
01000000
00000000
00000000
00000000
,
00000000
10000000
01000000
00000000
00010000
00001000
00000100
00000000
,
00000001
00000100
00000001
00000100
00000001
00000000
00000010
00000000
00000001
00000000
00000100
00000001
00000100
00000000
00000000
00000000
,
00000000
00000000
00000001
00000000
00000010
00000000
00000000
00000000
00001000
00000000
00000000
00010000
00000000
00000000
00100000
00000000
,
10000000
00000000
00010000
01000000
00000000
00000000
01000000
00010000
00000000
00000000
00010000
10000000
00000000
00000000
10000000
00000000
,
01000000
00010000
00001000
00000000
00000100
00000001
00000101
00000000
,
00001000
00000010
00000100
00000001
00000010
00000100
00001000
00000000
,
00000001
00000000
00001000
00000100
00001000
00000000
00000000
00000000
00000001
00000100
00000001
00000000
00001000
00000000
00000000
00000000
,
00000001
00000100
00000001
00000100
00000001
00000000
00000010
00000000
00000001
00000000
00000100
00000001
00000100
00000000
00000000
00000000
,
00000000
00000001
00000100
00000000
00001000
00010000
01000000
00000000
,
10000000
01000000
10000000
01000000
10000000
00000000
00100000
00000000
10000000
00000000
01000000
10000000
01000000
00000000
00000000
00000000
,
00000000
00000000
10000000
00000000
01000000
00000000
00000000
00000000
00010000
00000000
00000000
00001000
00000000
00000000
00000100
00000000
,
00000001
00000000
00000000
00000000
,
00000000
00000000
00000000
00000000
00001000
00000110
00001000
00000110
,
00001000
00000100
00010000
00000000
00001000
00000000
00100000
00000000
01000000
00000000
10000000
00010000
10000000
00000000
00010000
01000000
,
00010000
00000000
10000000
00100000
10000000
00000000
00000000
00000000
01000000
00000000
00010000
00000000
00001000
00000000
00000100
00000000
,
00000001
00000000
00001000
00000010
00001000
00000000
00000100
00000010
00000001
00000000
00000100
00000010
00001000
00000000
00000001
00000000
,
00000100
00000010
00000200
00000000
00001300
00010000
01000000
10000000
,
00100000
01000000
00010000
00000000
01000000
00100000
10000000
00000000
00100000
01000000
00010000
01000000
00100000
00000000
10000000
01000000
,
10000000
00000000
00010000
01000000
00010000
00000000
00000000
00000000
01000000
00100000
10000000
00000000
00000000
00000000
00000000
00000000
,
01010000
00000000
00000000
01000000
00000000
00000000
00001000
00000000
00000000
00010000
00000000
00000100
00001000
00000010
00000100
00000000
,
00000001
00000000
00000000
00000000
;

//---------------dance-double - ----------------
#NOTES:
     dance-double:
     :
     Challenge:
     16:
     0.900836,0.968670,0.123458,0.009497,1.163354,664.000000,651.000000,13.000000,1.000000,0.000000,0.000000,0.900836,0.968670,0.123458,0.009497,1.163354,664.000000,651.000000,13.000000,1.000000,0.000000,0.000000:
00000000
00000000
00000000
00000000
,
00000000
00000000
00000000
00000000
,
00000000
00000000
00000000
00000000
,
00000010
00000000
00000000
00000100
00000000
00000000
00000001
00000000
00000000
00001000
00000000
00000000
00000001
00000000
00000000
00000100
00000000
00000000
00000010
00000000
00000000
00000000
00000000
00000000
00001000
00000000
00000001
00000000
00001000
00000000
00000001
00000000
00000000
00000000
00000000
00000000
00000010
00000000
00000000
00000100
00000000
00000000
00000010
00000000
00000000
00000000
00000000
00000000
,
00000001
00000100
00000010
00001000
00000100
00000010
00000001
00000100
00000001
00000100
00000000
00000010
00001000
00000010
00001000
00000000
,
00000001
00000100
00000001
00000000
00000100
00000000
00000010
00000000
00000100
00000000
00000001
00000100
00000001
00000000
00000000
00000000
,
00000000
00000100
00001000
00000000
00010000
01000000
10000000
00000000
,
10000000
01000000
10000000
00000000
00100000
00000000
01000000
00000000
00100000
00000000
10000000
01000000
10000000
00000000
00000000
00000000
,
00000000
00000000
10000000
00000000
01000000
00000000
00000000
00000000
00010000
00000000
00000000
01000000
00000000
00000000
10000000
00000000
,
00010000
00000000
10000000
01000000
10000000
00000000
00010000
01000000
00010000
00000000
10000000
01000000
00100000
00001000
00010000
00000100
,
00001000
00000000
00000000
00000000
00000000
00000000
00000010
00000000
00000000
00000100
00000000
00000000
00000001
00000000
00001000
00000000
00000001
00000000
00001000
00000000
00000000
00000000
00000000
00000000
00000001
00000000
00000000
00000100
00000000
00000000
00000010
00000000
00000000
00001000
00000000
00000000
00000010
00000000
00000000
00000100
00000000
00000000
00000001
00000000
00000000
00000000
00000000
00000000
,
00001000
00000010
00001000
00000000
00000001
00000100
00000001
00001000
00000100
00000000
00001000
00000100
00010000
00000000
00010000
00001000
,
01000000
00000000
00000000
00000000
00000000
00000000
00100000
00000000
00000000
10000000
00000000
00000000
00010000
00000000
01000000
00000000
00010000
00000000
01000000
00000000
00000000
00000000
00000000
00000000
00100000
00000000
00000000
10000000
00000000
00000000
00010000
00000000
00000000
01000000
00000000
00000000
00010000
00000000
00000000
01000000
00000000
00000000
00100000
00000000
00000000
00000000
00000000
00000000
,
10000000
01000000
10000000
00000000
00100000
00000000
01000000
00000000
00100000
00000000
10000000
01000000
10000000
00000000
00000000
00000000
,
00000000
10000000
00100000
00000000
00010000
00001000
00000010
00000000
,
00000001
00000000
00000100
00000000
00000010
00000000
00000100
00000000
00000001
00000000
00000100
00000010
00000100
00000000
00000000
00000000
,
00000000
00000000
00001000
00000000
00010000
00000000
00000000
00000000
00001000
00000000
00000000
00010000
00000000
00000000
00001000
00000000
,
00010000
00001000
00010000
00001000
00010000
00001000
00010000
00001000
00010000
00002000
00000000
00000000
,
01003000
00000000
00010000
00100000
01000000
00000000
10000000
00000000
00100000
00000000
00010000
00001000
00000010
00000000
00000001
00000000
,
00001000
00000000
00000010
00000100
00000001
00000000
00001000
00000000
00000010
00000000
00000100
00000001
00001000
00000000
00000001
00000000
,
00001001
00000000
00000010
00000100
00000010
00000000
00010000
00000000
00011000
00000000
00001000
00100000
01000000
00000000
10000000
00000000
,
10010000
00000000
00100000
01000000
00100000
00000000
10100000
00000000
10000000
00000000
01000000
00100000
00010000
00000000
00010000
01000000
,
00100000
00000000
00000000
00000000
00000000
00000000
00100000
00000000
00000000
10000000
00000000
00000000
00010000
00000000
00000000
00000000
00000000
00000000
01000000
00000000
00100000
00000000
01000000
00000000
00100000
00000000
00000000
00000000
00000000
00000000
10000000
00000000
00000000
00010000
00000000
00000000
10000000
00000000
00000000
00000000
00000000
00000000
00100000
00000000
00000000
00010000
00000000
00000000
,
00001000
00000000
00000000
00000000
00000000
00000000
00000010
00000000
00000000
00000001
00000000
00000000
00000010
00000000
00000000
00000000
00000000
00000000
00000001
00000000
00000000
00000100
00000000
00000000
00000001
00000000
00000000
00000000
00000000
00000000
00001000
00000000
00000001
00000000
00001000
00000000
00000001
00000000
00000000
00000000
00000000
00000000
00001000
00000000
00000000
00000100
00000000
00000000
,
00000010
00000000
00000001
00000100
00000010
00000000
00000100
00001000
00010000
00000000
01000000
10000000
01000000
00000000
10000000
00100000
,
01000000
00000000
00010000
00100000
01000000
00000000
10000000
00010000
10000000
00000000
00010000
10000000
00010000
00000000
10000000
01000000
,
00100000
00010000
01000000
00100000
00010000
00000000
00001000
00000100
00000001
00000100
00000001
00000100
00000001
00000000
00000000
00000000
,
00001000
00000000
00000000
00000001
00000000
00000000
00001000
00000000
00000000
00000000
00000000
00000000
00000001
00000000
00000010
00000000
00000001
00000000
00000010
00000000
00000000
00000000
00000000
00000000
00000100
00000000
00000000
00001000
00000000
00000000
00000100
00000000
00000000
00000000
00000000
00000000
00001000
00000000
00000010
00000000
00001000
00000000
00000010
00000000
00000000
00000000
00000000
00000000
,
00000100
00000000
00000000
00000001
00000000
00000000
00000100
00000000
00000000
00000000
00000000
00000000
00000001
00000000
00001000
00000000
00000001
00000000
00001000
00000000
00000000
00000000
00000000
00000000
00000001
00000000
00000000
00000100
00000000
00000000
00000010
00000000
00000000
00001000
00000000
00000000
00000001
00000000
00000100
00000000
00000010
00000000
00001000
00000000
00000000
00000000
00000000
00000000
,
00000100
00000000
00000000
00010000
00000000
00000000
00001000
00000000
00000000
00010000
00000000
00000000
00001000
00000000
00010000
00000000
00001000
00000000
00010000
00000000
00000000
00000000
00000000
00000000
00001000
00000000
00000000
00100000
00000000
00000000
01000000
00000000
00000000
10000000
00000000
00000000
01000000
00000000
10000000
00000000
01000000
00000000
10000000
00000000
00000000
00000000
00000000
00000000
,
00100000
00000000
00000000
01000000
00000000
00000000
00010000
00000000
00000000
10000000
00000000
00000000
00010000
00000000
00100000
00000000
00010000
00000000
00100000
00000000
00000000
00000000
00000000
00000000
00010000
00000000
00000000
01000000
00000000
00000000
00010000
00000000
00000000
10000000
00000000
00000000
00100000
00000000
10000000
00000000
00010000
00000000
00100000
00000000
00000000
00000000
00000000
00000000
,
00100000
00000000
00000000
00001000
00000000
00000000
00010000
00000000
00000000
00000000
00000000
00000000
00001000
00000000
00010000
00000000
00001000
00000000
00010000
00000000
00000000
00000000
00000000
00000000
00001000
00000000
00000000
00010000
00000000
00000000
00000100
00000000
00000000
00000000
00000000
00000000
00001000
00000000
00000000
00000010
00000000
00000000
00000100
00000000
00000000
00000001
00000000
00000000
,
00000010
00000000
00000000
00000001
00000000
00000000
00000010
00000000
00000000
00000100
00000000
00000000
00001000
00000000
00000010
00000000
00000100
00000000
00000001
00000000
00000000
00000000
00000000
00000000
00000001
00000000
00000000
00001000
00000000
00000000
00000001
00000000
00000010
00000000
00000100
00000000
00001000
00000000
00000000
00000010
00000000
00000000
00000100
00000000
00000000
00000001
00000000
00000000
,
00001000
00000000
00000000
00000010
00000000
00000000
00000100
00000000
00000000
00000000
00000000
00000000
00000010
00000000
00000100
00000000
00000001
00000000
00001000
00000000
00000000
00000000
00000000
00000000
00000010
00000000
00000000
00000001
00000000
00000000
00001000
00000000
00000000
00000010
00000000
00000000
00000100
00000000
00000001
00000000
00001000
00000000
00000010
00000000
00000000
00000000
00000000
00000000
,
00000010
00000000
00001000
00000000
00000001
00000000
00000100
00000000
00000000
00000000
00000000
00000000
00000001
00000000
00000000
00000100
00000000
00000000
00001000
00000000
00000000
00000000
00000000
00000000
00010000
00000000
00000000
01000000
00000000
00000000
10000000
00000000
00000000
01000000
00000000
00000000
10000000
00000000
00000000
00000000
00000000
00000000
00000000
00000000
00000000
00000000
00000000
00000000
,
10010000
00000000
00000000
00000000
00000000
00000000
01000000
00000000
00000000
00010000
00000000
00000000
10000000
00000000
00000000
00000000
00000000
00000000
10000000
00000000
00000000
00010000
00000000
00000000
01000000
00000000
00000000
00000000
00000000
00000000
01000000
00000000
00000000
00100000
00000000
00000000
01000000
00000000
00010000
00000000
01000000
00000000
00010000
00000000
10000000
00000000
00100000
00000000
,
10000000
00000000
01000000
00100000
00001000
00000000
00010000
00000100
00001000
00000100
00000010
00000001
00001000
00000000
00000000
00000000
,
00000010
00000000
00000000
00000001
00000000
00000000
00001000
00000000
00000000
00000000
00000000
00000000
00001000
00000000
00000100
00000000
00000010
00000000
00000001
00000000
00000000
00000000
00000000
00000000
00000001
00000000
00000010
00000000
00000100
00000000
00001000
00000000
00000000
00000000
00000000
00000000
00001000
00000000
00000100
00000000
00000010
00000000
00000001
00000000
00000100
00000000
00000010
00000000
,
00001000
00000000
00000010
00000100
00000001
00001000
00000000
00001000
00000001
00000100
00000010
00001000
00000010
00000100
00000001
00000000
,
00001000
00000100
00001000
00000010
00001000
00000000
00000100
00000010
00000001
00000000
00000001
00000100
00000010
00000000
00000000
00000000
,
00000000
00000100
00001000
00000000
00010000
01000000
10000000
00000000
,
10000000
00100000
10000000
01000000
10000000
00000000
00100000
01000000
00010000
00000000
00010000
01000000
00100000
00000000
00000000
00000000
,
00000000
00000000
00010000
00000000
00001000
00000000
00000000
00000000
00000010
00000000
00000000
00000001
00000000
00000000
00000010
00000000
,
00000001
00000000
00000000
00000000
00000000
00000000
00001000
00000000
00000000
00000100
00000000
00000000
00001000
00000000
00000000
00000000
00000000
00000000
00000001
00000000
00000000
00000100
00000000
00000000
00000001
00000000
00000000
00000000
00000000
00000000
00001000
00000000
00000000
00000100
00000000
00000000
00001000
00000000
00000000
00000000
00000000
00000000
00000010
00000000
00000100
00000000
00000010
00000000
,
00000100
00000000
00000000
00000000
00000000
00000000
00000100
00000000
00000010
00000000
00000100
00000000
00000010
00000000
00000000
00000000
00000000
00000000
00001000
00000000
00000000
00000001
00000000
00000000
00000100
00000000
00000000
00000010
00000000
00000000
00000100
00000000
00000000
00000001
00000000
00000000
00001000
00000000
00000000
00000100
00000000
00000000
00010000
00000000
00000000
00000000
00000000
00000000
,
00011000
00000000
00001000
01000000
00100000
00000000
00100000
10000000
01000000
00000000
01000000
00100000
00010000
00000000
00010000
01000000
,
00100000
00000000
00000000
10000000
00000000
00000000
00010000
00000000
00000000
10000000
00000000
00000000
01000000
00000000
00100000
00000000
01000000
00000000
00100000
00000000
00000000
00000000
00000000
00000000
00100000
00000000
01000000
00000000
00100000
00000000
01000000
00000000
00000000
00000000
00000000
00000000
10000000
00000000
00000000
00010000
00000000
00000000
10000000
00000000
00000000
00000000
00000000
00000000
,
00010000
00100000
00010000
01000000
00010000
00000000
00100000
01000000
10000000
00000000
10000000
00100000
01000000
00000000
00000000
00000000
,
00000000
00100000
00010000
00000000
00001000
00000010
00000001
00000000
,
00000001
00000100
00000001
00000010
00000001
00000000
00000100
00000010
00001000
00000000
00001000
00000010
00000100
00000000
00000000
00000000
,
00000000
00000000
00001000
00000000
00010000
00000000
00000000
00000000
01000000
00000000
00000000
10000000
00000000
00000000
01000000
00000000
,
10000000
00000000
00010000
01000000
00010000
00000000
01000000
00100000
01000000
00000000
00100000
00010000
00100000
00000000
00010000
00001000
,
00000010
00000000
00000001
00001000
00000001
00000000
00001000
00000000
00000110
00000000
00000001
00000000
00000110
00000000
00001000
00000000
,
00000001
00000000
00000100
00000000
00000010
00000000
00001000
00000000
00000000
00000000
00000000
00000000
00001000
00000000
00000010
00000000
00000100
00000000
00000001
00000000
00000000
00000000
00000000
00000000
00000100
00000000
00000000
00000000
00000000
00000000
00001000
00000000
00000000
00010000
00000000
00000000
01000000
00000000
00000000
00000000
00000000
00000000
10000000
00000000
00000000
01000000
00000000
00000000
,
10000000
00000000
00000000
00000000
00000000
00000000
00100000
00000000
00000000
01000000
00000000
00000000
00010000
00000000
10000000
00000000
00010000
00000000
10000000
00000000
00000000
00000000
00000000
00000000
00100000
00000000
00000000
01000000
00000000
00000000
00010000
00000000
00000000
10000000
00000000
00000000
00100000
00000000
00000000
01000000
00000000
00000000
00010000
00000000
00000000
10000000
00000000
00000000
,
01000000
00000000
00100000
00010000
00100000
00000000
00010000
01000000
00010000
00000000
01000000
00100000
00010000
00000000
00001000
00000100
,
00000001
00000000
00000000
00000000
00000000
00000000
00001000
00000000
00000010
00000000
00000100
00000000
00000001
00000000
00000000
00000000
00000000
00000000
00000001
00000000
00000100
00000000
00000010
00000000
00001000
00000000
00000000
00000000
00000000
00000000
00000010
00000000
00000000
00000100
00000000
00000000
00000001
00000000
00000000
00001000
00000000
00000000
00000010
00000000
00000000
00000100
00000000
00000000
,
00000001
00000100
00000001
00000000
00001000
00000100
00001000
00000100
00001000
00000000
00000010
00000100
00000001
00000000
00000100
00001000
,
00010000
00000000
01000000
10000000
01000000
00000000
10000000
00100000
01000000
00010000
00100000
00000000
00000000
00000000
00000000
00000000
,
00110000
00000000
00000000
00101000
00000000
00000000
00011000
00000000
00000000
00010100
00000000
00000100
00001000
00000010
00000100
00000000
,
00000101
00000000
00000000
00000000
;
