#TITLE:Jet Black;
#SUBTITLE:;
#ARTIST:Channel Tres;
#TITLETRANSLIT:;
#SUBTITLETRANSLIT:;
#ARTISTTRANSLIT:;
#GENRE:House;
#CREDIT:;
#BANNER:jetblack-bn.png;
#BACKGROUND:jetblack-bg.png;
#LYRICSPATH:;
#CDTITLE:;
#MUSIC:Jet Black.mp3;
#OFFSET:-0.020000;
#SAMPLESTART:63.990002;
#SAMPLELENGTH:11.999990;
#SELECTABLE:YES;
#BPMS:0.000000=105.000000
;
#STOPS:
;
#BGCHANGES:;
#KEYSOUNDS:;
#ATTACKS:;

//---------------dance-single - ----------------
#NOTES:
     dance-single:
     :
     Hard:
     12:
     0.483155,0.454836,0.235276,0.039213,0.411732,345.000000,321.000000,24.000000,4.000000,0.000000,0.000000,0.483155,0.454836,0.235276,0.039213,0.411732,345.000000,321.000000,24.000000,4.000000,0.000000,0.000000:
0000
0000
0000
0000
,
0000
0000
0000
0000
,
0000
0000
0000
0000
,
0000
0000
0000
0000
,
0000
0000
0000
0010
0100
0010
0100
0010
0000
0000
1000
0001
1000
0000
0010
0000
,
0000
0000
0000
0100
0010
0000
0100
0010
0000
0100
0001
0000
1000
0000
0001
0000
,
0000
0000
0000
0010
0100
0000
0010
0100
0000
0000
1000
0000
0001
0000
1000
0000
,
0000
0000
0000
0010
0100
0010
0100
0000
0001
0000
1000
0000
0010
0000
0010
0000
,
0000
0000
0000
0100
0010
0100
0010
0100
0000
0000
0001
1000
0001
0000
0010
0000
,
0000
0000
0000
0000
0100
0000
1000
0010
0000
0100
0001
0000
1000
0001
1000
0000
,
0000
0000
0000
0001
0010
0000
0100
1000
0000
0000
0010
0000
0100
0000
1001
0000
,
0000
0000
0000
0000
1000
0010
1000
0000
0001
0000
0100
0000
0110
0000
1000
0000
,
1010
0000
0000
0000
0101
0000
0001
1000
0000
0000
0000
1000
0010
0000
0000
0000
,
0010
0000
0100
0010
0000
0100
0001
0000
0100
0000
0010
1000
0000
0010
0100
0000
,
0011
0000
0000
0000
1100
0000
0000
0000
1000
0010
0000
0010
0100
0000
0000
0000
,
0001
0000
1000
0100
0000
0010
0100
0000
0010
0000
0001
0100
0000
0010
0100
0000
,
0220
0330
1001
0000
1000
1000
0001
0001
,
0010
0000
0100
1000
0000
0100
0010
0000
0100
0000
0010
0001
0000
0010
0100
0000
,
1100
0000
0011
0000
1000
1000
0001
0001
,
0100
0000
0001
0010
0000
0100
0010
0000
0100
0000
1000
0010
0000
1000
0100
0000
,
1000
0000
0001
0010
1000
0000
0000
0000
0010
0000
0000
0000
0001
0000
1000
0010
,
0001
0000
0010
0210
1000
0000
0301
0000
,
1000
0000
0010
1000
0000
1000
0001
0000
0100
0000
0001
1000
0000
0000
0100
0000
,
0010
0000
0100
0000
1000
0100
0010
0000
0001
0000
0100
0010
0000
0000
0100
0010
,
1000
0000
0001
0100
1000
0000
0000
0000
0100
0000
0000
0000
0001
0000
1000
0100
,
0001
0000
0100
0120
1000
0000
0031
0000
,
1000
0000
0010
0100
0000
0100
0001
0000
0010
0000
0100
1000
0000
0000
0010
0000
,
0100
0000
0001
0000
1000
0100
0010
0000
0001
0000
1000
0001
0000
0000
0000
0000
,
0101
0000
1010
0000
1000
1000
0010
0010
,
1000
0000
0001
0100
0000
1000
0100
0000
0001
0000
0100
1000
0000
0100
0001
0000
,
1001
0000
0110
0000
0100
0100
0001
0001
,
1000
0000
0010
0001
0000
0010
1000
0000
0010
0000
0001
0010
0000
1000
0010
0000
,
1010
0000
0101
0000
0001
0001
0010
0010
,
0100
0000
1000
0010
0000
0001
0010
0000
1000
0000
0010
0001
0000
0010
1000
0000
,
1100
0000
0011
0000
0001
0001
1000
1000
,
0001
0000
0010
1000
0000
0010
0001
0000
0010
0000
1000
0010
0000
0001
0010
0000
,
1001
0000
1000
0100
0001
0000
0000
0000
0100
0000
0100
0000
0010
0000
0010
0000
,
1000
1000
0010
0010
0001
0001
1000
0001
,
0011
0000
0001
0100
1000
0000
0000
0010
0100
0000
0100
0000
0001
0000
0001
0000
,
1000
1000
0010
0010
0100
0100
0010
1000
,
1100
0000
0001
0100
1000
0000
0000
0000
0010
0000
0010
0000
1000
0000
1000
0000
,
0100
0100
0010
0010
0001
0001
1000
0010
,
0110
0000
1000
0010
0001
0000
0000
0000
0010
0100
0001
0100
0010
0000
0000
0000
,
0000
0000
0000
0010
1000
0000
0001
0100
0000
0000
0000
0100
0010
0000
1000
0000
,
0100
0010
0000
0010
0000
0000
0000
0000
0000
0000
0000
0000
0000
0000
0000
0000
;

//---------------dance-single - ----------------
#NOTES:
     dance-single:
     :
     Beginner:
     2:
     0.103633,0.151826,0.029409,0.009803,0.000000,74.000000,71.000000,3.000000,1.000000,0.000000,0.000000,0.103633,0.151826,0.029409,0.009803,0.000000,74.000000,71.000000,3.000000,1.000000,0.000000,0.000000:
0000
0000
0000
0000
,
0000
0000
0000
0000
,
0000
0000
0000
0000
,
0000
0000
0000
0000
,
0000
0010
0000
0100
,
0000
0010
0000
0100
,
0000
0010
0000
0001
,
0000
0010
0000
0100
,
0000
1000
0000
0010
,
0000
1000
0000
0010
,
0000
1000
0000
0100
,
0000
1000
0000
0010
,
0010
0010
0000
0000
,
0000
0000
0000
0100
,
0100
0100
0000
0000
,
0000
0000
0000
0001
,
0001
0001
0000
0000
,
0000
0000
0000
0100
,
0100
0100
0000
0000
,
0000
0000
0000
0010
,
0010
0000
0000
0000
,
0010
0000
0110
0000
,
0000
1000
1000
1000
,
0000
0000
1001
0000
,
0010
0010
0000
0000
,
0010
0000
0110
0000
,
0100
0000
0000
0000
,
0001
0000
0010
0000
,
0100
0100
0000
0000
,
0000
0000
0000
1000
,
1000
1000
0000
0000
,
0000
0000
0000
0010
,
0010
0010
0000
0000
,
0000
0000
0000
0100
,
0100
0100
0000
0000
,
0000
0000
0000
0001
,
0001
0001
0000
0000
,
1000
0000
0010
0000
,
0100
0100
0000
0000
,
0001
0000
0010
0000
,
0001
0001
0000
0000
,
1000
0000
0100
0000
,
0010
0010
0000
0000
,
0100
0000
1000
0000
,
0002
0003
0000
0000
;

//---------------dance-double - ----------------
#NOTES:
     dance-double:
     :
     Hard:
     11:
     0.414533,0.433177,0.215669,0.019606,0.284291,296.000000,274.000000,22.000000,2.000000,0.000000,0.000000,0.414533,0.433177,0.215669,0.019606,0.284291,296.000000,274.000000,22.000000,2.000000,0.000000,0.000000:
// measure 0
00000000
00000000
00000000
00000000
,  // measure 1
00000000
00000000
00000000
00000000
,  // measure 2
00000000
00000000
00000000
00000000
,  // measure 3
00000000
00000000
00000000
00000000
,  // measure 4
00000000
00000000
00000000
01000000
00100000
00000000
01000000
00100000
00000000
00000000
01000000
00000000
00001000
00000000
00010000
00000000
,  // measure 5
00000000
00000000
00000000
00000010
00000100
00000000
00000010
00000100
00000000
00000000
00000010
00000000
00010000
00000000
00001000
00000000
,  // measure 6
00000000
00000000
00000000
01000000
00010000
00000000
01000000
00010000
00000000
00000000
00100000
00000000
00001000
00000000
00010000
00000000
,  // measure 7
00000000
00000000
00000000
00000010
00001000
00000000
00000010
00000000
00000100
00000000
00001000
00000000
00010000
00000000
01000000
00000000
,  // measure 8
00000000
00000000
00000000
10000000
00100000
00000000
10000000
00100000
00000000
00000000
00010000
00000000
00001000
00000000
00000010
00000000
,  // measure 9
00000000
00000000
00000000
00000000
00000001
00000000
00000010
00000001
00000000
00000000
00000001
00000000
00001000
00000000
00000001
00000000
,  // measure 10
00000000
00000000
00000000
00000100
00000010
00000000
00000100
00000010
00000000
00000000
00000100
00000000
00001000
00000000
00010000
00000000
,  // measure 11
00000000
00000000
00100000
10000000
10000000
01000000
00100000
00010000
,  // measure 12
01010000
00101000
00000000
00000000
,  // measure 13
00000000
00000000
00001000
00000000
00000000
00001000
00000000
00000000
00010000
00000000
00000000
00010000
00000000
00000010
00000100
00000000
,  // measure 14
00000110
00010100
00000000
00000000
,  // measure 15
00000000
00000000
00010000
00000000
00000000
00010000
00000000
00000000
00001000
00000000
00000000
00001000
00000000
01000000
00100000
00000000
,  // measure 16
10100000
00000000
11000000
00000000
00100000
00100000
00001000
00001000
,  // measure 17
00010000
00000000
00000010
00000000
00000000
00000010
00000000
00000000
00000100
00000000
00000000
00000100
00000000
00000001
00001000
00000000
,  // measure 18
00001001
00000000
00010010
00000000
00010000
00010000
00001000
00001000
,  // measure 19
01000000
00000000
00100000
00000000
00000000
00100000
00000000
00000000
10000000
00000000
00000000
10000000
00000000
01000000
00100000
00000000
,  // measure 20
00010000
00000000
10000000
01000000
10000000
00000000
00000000
00000000
00000000
00000000
00000000
00000000
00100000
00000000
00001000
00010000
,  // measure 21
00001000
00000000
00010000
00000120
00001000
00000000
00000031
00000000
,  // measure 22
00001000
00000000
00000010
00000000
00000000
00000100
00000000
00000000
00001000
00000000
00000000
00010000
00000000
00000000
01000000
00000000
,  // measure 23
10000000
00000000
00010000
00000000
01000000
00000000
00100000
00000000
10000000
00000000
00010000
10000000
00000000
00000000
00000000
00000000
,  // measure 24
01000000
00000000
00100000
00001000
00100000
00000000
00000000
00000000
00000000
00000000
00000000
00000000
00001000
00000000
00010000
00000010
,  // measure 25
00010000
00000000
00001000
02100000
00010000
00000000
13000000
00000000
,  // measure 26
00010000
00000000
01000000
00000000
00000000
00100000
00000000
00000000
00010000
00000000
00000000
00001000
00000000
00000000
00000010
00000000
,  // measure 27
00000001
00000000
00001000
00000000
00000010
00000100
00000010
00000000
00000100
00000000
00000001
00001000
00000000
00000000
00000000
00000000
,  // measure 28
00001001
00000000
00010100
00000000
00010000
00010000
00001000
00001000
,  // measure 29
01000000
00000000
01000000
00100000
00000000
01000000
00100000
00000000
10000000
00000000
00010000
10000000
00000000
00010000
10000000
00000000
,  // measure 30
10010000
00000000
01010000
00000000
01000000
01000000
00100000
00100000
,  // measure 31
00010000
00000000
00010000
00001000
00000000
00010000
00001000
00000000
00010000
00000000
00000010
00001000
00000000
00000010
00001000
00000000
,  // measure 32
00001010
00000000
00000101
00000000
00000001
00000001
00000100
00000100
,  // measure 33
00001000
00000000
00001000
00010000
00000000
00001000
00010000
00000000
00001000
00000000
01000000
00100000
00000000
01000000
00100000
00000000
,  // measure 34
10100000
00000000
01010000
00000000
00100000
00100000
00001000
00001000
,  // measure 35
00010000
00000000
00001000
00010000
00000000
00001000
00010000
00000000
00000010
00000000
00000100
00000001
00000000
00000100
00000001
00000000
,  // measure 36
00001000
00000010
00010100
00000000
00010000
00001000
01000000
00100000
,  // measure 37
10000000
01000000
00100000
00010000
01000000
00100000
00010000
00001000
,  // measure 38
00010000
00000010
00001100
00000000
00000010
00000100
00000001
00001000
,  // measure 39
00000010
00000100
00001000
00010000
01000000
10000000
00100000
01000000
,  // measure 40
00100000
10000000
01010000
00000000
10000000
01000000
00010000
00001000
,  // measure 41
00100000
00001000
00010000
00000010
00000100
00000001
00001000
00000010
,  // measure 42
00010000
00000000
00001000
00000000
01010000
00000000
00000000
00000000
00100000
10000000
00100000
10000000
00100000
00000000
00000000
00000000
,  // measure 43
00000000
00000000
00000000
10000000
01000000
00000000
00100000
00010000
00000000
00000000
00000000
01000000
00001000
00000000
00010000
00000000
,  // measure 44
00000100
00001000
00000000
00001000
00000000
00000000
00000000
00000000
00000000
00000000
00000000
00000000
00000000
00000000
00000000
00000000
;

//---------------dance-single - ----------------
#NOTES:
     dance-single:
     :
     Easy:
     5:
     0.205866,0.238584,0.098032,0.205866,0.000000,147.000000,137.000000,10.000000,21.000000,0.000000,0.000000,0.205866,0.238584,0.098032,0.205866,0.000000,147.000000,137.000000,10.000000,21.000000,0.000000,0.000000:
0000
0000
0000
0000
,
0000
0000
0000
0000
,
0000
0000
0000
0000
,
0000
0000
0000
0000
,
0000
0010
1000
0001
,
0000
0100
0001
1000
,
0000
1000
0100
0010
,
0000
1000
0100
0001
,
0000
0010
0100
0001
,
0000
0100
0010
1000
,
0000
0001
0010
0100
,
0000
0001
0010
1000
,
0020
0032
0003
0000
,
0000
0100
0000
0000
0010
0000
1000
0000
,
0200
2300
3000
0000
,
0000
0010
0000
0000
0100
0000
0001
0000
,
0020
0032
0103
0010
,
0100
0010
0000
0000
1000
0000
0100
0000
,
2000
3020
1030
0001
,
1000
0001
0000
0000
0100
0000
0001
0000
,
1000
1010
0000
1000
,
1100
0000
0000
2002
0000
0000
3003
0000
,
0000
0001
0100
0010
,
1000
0100
0010
0001
,
0100
0101
0000
0010
,
0011
0000
0000
2002
0000
0000
3003
0000
,
0000
1000
0100
0010
,
0100
1000
0001
0001
,
2000
3200
0310
0100
,
0010
0100
0000
0000
1000
0000
0001
0000
,
0200
0302
0013
0001
,
0010
0001
0000
0000
0100
0000
0010
0000
,
2000
3200
1300
0010
,
1000
0010
0000
0000
0100
0000
0010
0000
,
0200
0302
1003
0001
,
1000
0001
0000
0000
0010
0000
0100
0000
,
0010
0110
0100
1000
,
0100
1000
0100
0010
,
0001
1001
1000
0010
,
1000
0010
0100
0010
,
0100
0110
0100
0001
,
0100
0001
0010
0001
,
1000
1001
0001
0010
,
0000
0100
1000
0000
,
0020
0030
0000
0000
;

//---------------dance-double - ----------------
#NOTES:
     dance-double:
     :
     Medium:
     7:
     0.284291,0.324883,0.107835,0.117638,0.127441,203.000000,192.000000,11.000000,12.000000,0.000000,0.000000,0.284291,0.324883,0.107835,0.117638,0.127441,203.000000,192.000000,11.000000,12.000000,0.000000,0.000000:
00000000
00000000
00000000
00000000
,
00000000
00000000
00000000
00000000
,
00000000
00000000
00000000
00000000
,
00000000
00000000
00000000
00000000
,
00000000
00000000
00000000
00000000
00000010
00000000
00000000
00000010
00000000
00000000
00000001
00000000
00000100
00000000
00001000
00000000
,
00000000
00000000
00000000
00000000
00010000
00000000
00000000
00010000
00000000
00000000
00001000
00000000
01000000
00000000
00100000
00000000
,
00000000
00000000
00000000
00000000
10000000
00000000
00000000
10000000
00000000
00000000
01000000
00000000
00010000
00000000
00001000
00000000
,
00000000
00000000
00010000
00010000
00010000
00000010
00000100
00000001
,
00000000
00000000
00000000
00000000
00000010
00000000
00000000
00000100
00000000
00000000
00000010
00000000
00000001
00000000
00000100
00000000
,
00000000
00000000
00000000
00000000
00000010
00000000
00000000
00010000
00000000
00000000
00000010
00000000
00001000
00000000
00000100
00000000
,
00000000
00000000
00000000
00000000
00010000
00000000
00000000
00001000
00000000
00000000
01000000
00000000
00100000
00000000
10000000
00000000
,
00000000
00000000
00100000
00010000
00001000
00000010
00000001
00001000
,
00000002
00002003
00003000
00000010
,
00000000
00000000
00000100
00000000
00000000
00000100
00000000
00000000
00000100
00000000
00000000
00000100
00000000
00000000
00000100
00000000
,
00000020
00020030
00030000
00000000
,
00000000
00000000
00001000
00000000
00000000
00001000
00000000
00000000
00001000
00000000
00000000
00001000
00000000
00000000
00001000
00000000
,
02000000
03200000
10300000
00010000
,
00100000
00000000
01000000
00000000
00000000
01000000
00000000
00000000
01000000
00000000
00000000
01000000
00000000
00000000
01000000
00000000
,
00200000
00302000
00013000
00000010
,
00000100
00000000
00000001
00000000
00000000
00000001
00000000
00000000
00000001
00000000
00000000
00000001
00000000
00000000
00000001
00000000
,
00001000
00000010
00000100
00000000
00000000
00000000
00001000
00010000
,
01000000
00000000
00000000
20020000
00000000
00000000
30030000
00000000
,
10000000
00000000
01000000
00000000
00000000
01000000
00000000
00000000
01000000
00000000
10000000
00000000
00000000
00000000
00010000
00000000
,
01000000
00001000
00010000
00000000
00000010
00010000
00000100
00000000
,
00010000
00001000
00100000
00000000
00000000
00000000
01000000
10000000
,
00010000
00000000
00000000
00202000
00000000
00000000
00303000
00000000
,
00000000
00000000
00010000
00000000
00000000
00000010
00000000
00000000
00000100
00000000
00000001
00000000
00001000
00000000
00000000
00000000
,
00000010
00000100
00001000
00010000
01000000
10000000
00010000
00000000
,
10010000
01100000
01000000
00001000
,
00010000
00000000
00000010
00000000
00000000
00000100
00000000
00000000
00000010
00000000
00000000
00000100
00000000
00000000
00000010
00000000
,
00000110
00001001
00000010
00010000
,
00001000
00000000
01000000
00000000
00000000
00100000
00000000
00000000
01000000
00000000
00000000
00100000
00000000
00000000
01000000
00000000
,
01100000
10010000
10000000
01000000
,
00100000
00000000
00001000
00000000
00000000
00010000
00000000
00000000
00001000
00000000
00000000
00010000
00000000
00000000
00001000
00000000
,
00011000
00010010
00000100
00000001
,
00001000
00000000
00000010
00000000
00000000
00000100
00000000
00000000
00000010
00000000
00000000
00000100
00000000
00000000
00000010
00000000
,
00000100
00000001
00001000
00000000
00000010
00000000
00000100
00000000
,
00001000
00010000
01000000
10000000
,
00100000
10000000
00010000
00000000
01000000
00000000
00100000
00000000
,
00010000
00001000
00000010
00000001
,
00001000
00000010
00000100
00000000
00001000
00000000
00010000
00000000
,
01000000
10000000
00100000
00010000
,
00001000
00000100
00000001
00000000
00001001
00000000
00000000
00000000
,
00000000
00000000
00000000
00000000
00000010
00000000
00000000
00000100
00000000
00000000
00000000
00000000
00010000
00000000
00001000
00000000
,
01000000
00000000
00000000
01000000
00000000
00000000
00000000
00000000
00000000
00000000
00000000
00000000
00000000
00000000
00000000
00000000
;

//---------------dance-single - ----------------
#NOTES:
     dance-single:
     :
     Medium:
     8:
     0.344511,0.368200,0.225473,0.039213,0.151949,246.000000,223.000000,23.000000,4.000000,0.000000,0.000000,0.344511,0.368200,0.225473,0.039213,0.151949,246.000000,223.000000,23.000000,4.000000,0.000000,0.000000:
0000
0000
0000
0000
,
0000
0000
0000
0000
,
0000
0000
0000
0000
,
0000
0000
0000
0000
,
0000
0000
0000
0000
1000
0000
0000
0100
0000
0000
0001
0000
0100
0000
1000
0000
,
0000
0000
0000
0000
0001
0000
0000
0100
0000
0000
1000
0000
0100
0000
0001
0000
,
0000
0000
0000
0000
1000
0000
0000
0010
0000
0000
0001
0000
0010
0000
1000
0000
,
0000
0000
0001
0010
1000
0010
0001
1000
,
0000
0000
0000
0000
0100
0000
0000
0010
0000
0000
1000
0000
0010
0000
0001
0000
,
0000
0000
0000
0000
0100
0000
0000
0010
0000
0000
0001
0000
0010
0000
1000
0000
,
0000
0000
0000
0000
0010
0000
0000
0100
0000
0000
1000
0000
0100
0000
0001
0000
,
0000
0000
0010
0100
0001
0100
1000
0010
,
1010
0000
0101
0001
0000
0000
1000
0000
,
0000
0000
0100
0000
0000
0010
0000
0000
0100
0000
0000
0010
0000
0000
0100
0000
,
1100
0011
0100
0101
,
0000
0000
1000
0000
0000
0001
0000
0000
1000
0000
0000
0001
0000
0000
1000
0000
,
1001
0000
0110
0000
0010
1000
0010
0100
,
0001
0000
0010
0000
0000
0100
0000
0000
1000
0000
0000
0001
0000
0000
0010
0000
,
0011
0000
1100
0000
1000
1000
0010
0010
,
0100
0000
0001
0000
0000
1000
0000
0000
0010
0000
0000
0100
0000
0000
0010
0000
,
1000
0100
0001
0000
0000
0000
1000
0100
,
0001
0000
0000
2002
0000
0000
3003
0000
,
0000
0000
0010
0000
0000
1000
0000
0000
1010
0000
0000
0101
0000
0000
0001
0000
,
1000
0000
0001
0000
0010
0000
0100
0000
1000
0000
0001
1000
0000
0000
0000
0000
,
0001
0010
1000
0000
0000
0000
0001
0010
,
1000
0000
0000
2002
0000
0000
3003
0000
,
0000
0000
0100
0000
0000
0001
0000
0000
0101
0000
0000
1010
0000
0000
1000
0000
,
0001
0000
1000
0000
0100
0000
0010
0000
0001
0000
1000
0001
0000
0000
0000
0000
,
0101
0000
1100
0000
0010
0010
0100
0100
,
0001
0000
1000
0000
0000
0010
0000
0000
0100
0000
0000
0001
0000
0000
0010
0000
,
0011
0000
1010
0000
0001
0001
1000
1000
,
0010
0000
1000
0000
0000
0100
0000
0000
0010
0000
0000
0100
0000
0000
1000
0000
,
1100
0000
0101
0000
1000
1000
0010
0010
,
0100
0000
0001
0000
0000
0010
0000
0000
0100
0000
0000
0010
0000
0000
0001
0000
,
0011
0000
1010
0000
0001
0001
0100
0100
,
0010
0000
1000
0000
0000
0100
0000
0000
0001
0000
0000
0100
0000
0000
1000
0000
,
0001
0010
0100
0000
1000
1000
0100
0100
,
0010
0010
0100
0100
1000
1000
0001
0000
,
1000
0100
0010
0000
0001
0001
0010
0010
,
0100
0100
0010
0010
0001
0001
1000
0000
,
0010
0100
0001
0000
1000
1000
0001
0001
,
0100
0100
0001
0001
1000
1000
0010
0000
,
0100
0000
0010
0000
1000
0000
0000
0000
0010
0000
0000
0100
0000
0000
0000
0000
,
0000
0000
0000
0000
0100
0000
0000
0001
0000
0000
0000
0000
1000
0000
0001
0000
,
0100
0000
0000
0100
0000
0000
0000
0000
0000
0000
0000
0000
0000
0000
0000
0000
;

//---------------dance-double - ----------------
#NOTES:
     dance-double:
     :
     Easy:
     4:
     0.156850,0.194102,0.000000,0.000000,0.000000,112.000000,112.000000,0.000000,0.000000,0.000000,0.000000,0.156850,0.194102,0.000000,0.000000,0.000000,112.000000,112.000000,0.000000,0.000000,0.000000,0.000000:
00000000
00000000
00000000
00000000
,
00000000
00000000
00000000
00000000
,
00000000
00000000
00000000
00000000
,
00000000
00000000
00000000
00000000
,
00000000
01000000
00100000
01000000
,
00000000
00001000
00010000
00000100
,
00000000
00000010
00000001
00000010
,
00000000
00000100
00010000
00001000
,
00000000
01000000
00010000
00100000
,
00000000
01000000
10000000
00100000
,
00000000
00010000
00001000
00000100
,
00000000
00000001
00001000
00000001
,
00000100
00000100
00000000
00000000
,
00000000
00010000
00000000
00001000
,
01000000
01000000
00000000
00000000
,
00000000
00001000
00000000
00010000
,
00000010
00000010
00000100
00000001
,
00000000
00000010
00000000
00000010
,
00000100
00000100
00010000
00001000
,
00000000
00100000
00000000
00100000
,
01000000
00100000
00000000
01000000
,
00100000
00000000
00000000
00000000
,
00000000
00001000
00010000
00000010
,
00000100
00000001
00001000
00000000
,
00000100
00000010
00000000
00000100
,
00000010
00000000
00000000
00000000
,
00000000
00000001
00000100
00000010
,
00010000
00001000
01000000
00100000
,
10000000
10000000
00100000
01000000
,
00000000
00100000
00000000
00100000
,
01000000
01000000
00001000
00010000
,
00000000
00000010
00000000
00000010
,
00000100
00000100
00000001
00001000
,
00000000
00000001
00000000
00000001
,
00000010
00000010
00000100
00010000
,
00000000
00001000
00000000
00001000
,
01000000
00010000
10000000
00000000
,
00100000
00000000
10000000
00000000
,
01000000
00100000
00001000
00000000
,
00010000
00000000
00000010
00000000
,
00000100
00000001
00001000
00000000
,
00000010
00000100
00000000
00000100
,
00000010
00010000
00001000
00000000
,
00000000
00100000
00010000
10000000
,
00100000
00000000
00000000
00000000
;
