#TITLE:Jealousy;
#SUBTITLE:;
#ARTIST:Róisín Murphy;
#TITLETRANSLIT:;
#SUBTITLETRANSLIT:;
#ARTISTTRANSLIT:;
#GENRE:Disco;
#CREDIT:;
#BANNER:jealousy-bn.png;
#BACKGROUND:jealousy-bg.png;
#LYRICSPATH:;
#CDTITLE:;
#MUSIC:Jealousy.mp3;
#OFFSET:-0.482000;
#SAMPLESTART:47.020000;
#SAMPLELENGTH:12.000000;
#SELECTABLE:YES;
#BPMS:0.000000=131.500000
;
#STOPS:
;
#BGCHANGES:;
#KEYSOUNDS:;
#ATTACKS:;

//---------------dance-single - ----------------
#NOTES:
     dance-single:
     :
     Hard:
     13:
     0.519278,0.557270,0.015273,0.030546,0.614734,476.000000,474.000000,2.000000,4.000000,0.000000,0.000000,0.519278,0.557270,0.015273,0.030546,0.614734,476.000000,474.000000,2.000000,4.000000,0.000000,0.000000:
0000
0000
0000
0000
,
0000
0000
0000
0000
,
0000
0000
0000
0000
,
0000
0000
0000
0000
,
0000
0000
0000
0000
,
0000
0000
0000
0000
0000
0000
0000
0000
1000
0000
0100
0000
0000
0000
0010
0001
,
0010
0000
0001
0000
0000
0001
0100
0000
0010
1000
0000
0010
1000
0000
0100
0010
,
0001
0000
0100
0000
0010
0000
0000
0000
1000
0100
0000
1000
0100
0000
0010
0000
,
0001
0000
0100
0000
0100
0000
0000
0000
0010
0100
0010
0100
0010
0000
0000
0000
,
1000
0001
1000
0001
1000
0000
0000
0000
1000
0100
0000
0100
1000
0000
1000
0010
,
0000
0010
1000
0000
1000
0001
0000
0000
0001
0100
0000
0100
0001
0000
0001
0010
,
0000
0010
0001
0000
0001
1000
0000
0000
1000
0000
0000
0100
1000
0000
0100
0010
,
0000
0000
0001
0000
0001
0000
0000
0000
0001
0100
0001
0100
0001
0000
0000
0000
,
1000
0100
1000
0100
1000
0000
0000
0000
0001
0010
0000
0010
0001
0000
0001
0100
,
0000
0100
0001
0000
0001
1000
0000
0000
1000
0010
0000
0010
1000
0000
1000
0100
,
0000
0100
1000
0000
1000
0001
0000
0000
0001
0000
0000
0100
0001
0000
0100
0010
,
0000
0000
1000
0000
1000
0000
0000
0000
1000
0010
1000
0010
1000
0000
0000
0000
,
0001
0010
0001
0010
0001
0000
0000
0000
0100
0001
0000
0001
0100
0000
0100
0010
,
0000
0010
0100
0000
0100
0001
0000
0000
0001
0010
0000
0001
0010
0000
0100
1000
,
0000
0100
1000
0000
0010
0100
0000
0000
0100
0000
0000
0001
0100
0000
0010
1000
,
0000
0000
0001
0000
0001
0000
0000
0000
0001
0010
0001
0010
0001
0000
0000
0000
,
1000
0010
1000
0010
1000
0000
0000
0000
0010
1000
0000
1000
0010
0000
0010
0100
,
0000
0100
0010
0000
0010
1000
0000
0000
1000
0100
0000
1000
0100
0000
0010
0001
,
0000
0010
0001
0000
1000
0100
0000
0000
0010
0000
0000
0001
0100
0000
0010
1000
,
0000
0000
0010
0000
0010
0000
0000
0000
0100
0001
0100
0001
0100
0000
0000
0000
,
0010
0000
0000
0010
0100
0000
0001
0000
1000
0100
0000
1000
0010
0000
1000
0100
,
0000
0000
1000
0000
0010
1000
0000
0000
0001
0100
0000
0001
0010
0000
0001
0100
,
0000
0000
0001
0000
0010
0001
0000
0000
0100
0000
1000
0000
0100
0000
0001
1000
,
0000
0000
0000
0000
0000
0000
1000
0000
0100
0000
0001
0000
0100
0000
1000
0001
,
0000
0000
0000
0000
0000
0000
0000
0000
0001
0010
0000
0001
0100
0000
0001
0010
,
0000
0000
0001
0000
0100
0001
0000
0000
1000
0010
0000
1000
0100
0000
1000
0010
,
0000
0000
1000
0000
0100
1000
0000
0000
0100
0000
0001
0000
0100
0000
1000
0001
,
0000
0000
0000
0000
0000
0000
0001
0000
0100
0000
1000
0000
0100
0000
0001
1000
,
0000
0000
0010
0000
0100
0010
0100
0000
0001
0000
0000
0000
1000
0000
0000
0000
,
0101
1000
1000
0001
,
1100
0000
0000
0000
0001
1000
0000
0000
0100
0000
0000
0000
0001
0000
0000
0000
,
0100
0000
0000
0000
1000
0001
0000
0000
0100
0000
0000
0000
1000
0000
0000
0000
,
0100
0000
0000
0000
0001
1000
0000
0000
0100
0000
0000
0000
0001
0000
0000
0000
,
0100
0000
0000
0000
1000
0001
0000
0000
0100
0000
0000
0000
1000
0000
0000
0000
,
0100
0000
0000
0000
0001
1000
0000
0000
0010
0000
0000
0000
0001
0000
0000
0000
,
0010
0000
0000
0000
1000
0001
0000
0000
0010
0000
0000
0000
1000
0000
0000
0000
,
0010
0000
0000
0000
0001
1000
0000
0000
0010
0000
0000
0000
0001
0000
0000
0000
,
0010
0000
0000
0000
1000
0001
0000
0000
0010
0000
0000
0000
1000
0000
0000
0000
,
0010
0000
0000
0000
0001
1000
0000
0000
0010
0000
0100
0001
0100
0000
0000
0000
,
0000
0000
0010
0000
0100
1000
0100
0000
1000
0000
0010
0000
0000
0000
0000
0000
,
0000
0000
0100
0000
0001
0010
0001
0000
0100
0000
0010
0000
0000
0000
0000
0000
,
0000
0000
1000
0000
0001
0100
0001
0000
1000
0000
0010
0000
0000
0000
0000
0000
,
0000
0000
0100
0000
0010
1000
0010
0000
2000
0000
0000
0000
0000
0000
3001
0000
,
1000
0000
1000
0000
0001
0010
0100
0000
1000
0010
0000
1000
0100
0000
1000
0010
,
0000
0000
1000
0000
0100
0010
0000
0000
0001
0100
0000
0001
0010
0000
0001
0100
,
0000
0000
0001
0000
0010
0100
0000
0000
1000
0000
0010
0000
0001
0000
0010
1000
,
0000
0000
0000
0000
0000
0000
0001
0000
0010
0000
1000
0000
0010
0000
0001
1000
,
0000
0000
0000
0000
0000
0000
0000
0000
0001
0010
0000
0001
0100
0000
0001
0010
,
0000
0000
0001
0000
0100
0010
0000
0000
1000
0100
0000
1000
0010
0000
1000
0100
,
0000
0000
1000
0000
0010
0100
0000
0000
0001
0000
0010
0000
1000
0000
0010
0001
,
0000
0000
0000
0000
0000
0000
1000
0000
0010
0000
0001
0000
0010
0000
1000
0001
,
0000
0000
0000
0000
0000
0000
0000
0000
0100
0001
0000
0100
0010
0000
0100
0001
,
0000
0000
0100
0000
1000
0100
0000
0000
0010
1000
0000
0010
0100
0000
0010
0001
,
0000
0000
0010
0000
0100
0010
0000
0000
1000
0000
0100
0000
0001
0000
0100
1000
,
0000
0000
0000
0000
0000
0000
0001
0000
0100
0000
1000
0000
0100
0000
0001
1000
,
0000
0000
0000
0000
0000
0000
0000
0000
0010
1000
0000
0010
0100
0000
0010
1000
,
0000
0000
0010
0000
0001
0010
0000
0000
0100
0001
0000
0100
0010
0000
0100
1000
,
0000
0000
0100
0000
0010
0100
0000
0000
0001
0000
0010
0000
1000
0000
0010
0001
,
0000
0000
0000
0000
0000
0000
1000
0000
0010
0000
0001
0000
0010
0000
1000
0001
,
0000
0000
1000
0000
0010
0100
0001
0000
0010
0100
0000
0100
0010
0000
0010
0100
,
0000
0000
0010
0000
0001
1000
0000
0000
0010
0100
0000
0100
0010
0000
0010
0100
,
0000
0000
0010
0000
1000
0001
0000
0000
0100
0000
0010
0000
1000
0000
0100
0010
,
0000
0000
0000
0000
0000
0001
0100
0000
0020
0000
0000
0000
0000
0000
2030
0000
,
0000
0000
0000
0002
0000
0000
0000
0000
,
0000
0000
3003
0000
;

//---------------dance-single - ----------------
#NOTES:
     dance-single:
     :
     Beginner:
     1:
     0.076364,0.104237,0.000000,0.000000,0.000000,70.000000,70.000000,0.000000,0.000000,0.000000,0.000000,0.076364,0.104237,0.000000,0.000000,0.000000,70.000000,70.000000,0.000000,0.000000,0.000000,0.000000:
0000
0000
0000
0000
,
0000
0000
0000
0000
,
0000
0000
0000
0000
,
0000
0000
0000
0000
,
0000
0000
0000
0000
,
0000
0000
1000
0000
,
0000
0000
0001
0001
,
0000
0000
0100
0000
,
0000
0000
0010
0000
,
0010
0000
0010
0000
,
0000
0000
1000
0000
,
0000
0000
0001
0000
,
0000
0000
0100
0000
,
0100
0000
0100
0000
,
0000
0000
0001
0000
,
0000
0000
1000
0000
,
0000
0000
0010
0000
,
0010
0000
0010
0000
,
0000
0000
1000
0000
,
0000
0000
0001
0000
,
0000
0000
0100
0000
,
0100
0000
0100
0000
,
0000
0000
0001
0000
,
0000
0000
1000
0000
,
0000
0000
0001
0000
,
0000
0000
0010
0000
,
0000
0000
0100
0000
,
0000
0000
0100
0000
,
0000
0000
1000
0000
,
0000
0000
0001
0000
,
0000
0000
0010
0000
,
0000
0000
0010
0000
,
0000
0000
0100
0000
,
0000
0000
1000
0000
,
0000
0000
0001
0000
,
0000
1000
0000
0000
,
0000
0001
0000
0000
,
0000
0100
0000
0000
,
0000
0010
0000
0000
,
0000
1000
0000
0000
,
0000
0010
0000
0000
,
0000
0100
0000
0000
,
0000
0001
0000
0000
,
0000
0010
0010
0000
,
0000
0000
0100
0000
,
0000
0000
0100
0000
,
0000
0000
0100
0000
,
0000
0000
1000
0000
,
0000
0000
1000
0000
,
0000
0000
0010
0000
,
0000
0000
0010
0000
,
0000
0000
0100
0000
,
0000
0000
0001
0000
,
0000
0000
0100
0000
,
0000
0000
0100
0000
,
0000
0000
0010
0000
,
0000
0000
0100
0000
,
0000
0000
0001
0000
,
0000
0000
0001
0000
,
0000
0000
0010
0000
,
0000
0000
0010
0000
,
0000
0000
0100
0000
,
0000
0000
0100
0000
,
0000
0000
1000
0000
,
0000
0000
0001
0000
,
0000
0000
1000
0000
,
0000
0000
0010
0000
,
0000
0000
0100
0000
,
0000
0100
0000
0000
;

//---------------dance-single - ----------------
#NOTES:
     dance-single:
     :
     Easy:
     5:
     0.174547,0.238830,0.000000,0.152729,0.000000,160.000000,160.000000,0.000000,20.000000,0.000000,0.000000,0.174547,0.238830,0.000000,0.152729,0.000000,160.000000,160.000000,0.000000,20.000000,0.000000,0.000000:
0000
0000
0000
0000
,
0000
0000
0000
0000
,
0000
0000
0000
0000
,
0000
0000
0000
0000
,
0000
0000
0000
0000
,
0000
0000
1000
0000
,
0001
0000
0100
0100
,
0000
0000
0010
0010
,
0000
1000
2000
3000
,
0002
0003
1000
0100
,
1000
1000
1000
0010
,
1000
0000
0001
0000
,
1000
0000
0010
0000
,
0100
0000
0001
0100
,
0001
0001
0001
0010
,
0001
0000
1000
0000
,
0001
0000
0100
0000
,
0010
0000
0100
0001
,
0100
0100
0100
0010
,
0100
0000
0001
0000
,
1000
0000
0010
0000
,
0100
0000
0010
0100
,
0010
0010
0010
1000
,
0010
0000
1000
0000
,
0001
0000
0100
0000
,
0010
0000
0100
0001
,
1000
0010
0010
1000
,
0001
0100
0002
0000
,
0003
0000
2000
0000
,
3000
0000
1000
0100
,
0010
0001
0001
0010
,
0100
1000
0020
0000
,
0030
0000
0200
0000
,
0300
0000
0001
1000
,
0001
0001
1000
0001
,
1000
1000
0010
0000
,
0000
0100
0001
0000
,
0000
0001
0010
0000
,
0000
0100
1000
0000
,
0000
1000
0001
0000
,
0000
0100
0010
0000
,
0000
0010
1000
0000
,
0000
1000
0001
0000
,
0000
0001
0020
0100
,
0000
0130
1000
0000
,
0000
1000
0010
0000
,
0000
0100
0001
0000
,
0000
0001
2000
0000
,
3020
0000
0130
0001
,
1000
0010
0010
1000
,
0001
0100
0002
0000
,
0003
0000
2000
0000
,
3000
0000
0010
1000
,
0100
0010
0010
0001
,
0100
0010
0200
0000
,
0300
0000
0002
0000
,
0003
0000
1000
0001
,
0010
0100
0100
0010
,
0001
1000
0020
0000
,
0030
0000
2000
0000
,
3000
0000
1000
0100
,
0001
0100
1000
0010
,
0001
0010
2000
0000
,
3000
0000
0002
0000
,
0003
0000
0100
0001
,
0100
0000
0010
1000
,
0010
0000
1000
0100
,
0010
0000
0000
0000
0200
0000
0000
0320
,
0000
0000
0000
0032
0000
0000
0000
0000
,
0000
0000
0003
0000
;

//---------------dance-single - ----------------
#NOTES:
     dance-single:
     :
     Medium:
     8:
     0.297821,0.344976,0.000000,0.122183,0.084001,273.000000,273.000000,0.000000,16.000000,0.000000,0.000000,0.297821,0.344976,0.000000,0.122183,0.084001,273.000000,273.000000,0.000000,16.000000,0.000000,0.000000:
0000
0000
0000
0000
,
0000
0000
0000
0000
,
0000
0000
0000
0000
,
0000
0000
0000
0000
,
0000
0000
0000
0000
,
0000
0000
0000
0000
1000
0100
0000
0010
,
0001
0100
0000
0010
1000
0000
0001
0000
,
0100
0000
0001
0000
1000
0100
0010
0000
,
0001
0100
0100
0000
0020
0000
1030
0000
,
0002
0000
0000
0000
0103
0000
0000
0000
0001
0000
0000
0001
0000
0000
0001
0000
,
0000
0000
0000
0000
0100
0000
0000
0000
0010
0000
0000
0010
0000
0000
0010
0000
,
0000
0000
1000
0000
0100
1000
0100
0000
,
0010
0000
0000
0000
0001
0100
0010
0000
,
1000
0000
0100
0000
0010
0000
0000
0000
0100
0000
0000
0100
0000
0000
0100
0000
,
0000
0000
0000
0000
1000
0000
0000
0000
1000
0000
0000
1000
0000
0000
1000
0000
,
0000
0000
0010
0000
0100
0000
0001
0010
,
0001
0000
1000
0000
0001
0100
0010
0000
,
1000
0000
0100
0000
0010
0000
0000
0000
0001
0000
0000
0001
0000
0000
0001
0000
,
0000
0000
0000
0000
1000
0000
0000
0000
1000
0000
0000
1000
0000
0000
1000
0000
,
0000
0000
0001
0000
0100
0000
0010
1000
,
0010
0000
1000
0000
0100
0010
0001
0000
,
0001
0000
0100
0000
0010
0000
0000
0000
0100
0000
0000
0100
0000
0000
0100
0000
,
0000
0000
0000
0000
0010
0000
0000
0000
0010
0000
0000
0010
0000
0000
0010
0000
,
0000
0000
0100
0000
0001
0000
1000
0010
,
0100
0000
0001
0000
0010
0001
0010
0000
,
0100
0000
1000
0000
0100
0000
0000
0000
1000
0000
0000
0010
0000
0000
1000
0000
,
0000
0000
0000
0000
0010
0000
0000
0000
0100
0000
0000
0001
0000
0000
0100
0000
,
0000
0000
0001
0000
1000
0100
0010
0001
,
0000
0000
0000
0000
1000
0100
0010
0001
,
0000
0000
0000
0000
0000
0000
0000
0000
0001
0000
0000
0100
0000
0000
0001
0000
,
0000
0000
0000
0000
0100
0000
0000
0000
0010
0000
0000
1000
0000
0000
0010
0000
,
0000
0000
1000
0000
0001
0010
0100
1000
,
0000
0000
0000
0000
0001
0010
0100
1000
,
0000
0000
1000
0001
,
1000
1000
0001
1000
,
0001
0002
0103
0010
,
0010
2000
3100
0010
,
0010
0002
0103
0010
,
0010
2000
3100
0010
,
0010
0002
0013
0100
,
0100
2000
3010
0100
,
0100
0002
0013
0100
,
0100
2000
3010
0100
,
0100
0002
2003
0010
,
0000
0000
3010
0000
0100
0001
1000
0000
,
0000
0000
0010
0000
0010
1000
0001
0000
,
0000
0000
0100
0000
0100
0001
1000
0000
,
0000
0000
0001
0010
0200
0000
0000
0000
,
1300
0000
0001
0000
1000
0000
0000
0000
0001
0000
0000
0010
0000
0000
0001
0000
,
0000
0000
0000
0000
1000
0000
0000
0000
1000
0000
0000
0010
0000
0000
1000
0000
,
0000
0000
0001
0000
0100
0010
1000
0001
,
0000
0000
0000
0000
0100
0010
1000
0001
,
0000
0000
0000
0000
0000
0000
0000
0000
1000
0000
0000
0100
0000
0000
1000
0000
,
0000
0000
0000
0000
0001
0000
0000
0000
0001
0000
0000
0100
0000
0000
0001
0000
,
0000
0000
1000
0000
0010
1000
0001
0100
,
0000
0000
0000
0000
0010
1000
0001
0100
,
0000
0000
0000
0000
0000
0000
0000
0000
0100
0000
0000
0001
0000
0000
1000
0000
,
0000
0000
0000
0000
0010
0000
0000
0000
0010
0000
0000
1000
0000
0000
0001
0000
,
0000
0000
0100
0000
0001
1000
0100
0010
,
0000
0000
0000
0000
0001
1000
0100
0010
,
0000
0000
0000
0000
0000
0000
0000
0000
0001
0000
0000
0100
0000
0000
0010
0000
,
0000
0000
0000
0000
1000
0000
0000
0000
1000
0000
0000
0100
0000
0000
0010
0000
,
0000
0000
0001
0000
1000
0001
0010
0100
,
0000
0000
0000
0000
1000
0001
0010
0100
,
0000
0000
1000
0000
0001
0000
0000
0000
0100
0000
0000
0100
0000
0000
0001
0000
,
0000
0000
0001
0000
1000
0000
0000
0000
0010
0000
0000
0010
0000
0000
1000
0000
,
0000
1000
0001
0000
1000
0100
0010
0100
,
1000
0000
0001
0100
0020
0000
0000
2030
,
0000
0000
0000
3200
0000
0000
0000
0000
,
0000
0000
0300
0000
;

//---------------dance-double - ----------------
#NOTES:
     dance-double:
     :
     Easy:
     5:
     0.196366,0.238830,0.015273,0.053455,0.000000,180.000000,178.000000,2.000000,7.000000,0.000000,0.000000,0.196366,0.238830,0.015273,0.053455,0.000000,180.000000,178.000000,2.000000,7.000000,0.000000,0.000000:
00000000
00000000
00000000
00000000
,
00000000
00000000
00000000
00000000
,
00000000
00000000
00000000
00000000
,
00000000
00000000
00000000
00000000
,
00000000
00000000
00000000
00000000
,
00000000
00000000
10000000
00000000
,
01000000
00000000
10000000
10000000
,
00010000
00100000
00010000
00000000
,
01000000
00100000
02000000
03000000
,
00002000
00003000
00010000
00000100
,
00010000
00000000
00010000
00000100
,
00010000
00000000
00000010
00000000
,
00000100
00000000
00000001
00001000
,
00000001
00000000
00000010
00000100
,
00000010
00000000
00000010
00000100
,
00000010
00000000
00000100
00010000
,
00001000
00000000
00100000
00000000
,
01000000
00000000
10000000
00100000
,
10000000
00000000
10000000
00100000
,
10000000
00000000
00010000
00000000
,
01000000
00000000
00100000
10000000
,
00010000
00000000
00100000
00001000
,
00100000
00000000
00100000
00001000
,
00100000
00000000
00001000
00010000
,
00000100
00000000
00000010
00000000
,
00000001
00001000
00000001
00000100
,
00000010
00001000
00000001
00000100
,
00000010
00001000
00000100
00000100
,
00010000
00000000
00010000
00010000
,
00001000
00000000
01000000
00100000
,
10000000
00010000
01000000
00100000
,
10000000
00010000
00100000
00100000
,
00001000
00000000
00001000
00001000
,
00010000
00000000
00000100
00010000
,
00001000
00000000
00100000
00010000
,
01000000
00100000
10000000
00000000
,
00000000
01000000
00010000
00000000
,
00000000
00001000
00000010
00000000
,
00000000
00000001
00000100
00000000
,
00000000
00001000
00010000
00000000
,
00000000
00100000
10000000
00000000
,
00000000
10000000
00010000
00000000
,
00000000
00100000
00001000
00000000
,
00000000
00002000
00020000
00000000
,
00000000
00000000
00000000
00000000
,
00000000
00000000
00000000
00000000
,
00000000
00000000
00000000
00000000
,
00000000
00033000
00011000
00000000
,
00000110
00000000
00000010
00000001
,
00001000
00000100
00000010
00000001
,
00001000
00000100
00000100
00010000
,
00001000
00000000
01000000
00010000
,
10000000
00000000
10000000
01000000
,
00100000
00010000
10000000
01000000
,
00100000
00010000
00100000
00001000
,
00010000
00000000
00001000
00010000
,
00000100
00000000
00001000
00000010
,
00000100
00000001
00001000
00000010
,
00000100
00000001
00000010
00000100
,
00010000
00000000
00010000
00001000
,
01000000
00000000
00100000
10000000
,
00010000
01000000
00100000
10000000
,
00010000
01000000
00010000
10000000
,
01000000
00000000
00010000
00001000
,
00000100
00000000
00000001
00001000
,
00000001
00000000
00001000
00000100
,
00001000
00000000
00000100
00010000
,
00001000
00000000
00000000
00000000
00200000
00000000
00000000
00302000
,
00000000
00000000
00000000
00020000
00000000
00000000
00000000
00000000
,
00000000
00000000
00033000
00000000
;

//---------------dance-double - ----------------
#NOTES:
     dance-double:
     :
     Medium:
     8:
     0.278185,0.318440,0.000000,0.198548,0.053455,255.000000,255.000000,0.000000,26.000000,0.000000,0.000000,0.278185,0.318440,0.000000,0.198548,0.053455,255.000000,255.000000,0.000000,26.000000,0.000000,0.000000:
00000000
00000000
00000000
00000000
,
00000000
00000000
00000000
00000000
,
00000000
00000000
00000000
00000000
,
00000000
00000000
00000000
00000000
,
00000000
00000000
00000000
00000000
,
00000000
00000000
00000000
00000000
00100000
00010000
00000000
00010000
,
10000000
00000000
00000000
10000000
01000000
00000000
00010000
00000000
,
00001000
00000000
00000010
00000000
00000001
00001000
00000001
00000000
,
00000000
00000100
00000100
00000000
00000002
00000000
00001003
00000000
,
00002000
00000000
00003010
00000000
00001000
00000100
00000010
00000000
,
00000001
00000000
00001000
00000000
00000001
00000010
00000100
00000000
,
00001000
00000001
00000100
00001000
,
00010000
01000000
20000000
30010000
,
00020000
00000000
10030000
00000000
00010000
00100000
01000000
00000000
,
10000000
00000000
00010000
00000000
10000000
01000000
00100000
00000000
,
00010000
10000000
01000000
00010000
,
00001000
00000100
00000002
00001003
,
00002000
00000000
00003001
00000000
00000100
00000001
00001000
00000000
,
00000010
00000000
00000100
00000000
00000010
00001000
00000001
00000000
,
00000100
00000001
00000010
00001000
,
00010000
00100000
20000000
30010000
,
00020000
00000000
10030000
00000000
01000000
00100000
00010000
00000000
,
10000000
00000000
00010000
00000000
00100000
01000000
10000000
00000000
,
00010000
10000000
01000000
00010000
,
00001000
00000100
00000002
00000013
,
00000200
00000000
00000000
00000000
00001300
00000000
00000000
00000000
00000010
00000000
00000000
00000010
00000000
00000000
00000010
00000000
,
00000000
00000000
00000000
00000000
00000100
00000000
00000000
00000000
00000010
00000000
00000000
00000010
00000000
00000000
00000010
00000000
,
00000000
00000100
00001000
00010000
,
01000000
00000000
00010000
01000000
,
10000000
00000000
00000000
00000000
00000000
00000000
00000000
00000000
10000000
00000000
00000000
10000000
00000000
00000000
10000000
00000000
,
00000000
00000000
00000000
00000000
00010000
00000000
00000000
00000000
00010000
00000000
00000000
00010000
00000000
00000000
00010000
00000000
,
00000000
10000000
00100000
00010000
,
00001000
00000000
00010000
00001000
,
00000010
00000001
00001000
00000100
,
00001000
00000010
00001000
00000000
00000001
00000000
00000100
00000000
,
00000001
00000010
00000002
00000000
00000103
00000000
00001000
00000000
,
00010000
02000000
13000000
00100000
,
00010000
00002000
00003010
00000001
,
00000100
00002000
00013000
01000000
,
10000000
00200000
00310000
00001000
,
00000010
00000001
00000020
00001030
,
00010000
00200000
10300000
00100000
,
00010000
00002000
00003010
00000001
,
00000100
00002000
00023000
00000100
,
00000000
00000000
00030100
00000000
00001000
00000010
00000100
00000000
,
00000000
00000000
00000010
00010000
00001000
00100000
00000000
00000000
,
00000000
00000000
01000000
10000000
01000000
10000000
00000000
00000000
,
00000000
00000000
00010000
00100000
00002000
00000000
00003000
00000000
,
00020000
00000000
00000000
00000000
00030000
00000000
00000000
00000000
00000100
00000000
00000000
00000010
00000000
00000000
00000001
00000000
,
00000000
00000000
00000000
00000000
00001000
00000000
00000000
00000000
00000001
00000000
00000000
00000010
00000000
00000000
00000100
00000000
,
00000000
00001000
00000010
00000100
,
00001000
00000000
00010000
00100000
,
10000000
00000000
00000000
00000000
00000000
00000000
00000000
00000000
00010000
00000000
00000000
10000000
00000000
00000000
01000000
00000000
,
00000000
00000000
00000000
00000000
10000000
00000000
00000000
00000000
10000000
00000000
00000000
00010000
00000000
00000000
01000000
00000000
,
00000000
00100000
00010000
00001000
,
00000010
00000000
00001000
00000010
,
00000001
00000000
00000000
00000000
00000000
00000000
00000000
00000000
00001000
00000000
00000000
00000100
00000000
00000000
00000010
00000000
,
00000000
00000000
00000000
00000000
00000001
00000000
00000000
00000000
00000100
00000000
00000000
00000010
00000000
00000000
00001000
00000000
,
00000000
00000001
00000100
00001000
,
00010000
00000000
00001000
00010000
,
01000000
00000000
00000000
00000000
00000000
00000000
00000000
00000000
10000000
00000000
00000000
00100000
00000000
00000000
01000000
00000000
,
00000000
00000000
00000000
00000000
00010000
00000000
00000000
00000000
00100000
00000000
00000000
01000000
00000000
00000000
10000000
00000000
,
00000000
00010000
10000000
01000000
,
00010000
00000000
00001000
00000010
,
00000001
00000000
00001000
00000000
00000001
00000000
00000000
00000000
00000100
00000000
00000000
00000010
00000000
00000000
00010000
00000000
,
00000000
00000000
00010000
00000000
00001000
00000000
00000000
00000000
00001000
00000000
00000000
01000000
00000000
00000000
00100000
00000000
,
00000000
00100000
10000000
00000000
01000000
00100000
01000000
00200000
,
00000000
00000000
00000000
00301000
00020000
00000000
00000000
00030200
,
00000000
00000000
00000000
00002300
00000000
00000000
00000000
00000000
,
00000000
00000000
00003000
00000000
;

//---------------dance-double - ----------------
#NOTES:
     dance-double:
     :
     Hard:
     13:
     0.504005,0.583806,0.030546,0.045819,0.576551,462.000000,458.000000,4.000000,6.000000,0.000000,0.000000,0.504005,0.583806,0.030546,0.045819,0.576551,462.000000,458.000000,4.000000,6.000000,0.000000,0.000000:
// measure 0
00000000
00000000
00000000
00000000
,  // measure 1
00000000
00000000
00000000
00000000
,  // measure 2
00000000
00000000
00000000
00000000
,  // measure 3
00000000
00000000
00000000
00000000
,  // measure 4
00000000
00000000
00000000
00000000
,  // measure 5
00000000
00000000
00000000
00000000
00000000
00000000
00000000
00000000
10000000
00000000
01000000
00000000
00000000
00000000
00100000
00010000
,  // measure 6
00100000
00000000
00010000
00000000
00000000
01000000
00100000
00000000
01000000
00001000
00000000
00010000
00001000
00000000
00000000
00000000
,  // measure 7
00010000
00000000
00000000
00000000
00001100
00000000
00000000
00000000
00000010
00000000
00000001
00000010
00000000
00000000
00000000
00000000
,  // measure 8
00000001
00000000
00001000
00000000
00001000
00000000
00000000
00000000
00000001
00000000
00001000
00000100
00001000
00000000
00000000
00000000
,  // measure 9
00001000
00000000
00000001
00000000
00000100
00000001
00000100
00000000
00000001
00000100
00000000
00000100
00000001
00000000
00000001
00000010
,  // measure 10
00000000
00000010
00000001
00000000
00000001
00000100
00000000
00000000
00000010
00000100
00000000
00000100
00000010
00000000
00000010
00001000
,  // measure 11
00000000
00001000
00000010
00000000
00000010
00000100
00000000
00000000
00001000
00000000
00000000
00010000
00000000
00000000
01000000
00000000
,  // measure 12
00000000
00000000
10000000
00000000
10000000
00000000
00000000
00000000
00100000
01000000
00100000
01000000
00100000
00000000
00000000
00000000
,  // measure 13
10000000
00010000
10000000
00010000
10000000
00000000
00000000
00000000
10000000
00100000
00000000
00100000
10000000
00000000
10000000
01000000
,  // measure 14
00000000
01000000
10000000
00000000
10000000
00100000
00000000
00000000
00100000
10000000
00000000
10000000
00100000
00000000
00100000
01000000
,  // measure 15
00000000
01000000
00100000
00000000
00100000
10000000
00000000
00000000
01000000
00000000
00000000
00010000
00000000
00000000
00001000
00000000
,  // measure 16
00000000
00000000
00000010
00000000
00000010
00000000
00000000
00000000
00000001
00000100
00000001
00000100
00000001
00000000
00000000
00000000
,  // measure 17
00001000
00000010
00001000
00000010
00001000
00000000
00000000
00000000
00001000
00000100
00000000
00000100
00001000
00000000
00001000
00000001
,  // measure 18
00000000
00000001
00001000
00000000
00001000
00000100
00000000
00000000
00000100
00000010
00000000
00000010
00000100
00000000
00000100
00001000
,  // measure 19
00000000
00001000
00000100
00000000
00000100
00000010
00000000
00000000
00001000
00000000
00000000
00010000
00000000
00000000
00100000
00000000
,  // measure 20
00000000
00000000
10000000
00000000
10000000
00000000
00000000
00000000
00010000
00100000
00010000
00100000
00010000
00000000
00000000
00000000
,  // measure 21
00100000
01000000
00100000
01000000
00100000
00000000
00000000
00000000
00010000
01000000
00000000
01000000
00010000
00000000
00010000
00100000
,  // measure 22
00000000
00100000
00010000
00000000
00010000
01000000
00000000
00000000
01000000
00100000
00000000
00100000
01000000
00000000
01000000
00010000
,  // measure 23
00000000
00010000
01000000
00000000
01000000
00100000
00000000
00000000
00010000
00000000
00000000
00001000
00000000
00000000
00000010
00000000
,  // measure 24
00000000
00000000
00000001
00000000
00000001
00000000
00000000
00000000
00001000
00000100
00001000
00000100
00001000
00000000
00000000
00000000
,  // measure 25
00000001
00000000
00000000
00000100
00000010
00000000
00001000
00000000
00000001
00000100
00000000
00000001
00000100
00000000
00000001
00000100
,  // measure 26
00000000
00000000
00001000
00000000
00010000
01000000
00000000
00000000
10000000
00010000
00000000
10000000
00010000
00000000
10000000
00010000
,  // measure 27
00000000
00000000
01000000
00000000
00100000
01000000
00000000
00000000
00010000
00000000
00100000
00000000
01000000
00000000
10000000
00010000
,  // measure 28
00000000
00000000
00000000
00000000
00000000
00000000
10000000
00000000
01000000
00000000
00100000
00000000
00010000
00000000
10000000
00010000
,  // measure 29
00000000
00000000
00000000
00000000
00000000
00000000
00000000
00000000
10000000
01000000
00000000
10000000
01000000
00000000
10000000
01000000
,  // measure 30
00000000
00000000
00010000
00000000
00001000
00000100
00000000
00000000
00000001
00001000
00000000
00000001
00001000
00000000
00000001
00001000
,  // measure 31
00000000
00000000
00000010
00000000
00000100
00000000
00000000
00000000
00000001
00000000
00000100
00000000
00000010
00000000
00001000
00000001
,  // measure 32
00000000
00000000
00000000
00000000
00000000
00000000
00000001
00000000
00000100
00000000
00001000
00000000
00010000
00000000
01000000
10000000
,  // measure 33
00000000
00000000
10000000
00000000
00010000
01000000
00100000
00000000
10000000
00000000
00000000
00000000
00010000
00000000
00000000
00000000
,  // measure 34
00001000
00000001
00000001
00001000
,  // measure 35
00010000
00000000
00000000
00000000
10000000
01000000
00000000
00000000
00010000
00000000
00000000
00000000
00001000
00000000
00000000
00000000
,  // measure 36
00000100
00000000
00000000
00000000
00000001
00000100
00000000
00000000
00001000
00000000
00000000
00000000
00010000
00000000
00000000
00000000
,  // measure 37
01000000
00000000
00000000
00000000
10000000
01000000
00000000
00000000
00010000
00000000
00000000
00000000
00001000
00000000
00000000
00000000
,  // measure 38
00000100
00000000
00000000
00000000
00000001
00000100
00000000
00000000
00001000
00000000
00000000
00000000
00010000
00000000
00000000
00000000
,  // measure 39
01000000
00000000
00000000
00000000
10000000
00100000
00000000
00000000
00010000
00000000
00000000
00000000
00001000
00000000
00000000
00000000
,  // measure 40
00000010
00000000
00000000
00000000
00000001
00000010
00000000
00000000
00001000
00000000
00000000
00000000
00010000
00000000
00000000
00000000
,  // measure 41
00100000
00000000
00000000
00000000
10000000
00100000
00000000
00000000
00010000
00000000
00000000
00000000
00001000
00000000
00000000
00000000
,  // measure 42
00000010
00000000
00000000
00000000
00000001
00000010
00000000
00000000
00001000
00000000
00000000
00000000
00010000
00000000
00000000
00000000
,  // measure 43
00100000
00000000
00000000
00000000
10000000
00010000
00000000
00000000
01000000
00000000
00100000
00000000
10000000
00000000
00000000
00000000
,  // measure 44
00000000
00000000
01000000
00000000
00100000
00001000
00100000
00000000
00001000
00000000
00010000
00000000
00000000
00000000
00000000
00000000
,  // measure 45
00000000
00000000
00000100
00000000
00001000
00000010
00000100
00000000
00000001
00000000
00001000
00000000
00000000
00000000
00000000
00000000
,  // measure 46
00000000
00000000
00000100
00000000
00010000
00001000
00010000
00000000
00001000
00000000
00100000
00000000
00000000
00000000
00000000
00000000
,  // measure 47
00000000
00000000
01000000
00000000
10000000
00100000
01000000
00000000
00010000
00000000
00000000
01000000
00000000
00000000
00100000
00000000
,  // measure 48
10000000
00000000
01000000
00000000
00100000
00010000
00100000
00000000
00010000
10000000
00000000
00010000
10000000
00000000
00010000
10000000
,  // measure 49
00000000
00000000
01000000
00000000
00010000
00001000
00000000
00000000
00000100
00000001
00000000
00000100
00000001
00000000
00000100
00000001
,  // measure 50
00000000
00000000
00001000
00000000
00000010
00000100
00000000
00000000
00000001
00000000
00001000
00000000
00000010
00000000
00000100
00000010
,  // measure 51
00000000
00000000
00000000
00000000
00000000
00000000
00001000
00000000
00000001
00000000
00000100
00000000
00000010
00000000
00000100
00000001
,  // measure 52
00000000
00000000
00000000
00000000
00000000
00000000
00000000
00000000
00001000
00000001
00000000
00001000
00000001
00000000
00001000
00000001
,  // measure 53
00000000
00000000
00000100
00000000
00001000
00010000
00000000
00000000
01000000
10000000
00000000
01000000
10000000
00000000
01000000
10000000
,  // measure 54
00000000
00000000
00100000
00000000
01000000
00010000
00000000
00000000
10000000
00000000
00100000
00000000
01000000
00000000
00010000
10000000
,  // measure 55
00000000
00000000
00000000
00000000
00000000
00000000
00010000
00000000
00100000
00000000
01000000
00000000
10000000
00000000
00010000
10000000
,  // measure 56
00000000
00000000
00000000
00000000
00000000
00000000
00000000
00000000
10000000
01000000
00000000
10000000
01000000
00000000
10000000
01000000
,  // measure 57
00000000
00000000
00010000
00000000
00001000
00000100
00000000
00000000
00000001
00000100
00000000
00000001
00000100
00000000
00000001
00000100
,  // measure 58
00000000
00000000
00000010
00000000
00001000
00000100
00000000
00000000
00000010
00000000
00000001
00000000
00001000
00000000
00000010
00000100
,  // measure 59
00000000
00000000
00000000
00000000
00000000
00000000
00000010
00000000
00000100
00000000
00000001
00000000
00001000
00000000
00000010
00000100
,  // measure 60
00000000
00000000
00000000
00000000
00000000
00000000
00000000
00000000
00000001
00000010
00000000
00000001
00000010
00000000
00000001
00000010
,  // measure 61
00000000
00000000
00001000
00000000
00010000
00100000
00000000
00000000
10000000
00100000
00000000
10000000
00100000
00000000
10000000
00100000
,  // measure 62
00000000
00000000
01000000
00000000
00010000
10000000
00000000
00000000
01000000
00000000
00100000
00000000
00010000
00000000
10000000
00010000
,  // measure 63
00000000
00000000
00000000
00000000
00000000
00000000
00100000
00000000
01000000
00000000
10000000
00000000
00010000
00000000
01000000
00100000
,  // measure 64
00000000
00000000
10000000
00000000
00010000
01000000
00010000
00000000
10000000
01000000
00000000
00100000
01000000
00000000
10000000
01000000
,  // measure 65
00000000
00000000
00100000
00000000
00001000
00010000
00000000
00000000
00000100
00001000
00000000
00000100
00000010
00000000
00000100
00001000
,  // measure 66
00000000
00000000
00000010
00000000
00000100
00000001
00000000
00000000
00000001
00000000
00000100
00000000
00001000
00000000
00010000
01000000
,  // measure 67
00000000
00000000
00000000
10000000
20200000
00000000
30300000
02020000
,  // measure 68
00000000
00000000
03030000
00202000
00000000
00000000
00000000
00000000
,  // measure 69
00000000
00000000
00303000
00000000
;
