#TITLE:JD Sports;
#SUBTITLE:;
#ARTIST:counsel pop;
#TITLETRANSLIT:;
#SUBTITLETRANSLIT:;
#ARTISTTRANSLIT:;
#GENRE:House;
#CREDIT:;
#BANNER:jdsports-bn.png;
#BACKGROUND:jdsports-bg.png;
#LYRICSPATH:;
#CDTITLE:;
#MUSIC:jd sports.mp3;
#OFFSET:-0.575000;
#SAMPLESTART:8.169999;
#SAMPLELENGTH:11.999990;
#SELECTABLE:YES;
#BPMS:0.000000=125.999992
,31.000000=251.999985
,33.000000=125.999992
,48.000000=251.999985
,50.000000=125.999992
,57.000000=251.999985
,59.000000=125.999992
,66.000000=251.999985
,68.000000=125.999992
,83.000000=251.999985
,85.000000=125.999992
,185.000000=251.999985
,186.000000=125.999992
,188.500000=62.999996
,189.000000=125.999992
,193.000000=251.999985
,194.000000=125.999992
,196.500000=62.999996
,197.000000=125.999992
,201.000000=251.999985
,202.000000=125.999992
,205.500000=251.999985
,206.500000=125.999992
,210.000000=251.999985
,211.000000=125.999992
,213.500000=62.999996
,214.000000=125.999992
,230.000000=251.999985
,234.000000=125.999992
,235.000000=62.999996
;
#STOPS:
;
#BGCHANGES:;
#KEYSOUNDS:;
#ATTACKS:;

//---------------dance-single - ----------------
#NOTES:
     dance-single:
     :
     Challenge:
     15:
     0.680406,0.867607,0.223398,0.250206,1.014226,533.000000,508.000000,25.000000,28.000000,0.000000,0.000000,0.680406,0.867607,0.223398,0.250206,1.014226,533.000000,508.000000,25.000000,28.000000,0.000000,0.000000:
0000
0000
0000
0000
,
0000
0000
0000
0000
,
1001
0000
0000
0000
,
0000
0000
0000
0110
,
1100
0000
1000
0010
1000
0100
0000
0100
1000
0010
1000
0000
0001
0000
1000
0001
,
0000
0000
0001
0100
0001
0010
0000
0010
0001
0100
0001
0000
0010
0000
0100
0010
,
0000
0000
0100
1000
0100
0010
0000
0010
0001
0010
0100
0000
1000
0000
0010
0100
,
0000
0000
0010
0100
0001
0100
0000
0100
0010
1000
0010
0000
2002
0000
0000
0000
,
0000
0000
3003
0000
1001
0000
1000
0100
1000
0010
0000
0010
1000
0100
1000
0000
,
0010
0000
0100
0001
0000
0000
0001
0010
0001
0100
0000
0100
0001
0010
0001
0000
,
0100
0000
0010
1000
0000
0000
1000
0100
0010
0001
0000
0001
0010
0100
1000
0000
,
0010
0000
0100
0010
0000
0000
0100
0001
1000
0010
0000
0010
1000
0001
0100
0000
,
0020
0000
0000
0000
0000
0000
0030
0000
1001
0000
1000
0100
0010
0001
0000
0001
,
0000
0000
1000
0100
0010
0001
0100
0010
1000
0001
0010
0100
1000
0001
0000
0001
,
0000
0000
0001
0010
0200
0000
0000
0000
0000
0000
0300
0000
1001
0000
0001
0010
,
0100
1000
0000
1000
0000
0000
0001
0010
0100
1000
0010
0100
0001
1000
0100
0010
,
0001
1000
0000
1000
0000
0000
1000
0100
0020
0000
0000
0000
0000
0000
0030
0000
,
1001
0000
0100
0001
1000
0010
0000
0010
0000
0000
0100
0001
1000
0010
0100
0010
,
1000
0001
0010
0001
1000
0100
0000
0100
0000
0000
0010
0001
1000
0100
1000
0010
,
0100
0001
0010
0100
1000
0001
0100
0001
1000
0010
0100
0010
1000
0001
0100
0010
,
1000
0100
1000
0100
1000
0100
1000
0100
1000
0010
0100
0001
0200
0000
0000
0000
,
0000
0000
0000
0000
0310
0000
0000
1000
0000
0100
0010
0000
0001
0000
0000
0100
,
0000
0010
1000
0000
0001
0000
0000
0010
0000
0001
0010
0000
0100
0000
0000
1000
,
0000
0100
1000
0000
0010
0000
0000
0100
0000
0001
1000
0000
0010
0000
0000
1000
,
0000
0001
0100
0000
0010
0000
0000
1000
0000
0100
1000
0000
0010
0000
0000
0100
,
0000
0001
0100
0000
0001
0000
0000
0010
0000
0100
1000
0000
0100
0000
0000
1000
,
0000
0010
0100
0000
0001
0000
0000
0010
0000
0001
0010
0000
0100
0000
0000
1000
,
0000
0010
1000
0000
0010
0000
0000
0100
0000
0001
1000
0000
0010
0000
0000
0100
,
0000
0010
1000
0000
0100
0000
0000
1000
0000
1000
0010
0000
0100
0000
0000
0001
,
0000
0001
0010
0000
0012
0000
0000
0000
0003
1000
0100
0000
0000
0000
1000
0000
,
0010
0100
0010
0000
2100
0000
0000
0000
0000
0000
3010
0000
0000
0001
0000
0000
,
0010
1000
0010
0000
0210
0000
0000
0000
0000
0310
1000
0000
0000
0000
0100
0000
,
0010
0001
0010
0000
0012
0000
0000
0000
0000
0103
1000
0000
0000
0101
0000
0000
,
0000
0000
0000
0000
2001
0000
0000
0000
0000
3010
0100
0000
0000
0000
1000
0000
,
0001
0010
0100
0000
0021
0000
0000
0000
0000
0000
1030
0000
0000
0010
0000
0000
,
0001
1000
0100
0000
1200
0000
0000
0000
0300
0010
0100
0000
0000
0000
1000
0000
,
0010
0100
0001
0000
1001
0000
0000
0000
0000
0100
0010
0000
0000
1100
0000
0000
,
0000
0000
0000
0000
1001
0000
1000
0100
0000
0001
0100
0000
1000
0000
0001
0010
,
0000
1000
0010
0000
0001
0000
1000
0100
0000
0001
0100
0000
1000
0000
0001
0010
,
0000
1000
0010
0000
0001
0000
0100
0010
0000
0001
0010
0000
1000
0000
0100
0010
,
0000
1000
0010
0000
0001
0000
0100
0010
0000
0001
0010
0000
1000
0000
0100
0010
,
0000
1000
0010
0000
1001
0000
0001
0100
0000
1000
0100
0000
0001
0000
1000
0010
,
0000
0001
0010
0000
1000
0000
0001
0100
0000
1000
0100
0000
0001
0000
1000
0010
,
0000
0001
0010
0000
1000
0000
0010
0100
0000
1000
0100
0000
0001
0000
0010
0100
,
0000
0001
0100
0000
1000
0000
0010
0100
0000
1000
0100
0000
0001
1000
0000
1000
,
0000
1000
0001
0000
1001
0000
0010
0100
0001
0100
0000
0010
0000
0000
0100
0001
,
0100
0010
1000
0100
2000
0000
3020
0000
1030
0100
1000
0010
0000
0010
0000
0000
,
0100
0000
0001
0000
0200
0000
0000
0300
1001
0000
0000
0000
1000
0000
0100
0000
1000
0000
0010
0000
0000
0000
0010
0000
0000
0000
0000
0000
0010
0000
0100
0000
,
0001
0100
0010
1000
0020
0000
0230
0000
0301
1000
0001
0100
0000
0100
0000
0000
,
0010
0000
0000
0000
2200
0000
0000
3300
0101
0000
0000
0000
0001
0000
0100
0000
0010
0000
1000
0000
0000
0000
1000
0000
0000
0000
0000
0000
0001
0000
0100
0000
,
0010
1000
0100
0010
0002
0000
2003
0000
3100
1000
0001
0010
0000
0010
0000
0000
,
0010
0001
1000
0100
1000
0010
0200
0000
0302
0000
0013
0100
1000
0010
1000
0100
,
0010
0001
0100
0010
1000
0001
1000
0010
0200
0000
0302
0000
0103
0001
0100
0001
,
0100
0001
0100
0001
0010
0100
1000
0000
1000
0000
0000
1000
0000
0100
0010
0000
,
0100
0000
0000
1000
0000
0010
0100
0000
1000
0000
0000
0100
0000
0001
0010
0000
,
0100
0000
0000
0001
0000
0100
1000
0000
0010
0000
0000
0100
0000
0001
1000
0000
,
0010
0000
0000
0100
0000
1000
0100
0000
0001
0000
0000
1000
0000
0010
0001
0000
,
0010
0000
0000
1000
0000
0001
0100
0000
0220
0000
0000
0000
0000
0000
0000
0000
,
0000
0000
0000
0000
0000
0000
0000
0000
0000
0000
0000
0000
0000
0000
0000
0000
0000
0000
0000
0000
0000
0000
0000
0000
0000
0000
0000
0330
0000
0000
0000
0000
;

//---------------dance-single - ----------------
#NOTES:
     dance-single:
     :
     Hard:
     12:
     0.495305,0.578405,0.241270,0.294885,0.433392,388.000000,361.000000,27.000000,33.000000,0.000000,0.000000,0.495305,0.578405,0.241270,0.294885,0.433392,388.000000,361.000000,27.000000,33.000000,0.000000,0.000000:
0000
0000
0000
0000
,
0000
0000
0000
0000
,
1100
1000
0100
0000
0001
0100
1000
0010
,
0100
0001
0100
0000
1000
0100
0001
0000
,
0010
0000
0100
1000
0100
0000
0000
0000
0010
0000
0001
0000
1000
0000
0010
0100
,
0000
0000
0001
1000
0001
0000
0000
0000
0100
0000
0010
0000
1000
0000
0100
1000
,
0000
0000
0001
0010
0001
0000
0000
0000
0100
0000
0010
0000
0100
0000
0001
0010
,
0000
0000
0001
1000
0001
0000
0000
0000
1000
0000
0100
0000
0022
0000
0000
0000
,
0000
0000
0033
0000
0001
0000
0100
0010
1000
0000
0000
0000
0001
0000
0100
0000
,
0010
0000
1000
0000
0000
0000
0100
0010
0001
0000
0000
0000
0100
0000
0010
0000
,
1000
0000
0001
0000
0000
0000
0001
0010
0100
0000
0000
0000
1000
0000
0010
0000
,
0100
0000
0001
0000
0000
0000
0100
0010
1000
0000
0000
0000
0010
0100
0001
0000
,
2000
0000
0000
0000
0000
0000
0000
0000
3100
0000
0010
0001
0010
0001
0000
0000
,
0000
0000
1000
0100
1000
0100
0000
0000
0000
0000
0010
0001
0010
0001
0000
0000
,
1000
0000
0100
0000
2002
0000
0000
0000
0000
0000
3003
0000
1000
0000
0010
1000
,
0010
1000
0000
0000
0000
0000
0001
0100
0001
0100
0000
0000
0000
0000
0010
1000
,
0010
1000
0000
0000
0001
0000
0100
0000
2002
0000
0000
0000
0000
0000
3003
0000
,
0010
0000
0100
1000
0100
1000
0000
0000
0000
0000
0100
0010
0100
0010
0000
0000
,
0000
0000
0010
0001
0010
0001
0000
0000
0000
0000
1000
0001
1000
0001
0000
0000
,
0000
0100
0010
1000
0001
0100
0010
1000
,
0001
0001
0001
0001
0001
0001
0202
0000
,
0000
0303
0010
0000
0000
0000
1000
0000
,
0000
0100
0000
0001
,
0000
0010
0000
1000
,
0000
0100
0000
0001
,
0000
0010
0001
0100
,
1000
0010
0001
0100
,
1000
0010
1000
0100
,
0001
0010
1000
0100
,
0001
0000
0000
0000
0020
0000
0000
0000
0030
1000
0001
0000
0000
0000
1000
0000
,
0110
0000
0001
0000
0020
0000
0000
0000
0030
0000
0010
0000
0000
0001
0000
0000
,
0110
0000
1000
0000
0020
0000
0000
0000
0030
1000
0001
0000
0000
0000
0001
0000
,
0110
0000
1000
0000
0020
0000
0000
0000
0030
0100
0001
0000
0000
1010
0000
0000
,
0000
0000
0000
0000
0200
0000
0000
0000
0300
0001
1000
0000
0000
0000
0100
0000
,
1001
0000
0010
0000
0200
0000
0000
0000
0300
0000
0001
0000
0000
0100
0000
0000
,
1001
0000
0010
0000
0200
0000
0000
0000
0300
0001
1000
0000
0000
0000
0100
0000
,
1001
0000
0010
0000
0200
0000
0000
0000
0300
0010
1000
0000
0000
1001
0000
0000
,
0000
0000
0000
0000
1001
0000
1000
0100
0000
1000
0100
0000
0010
0000
0000
0001
,
0000
0000
1000
0000
0001
0000
0100
0001
0000
0100
0001
0000
0010
0000
0000
0100
,
0000
0000
1000
0000
0010
0000
1000
0001
0000
1000
0001
0000
0100
0000
0000
0001
,
0000
0000
1000
0000
0010
0000
0100
0010
0000
0100
0010
0000
1000
0000
0000
0001
,
0000
0000
0100
0000
0101
0000
0000
0010
0000
0000
0010
0000
1100
0000
0000
0001
,
0000
0000
0001
0000
0101
0000
0000
1000
0000
0000
1000
0000
1010
0000
0000
0100
,
0000
0000
0100
0000
0001
0000
0000
0010
0000
0000
1000
0000
0010
0000
0000
0001
,
0000
0000
1000
0000
0100
0000
0000
0001
0000
0000
0100
0000
1000
0000
0000
0000
,
2002
0000
3003
0000
0010
0000
0100
0001
0100
0001
0000
0000
0000
0000
0001
0100
,
0001
0100
0000
0000
2002
0000
3003
0000
1000
0100
1000
0100
0000
0000
0010
0000
,
0010
0000
2002
0000
3003
0000
0010
1000
0010
1000
0000
0000
0000
0000
1000
0010
,
1000
0010
0000
0000
0220
0000
0330
0000
0100
0001
0100
0001
0000
0000
0000
0000
,
0010
0000
2200
3300
0000
0000
1000
0100
0010
0001
0000
0000
0000
0000
1000
0100
,
0010
0001
0000
0000
2002
0000
3003
0000
0001
0010
0100
1000
0000
0000
0000
0000
,
0001
0010
0100
1000
0000
0000
2002
0000
3003
0000
1000
0000
0001
0000
0100
0000
,
0010
1000
0001
0100
0120
0000
0000
1030
,
1000
0000
1000
0000
1000
0000
1001
0000
1000
0000
0100
0010
0000
0100
0010
0000
,
0001
0000
0100
0010
0000
0100
0010
0000
1000
0000
0100
0010
0000
0100
0010
0000
,
0001
0000
0100
0010
0000
0100
0010
0000
1000
0000
0001
0010
0000
1000
0010
0000
,
0001
0000
1000
0100
0000
0001
0100
0000
1000
0000
0010
0100
0000
0100
0001
0000
,
0100
0000
0010
1000
0000
1000
0100
0000
0020
0000
0000
0000
0000
0000
0000
0000
,
0000
0000
0000
0000
0000
0000
0000
0000
0000
0000
0000
0000
0000
0000
0000
0000
0000
0000
0000
0000
0000
0000
0000
0000
0000
0000
0000
0030
0000
0000
0000
0000
;

//---------------dance-single - ----------------
#NOTES:
     dance-single:
     :
     Easy:
     6:
     0.224674,0.315494,0.205526,0.116167,0.000000,176.000000,153.000000,23.000000,13.000000,0.000000,0.000000,0.224674,0.315494,0.205526,0.116167,0.000000,176.000000,153.000000,23.000000,13.000000,0.000000,0.000000:
0000
0000
0000
0000
,
0000
0000
0000
0000
,
1001
0000
0000
0000
,
0000
0000
0000
0000
,
0110
0000
1000
0001
,
1000
0000
0000
0000
,
0100
0001
0100
0000
,
0000
0000
0010
1000
,
0000
1000
0100
0010
,
0000
1000
0100
0010
,
0000
0001
0010
0100
,
0000
0001
0010
0100
,
1000
0000
2000
3100
,
0001
0100
2000
3100
,
0001
0100
0000
2000
,
3010
0001
0010
1000
,
0100
0001
0100
0000
,
1000
0000
0010
0101
,
1010
0000
0100
1100
,
0011
0001
1000
0001
,
0010
0010
0010
0010
,
0000
1100
0000
0011
,
0000
1001
0000
0110
,
0000
0101
0000
1010
,
0000
1001
0000
0110
,
0000
1000
0100
0010
,
0010
0100
1000
0010
,
0010
0100
0001
0010
,
0010
0001
0100
0010
,
0010
0000
2000
0000
0000
0000
3000
1000
,
0001
0002
0000
0003
,
1000
0000
0020
0000
0000
0000
0030
0010
,
0100
0200
0000
0310
,
0000
0000
0002
0000
0000
0000
0003
0001
,
0010
0200
0000
1300
,
0010
0000
2000
0000
0000
0000
3000
1000
,
0100
0010
0000
1001
,
0000
0101
0000
0010
,
0000
1000
0000
0100
,
0000
0001
0000
0010
,
0000
0001
0000
0100
,
0000
1001
0000
0010
,
1000
0100
0000
0010
,
0001
0100
0000
0001
,
1000
0100
0000
1000
,
1000
1001
0000
0010
,
0100
0000
1000
0000
0000
0010
0000
0100
,
0000
0001
0000
0000
0100
0000
0001
0000
,
1000
0000
0000
0000
0000
0010
0000
1000
,
0000
0001
0000
0000
1000
0000
0100
0000
,
0001
0000
0000
0000
0000
0001
0000
0100
,
0000
1000
0000
0000
0000
0000
0010
0000
,
0100
0000
0010
0000
0100
0000
0000
0001
,
0000
1000
0000
0002
1003
0000
0000
0000
,
1100
0000
0010
0000
,
0011
0000
0001
0000
,
0101
0000
0010
0000
,
1010
0000
2002
0000
,
0000
0000
0000
0000
0000
0000
0000
0000
0000
0000
0000
0000
0000
0000
0000
0000
0000
0000
0000
0000
0000
0000
0000
0000
0000
0000
0000
3003
0000
0000
0000
0000
;

//---------------dance-double - ----------------
#NOTES:
     dance-double:
     :
     Hard:
     12:
     0.423818,0.552114,0.089359,0.205526,0.357436,332.000000,322.000000,10.000000,23.000000,0.000000,0.000000,0.423818,0.552114,0.089359,0.205526,0.357436,332.000000,322.000000,10.000000,23.000000,0.000000,0.000000:
00000000
00000000
00000000
00000000
,
00000000
00000000
00000000
00000000
,
01100000
00000000
00000000
00000000
,
00000000
00000000
00000000
00000000
,
00000110
00000000
00000100
00000000
00000001
00000000
00000000
00000001
00000100
00000000
00000010
00000000
00001000
00000000
00000002
00000000
,
00000000
00000000
00000103
00000000
00001000
00000000
00000000
00000000
00010000
00000000
01000000
00000000
10000000
00000000
00010000
10000000
,
00000000
00000000
10000000
00000000
00100000
00000000
00000000
00100000
01000000
00000000
00010000
00000000
10000000
00000000
02000000
00000000
,
00000000
03010000
00001000
00000000
00000100
00000001
00002002
00000000
,
00003003
00000000
00000010
00000100
00000001
00000000
00000100
00001000
,
00010000
00200000
00000000
10300000
01000000
00000000
00010000
00001000
,
00100000
02000000
00000000
03010000
00001000
00000000
00000100
00001000
,
00010000
00000020
00000000
00000130
00001000
00000000
00010000
01000000
,
22000000
00000000
00000000
00000000
33000000
00000000
00000000
00000000
00100000
00000000
10000000
01000000
00100000
00010000
00000000
00000000
,
00000000
00000000
10000000
01000000
00100000
00010000
00000000
00000000
10000000
00000000
01000000
00000000
00010000
00000000
00000000
00001000
,
00000000
00000000
00000100
00000000
00000002
00000000
00000000
00000000
00000000
00000000
00000000
00000000
00000003
00000000
00000100
00000010
,
00001000
00000001
00000000
00000000
00000000
00000000
00000100
00000010
00001000
00000001
00000000
00000000
00000001
00000000
00000100
00000000
,
00001000
00000000
00000000
00010000
00000000
00000000
01000000
00000000
20000000
00000000
00000000
00000000
00000000
00000000
00000000
00000000
,
30100000
00000000
01000000
00010000
10000000
00100000
00000000
00000000
00000000
00000000
01000000
00010000
10000000
00100000
00000000
00000000
,
10000000
00000000
00100000
00000000
00010000
00000000
00000000
00001000
00000000
00000000
00000010
00000000
00000001
00000000
00000000
00000000
,
00000100
00000010
00001000
00000001
00000100
00000010
00001000
00000001
,
00000100
00000100
00001000
00001000
00010000
00010000
02000000
00000000
,
00000000
13000000
00000000
00010000
,
00000000
00001000
00000000
00000001
,
00000000
00000010
00000000
00001000
,
00000000
00100000
00000000
01000000
,
00000000
00010000
00000000
00000100
,
00000000
00000010
00000000
00001000
,
00000000
00010000
00000000
10000000
,
00000000
01000000
00000000
00010000
,
00001000
00000000
00000000
00000000
00000002
00000000
00000000
00000000
00000003
00000001
00000100
00000000
00000000
00000000
00000010
00000000
,
00010000
00000000
00001000
00000000
02000000
00000000
00000000
00000000
03000000
00000000
00100000
00000000
00000000
10010000
00000000
00000000
,
10000000
00000000
01000000
00000000
00200000
00000000
00000000
00000000
00300000
00100000
00001000
00000000
00000000
00000000
00010000
00000000
,
00001000
00000000
00000100
00000000
00000002
00000000
00000000
00000000
00000003
00000001
00001000
00000000
00000000
00001010
00000000
00000000
,
00000000
00000000
00000000
00000000
00000200
00000000
00000000
00000000
00000300
00000100
00000010
00000000
00000000
00000000
00010000
00000000
,
00001000
00000000
00100000
00000000
02000000
00000000
00000000
00000000
03000000
00000000
10000000
00000000
00000000
01010000
00000000
00000000
,
00100000
00000000
00001000
00000000
00020000
00000000
00000000
00000000
00030000
00010000
00000100
00000000
00000000
00000000
00001000
00000000
,
00000010
00000000
00000100
00000000
00002000
00000000
00000000
00000000
00003000
00001000
00010000
00000000
00000000
01000000
00000000
00000000
,
00000000
00000000
00000000
00000000
10010000
00000000
00000000
10000000
00000000
00000000
01000000
00000000
00100000
00000000
00010000
01000000
,
00000000
01000000
00001000
00000000
00010000
00000000
00000000
00000010
00000000
00000000
00000100
00000000
00000001
00000000
00001000
00000100
,
00000000
00000100
00010000
00000000
00000010
00000000
00000000
00000100
00000000
00000000
00001000
00000000
00010000
00000000
00001000
01000000
,
00000000
01000000
00100000
00000000
10000000
00000000
00000000
00100000
00000000
00000000
00010000
00000000
00001000
00000000
00010000
00000100
,
00000000
00000100
00000010
00000000
00000001
00000000
00000100
00000010
00000000
00000010
00001000
00000000
00000010
00000000
00000100
00000001
,
00000000
00000001
00001000
00000000
00000100
00000000
00010000
00001000
00000000
00010000
00001000
00000000
00100000
00000000
01000000
10000000
,
00000000
01000000
10000000
00000000
00100000
00000000
01000000
00010000
00000000
00010000
10000000
00000000
00100000
00000000
10000000
00010000
,
00000000
00010000
01000000
00000000
00100000
00000000
10000000
01000000
00000000
10000000
01000000
00000000
00100000
00000000
00000000
00000000
,
00011000
00000000
00000000
00000000
00000010
00000000
00000001
00000100
00000010
00001000
00000000
00000000
00000000
00000000
00000001
00000100
,
00000010
00001000
00000000
00000000
00000000
00000000
00000000
00000000
00010000
00001000
00010000
00001000
00000000
00000000
00000000
00000000
,
00001000
00000000
00100000
00000000
01000000
00000000
10000000
01000000
00100000
00010000
00000000
00000000
00000000
00000000
10000000
01000000
,
00100000
00010000
00000000
00000000
00000000
00000000
00000000
00000000
00001000
00010000
00001000
00010000
00000000
00000000
00000000
00000000
,
00010000
00000000
00000100
00000000
00000010
00000000
00000001
00001000
00000010
00000100
00000000
00000000
00000000
00000000
00000001
00001000
,
00000010
00000100
00000000
00000000
00000000
00000000
00000000
00000000
00000010
00010000
00000010
00010000
00000000
00000000
00000000
00000000
,
00001000
01000000
00100000
20000000
30000000
10000000
01000000
00100000
,
01000000
10000000
01000000
00100000
01000000
00000000
00000000
01000000
,
00000000
00000000
01000000
00000000
00000000
00000000
01000000
00000000
10000000
00000000
00000000
01000000
00000000
00000000
00010000
00000000
,
00001000
00000000
00000000
00000010
00000000
00000000
00000001
00000000
00000100
00000000
00000000
00000001
00000000
00000000
00000010
00000000
,
00000100
00000000
00000000
00000010
00000000
00000000
00000001
00000000
00000100
00000000
00000000
00001000
00000000
00000000
00010000
00000000
,
01000000
00000000
00000000
10000000
00000000
00000000
00010000
00000000
01000000
00000000
00000000
00010000
00000000
00000000
00100000
00000000
,
01000000
00000000
00000000
10000000
00000000
00000000
00100000
00000000
02200000
00000000
00000000
00000000
00000000
00000000
00000000
00000000
,
00000000
00000000
00000000
00000000
00000000
00000000
00000000
00000000
00000000
00000000
00000000
00000000
00000000
00000000
00000000
00000000
00000000
00000000
00000000
00000000
00000000
00000000
00000000
00000000
00000000
00000000
00000000
03300000
00000000
00000000
00000000
00000000
;

//---------------dance-single - ----------------
#NOTES:
     dance-single:
     :
     Beginner:
     4:
     0.157017,0.210441,0.160846,0.062551,0.000000,123.000000,105.000000,18.000000,7.000000,0.000000,0.000000,0.157017,0.210441,0.160846,0.062551,0.000000,123.000000,105.000000,18.000000,7.000000,0.000000,0.000000:
// measure 0
0000
0000
0000
0000
,  // measure 1
0000
0000
0000
0000
,  // measure 2
1001
0000
0000
0000
,  // measure 3
0000
0000
0000
0000
,  // measure 4
0110
0000
1000
0000
,  // measure 5
0001
0000
1000
1000
,  // measure 6
1000
0000
0001
0000
,  // measure 7
1000
0000
0001
0001
,  // measure 8
0000
1001
0000
0100
,  // measure 9
0000
0010
0000
0100
,  // measure 10
0100
0100
0000
0010
,  // measure 11
0000
0100
0000
0010
,  // measure 12
0010
0000
0110
0000
,  // measure 13
1000
0000
0001
0000
,  // measure 14
0100
0100
0000
0010
,  // measure 15
0000
1000
0000
0001
,  // measure 16
0000
0100
0100
0000
,  // measure 17
0110
0000
1000
0000
,  // measure 18
0001
0000
0100
0000
,  // measure 19
0010
0000
0010
0000
,  // measure 20
0010
0010
0010
0010
,  // measure 21
0000
1001
0000
0000
,  // measure 22
0000
0100
0000
0000
,  // measure 23
0000
0010
0000
0000
,  // measure 24
0000
1000
0000
0000
,  // measure 25
0000
0001
0000
0000
,  // measure 26
0000
0100
0000
0000
,  // measure 27
0000
0010
0000
0000
,  // measure 28
0000
1000
0000
0000
,  // measure 29
0000
0200
0300
0000
,  // measure 30
1000
2000
3000
0000
,  // measure 31
0020
0030
0000
0100
,  // measure 32
0200
0300
0000
0002
,  // measure 33
0003
0001
0000
0010
,  // measure 34
0010
0000
0000
0100
,  // measure 35
0000
1000
0000
0010
,  // measure 36
0010
0000
0000
0100
,  // measure 37
0000
0110
0000
0000
,  // measure 38
0000
1001
0000
0000
,  // measure 39
0000
0110
0000
0000
,  // measure 40
0000
1001
0000
0000
,  // measure 41
0000
0010
0010
0010
,  // measure 42
0000
1000
1000
1000
,  // measure 43
0000
0001
0001
0001
,  // measure 44
0000
0100
0100
0000
,  // measure 45
0000
0110
0000
1000
,  // measure 46
1000
1000
0000
0000
,  // measure 47
0000
0110
0000
0001
,  // measure 48
0001
0001
0000
0000
,  // measure 49
0000
1001
0000
0010
,  // measure 50
0010
0010
0000
0000
,  // measure 51
0100
0000
0000
1000
,  // measure 52
1000
1000
1000
0000
,  // measure 53
0000
0000
1001
0000
,  // measure 54
0010
0000
0110
0000
,  // measure 55
1000
0000
1001
0000
,  // measure 56
0010
0000
0110
0000
,  // measure 57
0100
0000
2002
0000
,  // measure 58
0000
0000
0000
0000
0000
0000
0000
3003
;

//---------------dance-single - ----------------
#NOTES:
     dance-single:
     :
     Medium:
     10:
     0.381691,0.473240,0.285949,0.125103,0.232334,299.000000,267.000000,32.000000,14.000000,0.000000,0.000000,0.381691,0.473240,0.285949,0.125103,0.232334,299.000000,267.000000,32.000000,14.000000,0.000000,0.000000:
0000
0000
0000
0000
,
0000
0000
0000
0000
,
1100
0000
0000
0000
,
0000
0000
0000
0000
,
0011
0000
0001
0000
1000
0000
0000
1000
0010
0000
1000
0000
0010
0000
0000
0000
,
1100
0000
0100
0000
1000
0000
0000
1000
0001
0000
1000
0000
0001
0000
0000
0000
,
0110
0000
0100
0000
0001
0000
0000
0001
0010
0000
0001
0000
0010
0000
0000
0000
,
0011
0000
0001
0000
0100
0000
0000
0100
0010
0000
1000
0000
1001
0000
0000
0000
,
0000
0000
0000
0000
1010
0000
1000
0000
0010
0000
0000
0010
0100
0000
0010
0000
,
0100
0000
0000
0000
0101
0000
0001
0000
0100
0000
0000
0100
0010
0000
0100
0000
,
0010
0000
0000
0000
1010
0000
1000
0000
0001
0000
0000
0001
1000
0000
0001
0000
,
1000
0000
0000
0000
0101
0000
0001
0000
1000
0000
0000
1000
0010
0000
1000
0000
,
0100
0000
0000
0000
0000
0000
0000
0000
0000
0000
1000
0000
0100
0000
0000
0010
,
0000
0000
0100
0000
1000
0000
0000
0000
0000
0000
0001
0000
0010
0000
0000
0100
,
0000
0010
0001
0000
0000
0000
0000
0100
,
0001
0000
0000
1000
0000
0000
0001
0000
0100
0000
0000
0000
0000
0000
0010
0000
,
1000
0000
0000
0001
0000
0000
1000
0000
0010
0000
0000
0000
0000
0000
0000
0000
,
0000
0000
1000
0000
0100
0000
0000
0001
0000
0000
0100
0000
1000
0000
0000
0000
,
0000
0000
0001
0000
0100
0000
0000
1000
0000
0000
0100
0000
0001
0000
0000
0000
,
0001
1000
0010
0100
0010
1000
0001
0100
,
0010
1000
0010
1000
0010
1000
0010
0000
,
0000
1100
0000
0000
,
0000
0101
0000
0000
,
0000
0011
0000
0000
,
0000
1010
0000
1100
,
0000
0101
0000
0011
,
0000
1010
0000
1100
,
0000
0101
0000
0011
,
0000
1010
1100
0101
,
0011
0000
0000
0000
2000
0000
0000
0000
3000
1000
0100
0000
0000
0000
0010
0000
,
0001
0000
0000
0000
0002
0000
0000
0000
0003
0000
0100
0000
0000
0010
0000
0000
,
1000
0000
0000
0000
2000
0000
0000
0000
3000
1000
0010
0000
0000
0000
0100
0000
,
0001
0000
0000
0000
0002
0000
0000
0000
0003
0010
0100
0000
0000
1000
0000
0000
,
0000
0000
0000
0000
0002
0000
0000
0000
0003
0001
0010
0000
0000
0000
0100
0000
,
1000
0000
0000
0000
2000
0000
0000
0000
3000
0000
0010
0000
0000
0100
0000
0000
,
0001
0000
0000
0000
0002
0000
0000
0000
0003
0001
0100
0000
0000
0000
0010
0000
,
1000
0000
0000
0000
2000
0000
0000
0000
3000
0100
0010
0000
0000
0001
0000
0000
,
0000
0000
0000
0000
0100
0000
0000
0010
0000
0000
1000
0000
0100
0000
0000
0001
,
0000
0000
0100
0000
1000
0000
0000
0010
0000
0000
0100
0000
0001
0000
0000
0010
,
0000
0000
0100
0000
0001
0000
0000
0100
0000
0000
1000
0000
0010
0000
0000
0100
,
0000
0000
0001
0000
0010
0000
0000
1000
0000
0000
0010
0000
0001
0000
0000
0100
,
0000
0000
0010
0000
1001
0000
0000
0001
0000
0000
0100
0000
0010
0000
0000
0001
,
0000
0000
0010
0000
1000
0000
0000
0001
0000
0000
1000
0000
0100
0000
0000
0010
,
0000
0000
1000
0000
0010
0000
0000
0001
0000
0000
1000
0000
0010
0000
0000
0100
,
0000
0000
0001
0000
0010
0000
0000
0100
0000
0000
1000
0000
0000
0000
0000
0000
,
0120
0000
0000
0000
1030
0000
0001
0000
0100
0000
0000
0001
0000
0000
0100
0000
,
0001
0000
0000
0000
1001
0000
0000
0000
0000
0000
1000
0000
0000
0100
0000
0000
,
0010
0000
0002
0000
0003
0000
1000
0000
0100
0000
0000
1000
0000
0000
0100
0000
,
1000
0000
1001
0000
0000
0010
0000
0100
,
0000
0000
2001
0000
3000
0000
0010
0000
1000
0000
0000
0010
0000
0000
1000
0000
,
0010
0000
0000
0000
0110
0000
0000
0000
0000
0000
0100
0000
0000
0001
0000
0000
,
1000
0010
0000
0000
0000
0100
0010
1000
,
0001
0100
0010
1000
0000
0000
0001
0100
,
0001
0000
0100
0000
0001
0000
0020
0000
0130
0000
0000
1000
0000
0000
0100
0000
,
0010
0000
0000
0001
0000
0000
0010
0000
0001
0000
0000
0100
0000
0000
1000
0000
,
1000
0000
0000
0100
0000
0000
0001
0000
1000
0000
0000
0100
0000
0000
0001
0000
,
0001
0000
0000
0100
0000
0000
1000
0000
0010
0000
0000
1000
0000
0000
0010
0000
,
0100
0000
0000
0001
0000
0000
0100
0000
2002
0000
0000
0000
0000
0000
0000
0000
,
0000
0000
0000
0000
0000
0000
0000
0000
0000
0000
0000
0000
0000
0000
0000
0000
0000
0000
0000
0000
0000
0000
0000
0000
0000
0000
0000
3003
0000
0000
0000
0000
;

//---------------dance-double - ----------------
#NOTES:
     dance-double:
     :
     Challenge:
     15:
     0.642109,0.867607,0.151910,0.223398,0.929335,503.000000,486.000000,17.000000,25.000000,0.000000,0.000000,0.642109,0.867607,0.151910,0.223398,0.929335,503.000000,486.000000,17.000000,25.000000,0.000000,0.000000:
00000000
00000000
00000000
00000000
,
00000000
00000000
00000000
00000000
,
10010000
00000000
00000000
00000000
,
00000000
00000000
00000000
00000000
,
00001001
00000000
00000001
00000100
00000001
00000010
00000000
00000010
00000001
00000100
00000001
00000000
00000010
00000000
00000100
00010000
,
00000000
00000000
00010000
00000100
00010000
00001000
00000000
00001000
00010000
00000100
00010000
00000000
00001000
00000000
00100000
01000000
,
00000000
00000000
01000000
10000000
01000000
00100000
00000000
00100000
01000000
10000000
01000000
00000000
00100000
00000000
00010000
10000000
,
00000000
00000000
00100000
10000000
00100000
01000000
00000000
01000000
00010000
00000000
00100000
00000000
00002000
00000000
00000000
00000000
,
00000000
00000000
00000000
00000000
00013000
00000000
00001000
00100000
00001000
00010000
00000000
00010000
00001000
00100000
00001000
00000000
,
00010000
00000000
00000100
00000010
00000000
00000000
00000001
00001000
00000001
00000100
00000000
00000100
00000001
00001000
00000001
00000000
,
00000010
00000000
00000100
00001000
00000000
00000000
00000100
00010000
00000100
00001000
00000000
00001000
00000100
00010000
00000100
00000000
,
00010000
00000000
00001000
01000000
00000000
00000000
00100000
10000000
00100000
01000000
00000000
01000000
00100000
00000000
10000000
00000000
,
20020000
00000000
00000000
00000000
00000000
00000000
30030000
00000000
10000000
00000000
00100000
01000000
00001000
00010000
00000000
00010000
,
00000000
00000000
00001000
00010000
00000010
00000100
00000000
00000000
00000110
00000000
00000001
00000010
00000100
00010000
00000000
00010000
,
00000000
00000000
00001000
00100000
00002000
00000000
00000000
00000000
00000000
00000000
00000000
00000000
00103000
00000000
01000000
10000000
,
00100000
01000000
00000000
01000000
00000000
00000000
00100000
01000000
00001000
00010000
00000000
00000000
00011000
00000000
00001000
00010000
,
00000010
00000100
00000000
00000100
00000000
00000000
00000001
00001000
00000002
00000000
00000000
00000000
00000000
00000000
00000000
00000000
,
00000103
00000000
00000010
00001000
00000001
00000100
00000000
00000100
00000000
00000000
00000010
00010000
00001000
00010000
00000000
00000000
,
00011000
00000000
00001000
00100000
01000000
00100000
00000000
00010000
00000000
00000000
01000000
00100000
10000000
00100000
10000000
01000000
,
00100000
00010000
00100000
00001000
00010000
00000010
00001000
00000100
00000010
00000001
00000100
00000010
00010000
00001000
01000000
00100000
,
10000000
00010000
10000000
01000000
10000000
00010000
10000000
01000000
10000000
00010000
10000000
01000000
10000000
00000000
00000000
00000000
,
00000000
00000000
00000000
00000000
10010000
00000000
00000000
10000000
00000000
00000000
01000000
00000000
00010000
00000000
00000000
00001000
,
00000000
00000000
00000010
00000000
00000001
00000000
00000000
00001000
00000000
00000000
00000100
00000000
00000010
00000000
00000000
00001000
,
00000000
00000000
00010000
00000000
00100000
00000000
00000000
10000000
00000000
00000000
01000000
00000000
00100000
00000000
00000000
10000000
,
00000000
00000000
00100000
00000000
00010000
00000000
00000000
01000000
00000000
00000000
00100000
00000000
00010000
00000000
00000000
00001000
,
00000000
00000000
00000100
00000000
00000001
00000000
00000000
00000100
00000000
00000010
00010000
00000000
00001000
00000000
00000000
00010000
,
00000000
00001000
01000000
00000000
00100000
00000000
00000000
10000000
00000000
00010000
01000000
00000000
00001000
00000000
00000000
00010000
,
00000000
00000100
00001000
00000000
00000010
00000000
00000000
00000100
00000000
00000001
00001000
00000000
00000010
00000000
00000000
00000100
,
00000000
00000001
00000100
00000000
00000010
00000000
00000000
00010000
00000000
00001000
00010000
00000000
00001000
00000000
00000000
00100000
,
00000000
01000000
10000000
00000000
12000000
00000000
00000000
00000000
03000000
00100000
00010000
00000000
00000000
00000000
01000000
00000000
,
00001000
00010000
00001000
00010000
00000020
00000000
00000000
00000000
00000030
00000000
00000100
00000001
00000000
00000001
00001000
00000000
,
00010010
00000000
00010000
00000100
00002000
00000000
00000000
00000000
00003000
00000100
00010000
00000000
00000000
00000000
00001000
00000000
,
01000000
00100000
01000000
00100000
20000000
00000000
00000000
00000000
30000000
00100000
01000000
00000000
00000000
00001000
00000000
00000000
,
00000000
00000000
00000000
00000000
00012000
00000000
00000000
00000000
00003000
01000000
00010000
00000000
00000000
00000000
00100000
00000000
,
01000000
10000000
01000000
10000000
02000000
00000000
00000000
00000000
03000000
00000000
00100000
00001000
00000000
00001000
00010000
00000000
,
00101000
00000000
00010000
00000000
00000020
00000000
00000000
00000000
00000030
00000100
00000001
00000000
00000000
00000000
00001000
00000000
,
00000100
00000010
00000100
00000010
00000200
00000000
00000000
00000000
00000300
00010000
00001000
00000000
00000000
01100000
00000000
00000000
,
00000000
00000000
00000000
00000000
10100000
00000000
10000000
00010000
00000000
01000000
00010000
00000000
00100000
00000000
00001000
00010000
,
00000000
00000100
00001000
00000000
00000010
00000000
00000100
00000001
00000000
00000100
00000010
00000000
00000010
00000000
00001000
00000100
,
00000000
00001000
00000001
00000000
00000010
00000000
00000100
00010000
00000000
00001000
00010000
00000000
00001000
00000000
01000000
00100000
,
00000000
01000000
00010000
00000000
00100000
00000000
01000000
10000000
00000000
01000000
00100000
00000000
00010000
00000000
01000000
00100000
,
00000000
10000000
00100000
00000000
10010000
00000000
01000000
00100000
00000000
00100000
00001000
00000000
00010000
00000000
00000010
00000100
,
00000000
00000100
00000001
00000000
00001000
00000000
00000001
00000100
00000000
00000100
00000001
00000000
00000010
00000000
00000100
00001000
,
00000000
00001000
00000100
00000000
00010000
00000000
00001000
01000000
00000000
01000000
00100000
00000000
10000000
00000000
00010000
00100000
,
00000000
00100000
01000000
00000000
10000000
00000000
00100000
10000000
00000000
10000000
00100000
00000000
01000000
00010000
00000000
10000000
,
00000000
00010000
01000000
00000000
10010000
00000000
10000000
01000000
00100000
00010000
00000000
00010000
00000000
00000000
10000000
01000000
,
00100000
00010000
01000000
00001000
00020000
00000000
00030200
00000000
00001300
00000010
00000100
00000001
00000000
00000001
00000000
00000000
,
00000001
00000010
00000200
00000000
00001300
00000000
00000010
00000100
00000001
00001000
00000000
00001000
00000000
00000000
00000010
00000100
,
00000001
00001000
00000100
00010000
00002000
00000000
02003000
00000000
03100000
10000000
00010000
01000000
00000000
01000000
00000000
00000000
,
00000000
00000000
10010000
00000000
01000000
00000000
01000000
00010000
10000000
00100000
00000000
00100000
00000000
00000000
10000000
01000000
,
00100000
00010000
00100000
00001000
00020000
00000000
00030020
00000000
00001030
00000100
00000010
00000001
00000000
00000001
00000000
00000000
,
00000100
00000001
00001000
00000010
00000100
00000010
00020000
00000000
00032000
00000000
01003000
00100000
10000000
00010000
01000000
00100000
,
10000000
00010000
01000000
00100000
10000000
00010000
01000000
00100000
20000000
00000000
32000000
00000000
13000000
01000000
10000000
01000000
,
10000000
01000000
10000000
01000000
10000000
01000000
10000000
00000000
00010000
00000000
00000000
01000000
00000000
00000000
00100000
00000000
,
00010000
00000000
00000000
00001000
00000000
00000000
00000100
00000000
00000001
00000000
00000000
00000010
00000000
00000000
00001000
00000000
,
00010000
00000000
00000000
00000100
00000000
00000000
00000010
00000000
00001000
00000000
00000000
00010000
00000000
00000000
00100000
00000000
,
10000000
00000000
00000000
01000000
00000000
00000000
00100000
00000000
10000000
00000000
00000000
00100000
00000000
00000000
00010000
00000000
,
01000000
00000000
00000000
00100000
00000000
00000000
00010000
00000000
00012000
00000000
00000000
00000000
00000000
00000000
00000000
00000000
,
00000000
00000000
00000000
00000000
00000000
00000000
00000000
00000000
00000000
00000000
00000000
00000000
00000000
00000000
00000000
00000000
00000000
00000000
00000000
00000000
00000000
00000000
00000000
00000000
00000000
00000000
00000000
00003000
00000000
00000000
00000000
00000000
;

//---------------dance-double - ----------------
#NOTES:
     dance-double:
     :
     Medium:
     10:
     0.357436,0.473240,0.160846,0.214462,0.142975,280.000000,262.000000,18.000000,24.000000,0.000000,0.000000,0.357436,0.473240,0.160846,0.214462,0.142975,280.000000,262.000000,18.000000,24.000000,0.000000,0.000000:
00000000
00000000
00000000
00000000
,
00000000
00000000
00000000
00000000
,
01001000
00000000
00000000
00000000
,
00000000
00000000
00000000
00000000
,
00010100
00000000
00000010
00000000
00000001
00000100
00000010
00000000
,
00000101
00000000
00000100
00000000
00000010
00001000
00010000
00000000
,
00011000
00000000
00100000
00000000
01000000
00010000
00001000
00000000
,
00010010
00000000
00000100
00000000
00000001
00001000
00000220
00000000
,
00000000
00000330
00000001
00000100
00001000
00000000
00000100
00001000
,
00010000
01000000
10000000
01000000
00010000
00000000
01000000
00010000
,
00001000
00000100
00000001
00000010
00001000
00000000
00000010
00001000
,
00010000
00100000
10000000
00100000
00010000
00000000
00001000
00000010
,
00000002
00000000
00000000
00000000
00000000
00000000
00000000
00000000
00000103
00000000
00000010
00000000
00000010
00000000
00000000
00000100
,
00000000
00000000
00000010
00000000
00000010
00000000
00000000
00000000
00011000
00000000
00000000
00000000
00000100
00000000
00000000
00010000
,
00000000
00001000
02000000
00000000
00000000
00000000
03100000
01000000
,
01000000
00000000
00000000
00100000
00000000
00000000
01000000
00000000
01000000
00000000
00000000
00000000
00011000
00000000
00000000
00000000
,
00100000
00000000
00000000
00001000
00000000
00000000
00010000
00000000
00000020
00000000
00000000
00000000
00000000
00000000
00000000
00000000
,
00000130
00000000
00000001
00000000
00000001
00000000
00000000
00001000
00000000
00000000
00000100
00000000
00000100
00000000
00000000
00000000
,
00011000
00000000
00000000
00000000
00100000
00000000
00000000
00010000
00000000
00000000
01000000
00000000
01000000
00000000
00100000
00000000
,
10000000
01000000
00100000
00100000
01000000
00100000
00001000
00001000
,
00010000
00001000
00010000
00000100
00010000
00001000
00022000
00000000
,
00000000
00033000
00011000
00000000
00000000
00000000
00000010
00000000
,
00000000
00000001
00000000
00000100
,
00000000
00001000
00000000
00010000
,
00000000
00100000
00000000
10000000
,
00000000
01000000
00010000
00001000
,
00000010
00000001
00000100
00001000
,
00010000
00100000
10000000
01000000
,
00010000
00001000
00000010
00000001
,
00000100
00000000
00000020
00000000
00000000
00020030
00000000
00000000
,
00031000
00100000
00020000
00000000
00000000
02030000
00000000
00000000
,
03100000
10000000
02000000
00000000
00000000
03200000
00000000
00000000
,
00301000
00000000
00010000
00000000
00000200
00000000
00000000
00000000
00000000
00000000
00001300
00000000
00000000
00001000
00000000
00000000
,
00000000
00000000
00000020
00000000
00000000
00000230
00000000
00000301
,
00001000
00000000
00000100
00000000
00000020
00000000
00000000
00000000
00000000
00000000
00000130
00000000
00000000
00010000
00000000
00000000
,
00001000
00100000
00020000
00000000
00000000
02030000
00000000
03100000
,
10000000
00000000
00010000
00000000
02000000
00000000
00000000
00000000
00000000
00000000
03001000
00000000
00000000
00010000
00000000
00000000
,
00000000
00000000
00000000
00000000
00001000
00000000
00000000
00010000
00000000
00000000
00000010
00000000
00000100
00000000
00000000
00000001
,
00000000
00000000
00000010
00000000
00000100
00000000
00000000
00010000
00000000
00000000
00001000
00000000
01000000
00000000
00000000
00100000
,
00000000
00000000
01000000
00000000
00010000
00000000
00000000
10000000
00000000
00000000
01000000
00000000
10000000
00000000
00000000
00010000
,
00000000
00000000
00100000
00000000
00001000
00000000
00000000
00010000
00000000
00000000
00000100
00000000
00001000
00000000
00000000
00000010
,
00000000
00000000
00000100
00000000
00000001
00000000
00000000
00001000
00000000
00000000
00000010
00000000
00001000
00000000
00000000
00000100
,
00000000
00000000
00010000
00000000
00001000
00000000
00000000
00100000
00000000
00000000
00001000
00000000
00010000
00000000
00000000
00001000
,
00000000
00000000
01000000
00000000
00100000
00000000
00000000
10000000
00000000
00000000
00100000
00000000
01000000
00000000
00000000
00010000
,
00000000
00000000
01000000
00000000
00010000
00000000
00000000
10000000
00000000
00000000
00010000
00000000
00000000
00000000
00000000
00000000
,
00000000
00000000
10010000
10000000
01000000
00000000
00000000
10000000
,
01000000
00000000
00110000
00000000
00000000
00000000
00000000
00100000
,
00001000
00020000
00031000
00010000
00000100
00000000
00000000
00010000
,
00000100
00000000
00000011
00000000
00000000
00000000
00000000
00001001
,
00000000
00000020
00010030
00001000
01000000
00000000
00000000
00001000
,
01000000
00000000
10100000
00000000
00000000
10000000
00000000
10000000
,
01000000
00100000
00000000
00000000
00000000
00010000
01000000
00010000
,
00100000
00010000
01000000
00001000
00010000
00000000
00000000
00010000
,
00000000
00000000
00010000
00000000
00000000
00000000
00011000
00000000
00000010
00000000
00000000
00000010
00000000
00000000
00000100
00000000
,
00000001
00000000
00000000
00000001
00000000
00000000
00001000
00000000
00000100
00000000
00000000
00000100
00000000
00000000
00010000
00000000
,
00001000
00000000
00000000
00001000
00000000
00000000
00100000
00000000
01000000
00000000
00000000
01000000
00000000
00000000
10000000
00000000
,
00100000
00000000
00000000
00100000
00000000
00000000
01000000
00000000
00001000
00000000
00000000
00001000
00000000
00000000
00010000
00000000
,
00000010
00000000
00000000
00000010
00000000
00000000
00000100
00000000
00000202
00000000
00000000
00000000
00000000
00000000
00000000
00000000
,
00000000
00000000
00000000
00000000
00000000
00000000
00000000
00000000
00000000
00000000
00000000
00000000
00000000
00000000
00000000
00000000
00000000
00000000
00000000
00000000
00000000
00000000
00000000
00000000
00000000
00000000
00000000
00000303
00000000
00000000
00000000
00000000
;

//---------------dance-double - ----------------
#NOTES:
     dance-double:
     :
     Easy:
     6:
     0.220845,0.289202,0.125103,0.178718,0.000000,173.000000,159.000000,14.000000,20.000000,0.000000,0.000000,0.220845,0.289202,0.125103,0.178718,0.000000,173.000000,159.000000,14.000000,20.000000,0.000000,0.000000:
00000000
00000000
00000000
00000000
,
00000000
00000000
00000000
00000000
,
01100000
00000000
00000000
00000000
,
00000000
00000000
00000000
00000000
,
01100000
10000000
00010000
00000000
,
00100000
00001000
00010000
00000010
,
00000100
00000001
00001000
00000000
,
00000100
00010000
00001000
02000000
,
00000000
03100000
10000000
01000000
,
00000000
00100000
00001000
00010000
,
00000010
00000100
00000001
00000000
,
00000010
00000100
00010000
00001000
,
02000000
00000000
00000000
00000000
03100000
10000000
00010000
00000000
,
00000000
10000000
00010000
00000000
10010000
00000000
00000000
00000000
,
00000000
00010000
10000000
00000000
00000000
00000000
00000000
00100000
,
01000000
00000000
00000000
00100000
01000000
00000000
00001000
00000000
,
00000000
00000000
00011000
00000000
,
00000000
00000010
00000100
00000000
00000000
00000010
00000100
00000000
,
00000110
00000000
00000000
00000000
00000000
00000100
00000010
00000000
,
00010000
00010000
00010000
00010000
,
00001000
00001000
00001000
00011000
,
00000000
00010000
00000000
00001000
,
00000000
01000000
00000000
00100000
,
00000000
10000000
00000000
01000000
,
00000000
00010000
00000000
00001000
,
00000000
00000010
00000000
00000001
,
00000000
00000100
00000000
00001000
,
00000000
00100000
00000000
10000000
,
00000000
01000000
00000000
00010000
,
00000000
00000000
00002000
00000000
00000000
00023000
00000000
00000000
,
00030010
00000000
00000200
00000000
00000000
00000302
00000000
00000000
,
00001003
00000000
00000200
00000000
00000000
00020300
00000000
00000000
,
00031000
00000000
00200000
00000000
00000000
01300000
00000000
00000000
,
00000000
00000000
20000000
00000000
00000000
30200000
00000000
00000000
,
01300000
00000000
00020000
00000000
00000000
00230000
00000000
00000000
,
00301000
00000000
00020000
00000000
00000000
00030020
00000000
00000000
,
00000130
00000000
00000002
00000000
00000000
00001003
00000000
00000000
,
00000000
00001001
00000000
00000100
,
00010000
00001000
00000000
00100000
,
00010000
01000000
00000000
00100000
,
10000000
00010000
00000000
01000000
,
00001000
00011000
00000000
00010000
,
00000010
00000100
00000000
00000001
,
00001000
00000100
00000000
00001000
,
00000010
00010000
00000000
00002000
,
00013000
00000000
00011000
00000000
00000000
00001000
00000000
00001000
,
00100000
00000000
01100000
00000000
00000000
00000000
00000000
10000000
,
00000000
10000000
10010000
00000000
00000000
00100000
00000000
00100000
,
00001000
00000000
00011000
00000000
00000000
00000000
00000000
00010000
,
00000000
00000020
00000130
00000000
00000000
00000001
00000000
00000001
,
00001000
00001001
00000000
00000010
,
00000010
00010000
00000000
00011000
00000000
00000000
00100000
00000000
,
00100000
00000000
00100000
00000000
00100000
00000000
00000000
01000000
,
00000000
01000000
00000000
02000000
13000000
00000000
00000000
00000000
,
00100000
00000000
00010000
00000000
,
00001000
00000000
00000010
00000000
,
00000001
00000000
00000100
00000000
,
00001000
00000000
00020000
00000000
,
00000000
00000000
00000000
00000000
00000000
00000000
00000000
00000000
00000000
00000000
00000000
00000000
00000000
00000000
00000000
00000000
00000000
00000000
00000000
00000000
00000000
00000000
00000000
00000000
00000000
00000000
00000000
00030000
00000000
00000000
00000000
00000000
;
